999
DXF file: 70572132_MCS.dxf
999
Pro/ENGINEER 2016380 by Parametric Technology Corporation
  0
SECTION
  2
HEADER
  9
$ACADVER
  1
AC1027
  9
$DWGCODEPAGE
  3
ANSI_1252
  9
$EXTMAX
 10
420.0
 20
297.0
 30
0.0
  9
$EXTMIN
 10
0.0
 20
0.0
 30
0.0
  9
$LIMMIN
 10
0.0
 20
0.0
  9
$LIMMAX
 10
420.0
 20
297.0
  9
$VIEWCTR
 10
210.0
 20
148.5
  9
$VIEWSIZE
 40
297.0
  9
$CLAYER
  8
0
  9
$LTSCALE
 40
23.1
  9
$CELTYPE
  6
BYLAYER
  9
$DIMSCALE
 40
1.0
  9
$DIMASZ
 40
3.5
  9
$DIMEXO
 40
0.0
  9
$DIMDLI
 40
15.96
  9
$DIMEXE
 40
1.5
  9
$DIMCEN
 40
3.78
  9
$DIMLFAC
 40
1.0
  9
$DIMBLK
  1
_FILLED
  9
$DIMALT
 70
0
  9
$DIMALTF
 40
25.4
  9
$DIMTXT
 40
3.5
  9
$DIMTOL
 70
1
  9
$DIMLIM
 70
0
  9
$DIMTFAC
 40
1.0
  9
$DIMTP
 40
0.05
  9
$DIMTM
 40
0.05
  9
$DIMGAP
 40
0.625
  9
$DIMDSEP
 70
46
  9
$AUNITS
 70
0
  9
$PDMODE
 70
3
  9
$PDSIZE
 40
0.3125
  9
$HANDSEED
  5
2B6
  9
$TILEMODE
 70
1
  9
$MEASUREMENT
 70
1
  9
$INSUNITS
 70
4
  0
ENDSEC
  0
SECTION
  2
CLASSES
  0
CLASS
  1
ACDBDICTIONARYWDFLT
  2
AcDbDictionaryWithDefault
  3
AutoCAD 2000
 90
0
 91
1
280
0
281
0
  0
CLASS
  1
ACDBPLACEHOLDER
  2
AcDbPlaceHolder
  3
AutoCAD 2000
 90
0
 91
1
280
0
281
0
  0
CLASS
  1
LAYOUT
  2
AcDbLayout
  3
AutoCAD 2000
 90
0
 91
0
280
0
281
0
  0
ENDSEC
  0
SECTION
  2
TABLES
  0
TABLE
  2
VPORT
  5
8
100
AcDbSymbolTable
 70
2
  0
VPORT
  5
1F4
100
AcDbSymbolTableRecord
100
AcDbViewportTableRecord
  2
*ACTIVE
 70
0
 10
0.0
 20
0.0
 11
1.0
 21
1.0
 12
210.0
 22
148.5
 13
0.0
 23
0.0
 14
1.0
 24
1.0
 15
0.0
 25
0.0
 16
0.0
 26
0.0
 36
1.0
 17
0.0
 27
0.0
 37
0.0
 40
297.0
 41
1.4141414141
 42
50.0
 43
0.0
 44
0.0
 50
0.0
 51
0.0
 71
0
 72
100
 73
1
 74
1
 75
0
 76
0
 77
0
 78
0
  0
ENDTAB
  0
TABLE
  2
LTYPE
  5
5
100
AcDbSymbolTable
 70
6
  0
LTYPE
  5
14
100
AcDbSymbolTableRecord
100
AcDbLinetypeTableRecord
  2
BYBLOCK
 70
0
  3

 72
65
 73
0
 40
0.0
  0
LTYPE
  5
15
100
AcDbSymbolTableRecord
100
AcDbLinetypeTableRecord
  2
BYLAYER
 70
0
  3

 72
65
 73
0
 40
0.0
  0
LTYPE
  5
16
100
AcDbSymbolTableRecord
100
AcDbLinetypeTableRecord
  2
CONTINUOUS
 70
64
  3
Solid line
 72
65
 73
0
 40
0.0
  0
LTYPE
  5
1F5
100
AcDbSymbolTableRecord
100
AcDbLinetypeTableRecord
  2
CENTER
 70
64
  3
____ _ ____ _ ____ _ ____ _ ____ _ ____ _ ____
 72
65
 73
4
 40
0.6
 49
0.375
 74
0
 49
-0.075
 74
0
 49
0.075
 74
0
 49
-0.075
 74
0
  0
LTYPE
  5
1F6
100
AcDbSymbolTableRecord
100
AcDbLinetypeTableRecord
  2
HIDDEN
 70
64
  3
- - - - - - - - - - - - - - - - - - - -
 72
65
 73
2
 40
0.2
 49
0.1
 74
0
 49
-0.1
 74
0
  0
LTYPE
  5
1F7
100
AcDbSymbolTableRecord
100
AcDbLinetypeTableRecord
  2
PHANTOM
 70
64
  3
_____ _ _ _____ _ _ _____ _ _ _____
 72
65
 73
6
 40
0.8
 49
0.45
 74
0
 49
-0.05
 74
0
 49
0.1
 74
0
 49
-0.05
 74
0
 49
0.1
 74
0
 49
-0.05
 74
0
  0
LTYPE
  5
1F8
100
AcDbSymbolTableRecord
100
AcDbLinetypeTableRecord
  2
DOT
 70
64
  3
. . . . . . . . . . . . . . . . . . . .
 72
65
 73
2
 40
0.2
 49
0.1
 74
0
 49
-0.1
 74
0
  0
LTYPE
  5
1F9
100
AcDbSymbolTableRecord
100
AcDbLinetypeTableRecord
  2
DASHED
 70
64
  3
- - - - - - - - - - - - - - - - - - - -
 72
65
 73
2
 40
0.2
 49
0.1
 74
0
 49
-0.1
 74
0
  0
ENDTAB
  0
TABLE
  2
LAYER
  5
2
100
AcDbSymbolTable
 70
36
  0
LAYER
  5
10
100
AcDbSymbolTableRecord
100
AcDbLayerTableRecord
  2
0
 70
0
 62
7
  6
CONTINUOUS
370
-3
390
F
  0
LAYER
  5
1FA
100
AcDbSymbolTableRecord
100
AcDbLayerTableRecord
  2
DEFAULT_1
 70
0
 62
7
  6
CENTER
370
-3
390
F
  0
LAYER
  5
1FB
100
AcDbSymbolTableRecord
100
AcDbLayerTableRecord
  2
DEFAULT_2
 70
0
 62
1
  6
HIDDEN
370
-3
390
F
  0
LAYER
  5
1FC
100
AcDbSymbolTableRecord
100
AcDbLayerTableRecord
  2
DEFAULT_3
 70
0
 62
7
  6
PHANTOM
370
-3
390
F
  0
LAYER
  5
1FD
100
AcDbSymbolTableRecord
100
AcDbLayerTableRecord
  2
BG_STARTBEZUEGE
 70
0
 62
7
  6
CONTINUOUS
370
-3
390
F
  0
LAYER
  5
1FE
100
AcDbSymbolTableRecord
100
AcDbLayerTableRecord
  2
HILFEN
 70
0
 62
7
  6
CONTINUOUS
370
-3
390
F
  0
LAYER
  5
1FF
100
AcDbSymbolTableRecord
100
AcDbLayerTableRecord
  2
PLATZIERUNG
 70
0
 62
7
  6
CONTINUOUS
370
-3
390
F
  0
LAYER
  5
200
100
AcDbSymbolTableRecord
100
AcDbLayerTableRecord
  2
T_STARTBEZUEGE
 70
0
 62
7
  6
CONTINUOUS
370
-3
390
F
  0
LAYER
  5
201
100
AcDbSymbolTableRecord
100
AcDbLayerTableRecord
  2
_03_2D_ZEICHNUNG_BEMASSUNGEN
 70
0
 62
7
  6
CONTINUOUS
370
-3
390
F
  0
LAYER
  5
202
100
AcDbSymbolTableRecord
100
AcDbLayerTableRecord
  2
_04_NOTIZEN
 70
0
 62
7
  6
CONTINUOUS
370
-3
390
F
  0
LAYER
  5
203
100
AcDbSymbolTableRecord
100
AcDbLayerTableRecord
  2
_05_2D_ELEMENTE
 70
0
 62
7
  6
CONTINUOUS
370
-3
390
F
  0
LAYER
  5
204
100
AcDbSymbolTableRecord
100
AcDbLayerTableRecord
  2
_07_EINRASTLINIEN
 70
0
 62
7
  6
CONTINUOUS
370
-3
390
F
  0
LAYER
  5
205
100
AcDbSymbolTableRecord
100
AcDbLayerTableRecord
  2
_21_KURVEN
 70
0
 62
7
  6
CONTINUOUS
370
-3
390
F
  0
LAYER
  5
206
100
AcDbSymbolTableRecord
100
AcDbLayerTableRecord
  2
_26_BEZUGSACHSEN
 70
0
 62
7
  6
CONTINUOUS
370
-3
390
F
  0
LAYER
  5
207
100
AcDbSymbolTableRecord
100
AcDbLayerTableRecord
  2
_27_BEZUGSEBENEN
 70
0
 62
7
  6
CONTINUOUS
370
-3
390
F
  0
LAYER
  5
208
100
AcDbSymbolTableRecord
100
AcDbLayerTableRecord
  2
_28_BEZUGSPUNKTE
 70
0
 62
7
  6
CONTINUOUS
370
-3
390
F
  0
LAYER
  5
209
100
AcDbSymbolTableRecord
100
AcDbLayerTableRecord
  2
_29_KOORDINATENSYSTEME
 70
0
 62
7
  6
CONTINUOUS
370
-3
390
F
  0
LAYER
  5
20A
100
AcDbSymbolTableRecord
100
AcDbLayerTableRecord
  2
_30_VOLUMEN
 70
0
 62
7
  6
CONTINUOUS
370
-3
390
F
  0
ENDTAB
  0
TABLE
  2
STYLE
  5
3
100
AcDbSymbolTable
 70
1
  0
STYLE
  5
11
100
AcDbSymbolTableRecord
100
AcDbTextStyleTableRecord
  2
STANDARD
 70
0
 40
0.0
 41
0.7
 50
0.0
 71
0
 42
0.2
  3
SIMPLEX.SHX
  4

  0
STYLE
  5
20B
100
AcDbSymbolTableRecord
100
AcDbTextStyleTableRecord
  2
TEXTSTYLE_1
 70
0
 40
0.0
 41
0.8
 50
0.0
 71
0
 42
0.2
  3
gdt
  4

  0
STYLE
  5
20C
100
AcDbSymbolTableRecord
100
AcDbTextStyleTableRecord
  2
TEXTSTYLE_2
 70
0
 40
0.0
 41
0.7
 50
0.0
 71
0
 42
0.2
  3
gdt
  4

  0
ENDTAB
  0
TABLE
  2
VIEW
  5
6
100
AcDbSymbolTable
 70
0
  0
ENDTAB
  0
TABLE
  2
UCS
  5
7
100
AcDbSymbolTable
 70
0
  0
ENDTAB
  0
TABLE
  2
APPID
  5
9
100
AcDbSymbolTable
 70
1
  0
APPID
  5
20D
100
AcDbSymbolTableRecord
100
AcDbRegAppTableRecord
  2
ACAD
 70
0
  0
ENDTAB
  0
TABLE
  2
BLOCK_RECORD
  5
1
100
AcDbSymbolTable
 70
0
  0
BLOCK_RECORD
  5
20E
100
AcDbSymbolTableRecord
100
AcDbBlockTableRecord
  2
*Model_Space
  0
BLOCK_RECORD
  5
20F
100
AcDbSymbolTableRecord
100
AcDbBlockTableRecord
  2
*Paper_Space
  0
BLOCK_RECORD
  5
210
100
AcDbSymbolTableRecord
100
AcDbBlockTableRecord
  2
_FILLED
  0
BLOCK_RECORD
  5
211
100
AcDbSymbolTableRecord
100
AcDbBlockTableRecord
  2
*D0
  0
BLOCK_RECORD
  5
212
100
AcDbSymbolTableRecord
100
AcDbBlockTableRecord
  2
*D1
  0
BLOCK_RECORD
  5
213
100
AcDbSymbolTableRecord
100
AcDbBlockTableRecord
  2
*D2
  0
BLOCK_RECORD
  5
214
100
AcDbSymbolTableRecord
100
AcDbBlockTableRecord
  2
*D3
  0
ENDTAB
  0
TABLE
  2
DIMSTYLE
  5
A
100
AcDbSymbolTable
 70
1
100
AcDbDimStyleTable
 71
0
  0
DIMSTYLE
105
215
100
AcDbSymbolTableRecord
100
AcDbDimStyleTableRecord
  2
STANDARD
 70
0
  3

  4

 40
1.0
 41
3.5
 42
0.0
 43
0.38
 44
1.5
 45
0.0
 46
0.0
 47
0.05
 48
0.05
140
3.5
141
0.09
142
0.0
143
25.4
144
1.0
145
0.0
146
1.0
147
0.625
 71
1.0
 72
0.0
 73
0
 74
0
 75
0
 76
0
 77
1
 78
8
170
0
171
1
172
0
173
0
174
0
175
0
176
0
177
0
178
2
270
2
271
2
272
2
273
2
274
2
275
0
280
0
281
0
282
0
283
1
284
8
285
0
286
0
287
3
288
0
340
11
278
46
341
210
342
210
343
210
344
210
  0
DIMSTYLE
105
216
100
AcDbSymbolTableRecord
100
AcDbDimStyleTableRecord
  2
DIMSTYLE_1
 70
0
  3

  4

 40
1.0
 41
3.5
 42
0.0
 43
0.38
 44
1.5
 45
0.0
 46
0.0
 47
0.3
 48
0.3
140
3.5
141
0.09
142
0.0
143
25.4
144
1.0
145
0.0
146
1.0
147
0.875
 71
0.0
 72
0.0
 73
0
 74
0
 75
0
 76
0
 77
1
 78
8
170
0
171
1
172
0
173
0
174
0
175
0
176
0
177
0
178
2
270
2
271
2
272
2
273
2
274
2
275
0
280
0
281
0
282
0
283
1
284
8
285
0
286
0
287
3
288
0
340
11
278
46
341
210
342
210
343
210
344
210
  0
DIMSTYLE
105
217
100
AcDbSymbolTableRecord
100
AcDbDimStyleTableRecord
  2
DIMSTYLE_2
 70
0
  3

  4

 40
1.0
 41
3.5
 42
0.0
 43
0.38
 44
1.5
 45
0.0
 46
0.0
 47
0.5
 48
0.5
140
3.5
141
0.09
142
0.0
143
25.4
144
1.0
145
0.0
146
1.0
147
0.875
 71
0.0
 72
0.0
 73
0
 74
0
 75
0
 76
0
 77
1
 78
8
170
0
171
1
172
0
173
0
174
0
175
0
176
0
177
0
178
2
270
2
271
2
272
2
273
2
274
2
275
0
280
0
281
0
282
0
283
1
284
8
285
0
286
0
287
3
288
0
340
11
278
46
341
210
342
210
343
210
344
210
  0
DIMSTYLE
105
218
100
AcDbSymbolTableRecord
100
AcDbDimStyleTableRecord
  2
DIMSTYLE_3
 70
0
  3

  4

 40
1.0
 41
3.5
 42
0.0
 43
0.38
 44
1.5
 45
0.0
 46
0.0
 47
0.2
 48
0.2
140
3.5
141
0.09
142
0.0
143
25.4
144
1.0
145
0.0
146
1.0
147
0.875
 71
0.0
 72
0.0
 73
0
 74
0
 75
0
 76
0
 77
1
 78
8
170
0
171
1
172
0
173
0
174
0
175
0
176
0
177
0
178
2
270
2
271
2
272
2
273
2
274
2
275
0
280
0
281
0
282
0
283
1
284
8
285
0
286
0
287
3
288
0
340
11
278
46
341
210
342
210
343
210
344
210
  0
ENDTAB
  0
ENDSEC
  0
SECTION
  2
BLOCKS
  0
BLOCK
  5
20
100
AcDbEntity
  8
0
100
AcDbBlockBegin
  2
*Model_Space
 70
0
 10
0.0
 20
0.0
 30
0.0
  3
*Model_Space
  1

  0
ENDBLK
  5
21
100
AcDbEntity
  8
0
100
AcDbBlockEnd
  0
BLOCK
  5
1C
100
AcDbEntity
  8
0
100
AcDbBlockBegin
  2
*Paper_Space
 70
0
 10
0.0
 20
0.0
 30
0.0
  3
*Paper_Space
  1

  0
ENDBLK
  5
1D
100
AcDbEntity
  8
0
100
AcDbBlockEnd
  0
BLOCK
  5
219
100
AcDbEntity
  8
0
100
AcDbBlockBegin
  2
_FILLED
 70
64
 10
0.0
 20
0.0
  3
_FILLED
  1

  0
SOLID
  5
21A
100
AcDbEntity
  8
0
  6
BYBLOCK
 62
0
100
AcDbTrace
 10
0.0
 20
0.0
 11
-1.0
 21
0.125
 12
-1.0
 22
-0.125
 13
-1.0
 23
-0.125
  0
ENDBLK
  5
21B
100
AcDbEntity
  8
0
  6
BYBLOCK
 62
0
100
AcDbBlockEnd
  0
BLOCK
  5
21C
100
AcDbEntity
  8
_03_2D_ZEICHNUNG_BEMASSUNGEN
100
AcDbBlockBegin
 62
7
  6
CONTINUOUS
  2
*D0
 70
65
 10
0.0
 20
0.0
  3
*D0
  1

  0
TEXT
  5
21D
100
AcDbEntity
  8
_03_2D_ZEICHNUNG_BEMASSUNGEN
100
AcDbText
 62
2
  6
CONTINUOUS
 10
-197.375
 20
-4.9583333333
  7
TEXTSTYLE_2
 40
3.5
  1
n
 50
90.0
 41
1.0
 72
1
 11
-197.375
 21
-2.625
100
AcDbText
  0
TEXT
  5
21E
100
AcDbEntity
  8
_03_2D_ZEICHNUNG_BEMASSUNGEN
100
AcDbText
 62
2
  6
CONTINUOUS
 10
-197.375
 20
-0.2916666667
  7
STANDARD
 40
3.5
  1
32
 50
90.0
 41
0.75
 72
1
 11
-197.375
 21
2.3333333333
100
AcDbText
  0
LINE
  5
21F
100
AcDbEntity
  8
_03_2D_ZEICHNUNG_BEMASSUNGEN
100
AcDbLine
 62
7
  6
CONTINUOUS
 10
-187.0
 20
16.0
 11
-198.0
 21
16.0
  0
LINE
  5
220
100
AcDbEntity
  8
_03_2D_ZEICHNUNG_BEMASSUNGEN
100
AcDbLine
 62
7
  6
CONTINUOUS
 10
-187.0
 20
-16.0
 11
-198.0
 21
-16.0
  0
LINE
  5
221
100
AcDbEntity
  8
_03_2D_ZEICHNUNG_BEMASSUNGEN
100
AcDbLine
 62
7
  6
CONTINUOUS
 10
-196.5
 20
16.0
 11
-196.5
 21
-0.0
  0
LINE
  5
222
100
AcDbEntity
  8
_03_2D_ZEICHNUNG_BEMASSUNGEN
100
AcDbLine
 62
7
  6
CONTINUOUS
 10
-196.5
 20
-16.0
 11
-196.5
 21
-0.0
  0
INSERT
  5
223
100
AcDbEntity
  8
_03_2D_ZEICHNUNG_BEMASSUNGEN
100
AcDbBlockReference
 62
7
  6
CONTINUOUS
  2
_FILLED
 10
-196.5
 20
16.0
 41
3.5
 42
3.5
 43
3.5
 50
90.0
  0
INSERT
  5
224
100
AcDbEntity
  8
_03_2D_ZEICHNUNG_BEMASSUNGEN
100
AcDbBlockReference
 62
7
  6
CONTINUOUS
  2
_FILLED
 10
-196.5
 20
-16.0
 41
3.5
 42
3.5
 43
3.5
 50
270.0
  0
ENDBLK
  5
225
100
AcDbEntity
  8
0
  6
BYBLOCK
 62
0
100
AcDbBlockEnd
  0
BLOCK
  5
226
100
AcDbEntity
  8
_03_2D_ZEICHNUNG_BEMASSUNGEN
100
AcDbBlockBegin
 62
7
  6
CONTINUOUS
  2
*D1
 70
65
 10
0.0
 20
0.0
  3
*D1
  1

  0
TEXT
  5
227
100
AcDbEntity
  8
_03_2D_ZEICHNUNG_BEMASSUNGEN
100
AcDbText
 62
2
  6
CONTINUOUS
 10
-66.5
 20
36.9082540421
  7
STANDARD
 40
3.5
  1
250
 41
0.7619047619
 72
1
 11
-62.5
 21
36.9082540421
100
AcDbText
  0
LINE
  5
228
100
AcDbEntity
  8
_03_2D_ZEICHNUNG_BEMASSUNGEN
100
AcDbLine
 62
7
  6
CONTINUOUS
 10
-187.5
 20
-23.3654476657
 11
-187.5
 21
37.5332540421
  0
LINE
  5
229
100
AcDbEntity
  8
_03_2D_ZEICHNUNG_BEMASSUNGEN
100
AcDbLine
 62
7
  6
CONTINUOUS
 10
62.5
 20
-23.3654476657
 11
62.5
 21
37.5332540421
  0
LINE
  5
22A
100
AcDbEntity
  8
_03_2D_ZEICHNUNG_BEMASSUNGEN
100
AcDbLine
 62
7
  6
CONTINUOUS
 10
-187.5
 20
36.0332540421
 11
-62.5
 21
36.0332540421
  0
LINE
  5
22B
100
AcDbEntity
  8
_03_2D_ZEICHNUNG_BEMASSUNGEN
100
AcDbLine
 62
7
  6
CONTINUOUS
 10
62.5
 20
36.0332540421
 11
-62.5
 21
36.0332540421
  0
INSERT
  5
22C
100
AcDbEntity
  8
_03_2D_ZEICHNUNG_BEMASSUNGEN
100
AcDbBlockReference
 62
7
  6
CONTINUOUS
  2
_FILLED
 10
-187.5
 20
36.0332540421
 41
3.5
 42
3.5
 43
3.5
 50
180.0
  0
INSERT
  5
22D
100
AcDbEntity
  8
_03_2D_ZEICHNUNG_BEMASSUNGEN
100
AcDbBlockReference
 62
7
  6
CONTINUOUS
  2
_FILLED
 10
62.5
 20
36.0332540421
 41
3.5
 42
3.5
 43
3.5
  0
ENDBLK
  5
22E
100
AcDbEntity
  8
0
  6
BYBLOCK
 62
0
100
AcDbBlockEnd
  0
BLOCK
  5
22F
100
AcDbEntity
  8
_03_2D_ZEICHNUNG_BEMASSUNGEN
100
AcDbBlockBegin
 62
7
  6
CONTINUOUS
  2
*D2
 70
65
 10
0.0
 20
0.0
  3
*D2
  1

  0
TEXT
  5
230
100
AcDbEntity
  8
_03_2D_ZEICHNUNG_BEMASSUNGEN
100
AcDbText
 62
2
  6
CONTINUOUS
 10
34.875
 20
27.9082540421
  7
STANDARD
 40
3.5
  1
50
 41
0.75
 72
1
 11
37.5
 21
27.9082540421
100
AcDbText
  0
LINE
  5
231
100
AcDbEntity
  8
_03_2D_ZEICHNUNG_BEMASSUNGEN
100
AcDbLine
 62
7
  6
CONTINUOUS
 10
62.5
 20
-23.3654476657
 11
62.5
 21
28.5332540421
  0
LINE
  5
232
100
AcDbEntity
  8
_03_2D_ZEICHNUNG_BEMASSUNGEN
100
AcDbLine
 62
7
  6
CONTINUOUS
 10
12.5
 20
-23.3654476657
 11
12.5
 21
28.5332540421
  0
LINE
  5
233
100
AcDbEntity
  8
_03_2D_ZEICHNUNG_BEMASSUNGEN
100
AcDbLine
 62
7
  6
CONTINUOUS
 10
62.5
 20
27.0332540421
 11
37.5
 21
27.0332540421
  0
LINE
  5
234
100
AcDbEntity
  8
_03_2D_ZEICHNUNG_BEMASSUNGEN
100
AcDbLine
 62
7
  6
CONTINUOUS
 10
12.5
 20
27.0332540421
 11
37.5
 21
27.0332540421
  0
INSERT
  5
235
100
AcDbEntity
  8
_03_2D_ZEICHNUNG_BEMASSUNGEN
100
AcDbBlockReference
 62
7
  6
CONTINUOUS
  2
_FILLED
 10
62.5
 20
27.0332540421
 41
3.5
 42
3.5
 43
3.5
  0
INSERT
  5
236
100
AcDbEntity
  8
_03_2D_ZEICHNUNG_BEMASSUNGEN
100
AcDbBlockReference
 62
7
  6
CONTINUOUS
  2
_FILLED
 10
12.5
 20
27.0332540421
 41
3.5
 42
3.5
 43
3.5
 50
180.0
  0
ENDBLK
  5
237
100
AcDbEntity
  8
0
  6
BYBLOCK
 62
0
100
AcDbBlockEnd
  0
BLOCK
  5
238
100
AcDbEntity
  8
_03_2D_ZEICHNUNG_BEMASSUNGEN
100
AcDbBlockBegin
 62
7
  6
CONTINUOUS
  2
*D3
 70
65
 10
0.0
 20
0.0
  3
*D3
  1

  0
TEXT
  5
239
100
AcDbEntity
  8
_03_2D_ZEICHNUNG_BEMASSUNGEN
100
AcDbText
 62
2
  6
CONTINUOUS
 10
70.6648100979
 20
8.25
  7
STANDARD
 40
3.5
  1
22
 50
90.0
 41
0.7857142857
 72
1
 11
70.6648100979
 21
11.0
100
AcDbText
  0
LINE
  5
23A
100
AcDbEntity
  8
_03_2D_ZEICHNUNG_BEMASSUNGEN
100
AcDbLine
 62
7
  6
CONTINUOUS
 10
66.5854763611
 20
-0.0
 11
73.0398100979
 21
-0.0
  0
LINE
  5
23B
100
AcDbEntity
  8
_03_2D_ZEICHNUNG_BEMASSUNGEN
100
AcDbLine
 62
7
  6
CONTINUOUS
 10
62.5
 20
22.0
 11
73.0398100979
 21
22.0
  0
LINE
  5
23C
100
AcDbEntity
  8
_03_2D_ZEICHNUNG_BEMASSUNGEN
100
AcDbLine
 62
7
  6
CONTINUOUS
 10
71.5398100979
 20
-0.0
 11
71.5398100979
 21
-6.0
  0
LINE
  5
23D
100
AcDbEntity
  8
_03_2D_ZEICHNUNG_BEMASSUNGEN
100
AcDbLine
 62
7
  6
CONTINUOUS
 10
71.5398100979
 20
-6.0
 11
71.5398100979
 21
11.0
  0
LINE
  5
23E
100
AcDbEntity
  8
_03_2D_ZEICHNUNG_BEMASSUNGEN
100
AcDbLine
 62
7
  6
CONTINUOUS
 10
71.5398100979
 20
22.0
 11
71.5398100979
 21
28.0
  0
LINE
  5
23F
100
AcDbEntity
  8
_03_2D_ZEICHNUNG_BEMASSUNGEN
100
AcDbLine
 62
7
  6
CONTINUOUS
 10
71.5398100979
 20
28.0
 11
71.5398100979
 21
11.0
  0
INSERT
  5
240
100
AcDbEntity
  8
_03_2D_ZEICHNUNG_BEMASSUNGEN
100
AcDbBlockReference
 62
7
  6
CONTINUOUS
  2
_FILLED
 10
71.5398100979
 20
-0.0
 41
3.5
 42
3.5
 43
3.5
 50
90.0
  0
INSERT
  5
241
100
AcDbEntity
  8
_03_2D_ZEICHNUNG_BEMASSUNGEN
100
AcDbBlockReference
 62
7
  6
CONTINUOUS
  2
_FILLED
 10
71.5398100979
 20
22.0
 41
3.5
 42
3.5
 43
3.5
 50
270.0
  0
ENDBLK
  5
242
100
AcDbEntity
  8
0
  6
BYBLOCK
 62
0
100
AcDbBlockEnd
  0
ENDSEC
  0
SECTION
  2
ENTITIES
  0
DIMENSION
  5
243
100
AcDbEntity
  8
_03_2D_ZEICHNUNG_BEMASSUNGEN
100
AcDbDimension
 62
7
  6
CONTINUOUS
  2
*D0
 10
-196.5
 20
-16.0
 11
-196.5
 21
-0.0
 70
160
 71
2
 42
32.0
  1
%%c<>
  3
DIMSTYLE_1
100
AcDbAlignedDimension
 13
-187.0
 23
16.0
 14
-187.0
 24
-16.0
 50
270.0
100
AcDbRotatedDimension
  0
DIMENSION
  5
244
100
AcDbEntity
  8
_03_2D_ZEICHNUNG_BEMASSUNGEN
100
AcDbDimension
 62
7
  6
CONTINUOUS
  2
*D1
 10
62.5
 20
36.0332540421
 11
-63.0
 21
36.0332540421
 70
160
 71
2
 42
250.0
  3
DIMSTYLE_2
100
AcDbAlignedDimension
 13
-187.5
 23
-23.3654476657
 14
62.5
 24
-23.3654476657
100
AcDbRotatedDimension
  0
DIMENSION
  5
245
100
AcDbEntity
  8
_03_2D_ZEICHNUNG_BEMASSUNGEN
100
AcDbDimension
 62
7
  6
CONTINUOUS
  2
*D2
 10
12.5
 20
27.0332540421
 11
36.9999998474
 21
27.0332540421
 70
160
 71
2
 42
50.0
  3
DIMSTYLE_1
100
AcDbAlignedDimension
 13
62.5
 23
-23.3654476657
 14
12.5
 24
-23.3654476657
 50
180.0
100
AcDbRotatedDimension
  0
DIMENSION
  5
246
100
AcDbEntity
  8
_03_2D_ZEICHNUNG_BEMASSUNGEN
100
AcDbDimension
 62
7
  6
CONTINUOUS
  2
*D3
 10
71.5398100979
 20
22.0
 11
71.5398100979
 21
10.4999994725
 70
160
 71
2
 42
22.0
  3
DIMSTYLE_3
100
AcDbAlignedDimension
 13
66.5854763611
 23
-0.0
 14
62.5
 24
22.0
 50
90.0
100
AcDbRotatedDimension
  0
LINE
  5
247
100
AcDbEntity
  8
0
100
AcDbLine
 62
4
  6
CONTINUOUS
 10
-187.5
 20
-15.4998947484
 11
-187.5
 21
15.4998953973
  0
LINE
  5
248
100
AcDbEntity
  8
0
100
AcDbLine
 62
4
  6
CONTINUOUS
 10
-187.0
 20
-16.0
 11
-187.0
 21
-7.7459666924
  0
LINE
  5
249
100
AcDbEntity
  8
0
100
AcDbLine
 62
4
  6
CONTINUOUS
 10
-187.0
 20
7.7459666924
 11
-187.0
 21
16.0
  0
LINE
  5
24A
100
AcDbEntity
  8
_30_VOLUMEN
100
AcDbLine
 62
4
  6
CONTINUOUS
 10
-187.5
 20
-15.5
 11
-187.0
 21
-16.0
  0
LINE
  5
24B
100
AcDbEntity
  8
_30_VOLUMEN
100
AcDbLine
 62
4
  6
CONTINUOUS
 10
-187.5
 20
15.5
 11
-187.0
 21
16.0
  0
LINE
  5
24C
100
AcDbEntity
  8
_30_VOLUMEN
100
AcDbLine
 62
4
  6
CONTINUOUS
 10
-187.0
 20
-16.0
 11
12.5
 21
-16.0
  0
LINE
  5
24D
100
AcDbEntity
  8
0
100
AcDbLine
 62
4
  6
CONTINUOUS
 10
38.6580589411
 20
-15.9754998411
 11
46.3900686594
 21
-15.9754998411
  0
LINE
  5
24E
100
AcDbEntity
  8
_30_VOLUMEN
100
AcDbLine
 62
4
  6
CONTINUOUS
 10
12.5
 20
-15.75
 11
38.5
 21
-15.75
  0
LINE
  5
24F
100
AcDbEntity
  8
0
100
AcDbLine
 62
4
  6
CONTINUOUS
 10
-187.0
 20
-7.7459666924
 11
12.5
 21
-7.7459666924
  0
LINE
  5
250
100
AcDbEntity
  8
0
100
AcDbLine
 62
4
  6
CONTINUOUS
 10
12.5
 20
-7.2154348448
 11
26.8354564591
 21
-7.2154348448
  0
LINE
  5
251
100
AcDbEntity
  8
_26_BEZUGSACHSEN
100
AcDbLine
 62
7
  6
CENTER
 10
-190.5
 20
-0.0
 11
66.5854763611
 21
-0.0
  0
LINE
  5
252
100
AcDbEntity
  8
0
100
AcDbLine
 62
4
  6
CONTINUOUS
 10
12.5
 20
7.2154348448
 11
21.1459335456
 21
7.2154348448
  0
LINE
  5
253
100
AcDbEntity
  8
0
100
AcDbLine
 62
4
  6
CONTINUOUS
 10
-187.0
 20
7.7459666924
 11
12.5
 21
7.7459666924
  0
LINE
  5
254
100
AcDbEntity
  8
_21_KURVEN
100
AcDbLine
 62
7
  6
CONTINUOUS
 10
62.5370747169
 20
22.0305702722
 11
56.0846467679
 21
21.5619955569
  0
LINE
  5
255
100
AcDbEntity
  8
_30_VOLUMEN
100
AcDbLine
 62
4
  6
CONTINUOUS
 10
56.1195892139
 20
21.5645330741
 11
62.0647387727
 21
21.99626928
  0
LINE
  5
256
100
AcDbEntity
  8
_30_VOLUMEN
100
AcDbLine
 62
4
  6
CONTINUOUS
 10
12.5
 20
15.75
 11
38.5
 21
15.75
  0
LINE
  5
257
100
AcDbEntity
  8
_30_VOLUMEN
100
AcDbLine
 62
4
  6
CONTINUOUS
 10
-187.0
 20
16.0
 11
12.5
 21
16.0
  0
LINE
  5
258
100
AcDbEntity
  8
_30_VOLUMEN
100
AcDbLine
 62
4
  6
CONTINUOUS
 10
42.3161326585
 20
21.2
 11
55.279816362
 21
21.2
  0
LINE
  5
259
100
AcDbEntity
  8
_21_KURVEN
100
AcDbLine
 62
7
  6
CONTINUOUS
 10
62.5
 20
22.0
 11
38.5
 21
22.0
  0
LINE
  5
25A
100
AcDbEntity
  8
_21_KURVEN
100
AcDbLine
 62
7
  6
CONTINUOUS
 10
56.0839932687
 20
21.5644332267
 11
50.2106864993
 21
18.9227450659
  0
LINE
  5
25B
100
AcDbEntity
  8
_30_VOLUMEN
100
AcDbLine
 62
4
  6
CONTINUOUS
 10
50.2106864993
 20
18.9227450659
 11
56.0528571881
 21
21.5476972817
  0
LINE
  5
25C
100
AcDbEntity
  8
0
100
AcDbLine
 62
4
  6
CONTINUOUS
 10
38.6580591754
 20
-15.9754998411
 11
38.6577328306
 21
-15.9752660854
  0
LINE
  5
25D
100
AcDbEntity
  8
0
100
AcDbLine
 62
4
  6
CONTINUOUS
 10
12.5
 20
15.9999877303
 11
12.5
 21
7.2154348448
  0
LINE
  5
25E
100
AcDbEntity
  8
0
100
AcDbLine
 62
4
  6
CONTINUOUS
 10
12.5
 20
-7.2154348448
 11
12.5
 21
-15.9999895302
  0
LINE
  5
25F
100
AcDbEntity
  8
_30_VOLUMEN
100
AcDbLine
 62
4
  6
CONTINUOUS
 10
38.5
 20
15.75
 11
42.3161310832
 21
21.2
  0
LINE
  5
260
100
AcDbEntity
  8
_21_KURVEN
100
AcDbLine
 62
7
  6
CONTINUOUS
 10
53.9277354032
 20
13.5836715699
 11
59.2362313862
 21
9.8060178041
  0
LINE
  5
261
100
AcDbEntity
  8
_30_VOLUMEN
100
AcDbLine
 62
4
  6
CONTINUOUS
 10
58.8468372608
 20
10.08614229
 11
53.9277354032
 21
13.5836715699
  0
LINE
  5
262
100
AcDbEntity
  8
_30_VOLUMEN
100
AcDbLine
 62
4
  6
CONTINUOUS
 10
38.5
 20
-15.75
 11
38.6577330111
 21
-15.9752660854
  0
LINE
  5
263
100
AcDbEntity
  8
_30_VOLUMEN
100
AcDbLine
 62
4
  6
CONTINUOUS
 10
50.4919496515
 20
18.9931011425
 11
50.3209202901
 21
18.7644080823
  0
LINE
  5
264
100
AcDbEntity
  8
_30_VOLUMEN
100
AcDbLine
 62
7
  6
CONTINUOUS
 10
50.4863787401
 20
18.5310640172
 11
50.4848225292
 21
18.5289831193
  0
LINE
  5
265
100
AcDbEntity
  8
_30_VOLUMEN
100
AcDbLine
 62
7
  6
CONTINUOUS
 10
53.9094020749
 20
13.6143212906
 11
53.907845864
 21
13.6122403928
  0
LINE
  5
266
100
AcDbEntity
  8
_30_VOLUMEN
100
AcDbLine
 62
7
  6
CONTINUOUS
 10
53.9582533082
 20
13.564976528
 11
53.956273492
 21
13.5623292034
  0
LINE
  5
267
100
AcDbEntity
  8
_21_KURVEN
100
AcDbLine
 62
7
  6
CONTINUOUS
 10
57.3289093278
 20
16.920672304
 11
56.8361438734
 21
16.2617676643
  0
LINE
  5
268
100
AcDbEntity
  8
_30_VOLUMEN
100
AcDbLine
 62
7
  6
CONTINUOUS
 10
58.8468372608
 20
10.08614229
 11
58.3540718063
 21
9.4272376503
  0
LINE
  5
269
100
AcDbEntity
  8
_30_VOLUMEN
100
AcDbLine
 62
4
  6
CONTINUOUS
 10
59.3953645721
 20
10.167748688
 11
58.9025991177
 21
9.5088440482
  0
LINE
  5
26A
100
AcDbEntity
  8
0
100
AcDbLine
 62
4
  6
CONTINUOUS
 10
38.5
 20
15.75
 11
38.5
 21
15.4213971741
  0
LINE
  5
26B
100
AcDbEntity
  8
0
100
AcDbLine
 62
4
  6
CONTINUOUS
 10
38.5
 20
-13.3033961814
 11
38.5
 21
-15.75
  0
LINE
  5
26C
100
AcDbEntity
  8
_30_VOLUMEN
100
AcDbLine
 62
4
  6
CONTINUOUS
 10
59.3942840656
 20
10.168552641
 11
59.4356104706
 21
10.2346836149
  0
LINE
  5
26D
100
AcDbEntity
  8
_30_VOLUMEN
100
AcDbLine
 62
4
  6
CONTINUOUS
 10
50.2106864993
 20
18.9227450659
 11
53.9277354032
 21
13.5836715699
  0
LINE
  5
26E
100
AcDbEntity
  8
_21_KURVEN
100
AcDbLine
 62
7
  6
CONTINUOUS
 10
50.2106864993
 20
18.9227450659
 11
53.9277354032
 21
13.5836715699
  0
LINE
  5
26F
100
AcDbEntity
  8
_30_VOLUMEN
100
AcDbLine
 62
7
  6
CONTINUOUS
 10
47.3193578079
 20
-14.0006598763
 11
38.8302095726
 21
15.9242390337
  0
LINE
  5
270
100
AcDbEntity
  8
_30_VOLUMEN
100
AcDbLine
 62
4
  6
CONTINUOUS
 10
58.701119996
 20
10.1868159746
 11
47.3193578079
 21
-14.0006598763
  0
LINE
  5
271
100
AcDbEntity
  8
0
100
AcDbLine
 62
4
  6
CONTINUOUS
 10
46.3900660573
 20
-15.9755053709
 11
47.3193578079
 21
-14.0006598763
  0
LINE
  5
272
100
AcDbEntity
  8
_30_VOLUMEN
100
AcDbLine
 62
4
  6
CONTINUOUS
 10
61.9577366946
 20
15.5831625474
 11
59.4356104706
 21
10.2346836149
  0
LINE
  5
273
100
AcDbEntity
  8
_21_KURVEN
100
AcDbLine
 62
7
  6
CONTINUOUS
 10
59.2352301673
 20
9.8097525309
 11
61.9725604191
 21
15.6145980789
  0
LINE
  5
274
100
AcDbEntity
  8
_21_KURVEN
100
AcDbLine
 62
7
  6
CONTINUOUS
 10
62.5
 20
22.0
 11
62.5
 21
-0.0
  0
LINE
  5
275
100
AcDbEntity
  8
_30_VOLUMEN
100
AcDbLine
 62
4
  6
CONTINUOUS
 10
62.4957506764
 20
21.5609029922
 11
61.975617487
 21
15.6493431025
  0
LINE
  5
276
100
AcDbEntity
  8
_21_KURVEN
100
AcDbLine
 62
7
  6
CONTINUOUS
 10
61.9725604191
 20
15.6145980789
 11
62.5370747169
 21
22.0305702722
  0
LINE
  5
277
100
AcDbEntity
  8
_21_KURVEN
100
AcDbLine
 62
7
  6
CONTINUOUS
 10
56.8178037022
 20
15.0779097743
 11
56.7493323026
 21
14.7755364304
  0
LINE
  5
278
100
AcDbEntity
  8
_21_KURVEN
100
AcDbLine
 62
7
  6
CONTINUOUS
 10
56.8361438734
 20
16.2617676643
 11
56.546041411
 21
15.1880377337
  0
LINE
  5
279
100
AcDbEntity
  8
_21_KURVEN
100
AcDbLine
 62
7
  6
CONTINUOUS
 10
56.7493323026
 20
14.7755364304
 11
57.3289093278
 21
16.920672304
  0
ARC
  5
27A
100
AcDbEntity
  8
_30_VOLUMEN
100
AcDbCircle
 62
4
  6
CONTINUOUS
 10
359.4201965055
 20
-195.9849127485
 40
384.2960165428
100
AcDbArc
 50
145.5872883417
 51
146.5353996596
  0
ARC
  5
27B
100
AcDbEntity
  8
_26_BEZUGSACHSEN
100
AcDbCircle
 62
4
  6
CONTINUOUS
 10
170.2448511559
 20
-70.7338542625
 40
157.4148441418
100
AcDbArc
 50
146.5981455731
 51
146.817105421
  0
ARC
  5
27C
100
AcDbEntity
  8
0
100
AcDbCircle
 62
4
  6
CONTINUOUS
 10
147.7430439608
 20
50.9324222505
 40
126.7291719512
100
AcDbArc
 50
210.4558822777
 51
210.6116615958
  0
ARC
  5
27D
100
AcDbEntity
  8
0
100
AcDbCircle
 62
4
  6
CONTINUOUS
 10
-163.1943660461
 20
3.7963428696
 40
26.4562491289
100
AcDbArc
 50
203.2617115426
 51
205.8667153736
  0
ARC
  5
27E
100
AcDbEntity
  8
0
100
AcDbCircle
 62
4
  6
CONTINUOUS
 10
-163.1943660461
 20
-3.7963428696
 40
26.4562491289
100
AcDbArc
 50
154.1332846264
 51
156.7382884574
  0
ARC
  5
27F
100
AcDbEntity
  8
_30_VOLUMEN
100
AcDbCircle
 62
4
  6
CONTINUOUS
 10
56.8872376319
 20
16.2607449855
 40
1.8641208939
100
AcDbArc
 50
335.2823416787
 51
344.8873394284
  0
ARC
  5
280
100
AcDbEntity
  8
_30_VOLUMEN
100
AcDbCircle
 62
4
  6
CONTINUOUS
 10
56.811994692
 20
16.3254205984
 40
1.8470068555
100
AcDbArc
 50
121.2284308605
 51
131.6303603874
  0
ARC
  5
281
100
AcDbEntity
  8
_30_VOLUMEN
100
AcDbCircle
 62
4
  6
CONTINUOUS
 10
54.0754331261
 20
13.7299206234
 40
0.2023104439
100
AcDbArc
 50
214.8476147961
 51
234.5263403639
  0
ARC
  5
282
100
AcDbEntity
  8
_30_VOLUMEN
100
AcDbCircle
 62
4
  6
CONTINUOUS
 10
56.1340090115
 20
21.366757548
 40
0.1983048302
100
AcDbArc
 50
94.1543842894
 51
114.1563273914
  0
ARC
  5
283
100
AcDbEntity
  8
_30_VOLUMEN
100
AcDbCircle
 62
4
  6
CONTINUOUS
 10
61.7818002702
 20
15.6661192558
 40
0.1945133438
100
AcDbArc
 50
334.7554072639
 51
354.9405570964
  0
SPLINE
  5
284
100
AcDbEntity
  8
_30_VOLUMEN
100
AcDbSpline
 62
4
  6
CONTINUOUS
 70
0
 71
3
 72
8
 73
4
 74
0
 42
0.0000001
 43
0.0000001
 44
0.0000000001
 40
0.0
 40
0.0
 40
0.0
 40
0.0
 40
1.0
 40
1.0
 40
1.0
 40
1.0
 10
50.6441400462
 20
19.1149716299
 30
0.0
 10
50.5848772419
 20
19.088316484
 30
0.0
 10
50.5311674991
 20
19.0449133643
 30
0.0
 10
50.4920430303
 20
18.9930302965
 30
0.0
  0
SPLINE
  5
285
100
AcDbEntity
  8
_30_VOLUMEN
100
AcDbSpline
 62
4
  6
CONTINUOUS
 70
0
 71
3
 72
9
 73
5
 74
0
 42
0.0000001
 43
0.0000001
 44
0.0000000001
 40
0.0
 40
0.0
 40
0.0
 40
0.0
 40
0.4979301728
 40
1.0
 40
1.0
 40
1.0
 40
1.0
 10
62.4957506764
 20
21.5609029922
 30
0.0
 10
62.5007628657
 20
21.6178688967
 30
0.0
 10
62.4849021626
 20
21.7357733399
 30
0.0
 10
62.4213527092
 20
21.8362526084
 30
0.0
 10
62.3807853709
 20
21.8772297863
 30
0.0
  0
SPLINE
  5
286
100
AcDbEntity
  8
_30_VOLUMEN
100
AcDbSpline
 62
4
  6
CONTINUOUS
 70
0
 71
3
 72
9
 73
5
 74
0
 42
0.0000001
 43
0.0000001
 44
0.0000000001
 40
0.0
 40
0.0
 40
0.0
 40
0.0
 40
0.5014611801
 40
1.0
 40
1.0
 40
1.0
 40
1.0
 10
62.3807853709
 20
21.8772297863
 30
0.0
 10
62.3401412558
 20
21.9182845167
 30
0.0
 10
62.2399968342
 20
21.9829879697
 30
0.0
 10
62.1220217945
 20
22.0004291677
 30
0.0
 10
62.0647387727
 20
21.99626928
 30
0.0
  0
SPLINE
  5
287
100
AcDbEntity
  8
_30_VOLUMEN
100
AcDbSpline
 62
4
  6
CONTINUOUS
 70
0
 71
3
 72
13
 73
9
 74
0
 42
0.0000001
 43
0.0000001
 44
0.0000000001
 40
0.0
 40
0.0
 40
0.0
 40
0.0
 40
0.2505827095
 40
0.5006949563
 40
0.6261180584
 40
0.7510606269
 40
0.8756504234
 40
1.0
 40
1.0
 40
1.0
 40
1.0
 10
56.8178037022
 20
15.0779097743
 30
0.0
 10
56.5236944423
 20
15.160631003
 30
0.0
 10
55.967502548
 20
15.4729416126
 30
0.0
 10
55.5349783424
 20
16.1394946122
 30
0.0
 10
55.4035998601
 20
16.7406343849
 30
0.0
 10
55.4158115108
 20
17.2023848805
 30
0.0
 10
55.539536358
 20
17.6456884169
 30
0.0
 10
55.6919199392
 20
17.9124142846
 30
0.0
 10
55.7828152814
 20
18.0337580267
 30
0.0
  0
SPLINE
  5
288
100
AcDbEntity
  8
_30_VOLUMEN
100
AcDbSpline
 62
4
  6
CONTINUOUS
 70
0
 71
3
 72
11
 73
7
 74
0
 42
0.0000001
 43
0.0000001
 44
0.0000000001
 40
0.0
 40
0.0
 40
0.0
 40
0.0
 40
0.2511684833
 40
0.501993254
 40
0.7512703686
 40
1.0
 40
1.0
 40
1.0
 40
1.0
 10
56.8178037022
 20
15.0779097743
 30
0.0
 10
56.9992258712
 20
15.0268829392
 30
0.0
 10
57.3793889083
 20
14.9790219911
 30
0.0
 10
57.9429573103
 20
15.0760943588
 30
0.0
 10
58.4507815099
 20
15.335780276
 30
0.0
 10
58.7217042071
 20
15.6028447814
 30
0.0
 10
58.8335945124
 20
15.7522164436
 30
0.0
  0
SPLINE
  5
289
100
AcDbEntity
  8
_30_VOLUMEN
100
AcDbSpline
 62
4
  6
CONTINUOUS
 70
0
 71
3
 72
9
 73
5
 74
0
 42
0.0000001
 43
0.0000001
 44
0.0000000001
 40
0.0
 40
0.0
 40
0.0
 40
0.0
 40
0.4980245583
 40
1.0
 40
1.0
 40
1.0
 40
1.0
 10
58.902414684
 20
9.5089736546
 30
0.0
 10
58.8540061429
 20
9.4446607293
 30
0.0
 10
58.7125425547
 20
9.3431177878
 30
0.0
 10
58.5387161212
 20
9.3474850394
 30
0.0
 10
58.461693046
 20
9.3729840327
 30
0.0
  0
SPLINE
  5
28A
100
AcDbEntity
  8
_30_VOLUMEN
100
AcDbSpline
 62
4
  6
CONTINUOUS
 70
0
 71
3
 72
8
 73
4
 74
0
 42
0.0000001
 43
0.0000001
 44
0.0000000001
 40
0.0
 40
0.0
 40
0.0
 40
0.0
 40
1.0
 40
1.0
 40
1.0
 40
1.0
 10
58.461693046
 20
9.3729840327
 30
0.0
 10
58.4235543665
 20
9.3856100922
 30
0.0
 10
58.3868041525
 20
9.4039445233
 30
0.0
 10
58.3540718063
 20
9.4272376503
 30
0.0
  0
SPLINE
  5
28B
100
AcDbEntity
  8
_30_VOLUMEN
100
AcDbSpline
 62
4
  6
CONTINUOUS
 70
0
 71
3
 72
9
 73
5
 74
0
 42
0.0000001
 43
0.0000001
 44
0.0000000001
 40
0.0
 40
0.0
 40
0.0
 40
0.0
 40
0.4986196845
 40
1.0
 40
1.0
 40
1.0
 40
1.0
 10
55.8544114247
 20
17.9048092809
 30
0.0
 10
56.0730658596
 20
18.0373053325
 30
0.0
 10
56.5723235346
 20
18.2132799486
 30
0.0
 10
57.0997706639
 20
18.1741361401
 30
0.0
 10
57.347249499
 20
18.104530194
 30
0.0
  0
SPLINE
  5
28C
100
AcDbEntity
  8
_30_VOLUMEN
100
AcDbSpline
 62
4
  6
CONTINUOUS
 70
0
 71
3
 72
12
 73
8
 74
0
 42
0.0000001
 43
0.0000001
 44
0.0000000001
 40
0.0
 40
0.0
 40
0.0
 40
0.0
 40
0.1244782563
 40
0.2492884786
 40
0.4987492752
 40
0.7494463153
 40
1.0
 40
1.0
 40
1.0
 40
1.0
 10
58.6868879866
 20
15.7747354099
 30
0.0
 10
58.7189683639
 20
15.8934716007
 30
0.0
 10
58.7599139156
 20
16.1383938965
 30
0.0
 10
58.7431023932
 20
16.6334389516
 30
0.0
 10
58.5396189205
 20
17.2348105184
 30
0.0
 10
58.0406162192
 20
17.8073500082
 30
0.0
 10
57.5855679189
 20
18.037500708
 30
0.0
 10
57.347249499
 20
18.104530194
 30
0.0
  0
SPLINE
  5
28D
100
AcDbEntity
  8
_30_VOLUMEN
100
AcDbSpline
 62
4
  6
CONTINUOUS
 70
0
 71
3
 72
15
 73
11
 74
0
 42
0.0000001
 43
0.0000001
 44
0.0000000001
 40
0.0
 40
0.0
 40
0.0
 40
0.0
 40
0.1258879401
 40
0.2517476031
 40
0.3770770555
 40
0.5016813929
 40
0.6257907199
 40
0.7499287226
 40
0.8746020031
 40
1.0
 40
1.0
 40
1.0
 40
1.0
 10
57.908486353
 20
19.0658081776
 30
0.0
 10
58.1902378039
 20
18.9865627088
 30
0.0
 10
58.7282276185
 20
18.7149389343
 30
0.0
 10
59.3173849927
 20
18.0373322909
 30
0.0
 10
59.6065751216
 20
17.1889288781
 30
0.0
 10
59.548816856
 20
16.2982257526
 30
0.0
 10
59.1518736516
 20
15.5014816569
 30
0.0
 10
58.4758141811
 20
14.9219318471
 30
0.0
 10
57.6269250613
 20
14.6478328745
 30
0.0
 10
57.0299872052
 20
14.696599377
 30
0.0
 10
56.7493323026
 20
14.7755364304
 30
0.0
  0
SPLINE
  5
28E
100
AcDbEntity
  8
_30_VOLUMEN
100
AcDbSpline
 62
4
  6
CONTINUOUS
 70
0
 71
3
 72
11
 73
7
 74
0
 42
0.0000001
 43
0.0000001
 44
0.0000000001
 40
0.0
 40
0.0
 40
0.0
 40
0.0
 40
0.2510051455
 40
0.502027258
 40
0.7511122759
 40
1.0
 40
1.0
 40
1.0
 40
1.0
 10
58.8468372608
 20
10.08614229
 30
0.0
 10
58.8884244243
 20
10.0565478615
 30
0.0
 10
58.9840452678
 20
10.0132544283
 30
0.0
 10
59.1401924942
 20
10.0053253739
 30
0.0
 10
59.2875348185
 20
10.0573386763
 30
0.0
 10
59.3647431611
 20
10.1274414003
 30
0.0
 10
59.3951801384
 20
10.1678782943
 30
0.0
  0
SPLINE
  5
28F
100
AcDbEntity
  8
_30_VOLUMEN
100
AcDbSpline
 62
4
  6
CONTINUOUS
 70
0
 71
3
 72
9
 73
5
 74
0
 42
0.0000001
 43
0.0000001
 44
0.0000000001
 40
0.0
 40
0.0
 40
0.0
 40
0.0
 40
0.4979043951
 40
1.0
 40
1.0
 40
1.0
 40
1.0
 10
50.4920430303
 20
18.9930302965
 30
0.0
 10
50.4435158859
 20
18.9286783142
 30
0.0
 10
50.3870973528
 20
18.7634582022
 30
0.0
 10
50.4399400576
 20
18.5977673471
 30
0.0
 10
50.4863787401
 20
18.5310640172
 30
0.0
  0
SPLINE
  5
290
100
AcDbEntity
  8
_30_VOLUMEN
100
AcDbSpline
 62
4
  6
CONTINUOUS
 70
0
 71
3
 72
11
 73
7
 74
0
 42
0.0000001
 43
0.0000001
 44
0.0000000001
 40
0.0
 40
0.0
 40
0.0
 40
0.0
 40
0.2487296314
 40
0.498006746
 40
0.7488315167
 40
1.0
 40
1.0
 40
1.0
 40
1.0
 10
55.7828152814
 20
18.0337580267
 30
0.0
 10
55.8947055867
 20
18.1831296889
 30
0.0
 10
56.1656282839
 20
18.4501941943
 30
0.0
 10
56.6734524835
 20
18.7098801115
 30
0.0
 10
57.2370208855
 20
18.8069524792
 30
0.0
 10
57.6171839227
 20
18.7590915311
 30
0.0
 10
57.7986060917
 20
18.708064696
 30
0.0
  0
SPLINE
  5
291
100
AcDbEntity
  8
_30_VOLUMEN
100
AcDbSpline
 62
4
  6
CONTINUOUS
 70
0
 71
3
 72
15
 73
11
 74
0
 42
0.0000001
 43
0.0000001
 44
0.0000000001
 40
0.0
 40
0.0
 40
0.0
 40
0.0
 40
0.1258879401
 40
0.2517476031
 40
0.3770770555
 40
0.5016813929
 40
0.6257907199
 40
0.7499287226
 40
0.8746020031
 40
1.0
 40
1.0
 40
1.0
 40
1.0
 10
56.7493323026
 20
14.7755364304
 30
0.0
 10
56.4675808516
 20
14.8547818993
 30
0.0
 10
55.929591037
 20
15.1264056738
 30
0.0
 10
55.3404336629
 20
15.8040123171
 30
0.0
 10
55.051243534
 20
16.65241573
 30
0.0
 10
55.1090017996
 20
17.5431188555
 30
0.0
 10
55.505945004
 20
18.3398629511
 30
0.0
 10
56.1820044745
 20
18.919412761
 30
0.0
 10
57.0308935942
 20
19.1935117335
 30
0.0
 10
57.6278314504
 20
19.1447452311
 30
0.0
 10
57.908486353
 20
19.0658081776
 30
0.0
  0
SPLINE
  5
292
100
AcDbEntity
  8
_30_VOLUMEN
100
AcDbSpline
 62
4
  6
CONTINUOUS
 70
0
 71
3
 72
13
 73
9
 74
0
 42
0.0000001
 43
0.0000001
 44
0.0000000001
 40
0.0
 40
0.0
 40
0.0
 40
0.0
 40
0.1243495766
 40
0.2489393731
 40
0.3738819416
 40
0.4993050437
 40
0.7494172905
 40
1.0
 40
1.0
 40
1.0
 40
1.0
 10
58.8335945124
 20
15.7522164436
 30
0.0
 10
58.9244898547
 20
15.8735601856
 30
0.0
 10
59.0768734359
 20
16.1402860534
 30
0.0
 10
59.200598283
 20
16.5835895898
 30
0.0
 10
59.2128099337
 20
17.0453400853
 30
0.0
 10
59.0814314514
 20
17.6464798581
 30
0.0
 10
58.6489072458
 20
18.3130328577
 30
0.0
 10
58.0927153516
 20
18.6253434673
 30
0.0
 10
57.7986060917
 20
18.708064696
 30
0.0
  0
SPLINE
  5
293
100
AcDbEntity
  8
_21_KURVEN
100
AcDbSpline
 62
5
  6
CONTINUOUS
 70
0
 71
3
 72
9
 73
5
 74
0
 42
0.0000001
 43
0.0000001
 44
0.0000000001
 40
0.0
 40
0.0
 40
0.0
 40
0.0
 40
0.5
 40
1.0
 40
1.0
 40
1.0
 40
1.0
 10
62.4957506764
 20
21.5609029922
 30
0.0
 10
62.4972549237
 20
21.59816955
 30
0.0
 10
62.4962928982
 20
21.6772212521
 30
0.0
 10
62.4667137379
 20
21.7480687762
 30
0.0
 10
62.4497802795
 20
21.7837561647
 30
0.0
  0
SPLINE
  5
294
100
AcDbEntity
  8
_21_KURVEN
100
AcDbSpline
 62
5
  6
CONTINUOUS
 70
0
 71
3
 72
9
 73
5
 74
0
 42
0.0000001
 43
0.0000001
 44
0.0000000001
 40
0.0
 40
0.0
 40
0.0
 40
0.0
 40
0.5
 40
1.0
 40
1.0
 40
1.0
 40
1.0
 10
62.4497802754
 20
21.7837561723
 30
0.0
 10
62.4304868278
 20
21.8160306797
 30
0.0
 10
62.3861218944
 20
21.8822237058
 30
0.0
 10
62.3225829896
 20
21.9258551596
 30
0.0
 10
62.288527391
 20
21.9469241413
 30
0.0
  0
SPLINE
  5
295
100
AcDbEntity
  8
_21_KURVEN
100
AcDbSpline
 62
5
  6
CONTINUOUS
 70
0
 71
3
 72
9
 73
5
 74
0
 42
0.0000001
 43
0.0000001
 44
0.0000000001
 40
0.0
 40
0.0
 40
0.0
 40
0.0
 40
0.5
 40
1.0
 40
1.0
 40
1.0
 40
1.0
 10
62.2885273977
 20
21.9469241376
 30
0.0
 10
62.2547473264
 20
21.9635859807
 30
0.0
 10
62.1821930465
 20
21.9951156572
 30
0.0
 10
62.1034505456
 20
21.9971954446
 30
0.0
 10
62.0647387682
 20
21.9962692797
 30
0.0
  0
SPLINE
  5
296
100
AcDbEntity
  8
_21_KURVEN
100
AcDbSpline
 62
5
  6
CONTINUOUS
 70
0
 71
3
 72
8
 73
4
 74
0
 42
0.0000001
 43
0.0000001
 44
0.0000000001
 40
0.0
 40
0.0
 40
0.0
 40
0.0
 40
1.0
 40
1.0
 40
1.0
 40
1.0
 10
61.9577366946
 20
15.5831625474
 30
0.0
 10
61.9606162081
 20
15.5894116607
 30
0.0
 10
61.9636070033
 20
15.5966700268
 30
0.0
 10
61.9665529991
 20
15.6052730506
 30
0.0
  0
LINE
  5
297
100
AcDbEntity
  8
_21_KURVEN
100
AcDbLine
 62
5
  6
CONTINUOUS
 10
61.966552999
 20
15.6052730502
 11
61.9699836519
 21
15.6168879769
  0
SPLINE
  5
298
100
AcDbEntity
  8
_21_KURVEN
100
AcDbSpline
 62
5
  6
CONTINUOUS
 70
0
 71
3
 72
8
 73
4
 74
0
 42
0.0000001
 43
0.0000001
 44
0.0000000001
 40
0.0
 40
0.0
 40
0.0
 40
0.0
 40
1.0
 40
1.0
 40
1.0
 40
1.0
 10
61.969983652
 20
15.6168879773
 30
0.0
 10
61.9723127754
 20
15.6262508181
 30
0.0
 10
61.9743633888
 20
15.6372401416
 30
0.0
 10
61.9756174871
 20
15.6493431033
 30
0.0
  0
SPLINE
  5
299
100
AcDbEntity
  8
_21_KURVEN
100
AcDbSpline
 62
5
  6
CONTINUOUS
 70
0
 71
3
 72
11
 73
7
 74
0
 42
0.0000001
 43
0.0000001
 44
0.0000000001
 40
0.0
 40
0.0
 40
0.0
 40
0.0
 40
0.25
 40
0.5
 40
0.75
 40
1.0
 40
1.0
 40
1.0
 40
1.0
 10
58.8468372608
 20
10.08614229
 30
0.0
 10
58.8737330311
 20
10.0699793097
 30
0.0
 10
58.9281054284
 20
10.038704625
 30
0.0
 10
59.0190622726
 20
10.0115974168
 30
0.0
 10
59.1136354869
 20
10.0100568862
 30
0.0
 10
59.174341967
 20
10.0235622191
 30
0.0
 10
59.2045627186
 20
10.0309058269
 30
0.0
  0
SPLINE
  5
29A
100
AcDbEntity
  8
_21_KURVEN
100
AcDbSpline
 62
5
  6
CONTINUOUS
 70
0
 71
3
 72
9
 73
5
 74
0
 42
0.0000001
 43
0.0000001
 44
0.0000000001
 40
0.0
 40
0.0
 40
0.0
 40
0.0
 40
0.5
 40
1.0
 40
1.0
 40
1.0
 40
1.0
 10
59.2045627088
 20
10.0309058237
 30
0.0
 10
59.2506886217
 20
10.0493538911
 30
0.0
 10
59.345099637
 20
10.0951040223
 30
0.0
 10
59.403307253
 20
10.1787661722
 30
0.0
 10
59.4295228503
 20
10.2223450264
 30
0.0
  0
LINE
  5
29B
100
AcDbEntity
  8
_21_KURVEN
100
AcDbLine
 62
5
  6
CONTINUOUS
 10
59.42952285
 20
10.2223450259
 11
59.4356104705
 21
10.2346836148
  0
SPLINE
  5
29C
100
AcDbEntity
  8
_21_KURVEN
100
AcDbSpline
 62
1
  6
CENTER
 70
0
 71
3
 72
65
 73
61
 74
0
 42
0.0000001
 43
0.0000001
 44
0.0000000001
 40
0.0
 40
0.0
 40
0.0
 40
0.0
 40
0.03125
 40
0.0625
 40
0.09375
 40
0.109375
 40
0.125
 40
0.1328125
 40
0.140625
 40
0.15625
 40
0.171875
 40
0.1875
 40
0.21875
 40
0.25
 40
0.265625
 40
0.2734375
 40
0.28125
 40
0.28515625
 40
0.2890625
 40
0.296875
 40
0.3125
 40
0.34375
 40
0.375
 40
0.40625
 40
0.4140625
 40
0.421875
 40
0.4296875
 40
0.4375
 40
0.453125
 40
0.46875
 40
0.5
 40
0.53125
 40
0.546875
 40
0.5625
 40
0.5703125
 40
0.578125
 40
0.5859375
 40
0.59375
 40
0.625
 40
0.65625
 40
0.6875
 40
0.703125
 40
0.7109375
 40
0.71484375
 40
0.71875
 40
0.7265625
 40
0.734375
 40
0.75
 40
0.78125
 40
0.8125
 40
0.828125
 40
0.84375
 40
0.859375
 40
0.8671875
 40
0.875
 40
0.890625
 40
0.90625
 40
0.9375
 40
0.96875
 40
1.0
 40
1.0
 40
1.0
 40
1.0
 10
56.1035499121
 20
12.3853606434
 30
0.0
 10
56.1784427855
 20
12.3728658015
 30
0.0
 10
56.3282283002
 20
12.3478706063
 30
0.0
 10
56.5529079653
 20
12.3104108813
 30
0.0
 10
56.7401369567
 20
12.2790979963
 30
0.0
 10
56.8899292041
 20
12.2542626284
 30
0.0
 10
56.9835287546
 20
12.238251397
 30
0.0
 10
57.0584555813
 20
12.2265625804
 30
0.0
 10
57.133210146
 20
12.2107843907
 30
0.0
 10
57.2278863338
 20
12.2203317408
 30
0.0
 10
57.3412093474
 20
12.2249470243
 30
0.0
 10
57.492408202
 20
12.233484039
 30
0.0
 10
57.681366527
 20
12.2433843734
 30
0.0
 10
57.8703589459
 20
12.2533893145
 30
0.0
 10
58.0026102121
 20
12.260712753
 30
0.0
 10
58.0782465825
 20
12.2643176563
 30
0.0
 10
58.125369108
 20
12.267944332
 30
0.0
 10
58.1634115681
 20
12.2676939855
 30
0.0
 10
58.2001964344
 20
12.2789514985
 30
0.0
 10
58.2647890867
 20
12.2966464427
 30
0.0
 10
58.3938195147
 20
12.3334589678
 30
0.0
 10
58.578224003
 20
12.3853154247
 30
0.0
 10
58.7995019266
 20
12.4478091821
 30
0.0
 10
58.9653923897
 20
12.4947609104
 30
0.0
 10
59.0761016632
 20
12.525843251
 30
0.0
 10
59.1312476969
 20
12.5417949077
 30
0.0
 10
59.1872050164
 20
12.5561483813
 30
0.0
 10
59.2511809006
 20
12.5962362194
 30
0.0
 10
59.334793606
 20
12.639169807
 30
0.0
 10
59.4665274439
 20
12.7118915446
 30
0.0
 10
59.6319720218
 20
12.8012885763
 30
0.0
 10
59.7968655909
 20
12.8916711724
 30
0.0
 10
59.9294810427
 20
12.962816007
 30
0.0
 10
60.0108897132
 20
13.009691852
 30
0.0
 10
60.0793838691
 20
13.0416980627
 30
0.0
 10
60.1215384197
 20
13.0807399224
 30
0.0
 10
60.164630343
 20
13.1182522194
 30
0.0
 10
60.2503329126
 20
13.1940629165
 30
0.0
 10
60.3790756287
 20
13.307459134
 30
0.0
 10
60.5506878751
 20
13.4587876346
 30
0.0
 10
60.6935113543
 20
13.5850181552
 30
0.0
 10
60.7938994744
 20
13.673061877
 30
0.0
 10
60.8435250232
 20
13.7175277997
 30
0.0
 10
60.8727982583
 20
13.7422210271
 30
0.0
 10
60.8928765479
 20
13.7741023751
 30
0.0
 10
60.9211222046
 20
13.8114932646
 30
0.0
 10
60.9645592603
 20
13.8726915372
 30
0.0
 10
61.0413844055
 20
13.9791540507
 30
0.0
 10
61.1507741855
 20
14.1315334299
 30
0.0
 10
61.2600622509
 20
14.283961014
 30
0.0
 10
61.3480251603
 20
14.4055553303
 30
0.0
 10
61.4124609996
 20
14.4977653974
 30
0.0
 10
61.4710568178
 20
14.5713709167
 30
0.0
 10
61.4978116202
 20
14.643547215
 30
0.0
 10
61.5280804948
 20
14.7134022243
 30
0.0
 10
61.5647133616
 20
14.8015158006
 30
0.0
 10
61.623998453
 20
14.9420532867
 30
0.0
 10
61.6978739398
 20
15.117877655
 30
0.0
 10
61.7866239789
 20
15.3288012
 30
0.0
 10
61.8457717278
 20
15.4694294104
 30
0.0
 10
61.8753479702
 20
15.5397419514
 30
0.0
  0
SPLINE
  5
29D
100
AcDbEntity
  8
_21_KURVEN
100
AcDbSpline
 62
1
  6
CENTER
 70
0
 71
3
 72
15
 73
11
 74
0
 42
0.0000001
 43
0.0000001
 44
0.0000000001
 40
0.0
 40
0.0
 40
0.0
 40
0.0
 40
0.125
 40
0.1875
 40
0.25
 40
0.5
 40
0.75
 40
0.8125
 40
0.875
 40
1.0
 40
1.0
 40
1.0
 40
1.0
 10
61.8753479762
 20
15.5397419719
 30
0.0
 10
61.8764937193
 20
15.5436774984
 30
0.0
 10
61.8780436741
 20
15.5489764046
 30
0.0
 10
61.8807849197
 20
15.5584591474
 30
0.0
 10
61.8881484299
 20
15.5842833142
 30
0.0
 10
61.8975754563
 20
15.617610965
 30
0.0
 10
61.9075978553
 20
15.6554654366
 30
0.0
 10
61.9133222057
 20
15.67706025
 30
0.0
 10
61.9189803055
 20
15.6992793756
 30
0.0
 10
61.9236524385
 20
15.7177779821
 30
0.0
 10
61.9266719587
 20
15.7297027726
 30
0.0
  0
SPLINE
  5
29E
100
AcDbEntity
  8
_21_KURVEN
100
AcDbSpline
 62
1
  6
CENTER
 70
0
 71
3
 72
63
 73
59
 74
0
 42
0.0000001
 43
0.0000001
 44
0.0000000001
 40
0.0
 40
0.0
 40
0.0
 40
0.0
 40
0.03125
 40
0.0625
 40
0.09375
 40
0.109375
 40
0.125
 40
0.1328125
 40
0.140625
 40
0.15625
 40
0.171875
 40
0.1875
 40
0.21875
 40
0.25
 40
0.265625
 40
0.2734375
 40
0.28125
 40
0.28515625
 40
0.2890625
 40
0.296875
 40
0.3125
 40
0.34375
 40
0.375
 40
0.40625
 40
0.421875
 40
0.4296875
 40
0.4375
 40
0.453125
 40
0.46875
 40
0.5
 40
0.53125
 40
0.546875
 40
0.5625
 40
0.5703125
 40
0.578125
 40
0.59375
 40
0.625
 40
0.65625
 40
0.6875
 40
0.703125
 40
0.7109375
 40
0.71484375
 40
0.71875
 40
0.7265625
 40
0.734375
 40
0.75
 40
0.78125
 40
0.8125
 40
0.828125
 40
0.84375
 40
0.859375
 40
0.8671875
 40
0.875
 40
0.890625
 40
0.90625
 40
0.9375
 40
0.96875
 40
1.0
 40
1.0
 40
1.0
 40
1.0
 10
61.926671959
 20
15.7297027741
 30
0.0
 10
61.9365612277
 20
15.8043467704
 30
0.0
 10
61.9563453075
 20
15.9536345671
 30
0.0
 10
61.9859881719
 20
16.1775674375
 30
0.0
 10
62.0107875538
 20
16.3641747348
 30
0.0
 10
62.0304108991
 20
16.5134682123
 30
0.0
 10
62.043167393
 20
16.6067592507
 30
0.0
 10
62.0522460609
 20
16.6814318954
 30
0.0
 10
62.0654373153
 20
16.7559591922
 30
0.0
 10
62.0524901429
 20
16.8501586553
 30
0.0
 10
62.0438339167
 20
16.9629546274
 30
0.0
 10
62.0298954102
 20
17.1134350695
 30
0.0
 10
62.0132478626
 20
17.3015004868
 30
0.0
 10
61.9964940621
 20
17.4895991798
 30
0.0
 10
61.984446623
 20
17.6212229806
 30
0.0
 10
61.9781424401
 20
17.6965042286
 30
0.0
 10
61.9728282935
 20
17.7433966717
 30
0.0
 10
61.9717296368
 20
17.7812737228
 30
0.0
 10
61.9591195635
 20
17.8178250571
 30
0.0
 10
61.9390589023
 20
17.8820212352
 30
0.0
 10
61.8975069962
 20
18.0102464012
 30
0.0
 10
61.8389408933
 20
18.1935363082
 30
0.0
 10
61.7681214132
 20
18.4133330732
 30
0.0
 10
61.7098473509
 20
18.5968526573
 30
0.0
 10
61.6677332666
 20
18.7246356949
 30
0.0
 10
61.6457121226
 20
18.7987147546
 30
0.0
 10
61.6032244013
 20
18.8621731632
 30
0.0
 10
61.5571253998
 20
18.9451344902
 30
0.0
 10
61.4794319907
 20
19.0758286914
 30
0.0
 10
61.3837851794
 20
19.2399725923
 30
0.0
 10
61.2871773265
 20
19.4035667985
 30
0.0
 10
61.2110215838
 20
19.5351405113
 30
0.0
 10
61.1610784163
 20
19.6159030594
 30
0.0
 10
61.1264712354
 20
19.6838689647
 30
0.0
 10
61.0723513049
 20
19.7395882206
 30
0.0
 10
60.9810509883
 20
19.8392378093
 30
0.0
 10
60.8488279511
 20
19.9804601973
 30
0.0
 10
60.6909782877
 20
20.1504776013
 30
0.0
 10
60.5591023152
 20
20.2918358664
 30
0.0
 10
60.4671338989
 20
20.3912238916
 30
0.0
 10
60.420720373
 20
20.4403468073
 30
0.0
 10
60.3948850795
 20
20.4693336053
 30
0.0
 10
60.3621578583
 20
20.4891198082
 30
0.0
 10
60.3236082288
 20
20.5170022907
 30
0.0
 10
60.2606125368
 20
20.5598571881
 30
0.0
 10
60.150978442
 20
20.6356640607
 30
0.0
 10
59.9940798074
 20
20.7435988906
 30
0.0
 10
59.8371363771
 20
20.8514321447
 30
0.0
 10
59.7119119417
 20
20.9382310918
 30
0.0
 10
59.617029566
 20
21.0017942161
 30
0.0
 10
59.5410367881
 20
21.0596619631
 30
0.0
 10
59.4676091917
 20
21.0858376272
 30
0.0
 10
59.3963878828
 20
21.1155267839
 30
0.0
 10
59.3066058086
 20
21.1514352019
 30
0.0
 10
59.1633767176
 20
21.2095610642
 30
0.0
 10
58.9841953989
 20
21.2819875528
 30
0.0
 10
58.7692402586
 20
21.3689987775
 30
0.0
 10
58.6259249379
 20
21.42698732
 30
0.0
 10
58.5542687643
 20
21.4559839588
 30
0.0
  0
SPLINE
  5
29F
100
AcDbEntity
  8
_21_KURVEN
100
AcDbSpline
 62
1
  6
CENTER
 70
0
 71
3
 72
23
 73
19
 74
0
 42
0.0000001
 43
0.0000001
 44
0.0000000001
 40
0.0
 40
0.0
 40
0.0
 40
0.0
 40
0.125
 40
0.15625
 40
0.1875
 40
0.25
 40
0.3125
 40
0.375
 40
0.4375
 40
0.5
 40
0.5625
 40
0.625
 40
0.6875
 40
0.75
 40
0.8125
 40
0.84375
 40
0.875
 40
1.0
 40
1.0
 40
1.0
 40
1.0
 10
58.5542687435
 20
21.4559839646
 30
0.0
 10
58.4575275049
 20
21.478914751
 30
0.0
 10
58.33637635
 20
21.5063456629
 30
0.0
 10
58.1916687843
 20
21.5429604703
 30
0.0
 10
58.0937595906
 20
21.5594818871
 30
0.0
 10
57.9707909346
 20
21.5765944787
 30
0.0
 10
57.8237686079
 20
21.6016088388
 30
0.0
 10
57.6755175016
 20
21.6143688851
 30
0.0
 10
57.5269536467
 20
21.6223603677
 30
0.0
 10
57.378525662
 20
21.6370271343
 30
0.0
 10
57.2298669453
 20
21.6297613288
 30
0.0
 10
57.0812128416
 20
21.6291740771
 30
0.0
 10
56.9327710179
 20
21.6238051825
 30
0.0
 10
56.7852995642
 20
21.6061271889
 30
0.0
 10
56.6620353912
 20
21.5951486983
 30
0.0
 10
56.5638299755
 20
21.5835128456
 30
0.0
 10
56.418428007
 20
21.5541251721
 30
0.0
 10
56.2967633053
 20
21.5327432292
 30
0.0
 10
56.1995903902
 20
21.5146431837
 30
0.0
  0
SPLINE
  5
2A0
100
AcDbEntity
  8
_21_KURVEN
100
AcDbSpline
 62
1
  6
CENTER
 70
0
 71
3
 72
15
 73
11
 74
0
 42
0.0000001
 43
0.0000001
 44
0.0000000001
 40
0.0
 40
0.0
 40
0.0
 40
0.0
 40
0.125
 40
0.1875
 40
0.25
 40
0.5
 40
0.75
 40
0.8125
 40
0.875
 40
1.0
 40
1.0
 40
1.0
 40
1.0
 10
56.1995905093
 20
21.5146432111
 30
0.0
 10
56.1955799327
 20
21.5137131381
 30
0.0
 10
56.1901762384
 20
21.5124671509
 30
0.0
 10
56.1805226302
 20
21.5102093453
 30
0.0
 10
56.154285265
 20
21.5039730262
 30
0.0
 10
56.1204633294
 20
21.4958591103
 30
0.0
 10
56.082398607
 20
21.4860522779
 30
0.0
 10
56.0606803255
 20
21.4804637144
 30
0.0
 10
56.0384529539
 20
21.4745137257
 30
0.0
 10
56.019967236
 20
21.4695268083
 30
0.0
 10
56.0080467994
 20
21.4663187358
 30
0.0
  0
SPLINE
  5
2A1
100
AcDbEntity
  8
_21_KURVEN
100
AcDbSpline
 62
1
  6
CENTER
 70
0
 71
3
 72
15
 73
11
 74
0
 42
0.0000001
 43
0.0000001
 44
0.0000000001
 40
0.0
 40
0.0
 40
0.0
 40
0.0
 40
0.125
 40
0.1875
 40
0.25
 40
0.5
 40
0.75
 40
0.8125
 40
0.875
 40
1.0
 40
1.0
 40
1.0
 40
1.0
 10
56.0080467979
 20
21.4663187354
 30
0.0
 10
55.9961625729
 20
21.4629860425
 30
0.0
 10
55.9789331595
 20
21.4581881436
 30
0.0
 10
55.9535729113
 20
21.4509863829
 30
0.0
 10
55.9040540637
 20
21.436381846
 30
0.0
 10
55.8352795744
 20
21.4158352823
 30
0.0
 10
55.7629635434
 20
21.391590739
 30
0.0
 10
55.7183518383
 20
21.3765772447
 30
0.0
 10
55.6811945123
 20
21.3634019245
 30
0.0
 10
55.6515924365
 20
21.3527671712
 30
0.0
 10
55.6322430707
 20
21.3458447274
 30
0.0
  0
SPLINE
  5
2A2
100
AcDbEntity
  8
_21_KURVEN
100
AcDbSpline
 62
1
  6
CENTER
 70
0
 71
3
 72
15
 73
11
 74
0
 42
0.0000001
 43
0.0000001
 44
0.0000000001
 40
0.0
 40
0.0
 40
0.0
 40
0.0
 40
0.125
 40
0.1875
 40
0.25
 40
0.5
 40
0.75
 40
0.8125
 40
0.875
 40
1.0
 40
1.0
 40
1.0
 40
1.0
 10
55.6322430678
 20
21.3458447264
 30
0.0
 10
55.6283885112
 20
21.3444197298
 30
0.0
 10
55.6231941312
 20
21.3425068585
 30
0.0
 10
55.6139184715
 20
21.339057869
 30
0.0
 10
55.5887208979
 20
21.3295846584
 30
0.0
 10
55.5562487519
 20
21.3172985995
 30
0.0
 10
55.5197881242
 20
21.3028003428
 30
0.0
 10
55.4989842167
 20
21.2945349896
 30
0.0
 10
55.4777216598
 20
21.2858468623
 30
0.0
 10
55.4600431935
 20
21.2785829657
 30
0.0
 10
55.4486423379
 20
21.273906546
 30
0.0
  0
SPLINE
  5
2A3
100
AcDbEntity
  8
_21_KURVEN
100
AcDbSpline
 62
1
  6
CENTER
 70
0
 71
3
 72
13
 73
9
 74
0
 42
0.0000001
 43
0.0000001
 44
0.0000000001
 40
0.0
 40
0.0
 40
0.0
 40
0.0
 40
0.125
 40
0.1875
 40
0.25
 40
0.375
 40
0.5
 40
1.0
 40
1.0
 40
1.0
 40
1.0
 10
55.4486423365
 20
21.2739065454
 30
0.0
 10
55.4448534447
 20
21.2723211919
 30
0.0
 10
55.4397383711
 20
21.2701886113
 30
0.0
 10
55.4306452168
 20
21.2663633719
 30
0.0
 10
55.414042819
 20
21.2593105618
 30
0.0
 10
55.3958776032
 20
21.2515527047
 30
0.0
 10
55.3502476768
 20
21.2318245606
 30
0.0
 10
55.3130891097
 20
21.2149336864
 30
0.0
 10
55.2810684993
 20
21.2002497483
 30
0.0
  0
SPLINE
  5
2A4
100
AcDbEntity
  8
_21_KURVEN
100
AcDbSpline
 62
1
  6
CENTER
 70
0
 71
3
 72
11
 73
7
 74
0
 42
0.0000001
 43
0.0000001
 44
0.0000000001
 40
0.0
 40
0.0
 40
0.0
 40
0.0
 40
0.5
 40
0.75
 40
0.875
 40
1.0
 40
1.0
 40
1.0
 40
1.0
 10
55.2810684992
 20
21.2002497483
 30
0.0
 10
55.2513180453
 20
21.1863432723
 30
0.0
 10
55.206162838
 20
21.1650144245
 30
0.0
 10
55.1561363123
 20
21.1401373086
 30
0.0
 10
55.1246156128
 20
21.1242081985
 30
0.0
 10
55.102075613
 20
21.1126052904
 30
0.0
 10
55.0916530693
 20
21.1072586304
 30
0.0
  0
SPLINE
  5
2A5
100
AcDbEntity
  8
_21_KURVEN
100
AcDbSpline
 62
1
  6
CENTER
 70
0
 71
3
 72
75
 73
71
 74
0
 42
0.0000001
 43
0.0000001
 44
0.0000000001
 40
0.0
 40
0.0
 40
0.0
 40
0.0
 40
0.0625
 40
0.078125
 40
0.09375
 40
0.1015625
 40
0.109375
 40
0.1171875
 40
0.125
 40
0.140625
 40
0.15625
 40
0.171875
 40
0.1875
 40
0.203125
 40
0.2109375
 40
0.21875
 40
0.234375
 40
0.25
 40
0.28125
 40
0.3125
 40
0.3203125
 40
0.328125
 40
0.33203125
 40
0.3359375
 40
0.34375
 40
0.359375
 40
0.375
 40
0.390625
 40
0.40625
 40
0.421875
 40
0.4375
 40
0.4453125
 40
0.44921875
 40
0.453125
 40
0.46875
 40
0.5
 40
0.53125
 40
0.546875
 40
0.55078125
 40
0.5546875
 40
0.5625
 40
0.578125
 40
0.59375
 40
0.609375
 40
0.625
 40
0.640625
 40
0.65625
 40
0.6640625
 40
0.66796875
 40
0.671875
 40
0.6796875
 40
0.6875
 40
0.71875
 40
0.75
 40
0.765625
 40
0.78125
 40
0.7890625
 40
0.796875
 40
0.8125
 40
0.828125
 40
0.84375
 40
0.859375
 40
0.875
 40
0.8828125
 40
0.890625
 40
0.8984375
 40
0.90625
 40
0.921875
 40
0.9375
 40
1.0
 40
1.0
 40
1.0
 40
1.0
 10
55.0916530667
 20
21.1072586291
 30
0.0
 10
54.942910208
 20
21.0095245945
 30
0.0
 10
54.7568798102
 20
20.8875027841
 30
0.0
 10
54.5339488059
 20
20.7406394132
 30
0.0
 10
54.44065359
 20
20.6800292732
 30
0.0
 10
54.3669643838
 20
20.6301858462
 30
0.0
 10
54.3091009583
 20
20.5965194624
 30
0.0
 10
54.2611501329
 20
20.5486659902
 30
0.0
 10
54.1974705743
 20
20.4844968068
 30
0.0
 10
54.1177816587
 20
20.4044117856
 30
0.0
 10
54.0222020904
 20
20.3082495924
 30
0.0
 10
53.9265771481
 20
20.2121257376
 30
0.0
 10
53.8310865713
 20
20.115908697
 30
0.0
 10
53.7511010173
 20
20.0360065005
 30
0.0
 10
53.6880295675
 20
19.9714625265
 30
0.0
 10
53.6216182028
 20
19.9091844833
 30
0.0
 10
53.5625071166
 20
19.8151202192
 30
0.0
 10
53.4653425882
 20
19.6663732896
 30
0.0
 10
53.3446646698
 20
19.4799055627
 30
0.0
 10
53.2361648111
 20
19.3120318624
 30
0.0
 10
53.1632589212
 20
19.2004710048
 30
0.0
 10
53.133805255
 20
19.1534103949
 30
0.0
 10
53.1080824962
 20
19.1171110189
 30
0.0
 10
53.0902600104
 20
19.0758767306
 30
0.0
 10
53.0627424679
 20
19.0014232979
 30
0.0
 10
53.021508018
 20
18.8962615135
 30
0.0
 10
52.9728676144
 20
18.7695482349
 30
0.0
 10
52.9239413453
 20
18.6429910858
 30
0.0
 10
52.8753176023
 20
18.5163285558
 30
0.0
 10
52.8257696202
 20
18.3899314203
 30
0.0
 10
52.7873083269
 20
18.283803643
 30
0.0
 10
52.7548495236
 20
18.2110714339
 30
0.0
 10
52.7494732152
 20
18.1658055452
 30
0.0
 10
52.7380238632
 20
18.098858541
 30
0.0
 10
52.7152101481
 20
17.9532504631
 30
0.0
 10
52.6786376723
 20
17.7296133732
 30
0.0
 10
52.6430566334
 20
17.505844128
 30
0.0
 10
52.6189540503
 20
17.3604078519
 30
0.0
 10
52.6087687804
 20
17.2932923498
 30
0.0
 10
52.5996745837
 20
17.2485220434
 30
0.0
 10
52.6072946159
 20
17.1704474563
 30
0.0
 10
52.6101055464
 20
17.0588184816
 30
0.0
 10
52.6169451047
 20
16.9249041772
 30
0.0
 10
52.6228386239
 20
16.7909781724
 30
0.0
 10
52.6290498578
 20
16.6570585042
 30
0.0
 10
52.6349362719
 20
16.5231251901
 30
0.0
 10
52.6406595872
 20
16.4115543006
 30
0.0
 10
52.6430902792
 20
16.3333762163
 30
0.0
 10
52.6469349329
 20
16.2888254694
 30
0.0
 10
52.6600261656
 20
16.2447357539
 30
0.0
 10
52.6732303316
 20
16.1894662609
 30
0.0
 10
52.7075153925
 20
16.0569469307
 30
0.0
 10
52.7579355438
 20
15.8581443248
 30
0.0
 10
52.8141103414
 20
15.6371450552
 30
0.0
 10
52.8597590047
 20
15.4606287887
 30
0.0
 10
52.8864411524
 20
15.3496519917
 30
0.0
 10
52.9296511825
 20
15.2685638949
 30
0.0
 10
52.9690424075
 20
15.1861320765
 30
0.0
 10
53.0195920869
 20
15.0835535394
 30
0.0
 10
53.0796887984
 20
14.9602609452
 30
0.0
 10
53.1399400881
 20
14.837023772
 30
0.0
 10
53.200135969
 20
14.7137632645
 30
0.0
 10
53.2503550838
 20
14.6110777718
 30
0.0
 10
53.2904239663
 20
14.5288652122
 30
0.0
 10
53.3207613277
 20
14.4673793307
 30
0.0
 10
53.3659180565
 20
14.4148984092
 30
0.0
 10
53.4209512862
 20
14.3417788176
 30
0.0
 10
53.4915124705
 20
14.2514546506
 30
0.0
 10
53.6593979266
 20
14.0337886415
 30
0.0
 10
53.7996830427
 20
13.8526315528
 30
0.0
 10
53.9117893534
 20
13.7076318811
 30
0.0
  0
SPLINE
  5
2A6
100
AcDbEntity
  8
_21_KURVEN
100
AcDbSpline
 62
1
  6
CENTER
 70
0
 71
3
 72
15
 73
11
 74
0
 42
0.0000001
 43
0.0000001
 44
0.0000000001
 40
0.0
 40
0.0
 40
0.0
 40
0.0
 40
0.125
 40
0.1875
 40
0.25
 40
0.5
 40
0.75
 40
0.8125
 40
0.875
 40
1.0
 40
1.0
 40
1.0
 40
1.0
 10
53.9117894978
 20
13.7076317291
 30
0.0
 10
53.9146543314
 20
13.7046262756
 30
0.0
 10
53.9185080709
 20
13.7005733566
 30
0.0
 10
53.9254204335
 20
13.6933484195
 30
0.0
 10
53.9442942884
 20
13.6737605717
 30
0.0
 10
53.9686891976
 20
13.6485468369
 30
0.0
 10
53.9967315211
 20
13.6204991976
 30
0.0
 10
54.0127254522
 20
13.6044929476
 30
0.0
 10
54.029294724
 20
13.5882238109
 30
0.0
 10
54.0431083089
 20
13.5747121217
 30
0.0
 10
54.0520092253
 20
13.5659954037
 30
0.0
  0
SPLINE
  5
2A7
100
AcDbEntity
  8
_21_KURVEN
100
AcDbSpline
 62
1
  6
CENTER
 70
0
 71
3
 72
23
 73
19
 74
0
 42
0.0000001
 43
0.0000001
 44
0.0000000001
 40
0.0
 40
0.0
 40
0.0
 40
0.0
 40
0.125
 40
0.15625
 40
0.1875
 40
0.25
 40
0.3125
 40
0.375
 40
0.4375
 40
0.5
 40
0.5625
 40
0.625
 40
0.6875
 40
0.75
 40
0.8125
 40
0.84375
 40
0.875
 40
1.0
 40
1.0
 40
1.0
 40
1.0
 10
54.0520092264
 20
13.5659954026
 30
0.0
 10
54.1263666683
 20
13.4996507101
 30
0.0
 10
54.2201082789
 20
13.4176835619
 30
0.0
 10
54.3302137871
 20
13.316431832
 30
0.0
 10
54.4087042314
 20
13.2550984698
 30
0.0
 10
54.5090440394
 20
13.1812290777
 30
0.0
 10
54.6268073709
 20
13.0889510964
 30
0.0
 10
54.7515856506
 20
13.0067362613
 30
0.0
 10
54.8789475714
 20
12.9285166879
 30
0.0
 10
55.0029594776
 20
12.8445594891
 30
0.0
 10
55.1377878012
 20
12.7795575303
 30
0.0
 10
55.2693804695
 20
12.7087521338
 30
0.0
 10
55.4030993416
 20
12.6422052481
 30
0.0
 10
55.5419171275
 20
12.5868241616
 30
0.0
 10
55.6561105234
 20
12.5372325075
 30
0.0
 10
55.7484872049
 20
12.5002340814
 30
0.0
 10
55.8911429952
 20
12.4560250144
 30
0.0
 10
56.0089575163
 20
12.416244393
 30
0.0
 10
56.1035500305
 20
12.3853606101
 30
0.0
  0
SPLINE
  5
2A8
100
AcDbEntity
  8
_21_KURVEN
100
AcDbSpline
 62
5
  6
CONTINUOUS
 70
0
 71
3
 72
8
 73
4
 74
0
 42
0.0000001
 43
0.0000001
 44
0.0000000001
 40
0.0
 40
0.0
 40
0.0
 40
0.0
 40
1.0
 40
1.0
 40
1.0
 40
1.0
 10
53.9094020749
 20
13.6143212906
 30
0.0
 10
53.9226485794
 20
13.5963711477
 30
0.0
 10
53.9393270098
 20
13.579296083
 30
0.0
 10
53.9582533065
 20
13.5649765291
 30
0.0
  0
SPLINE
  5
2A9
100
AcDbEntity
  8
_21_KURVEN
100
AcDbSpline
 62
5
  6
CONTINUOUS
 70
0
 71
3
 72
9
 73
5
 74
0
 42
0.0000001
 43
0.0000001
 44
0.0000000001
 40
0.0
 40
0.0
 40
0.0
 40
0.0
 40
0.5
 40
1.0
 40
1.0
 40
1.0
 40
1.0
 10
50.6441400462
 20
19.1149716299
 30
0.0
 10
50.6002738005
 20
19.0917952109
 30
0.0
 10
50.5113268
 20
19.0363986596
 30
0.0
 10
50.4623101443
 20
18.9470086174
 30
0.0
 10
50.4408533097
 20
18.9008733742
 30
0.0
  0
SPLINE
  5
2AA
100
AcDbEntity
  8
_21_KURVEN
100
AcDbSpline
 62
5
  6
CONTINUOUS
 70
0
 71
3
 72
8
 73
4
 74
0
 42
0.0000001
 43
0.0000001
 44
0.0000000001
 40
0.0
 40
0.0
 40
0.0
 40
0.0
 40
1.0
 40
1.0
 40
1.0
 40
1.0
 10
50.44085331
 20
18.9008733748
 30
0.0
 10
50.4286825866
 20
18.8672071316
 30
0.0
 10
50.4202762421
 20
18.8322121232
 30
0.0
 10
50.4159421683
 20
18.7938051064
 30
0.0
  0
SPLINE
  5
2AB
100
AcDbEntity
  8
_21_KURVEN
100
AcDbSpline
 62
5
  6
CONTINUOUS
 70
0
 71
3
 72
9
 73
5
 74
0
 42
0.0000001
 43
0.0000001
 44
0.0000000001
 40
0.0
 40
0.0
 40
0.0
 40
0.0
 40
0.5
 40
1.0
 40
1.0
 40
1.0
 40
1.0
 10
50.4159421682
 20
18.7938051055
 30
0.0
 10
50.4145833416
 20
18.7482418061
 30
0.0
 10
50.4171375924
 20
18.656017316
 30
0.0
 10
50.4616517491
 20
18.5714391944
 30
0.0
 10
50.4863787355
 20
18.5310640238
 30
0.0
  0
SPLINE
  5
2AC
100
AcDbEntity
  8
_21_KURVEN
100
AcDbSpline
 62
5
  6
CONTINUOUS
 70
0
 71
3
 72
8
 73
4
 74
0
 42
0.0000001
 43
0.0000001
 44
0.0000000001
 40
0.0
 40
0.0
 40
0.0
 40
0.0
 40
1.0
 40
1.0
 40
1.0
 40
1.0
 10
56.1195892139
 20
21.5645330741
 30
0.0
 10
56.1126774621
 20
21.5639705838
 30
0.0
 10
56.1048307812
 20
21.5630121543
 30
0.0
 10
56.0958374307
 20
21.561359703
 30
0.0
  0
LINE
  5
2AD
100
AcDbEntity
  8
_21_KURVEN
100
AcDbLine
 62
5
  6
CONTINUOUS
 10
56.0958374312
 20
21.561359703
 11
56.0839757791
 21
21.5586572242
  0
SPLINE
  5
2AE
100
AcDbEntity
  8
_21_KURVEN
100
AcDbSpline
 62
5
  6
CONTINUOUS
 70
0
 71
3
 72
8
 73
4
 74
0
 42
0.0000001
 43
0.0000001
 44
0.0000000001
 40
0.0
 40
0.0
 40
0.0
 40
0.0
 40
1.0
 40
1.0
 40
1.0
 40
1.0
 10
56.0839757788
 20
21.5586572241
 30
0.0
 10
56.0746377196
 20
21.5561024394
 30
0.0
 10
56.0640276489
 20
21.5525147163
 30
0.0
 10
56.0528571874
 20
21.5476972813
 30
0.0
  0
SPLINE
  5
2AF
100
AcDbEntity
  8
0
100
AcDbSpline
 62
4
  6
CONTINUOUS
 70
0
 71
3
 72
11
 73
7
 74
0
 42
0.0000001
 43
0.0000001
 44
0.0000000001
 40
0.0
 40
0.0
 40
0.0
 40
0.0
 40
0.2537423685
 40
0.5024333942
 40
0.7495028375
 40
1.0
 40
1.0
 40
1.0
 40
1.0
 10
38.5
 20
-13.3033961814
 30
0.0
 10
37.3970165093
 20
-13.0620035405
 30
0.0
 10
35.2328458855
 20
-12.4812752768
 30
0.0
 10
32.135084501
 20
-11.216230234
 30
0.0
 10
29.2807612573
 20
-9.4901456618
 30
0.0
 10
27.605957369
 20
-8.0208980484
 30
0.0
 10
26.8354564591
 20
-7.2154348448
 30
0.0
  0
SPLINE
  5
2B0
100
AcDbEntity
  8
0
100
AcDbSpline
 62
4
  6
CONTINUOUS
 70
0
 71
3
 72
20
 73
16
 74
0
 42
0.0000001
 43
0.0000001
 44
0.0000000001
 40
0.0
 40
0.0
 40
0.0
 40
0.0
 40
0.0618501636
 40
0.120836515
 40
0.1775774909
 40
0.2331467829
 40
0.2887573003
 40
0.3454087559
 40
0.4037183126
 40
0.4639460735
 40
0.5261035079
 40
0.5900607376
 40
0.7225458829
 40
0.8597307337
 40
1.0
 40
1.0
 40
1.0
 40
1.0
 10
21.1459335456
 20
7.2154348448
 30
0.0
 10
21.1859100127
 20
7.651001277
 30
0.0
 10
21.3178094241
 20
8.4986177763
 30
0.0
 10
21.6997072962
 20
9.7007463054
 30
0.0
 10
22.2648138665
 20
10.7798687085
 30
0.0
 10
23.003871519
 20
11.717887007
 30
0.0
 10
23.8957066244
 20
12.5094815545
 30
0.0
 10
24.91466847
 20
13.1626107186
 30
0.0
 10
26.0371696739
 20
13.6932555
 30
0.0
 10
27.2436585256
 20
14.11946954
 30
0.0
 10
28.5181666751
 20
14.4586130188
 30
0.0
 10
30.3119629776
 20
14.8190553144
 30
0.0
 10
32.654889648
 20
15.1180475373
 30
0.0
 10
35.5472301023
 20
15.3240980787
 30
0.0
 10
37.5083563917
 20
15.3960374197
 30
0.0
 10
38.5
 20
15.4213971741
 30
0.0
  0
SPLINE
  5
2B1
100
AcDbEntity
  8
0
100
AcDbSpline
 62
4
  6
CONTINUOUS
 70
0
 71
3
 72
23
 73
19
 74
0
 42
0.0000001
 43
0.0000001
 44
0.0000000001
 40
0.0
 40
0.0
 40
0.0
 40
0.0
 40
0.2296501923
 40
0.431055939
 40
0.6030983231
 40
0.6778597917
 40
0.7449933749
 40
0.804423421
 40
0.8560818474
 40
0.8999007705
 40
0.9358215051
 40
0.9638097371
 40
0.9748200453
 40
0.9838365848
 40
0.9908565137
 40
0.9958790848
 40
0.9989111338
 40
1.0
 40
1.0
 40
1.0
 40
1.0
 10
38.6750518836
 20
-13.6001750006
 30
0.0
 10
38.6750518877
 20
-13.7820391577
 30
0.0
 10
38.6749031358
 20
-14.1234002206
 30
0.0
 10
38.6741345893
 20
-14.6010042522
 30
0.0
 10
38.6730166393
 20
-14.955947995
 30
0.0
 10
38.6718052229
 20
-15.2045579621
 30
0.0
 10
38.6708094628
 20
-15.3639876596
 30
0.0
 10
38.6696872628
 20
-15.5051213628
 30
0.0
 10
38.6684398925
 20
-15.6277867216
 30
0.0
 10
38.6670778185
 20
-15.7318415528
 30
0.0
 10
38.6655920905
 20
-15.8171212397
 30
0.0
 10
38.664207997
 20
-15.876480017
 30
0.0
 10
38.6629473187
 20
-15.9144162725
 30
0.0
 10
38.6621113264
 20
-15.9359598404
 30
0.0
 10
38.6611093682
 20
-15.9522455137
 30
0.0
 10
38.6604615979
 20
-15.9649863569
 30
0.0
 10
38.6591789848
 20
-15.9706970249
 30
0.0
 10
38.6589211704
 20
-15.9754909724
 30
0.0
 10
38.6580588788
 20
-15.9754894901
 30
0.0
  0
SPLINE
  5
2B2
100
AcDbEntity
  8
0
100
AcDbSpline
 62
4
  6
CONTINUOUS
 70
0
 71
3
 72
9
 73
5
 74
0
 42
0.0000001
 43
0.0000001
 44
0.0000000001
 40
0.0
 40
0.0
 40
0.0
 40
0.0
 40
0.493928016
 40
1.0
 40
1.0
 40
1.0
 40
1.0
 10
38.6750518846
 20
-13.6001751549
 30
0.0
 10
40.0318776435
 20
-13.888924444
 30
0.0
 10
42.8121169457
 20
-14.3198069572
 30
0.0
 10
45.6140097789
 20
-14.5373284794
 30
0.0
 10
47.0335690269
 20
-14.6079919507
 30
0.0
  0
ELLIPSE
  5
2B3
100
AcDbEntity
  8
0
100
AcDbEllipse
 62
4
  6
CONTINUOUS
 10
-9.4508988548
 20
201.9743406704
 30
0.0
 11
-81.1610399561
 21
286.0988934104
 31
0.0
 40
0.1059221884
 41
-3.9940751987
 42
-3.9228615337
  0
ENDSEC
  0
SECTION
  2
OBJECTS
  0
DICTIONARY
  5
C
100
AcDbDictionary
280
0
281
1
  3
ACAD_GROUP
350
D
  3
ACAD_MLINESTYLE
350
17
  3
ACAD_LAYOUT
350
1A
  3
ACAD_PLOTSETTINGS
350
19
  3
ACAD_PLOTSTYLENAME
350
E
  0
DICTIONARY
  5
D
102
{ACAD_REACTORS
330
C
102
}
100
AcDbDictionary
280
0
281
1
  0
ACDBDICTIONARYWDFLT
  5
E
102
{ACAD_REACTORS
330
C
102
}
100
AcDbDictionary
281
1
  3
Normal
350
F
100
AcDbDictionaryWithDefault
340
F
  0
DICTIONARY
  5
17
102
{ACAD_REACTORS
330
C
102
}
100
AcDbDictionary
280
0
281
1
  3
Standard
350
18
  0
DICTIONARY
  5
19
102
{ACAD_REACTORS
330
C
102
}
100
AcDbDictionary
281
1
  0
DICTIONARY
  5
1A
102
{ACAD_REACTORS
330
C
102
}
100
AcDbDictionary
281
1
  3
Model
350
2B4
  3
Layout1
350
2B5
  0
ACDBPLACEHOLDER
  5
F
102
{ACAD_REACTORS
330
E
102
}
  0
MLINESTYLE
  5
18
102
{ACAD_REACTORS
330
17
102
}
100
AcDbMlineStyle
  2
STANDARD
 70
0
  3

 62
256
 51
90.0
 52
90.0
 71
2
 49
0.5
 62
256
  6
BYLAYER
 49
-0.5
 62
256
  6
BYLAYER
  0
LAYOUT
  5
2B4
102
{ACAD_REACTORS
330
1A
102
}
100
AcDbPlotSettings
  1

  2
none_device
  4
ISO_A3_(420.00_x_297.00_MM)
  6

 40
0.0
 41
0.0
 42
0.0
 43
0.0
 44
420.0
 45
297.0
 46
0.0
 47
0.0
 48
0.0
 49
0.0
140
0.0
141
0.0
142
1.0
143
1.0
 70
1024
 72
1
 73
0
 74
0
  7

 75
0
147
1.0
148
0.0
149
0.0
100
AcDbLayout
  1
Model
 70
0
 71
0
 10
0.0
 20
0.0
 11
420.0
 21
297.0
 12
0.0
 22
0.0
 32
0.0
 14
0.0
 24
0.0
 34
0.0
 15
0.0
 25
0.0
 35
0.0
146
0.0
 13
0.0
 23
0.0
 33
0.0
 16
1.0
 26
0.0
 36
0.0
 17
0.0
 27
1.0
 37
0.0
 76
0
330
20E
345
0
346
0
  0
LAYOUT
  5
2B5
102
{ACAD_REACTORS
330
1A
102
}
100
AcDbPlotSettings
  1

  2
none_device
  4
ISO_A3_(420.00_x_297.00_MM)
  6

 40
0.0
 41
0.0
 42
0.0
 43
0.0
 44
420.0
 45
297.0
 46
0.0
 47
0.0
 48
0.0
 49
0.0
140
0.0
141
0.0
142
1.0
143
1.0
 70
0
 72
1
 73
0
 74
0
  7

 75
0
147
1.0
148
0.0
149
0.0
100
AcDbLayout
  1
Layout1
 70
0
 71
1
 10
0.0
 20
0.0
 11
420.0
 21
297.0
 12
0.0
 22
0.0
 32
0.0
 14
0.0
 24
0.0
 34
0.0
 15
0.0
 25
0.0
 35
0.0
146
0.0
 13
0.0
 23
0.0
 33
0.0
 16
1.0
 26
0.0
 36
0.0
 17
0.0
 27
1.0
 37
0.0
 76
0
330
20F
345
0
346
0
  0
ENDSEC
  0
EOF
