999
DXF file: 70572225.dxf
999
Pro/ENGINEER 2016380 by Parametric Technology Corporation
  0
SECTION
  2
HEADER
  9
$ACADVER
  1
AC1027
  9
$DWGCODEPAGE
  3
ANSI_1252
  9
$EXTMAX
 10
420.0
 20
297.0
 30
0.0
  9
$EXTMIN
 10
0.0
 20
0.0
 30
0.0
  9
$LIMMIN
 10
0.0
 20
0.0
  9
$LIMMAX
 10
420.0
 20
297.0
  9
$VIEWCTR
 10
210.0
 20
148.5
  9
$VIEWSIZE
 40
297.0
  9
$CLAYER
  8
0
  9
$LTSCALE
 40
23.1
  9
$CELTYPE
  6
BYLAYER
  9
$DIMSCALE
 40
1.0
  9
$DIMASZ
 40
3.5
  9
$DIMEXO
 40
0.0
  9
$DIMDLI
 40
15.96
  9
$DIMEXE
 40
1.5
  9
$DIMCEN
 40
3.78
  9
$DIMLFAC
 40
1.0
  9
$DIMBLK
  1
_FILLED
  9
$DIMALT
 70
0
  9
$DIMALTF
 40
25.4
  9
$DIMTXT
 40
3.5
  9
$DIMTOL
 70
1
  9
$DIMLIM
 70
0
  9
$DIMTFAC
 40
1.0
  9
$DIMTP
 40
0.05
  9
$DIMTM
 40
0.05
  9
$DIMGAP
 40
0.625
  9
$DIMDSEP
 70
46
  9
$AUNITS
 70
0
  9
$PDMODE
 70
3
  9
$PDSIZE
 40
0.3125
  9
$HANDSEED
  5
2B9
  9
$TILEMODE
 70
1
  9
$MEASUREMENT
 70
1
  9
$INSUNITS
 70
4
  0
ENDSEC
  0
SECTION
  2
CLASSES
  0
CLASS
  1
ACDBDICTIONARYWDFLT
  2
AcDbDictionaryWithDefault
  3
AutoCAD 2000
 90
0
 91
1
280
0
281
0
  0
CLASS
  1
ACDBPLACEHOLDER
  2
AcDbPlaceHolder
  3
AutoCAD 2000
 90
0
 91
1
280
0
281
0
  0
CLASS
  1
LAYOUT
  2
AcDbLayout
  3
AutoCAD 2000
 90
0
 91
0
280
0
281
0
  0
ENDSEC
  0
SECTION
  2
TABLES
  0
TABLE
  2
VPORT
  5
8
100
AcDbSymbolTable
 70
2
  0
VPORT
  5
1F4
100
AcDbSymbolTableRecord
100
AcDbViewportTableRecord
  2
*ACTIVE
 70
0
 10
0.0
 20
0.0
 11
1.0
 21
1.0
 12
210.0
 22
148.5
 13
0.0
 23
0.0
 14
1.0
 24
1.0
 15
0.0
 25
0.0
 16
0.0
 26
0.0
 36
1.0
 17
0.0
 27
0.0
 37
0.0
 40
297.0
 41
1.4141414141
 42
50.0
 43
0.0
 44
0.0
 50
0.0
 51
0.0
 71
0
 72
100
 73
1
 74
1
 75
0
 76
0
 77
0
 78
0
  0
ENDTAB
  0
TABLE
  2
LTYPE
  5
5
100
AcDbSymbolTable
 70
6
  0
LTYPE
  5
14
100
AcDbSymbolTableRecord
100
AcDbLinetypeTableRecord
  2
BYBLOCK
 70
0
  3

 72
65
 73
0
 40
0.0
  0
LTYPE
  5
15
100
AcDbSymbolTableRecord
100
AcDbLinetypeTableRecord
  2
BYLAYER
 70
0
  3

 72
65
 73
0
 40
0.0
  0
LTYPE
  5
16
100
AcDbSymbolTableRecord
100
AcDbLinetypeTableRecord
  2
CONTINUOUS
 70
64
  3
Solid line
 72
65
 73
0
 40
0.0
  0
LTYPE
  5
1F5
100
AcDbSymbolTableRecord
100
AcDbLinetypeTableRecord
  2
CENTER
 70
64
  3
____ _ ____ _ ____ _ ____ _ ____ _ ____ _ ____
 72
65
 73
4
 40
0.6
 49
0.375
 74
0
 49
-0.075
 74
0
 49
0.075
 74
0
 49
-0.075
 74
0
  0
LTYPE
  5
1F6
100
AcDbSymbolTableRecord
100
AcDbLinetypeTableRecord
  2
HIDDEN
 70
64
  3
- - - - - - - - - - - - - - - - - - - -
 72
65
 73
2
 40
0.2
 49
0.1
 74
0
 49
-0.1
 74
0
  0
LTYPE
  5
1F7
100
AcDbSymbolTableRecord
100
AcDbLinetypeTableRecord
  2
PHANTOM
 70
64
  3
_____ _ _ _____ _ _ _____ _ _ _____
 72
65
 73
6
 40
0.8
 49
0.45
 74
0
 49
-0.05
 74
0
 49
0.1
 74
0
 49
-0.05
 74
0
 49
0.1
 74
0
 49
-0.05
 74
0
  0
LTYPE
  5
1F8
100
AcDbSymbolTableRecord
100
AcDbLinetypeTableRecord
  2
DOT
 70
64
  3
. . . . . . . . . . . . . . . . . . . .
 72
65
 73
2
 40
0.2
 49
0.1
 74
0
 49
-0.1
 74
0
  0
LTYPE
  5
1F9
100
AcDbSymbolTableRecord
100
AcDbLinetypeTableRecord
  2
DASHED
 70
64
  3
- - - - - - - - - - - - - - - - - - - -
 72
65
 73
2
 40
0.2
 49
0.1
 74
0
 49
-0.1
 74
0
  0
ENDTAB
  0
TABLE
  2
LAYER
  5
2
100
AcDbSymbolTable
 70
36
  0
LAYER
  5
10
100
AcDbSymbolTableRecord
100
AcDbLayerTableRecord
  2
0
 70
0
 62
7
  6
CONTINUOUS
370
-3
390
F
  0
LAYER
  5
1FA
100
AcDbSymbolTableRecord
100
AcDbLayerTableRecord
  2
DEFAULT_1
 70
0
 62
7
  6
CENTER
370
-3
390
F
  0
LAYER
  5
1FB
100
AcDbSymbolTableRecord
100
AcDbLayerTableRecord
  2
DEFAULT_2
 70
0
 62
1
  6
HIDDEN
370
-3
390
F
  0
LAYER
  5
1FC
100
AcDbSymbolTableRecord
100
AcDbLayerTableRecord
  2
DEFAULT_3
 70
0
 62
7
  6
PHANTOM
370
-3
390
F
  0
LAYER
  5
1FD
100
AcDbSymbolTableRecord
100
AcDbLayerTableRecord
  2
BG_STARTBEZUEGE
 70
0
 62
7
  6
CONTINUOUS
370
-3
390
F
  0
LAYER
  5
1FE
100
AcDbSymbolTableRecord
100
AcDbLayerTableRecord
  2
HILFEN
 70
0
 62
7
  6
CONTINUOUS
370
-3
390
F
  0
LAYER
  5
1FF
100
AcDbSymbolTableRecord
100
AcDbLayerTableRecord
  2
PLATZIERUNG
 70
0
 62
7
  6
CONTINUOUS
370
-3
390
F
  0
LAYER
  5
200
100
AcDbSymbolTableRecord
100
AcDbLayerTableRecord
  2
T_STARTBEZUEGE
 70
0
 62
7
  6
CONTINUOUS
370
-3
390
F
  0
LAYER
  5
201
100
AcDbSymbolTableRecord
100
AcDbLayerTableRecord
  2
_03_2D_ZEICHNUNG_BEMASSUNGEN
 70
0
 62
7
  6
CONTINUOUS
370
-3
390
F
  0
LAYER
  5
202
100
AcDbSymbolTableRecord
100
AcDbLayerTableRecord
  2
_04_NOTIZEN
 70
0
 62
7
  6
CONTINUOUS
370
-3
390
F
  0
LAYER
  5
203
100
AcDbSymbolTableRecord
100
AcDbLayerTableRecord
  2
_05_2D_ELEMENTE
 70
0
 62
7
  6
CONTINUOUS
370
-3
390
F
  0
LAYER
  5
204
100
AcDbSymbolTableRecord
100
AcDbLayerTableRecord
  2
_07_EINRASTLINIEN
 70
0
 62
7
  6
CONTINUOUS
370
-3
390
F
  0
LAYER
  5
205
100
AcDbSymbolTableRecord
100
AcDbLayerTableRecord
  2
_21_KURVEN
 70
0
 62
7
  6
CONTINUOUS
370
-3
390
F
  0
LAYER
  5
206
100
AcDbSymbolTableRecord
100
AcDbLayerTableRecord
  2
_26_BEZUGSACHSEN
 70
0
 62
7
  6
CONTINUOUS
370
-3
390
F
  0
LAYER
  5
207
100
AcDbSymbolTableRecord
100
AcDbLayerTableRecord
  2
_27_BEZUGSEBENEN
 70
0
 62
7
  6
CONTINUOUS
370
-3
390
F
  0
LAYER
  5
208
100
AcDbSymbolTableRecord
100
AcDbLayerTableRecord
  2
_28_BEZUGSPUNKTE
 70
0
 62
7
  6
CONTINUOUS
370
-3
390
F
  0
LAYER
  5
209
100
AcDbSymbolTableRecord
100
AcDbLayerTableRecord
  2
_29_KOORDINATENSYSTEME
 70
0
 62
7
  6
CONTINUOUS
370
-3
390
F
  0
LAYER
  5
20A
100
AcDbSymbolTableRecord
100
AcDbLayerTableRecord
  2
_30_VOLUMEN
 70
0
 62
7
  6
CONTINUOUS
370
-3
390
F
  0
ENDTAB
  0
TABLE
  2
STYLE
  5
3
100
AcDbSymbolTable
 70
1
  0
STYLE
  5
11
100
AcDbSymbolTableRecord
100
AcDbTextStyleTableRecord
  2
STANDARD
 70
0
 40
0.0
 41
0.7
 50
0.0
 71
0
 42
0.2
  3
SIMPLEX.SHX
  4

  0
STYLE
  5
20B
100
AcDbSymbolTableRecord
100
AcDbTextStyleTableRecord
  2
TEXTSTYLE_1
 70
0
 40
0.0
 41
0.8
 50
0.0
 71
0
 42
0.2
  3
gdt
  4

  0
STYLE
  5
20C
100
AcDbSymbolTableRecord
100
AcDbTextStyleTableRecord
  2
TEXTSTYLE_2
 70
0
 40
0.0
 41
0.7
 50
0.0
 71
0
 42
0.2
  3
gdt
  4

  0
ENDTAB
  0
TABLE
  2
VIEW
  5
6
100
AcDbSymbolTable
 70
0
  0
ENDTAB
  0
TABLE
  2
UCS
  5
7
100
AcDbSymbolTable
 70
0
  0
ENDTAB
  0
TABLE
  2
APPID
  5
9
100
AcDbSymbolTable
 70
1
  0
APPID
  5
20D
100
AcDbSymbolTableRecord
100
AcDbRegAppTableRecord
  2
ACAD
 70
0
  0
ENDTAB
  0
TABLE
  2
BLOCK_RECORD
  5
1
100
AcDbSymbolTable
 70
0
  0
BLOCK_RECORD
  5
20E
100
AcDbSymbolTableRecord
100
AcDbBlockTableRecord
  2
*Model_Space
  0
BLOCK_RECORD
  5
20F
100
AcDbSymbolTableRecord
100
AcDbBlockTableRecord
  2
*Paper_Space
  0
BLOCK_RECORD
  5
210
100
AcDbSymbolTableRecord
100
AcDbBlockTableRecord
  2
_FILLED
  0
BLOCK_RECORD
  5
211
100
AcDbSymbolTableRecord
100
AcDbBlockTableRecord
  2
*D0
  0
BLOCK_RECORD
  5
212
100
AcDbSymbolTableRecord
100
AcDbBlockTableRecord
  2
*D1
  0
BLOCK_RECORD
  5
213
100
AcDbSymbolTableRecord
100
AcDbBlockTableRecord
  2
*D2
  0
BLOCK_RECORD
  5
214
100
AcDbSymbolTableRecord
100
AcDbBlockTableRecord
  2
*D3
  0
ENDTAB
  0
TABLE
  2
DIMSTYLE
  5
A
100
AcDbSymbolTable
 70
1
100
AcDbDimStyleTable
 71
0
  0
DIMSTYLE
105
215
100
AcDbSymbolTableRecord
100
AcDbDimStyleTableRecord
  2
STANDARD
 70
0
  3

  4

 40
1.0
 41
3.5
 42
0.0
 43
0.38
 44
1.5
 45
0.0
 46
0.0
 47
0.05
 48
0.05
140
3.5
141
0.09
142
0.0
143
25.4
144
1.0
145
0.0
146
1.0
147
0.625
 71
1.0
 72
0.0
 73
0
 74
0
 75
0
 76
0
 77
1
 78
8
170
0
171
1
172
0
173
0
174
0
175
0
176
0
177
0
178
2
270
2
271
2
272
2
273
2
274
2
275
0
280
0
281
0
282
0
283
1
284
8
285
0
286
0
287
3
288
0
340
11
278
46
341
210
342
210
343
210
344
210
  0
DIMSTYLE
105
216
100
AcDbSymbolTableRecord
100
AcDbDimStyleTableRecord
  2
DIMSTYLE_1
 70
0
  3

  4

 40
1.0
 41
3.5
 42
0.0
 43
0.38
 44
1.5
 45
0.0
 46
0.0
 47
0.5
 48
0.5
140
3.5
141
0.09
142
0.0
143
25.4
144
1.0
145
0.0
146
1.0
147
0.875
 71
0.0
 72
0.0
 73
0
 74
0
 75
0
 76
0
 77
1
 78
8
170
0
171
1
172
0
173
0
174
0
175
0
176
0
177
0
178
2
270
2
271
2
272
2
273
2
274
2
275
0
280
0
281
0
282
0
283
1
284
8
285
0
286
0
287
3
288
0
340
11
278
46
341
210
342
210
343
210
344
210
  0
DIMSTYLE
105
217
100
AcDbSymbolTableRecord
100
AcDbDimStyleTableRecord
  2
DIMSTYLE_2
 70
0
  3

  4

 40
1.0
 41
3.5
 42
0.0
 43
0.38
 44
1.5
 45
0.0
 46
0.0
 47
0.3
 48
0.3
140
3.5
141
0.09
142
0.0
143
25.4
144
1.0
145
0.0
146
1.0
147
0.875
 71
0.0
 72
0.0
 73
0
 74
0
 75
0
 76
0
 77
1
 78
8
170
0
171
1
172
0
173
0
174
0
175
0
176
0
177
0
178
2
270
2
271
2
272
2
273
2
274
2
275
0
280
0
281
0
282
0
283
1
284
8
285
0
286
0
287
3
288
0
340
11
278
46
341
210
342
210
343
210
344
210
  0
DIMSTYLE
105
218
100
AcDbSymbolTableRecord
100
AcDbDimStyleTableRecord
  2
DIMSTYLE_3
 70
0
  3

  4

 40
1.0
 41
3.5
 42
0.0
 43
0.38
 44
1.5
 45
0.0
 46
0.0
 47
0.2
 48
0.2
140
3.5
141
0.09
142
0.0
143
25.4
144
1.0
145
0.0
146
1.0
147
0.875
 71
0.0
 72
0.0
 73
0
 74
0
 75
0
 76
0
 77
1
 78
8
170
0
171
1
172
0
173
0
174
0
175
0
176
0
177
0
178
2
270
2
271
2
272
2
273
2
274
2
275
0
280
0
281
0
282
0
283
1
284
8
285
0
286
0
287
3
288
0
340
11
278
46
341
210
342
210
343
210
344
210
  0
ENDTAB
  0
ENDSEC
  0
SECTION
  2
BLOCKS
  0
BLOCK
  5
20
100
AcDbEntity
  8
0
100
AcDbBlockBegin
  2
*Model_Space
 70
0
 10
0.0
 20
0.0
 30
0.0
  3
*Model_Space
  1

  0
ENDBLK
  5
21
100
AcDbEntity
  8
0
100
AcDbBlockEnd
  0
BLOCK
  5
1C
100
AcDbEntity
  8
0
100
AcDbBlockBegin
  2
*Paper_Space
 70
0
 10
0.0
 20
0.0
 30
0.0
  3
*Paper_Space
  1

  0
ENDBLK
  5
1D
100
AcDbEntity
  8
0
100
AcDbBlockEnd
  0
BLOCK
  5
219
100
AcDbEntity
  8
0
100
AcDbBlockBegin
  2
_FILLED
 70
64
 10
0.0
 20
0.0
  3
_FILLED
  1

  0
SOLID
  5
21A
100
AcDbEntity
  8
0
  6
BYBLOCK
 62
0
100
AcDbTrace
 10
0.0
 20
0.0
 11
-1.0
 21
0.125
 12
-1.0
 22
-0.125
 13
-1.0
 23
-0.125
  0
ENDBLK
  5
21B
100
AcDbEntity
  8
0
  6
BYBLOCK
 62
0
100
AcDbBlockEnd
  0
BLOCK
  5
21C
100
AcDbEntity
  8
_03_2D_ZEICHNUNG_BEMASSUNGEN
100
AcDbBlockBegin
 62
7
  6
CONTINUOUS
  2
*D0
 70
65
 10
0.0
 20
0.0
  3
*D0
  1

  0
TEXT
  5
21D
100
AcDbEntity
  8
_03_2D_ZEICHNUNG_BEMASSUNGEN
100
AcDbText
 62
2
  6
CONTINUOUS
 10
95.875
 20
31.9082540421
  7
STANDARD
 40
3.5
  1
200
 41
0.7857142857
 72
1
 11
100.0
 21
31.9082540421
100
AcDbText
  0
LINE
  5
21E
100
AcDbEntity
  8
_03_2D_ZEICHNUNG_BEMASSUNGEN
100
AcDbLine
 62
7
  6
CONTINUOUS
 10
0.0
 20
-18.1066595924
 11
-0.0
 21
32.5332540421
  0
LINE
  5
21F
100
AcDbEntity
  8
_03_2D_ZEICHNUNG_BEMASSUNGEN
100
AcDbLine
 62
7
  6
CONTINUOUS
 10
200.0
 20
-18.1066595924
 11
200.0
 21
32.5332540421
  0
LINE
  5
220
100
AcDbEntity
  8
_03_2D_ZEICHNUNG_BEMASSUNGEN
100
AcDbLine
 62
7
  6
CONTINUOUS
 10
-0.0
 20
31.0332540421
 11
100.0
 21
31.0332540421
  0
LINE
  5
221
100
AcDbEntity
  8
_03_2D_ZEICHNUNG_BEMASSUNGEN
100
AcDbLine
 62
7
  6
CONTINUOUS
 10
200.0
 20
31.0332540421
 11
100.0
 21
31.0332540421
  0
INSERT
  5
222
100
AcDbEntity
  8
_03_2D_ZEICHNUNG_BEMASSUNGEN
100
AcDbBlockReference
 62
7
  6
CONTINUOUS
  2
_FILLED
 10
-0.0
 20
31.0332540421
 41
3.5
 42
3.5
 43
3.5
 50
180.0
  0
INSERT
  5
223
100
AcDbEntity
  8
_03_2D_ZEICHNUNG_BEMASSUNGEN
100
AcDbBlockReference
 62
7
  6
CONTINUOUS
  2
_FILLED
 10
200.0
 20
31.0332540421
 41
3.5
 42
3.5
 43
3.5
  0
ENDBLK
  5
224
100
AcDbEntity
  8
0
  6
BYBLOCK
 62
0
100
AcDbBlockEnd
  0
BLOCK
  5
225
100
AcDbEntity
  8
_03_2D_ZEICHNUNG_BEMASSUNGEN
100
AcDbBlockBegin
 62
7
  6
CONTINUOUS
  2
*D1
 70
65
 10
0.0
 20
0.0
  3
*D1
  1

  0
TEXT
  5
226
100
AcDbEntity
  8
_03_2D_ZEICHNUNG_BEMASSUNGEN
100
AcDbText
 62
2
  6
CONTINUOUS
 10
177.25
 20
22.9082540421
  7
STANDARD
 40
3.5
  1
40
 41
0.7857142857
 72
1
 11
180.0
 21
22.9082540421
100
AcDbText
  0
LINE
  5
227
100
AcDbEntity
  8
_03_2D_ZEICHNUNG_BEMASSUNGEN
100
AcDbLine
 62
7
  6
CONTINUOUS
 10
200.0
 20
-18.1066595924
 11
200.0
 21
23.5332540421
  0
LINE
  5
228
100
AcDbEntity
  8
_03_2D_ZEICHNUNG_BEMASSUNGEN
100
AcDbLine
 62
7
  6
CONTINUOUS
 10
160.0
 20
-18.1066595924
 11
160.0
 21
23.5332540421
  0
LINE
  5
229
100
AcDbEntity
  8
_03_2D_ZEICHNUNG_BEMASSUNGEN
100
AcDbLine
 62
7
  6
CONTINUOUS
 10
200.0
 20
22.0332540421
 11
180.0
 21
22.0332540421
  0
LINE
  5
22A
100
AcDbEntity
  8
_03_2D_ZEICHNUNG_BEMASSUNGEN
100
AcDbLine
 62
7
  6
CONTINUOUS
 10
160.0
 20
22.0332540421
 11
180.0
 21
22.0332540421
  0
INSERT
  5
22B
100
AcDbEntity
  8
_03_2D_ZEICHNUNG_BEMASSUNGEN
100
AcDbBlockReference
 62
7
  6
CONTINUOUS
  2
_FILLED
 10
200.0
 20
22.0332540421
 41
3.5
 42
3.5
 43
3.5
  0
INSERT
  5
22C
100
AcDbEntity
  8
_03_2D_ZEICHNUNG_BEMASSUNGEN
100
AcDbBlockReference
 62
7
  6
CONTINUOUS
  2
_FILLED
 10
160.0
 20
22.0332540421
 41
3.5
 42
3.5
 43
3.5
 50
180.0
  0
ENDBLK
  5
22D
100
AcDbEntity
  8
0
  6
BYBLOCK
 62
0
100
AcDbBlockEnd
  0
BLOCK
  5
22E
100
AcDbEntity
  8
_03_2D_ZEICHNUNG_BEMASSUNGEN
100
AcDbBlockBegin
 62
7
  6
CONTINUOUS
  2
*D2
 70
65
 10
0.0
 20
0.0
  3
*D2
  1

  0
TEXT
  5
22F
100
AcDbEntity
  8
_03_2D_ZEICHNUNG_BEMASSUNGEN
100
AcDbText
 62
2
  6
CONTINUOUS
 10
-9.875
 20
-4.9583333333
  7
TEXTSTYLE_2
 40
3.5
  1
n
 50
90.0
 41
1.0
 72
1
 11
-9.875
 21
-2.625
100
AcDbText
  0
TEXT
  5
230
100
AcDbEntity
  8
_03_2D_ZEICHNUNG_BEMASSUNGEN
100
AcDbText
 62
2
  6
CONTINUOUS
 10
-9.875
 20
-0.2916666667
  7
STANDARD
 40
3.5
  1
25
 50
90.0
 41
0.75
 72
1
 11
-9.875
 21
2.3333333333
100
AcDbText
  0
LINE
  5
231
100
AcDbEntity
  8
_03_2D_ZEICHNUNG_BEMASSUNGEN
100
AcDbLine
 62
7
  6
CONTINUOUS
 10
0.5
 20
12.5
 11
-10.5
 21
12.5
  0
LINE
  5
232
100
AcDbEntity
  8
_03_2D_ZEICHNUNG_BEMASSUNGEN
100
AcDbLine
 62
7
  6
CONTINUOUS
 10
0.5
 20
-12.5
 11
-10.5
 21
-12.5
  0
LINE
  5
233
100
AcDbEntity
  8
_03_2D_ZEICHNUNG_BEMASSUNGEN
100
AcDbLine
 62
7
  6
CONTINUOUS
 10
-9.0
 20
12.5
 11
-9.0
 21
18.5
  0
LINE
  5
234
100
AcDbEntity
  8
_03_2D_ZEICHNUNG_BEMASSUNGEN
100
AcDbLine
 62
7
  6
CONTINUOUS
 10
-9.0
 20
18.5
 11
-9.0
 21
0.0
  0
LINE
  5
235
100
AcDbEntity
  8
_03_2D_ZEICHNUNG_BEMASSUNGEN
100
AcDbLine
 62
7
  6
CONTINUOUS
 10
-9.0
 20
-12.5
 11
-9.0
 21
-18.5
  0
LINE
  5
236
100
AcDbEntity
  8
_03_2D_ZEICHNUNG_BEMASSUNGEN
100
AcDbLine
 62
7
  6
CONTINUOUS
 10
-9.0
 20
-18.5
 11
-9.0
 21
0.0
  0
INSERT
  5
237
100
AcDbEntity
  8
_03_2D_ZEICHNUNG_BEMASSUNGEN
100
AcDbBlockReference
 62
7
  6
CONTINUOUS
  2
_FILLED
 10
-9.0
 20
12.5
 41
3.5
 42
3.5
 43
3.5
 50
270.0
  0
INSERT
  5
238
100
AcDbEntity
  8
_03_2D_ZEICHNUNG_BEMASSUNGEN
100
AcDbBlockReference
 62
7
  6
CONTINUOUS
  2
_FILLED
 10
-9.0
 20
-12.5
 41
3.5
 42
3.5
 43
3.5
 50
90.0
  0
ENDBLK
  5
239
100
AcDbEntity
  8
0
  6
BYBLOCK
 62
0
100
AcDbBlockEnd
  0
BLOCK
  5
23A
100
AcDbEntity
  8
_03_2D_ZEICHNUNG_BEMASSUNGEN
100
AcDbBlockBegin
 62
7
  6
CONTINUOUS
  2
*D3
 70
65
 10
0.0
 20
0.0
  3
*D3
  1

  0
TEXT
  5
23B
100
AcDbEntity
  8
_03_2D_ZEICHNUNG_BEMASSUNGEN
100
AcDbText
 62
2
  6
CONTINUOUS
 10
208.1648100979
 20
6.125
  7
STANDARD
 40
3.5
  1
17
 50
90.0
 41
0.6785714286
 72
1
 11
208.1648100979
 21
8.5
100
AcDbText
  0
LINE
  5
23C
100
AcDbEntity
  8
_03_2D_ZEICHNUNG_BEMASSUNGEN
100
AcDbLine
 62
7
  6
CONTINUOUS
 10
204.4511087624
 20
0.0
 11
210.5398100979
 21
0.0
  0
LINE
  5
23D
100
AcDbEntity
  8
_03_2D_ZEICHNUNG_BEMASSUNGEN
100
AcDbLine
 62
7
  6
CONTINUOUS
 10
200.0
 20
17.0
 11
210.5398100979
 21
17.0
  0
LINE
  5
23E
100
AcDbEntity
  8
_03_2D_ZEICHNUNG_BEMASSUNGEN
100
AcDbLine
 62
7
  6
CONTINUOUS
 10
209.0398100979
 20
0.0
 11
209.0398100979
 21
-6.0
  0
LINE
  5
23F
100
AcDbEntity
  8
_03_2D_ZEICHNUNG_BEMASSUNGEN
100
AcDbLine
 62
7
  6
CONTINUOUS
 10
209.0398100979
 20
-6.0
 11
209.0398100979
 21
8.5
  0
LINE
  5
240
100
AcDbEntity
  8
_03_2D_ZEICHNUNG_BEMASSUNGEN
100
AcDbLine
 62
7
  6
CONTINUOUS
 10
209.0398100979
 20
17.0
 11
209.0398100979
 21
23.0
  0
LINE
  5
241
100
AcDbEntity
  8
_03_2D_ZEICHNUNG_BEMASSUNGEN
100
AcDbLine
 62
7
  6
CONTINUOUS
 10
209.0398100979
 20
23.0
 11
209.0398100979
 21
8.5
  0
INSERT
  5
242
100
AcDbEntity
  8
_03_2D_ZEICHNUNG_BEMASSUNGEN
100
AcDbBlockReference
 62
7
  6
CONTINUOUS
  2
_FILLED
 10
209.0398100979
 20
0.0
 41
3.5
 42
3.5
 43
3.5
 50
90.0
  0
INSERT
  5
243
100
AcDbEntity
  8
_03_2D_ZEICHNUNG_BEMASSUNGEN
100
AcDbBlockReference
 62
7
  6
CONTINUOUS
  2
_FILLED
 10
209.0398100979
 20
17.0
 41
3.5
 42
3.5
 43
3.5
 50
270.0
  0
ENDBLK
  5
244
100
AcDbEntity
  8
0
  6
BYBLOCK
 62
0
100
AcDbBlockEnd
  0
ENDSEC
  0
SECTION
  2
ENTITIES
  0
DIMENSION
  5
245
100
AcDbEntity
  8
_03_2D_ZEICHNUNG_BEMASSUNGEN
100
AcDbDimension
 62
7
  6
CONTINUOUS
  2
*D0
 10
200.0
 20
31.0332540421
 11
99.5000001526
 21
31.0332540421
 70
160
 71
2
 42
200.0
  3
DIMSTYLE_1
100
AcDbAlignedDimension
 13
0.0
 23
-18.1066595924
 14
200.0
 24
-18.1066595924
100
AcDbRotatedDimension
  0
DIMENSION
  5
246
100
AcDbEntity
  8
_03_2D_ZEICHNUNG_BEMASSUNGEN
100
AcDbDimension
 62
7
  6
CONTINUOUS
  2
*D1
 10
160.0
 20
22.0332540421
 11
179.4999993896
 21
22.0332540421
 70
160
 71
2
 42
40.0
  3
DIMSTYLE_2
100
AcDbAlignedDimension
 13
200.0
 23
-18.1066595924
 14
160.0
 24
-18.1066595924
 50
180.0
100
AcDbRotatedDimension
  0
DIMENSION
  5
247
100
AcDbEntity
  8
_03_2D_ZEICHNUNG_BEMASSUNGEN
100
AcDbDimension
 62
7
  6
CONTINUOUS
  2
*D2
 10
-9.0
 20
-12.5
 11
-9.0
 21
-0.0
 70
160
 71
2
 42
25.0
  1
%%c<>
  3
DIMSTYLE_3
100
AcDbAlignedDimension
 13
0.5
 23
12.5
 14
0.5
 24
-12.5
 50
270.0
100
AcDbRotatedDimension
  0
DIMENSION
  5
248
100
AcDbEntity
  8
_03_2D_ZEICHNUNG_BEMASSUNGEN
100
AcDbDimension
 62
7
  6
CONTINUOUS
  2
*D3
 10
209.0398100979
 20
17.0
 11
209.0398100979
 21
8.0000006932
 70
160
 71
2
 42
17.0
  3
DIMSTYLE_3
100
AcDbAlignedDimension
 13
204.4511087624
 23
0.0
 14
200.0
 24
17.0
 50
90.0
100
AcDbRotatedDimension
  0
LINE
  5
249
100
AcDbEntity
  8
0
100
AcDbLine
 62
4
  6
CONTINUOUS
 10
0.0
 20
-11.9999895247
 11
-0.0
 21
11.9999871444
  0
LINE
  5
24A
100
AcDbEntity
  8
0
100
AcDbLine
 62
4
  6
CONTINUOUS
 10
0.5
 20
-12.5
 11
0.5
 21
-6.7823299831
  0
LINE
  5
24B
100
AcDbEntity
  8
0
100
AcDbLine
 62
4
  6
CONTINUOUS
 10
0.5
 20
6.7823299831
 11
0.5
 21
12.5
  0
LINE
  5
24C
100
AcDbEntity
  8
_30_VOLUMEN
100
AcDbLine
 62
4
  6
CONTINUOUS
 10
0.0
 20
-12.0
 11
0.5
 21
-12.5
  0
LINE
  5
24D
100
AcDbEntity
  8
_30_VOLUMEN
100
AcDbLine
 62
4
  6
CONTINUOUS
 10
-0.0
 20
12.0
 11
0.5
 21
12.5
  0
LINE
  5
24E
100
AcDbEntity
  8
0
100
AcDbLine
 62
4
  6
CONTINUOUS
 10
182.90279937
 20
-13.2578414505
 11
187.9976777486
 21
-13.2578414505
  0
LINE
  5
24F
100
AcDbEntity
  8
_30_VOLUMEN
100
AcDbLine
 62
4
  6
CONTINUOUS
 10
0.5
 20
-12.5
 11
160.0
 21
-12.5
  0
LINE
  5
250
100
AcDbEntity
  8
_30_VOLUMEN
100
AcDbLine
 62
4
  6
CONTINUOUS
 10
160.0
 20
-12.25
 11
182.0
 21
-12.25
  0
LINE
  5
251
100
AcDbEntity
  8
0
100
AcDbLine
 62
4
  6
CONTINUOUS
 10
0.5
 20
-6.7823299831
 11
160.0
 21
-6.7823299831
  0
LINE
  5
252
100
AcDbEntity
  8
0
100
AcDbLine
 62
4
  6
CONTINUOUS
 10
160.0
 20
-6.3097147321
 11
173.3271526556
 21
-6.3097147321
  0
LINE
  5
253
100
AcDbEntity
  8
_26_BEZUGSACHSEN
100
AcDbLine
 62
7
  6
CENTER
 10
-3.0
 20
0.0
 11
204.4511087624
 21
0.0
  0
LINE
  5
254
100
AcDbEntity
  8
0
100
AcDbLine
 62
4
  6
CONTINUOUS
 10
160.0
 20
6.3097147321
 11
168.2853817897
 21
6.3097147321
  0
LINE
  5
255
100
AcDbEntity
  8
0
100
AcDbLine
 62
4
  6
CONTINUOUS
 10
0.5
 20
6.7823299831
 11
160.0
 21
6.7823299831
  0
LINE
  5
256
100
AcDbEntity
  8
_21_KURVEN
100
AcDbLine
 62
7
  6
CONTINUOUS
 10
200.0398100979
 20
17.0332540421
 11
191.4320543256
 21
16.4081596215
  0
LINE
  5
257
100
AcDbEntity
  8
_30_VOLUMEN
100
AcDbLine
 62
4
  6
CONTINUOUS
 10
191.4669967716
 20
16.4106971387
 11
199.5674741537
 21
16.9989530499
  0
LINE
  5
258
100
AcDbEntity
  8
_30_VOLUMEN
100
AcDbLine
 62
4
  6
CONTINUOUS
 10
160.0
 20
12.25
 11
182.0
 21
12.25
  0
LINE
  5
259
100
AcDbEntity
  8
_30_VOLUMEN
100
AcDbLine
 62
4
  6
CONTINUOUS
 10
0.5
 20
12.5
 11
160.0
 21
12.5
  0
LINE
  5
25A
100
AcDbEntity
  8
_30_VOLUMEN
100
AcDbLine
 62
4
  6
CONTINUOUS
 10
184.5137458422
 20
15.84
 11
190.1688561175
 21
15.84
  0
LINE
  5
25B
100
AcDbEntity
  8
_21_KURVEN
100
AcDbLine
 62
7
  6
CONTINUOUS
 10
200.0
 20
17.0
 11
182.0
 21
17.0
  0
LINE
  5
25C
100
AcDbEntity
  8
_21_KURVEN
100
AcDbLine
 62
7
  6
CONTINUOUS
 10
191.4320543256
 20
16.4081596215
 11
183.6009786331
 21
12.8859087404
  0
LINE
  5
25D
100
AcDbEntity
  8
_30_VOLUMEN
100
AcDbLine
 62
4
  6
CONTINUOUS
 10
183.6009786331
 20
12.8859087404
 11
191.4002647458
 21
16.3938613463
  0
LINE
  5
25E
100
AcDbEntity
  8
_30_VOLUMEN
100
AcDbLine
 62
4
  6
CONTINUOUS
 10
194.7538801214
 20
0.3477575108
 11
194.4887645434
 21
0.5364201499
  0
LINE
  5
25F
100
AcDbEntity
  8
_30_VOLUMEN
100
AcDbLine
 62
4
  6
CONTINUOUS
 10
188.5570438383
 20
5.7671440792
 11
195.2466455758
 21
1.0066621506
  0
LINE
  5
260
100
AcDbEntity
  8
_21_KURVEN
100
AcDbLine
 62
7
  6
CONTINUOUS
 10
188.5570438383
 20
5.7671440792
 11
195.6350384824
 21
0.7302723915
  0
LINE
  5
261
100
AcDbEntity
  8
0
100
AcDbLine
 62
4
  6
CONTINUOUS
 10
160.0
 20
12.4999440729
 11
160.0
 21
6.3097147321
  0
LINE
  5
262
100
AcDbEntity
  8
0
100
AcDbLine
 62
4
  6
CONTINUOUS
 10
160.0
 20
-6.3097147321
 11
160.0
 21
-12.4999425849
  0
LINE
  5
263
100
AcDbEntity
  8
_30_VOLUMEN
100
AcDbLine
 62
4
  6
CONTINUOUS
 10
182.0
 20
12.25
 11
184.5137450622
 21
15.84
  0
LINE
  5
264
100
AcDbEntity
  8
_30_VOLUMEN
100
AcDbLine
 62
4
  6
CONTINUOUS
 10
183.8785051853
 20
12.957315774
 11
183.7090320349
 21
12.7307036116
  0
LINE
  5
265
100
AcDbEntity
  8
_30_VOLUMEN
100
AcDbLine
 62
4
  6
CONTINUOUS
 10
182.0
 20
-12.25
 11
182.556911286
 21
-13.0453517431
  0
LINE
  5
266
100
AcDbEntity
  8
_30_VOLUMEN
100
AcDbLine
 62
7
  6
CONTINUOUS
 10
188.5369251169
 20
5.7960420935
 11
188.5302814541
 21
5.7871584752
  0
LINE
  5
267
100
AcDbEntity
  8
_21_KURVEN
100
AcDbLine
 62
7
  6
CONTINUOUS
 10
193.0919424044
 20
10.2164783913
 11
192.59917695
 21
9.5575737516
  0
LINE
  5
268
100
AcDbEntity
  8
_21_KURVEN
100
AcDbLine
 62
7
  6
CONTINUOUS
 10
183.6009786331
 20
12.8859087404
 11
188.5570438383
 21
5.7671440792
  0
LINE
  5
269
100
AcDbEntity
  8
_30_VOLUMEN
100
AcDbLine
 62
4
  6
CONTINUOUS
 10
183.6009786331
 20
12.8859087404
 11
188.5570438383
 21
5.7671440792
  0
LINE
  5
26A
100
AcDbEntity
  8
_30_VOLUMEN
100
AcDbLine
 62
4
  6
CONTINUOUS
 10
195.7940923807
 20
1.0890725016
 11
195.8354187856
 21
1.1552034755
  0
LINE
  5
26B
100
AcDbEntity
  8
_30_VOLUMEN
100
AcDbLine
 62
7
  6
CONTINUOUS
 10
195.2466455758
 20
1.0066621506
 11
194.7538801214
 21
0.3477575108
  0
LINE
  5
26C
100
AcDbEntity
  8
_30_VOLUMEN
100
AcDbLine
 62
4
  6
CONTINUOUS
 10
195.7951728871
 20
1.0882685486
 11
195.3024074327
 21
0.4293639088
  0
LINE
  5
26D
100
AcDbEntity
  8
0
100
AcDbLine
 62
4
  6
CONTINUOUS
 10
182.0
 20
12.25
 11
182.0
 21
12.0237316181
  0
LINE
  5
26E
100
AcDbEntity
  8
0
100
AcDbLine
 62
4
  6
CONTINUOUS
 10
182.0
 20
-10.4372014751
 11
182.0
 21
-12.25
  0
LINE
  5
26F
100
AcDbEntity
  8
_21_KURVEN
100
AcDbLine
 62
7
  6
CONTINUOUS
 10
192.59917695
 20
9.5575737516
 11
192.134245459
 21
7.8367649949
  0
LINE
  5
270
100
AcDbEntity
  8
_21_KURVEN
100
AcDbLine
 62
7
  6
CONTINUOUS
 10
192.3386011763
 20
7.4282048348
 11
193.0919424044
 21
10.2164783913
  0
LINE
  5
271
100
AcDbEntity
  8
_30_VOLUMEN
100
AcDbLine
 62
4
  6
CONTINUOUS
 10
194.8446558712
 20
1.2927277192
 11
188.9479900086
 21
-11.2383250997
  0
LINE
  5
272
100
AcDbEntity
  8
0
100
AcDbLine
 62
4
  6
CONTINUOUS
 10
187.9976776081
 20
-13.257841749
 11
188.9479900086
 21
-11.2383250997
  0
LINE
  5
273
100
AcDbEntity
  8
_30_VOLUMEN
100
AcDbLine
 62
4
  6
CONTINUOUS
 10
199.2719053249
 20
8.4426959419
 11
195.8354187856
 21
1.1552034755
  0
LINE
  5
274
100
AcDbEntity
  8
_21_KURVEN
100
AcDbLine
 62
7
  6
CONTINUOUS
 10
195.6350384824
 20
0.7302723915
 11
199.2867290494
 21
8.4741314733
  0
LINE
  5
275
100
AcDbEntity
  8
_30_VOLUMEN
100
AcDbLine
 62
7
  6
CONTINUOUS
 10
188.9479900086
 20
-11.2383250997
 11
182.2440625878
 21
12.3935334577
  0
LINE
  5
276
100
AcDbEntity
  8
_21_KURVEN
100
AcDbLine
 62
7
  6
CONTINUOUS
 10
200.0
 20
17.0
 11
200.0
 21
0.0
  0
LINE
  5
277
100
AcDbEntity
  8
_30_VOLUMEN
100
AcDbLine
 62
4
  6
CONTINUOUS
 10
199.9984860574
 20
16.5635867622
 11
199.2897861173
 21
8.5088764969
  0
LINE
  5
278
100
AcDbEntity
  8
_21_KURVEN
100
AcDbLine
 62
7
  6
CONTINUOUS
 10
199.2867290494
 20
8.4741314733
 11
200.0398100979
 21
17.0332540421
  0
LINE
  5
279
100
AcDbEntity
  8
_21_KURVEN
100
AcDbLine
 62
7
  6
CONTINUOUS
 10
192.407072576
 20
7.7305781787
 11
192.3386011763
 21
7.4282048348
  0
ARC
  5
27A
100
AcDbEntity
  8
_30_VOLUMEN
100
AcDbCircle
 62
4
  6
CONTINUOUS
 10
430.8205729524
 20
-152.5507166112
 40
298.3234605857
100
AcDbArc
 50
145.6354184825
 51
146.433527931
  0
ARC
  5
27B
100
AcDbEntity
  8
_26_BEZUGSACHSEN
100
AcDbCircle
 62
4
  6
CONTINUOUS
 10
291.0547646401
 20
-59.6850195551
 40
130.5185300467
100
AcDbArc
 50
146.4786509916
 51
146.6731569373
  0
ARC
  5
27C
100
AcDbEntity
  8
0
100
AcDbCircle
 62
4
  6
CONTINUOUS
 10
270.9955297546
 20
42.3518589619
 40
103.4740992623
100
AcDbArc
 50
210.6749474972
 51
210.8644161581
  0
ARC
  5
27D
100
AcDbEntity
  8
0
100
AcDbCircle
 62
4
  6
CONTINUOUS
 10
21.2755342886
 20
4.510196594
 40
23.6462255227
100
AcDbArc
 50
205.875647103
 51
208.5262595076
  0
ARC
  5
27E
100
AcDbEntity
  8
0
100
AcDbCircle
 62
4
  6
CONTINUOUS
 10
21.2755342886
 20
-4.510196594
 40
23.6462255227
100
AcDbArc
 50
151.4737404924
 51
154.124352897
  0
ARC
  5
27F
100
AcDbEntity
  8
_30_VOLUMEN
100
AcDbCircle
 62
4
  6
CONTINUOUS
 10
192.5755954123
 20
9.6116257547
 40
2.5290911667
100
AcDbArc
 50
126.5780772509
 51
135.3417544446
  0
ARC
  5
280
100
AcDbEntity
  8
_30_VOLUMEN
100
AcDbCircle
 62
4
  6
CONTINUOUS
 10
192.6636064125
 20
9.5481800316
 40
2.5229412645
100
AcDbArc
 50
332.7604373809
 51
339.9480348649
  0
ARC
  5
281
100
AcDbEntity
  8
_30_VOLUMEN
100
AcDbCircle
 62
4
  6
CONTINUOUS
 10
188.7029562184
 20
5.9116414696
 40
0.20231051
100
AcDbArc
 50
214.8476167376
 51
234.5263462999
  0
ARC
  5
282
100
AcDbEntity
  8
_30_VOLUMEN
100
AcDbCircle
 62
4
  6
CONTINUOUS
 10
191.4814165196
 20
16.2129218008
 40
0.1983046381
100
AcDbArc
 50
94.154385578
 51
114.1563365547
  0
ARC
  5
283
100
AcDbEntity
  8
_30_VOLUMEN
100
AcDbCircle
 62
4
  6
CONTINUOUS
 10
199.0959688432
 20
8.5256526698
 40
0.1945134038
100
AcDbArc
 50
334.7554092539
 51
354.9405630207
  0
SPLINE
  5
284
100
AcDbEntity
  8
_30_VOLUMEN
100
AcDbSpline
 62
4
  6
CONTINUOUS
 70
0
 71
3
 72
8
 73
4
 74
0
 42
0.0000001
 43
0.0000001
 44
0.0000000001
 40
0.0
 40
0.0
 40
0.0
 40
0.0
 40
1.0
 40
1.0
 40
1.0
 40
1.0
 10
184.0306955801
 20
13.0791862613
 30
0.0
 10
183.9714327758
 20
13.0525311154
 30
0.0
 10
183.917723033
 20
13.0091279957
 30
0.0
 10
183.8785985642
 20
12.9572449279
 30
0.0
  0
SPLINE
  5
285
100
AcDbEntity
  8
_30_VOLUMEN
100
AcDbSpline
 62
4
  6
CONTINUOUS
 70
0
 71
3
 72
9
 73
5
 74
0
 42
0.0000001
 43
0.0000001
 44
0.0000000001
 40
0.0
 40
0.0
 40
0.0
 40
0.0
 40
0.4979301728
 40
1.0
 40
1.0
 40
1.0
 40
1.0
 10
199.9984860574
 20
16.5635867622
 30
0.0
 10
200.0034982467
 20
16.6205526667
 30
0.0
 10
199.9876375436
 20
16.7384571098
 30
0.0
 10
199.9240880901
 20
16.8389363783
 30
0.0
 10
199.8835207519
 20
16.8799135562
 30
0.0
  0
SPLINE
  5
286
100
AcDbEntity
  8
_30_VOLUMEN
100
AcDbSpline
 62
4
  6
CONTINUOUS
 70
0
 71
3
 72
9
 73
5
 74
0
 42
0.0000001
 43
0.0000001
 44
0.0000000001
 40
0.0
 40
0.0
 40
0.0
 40
0.0
 40
0.5014611801
 40
1.0
 40
1.0
 40
1.0
 40
1.0
 10
199.8835207519
 20
16.8799135562
 30
0.0
 10
199.8428766368
 20
16.9209682866
 30
0.0
 10
199.7427322152
 20
16.9856717396
 30
0.0
 10
199.6247571755
 20
17.0031129376
 30
0.0
 10
199.5674741537
 20
16.9989530499
 30
0.0
  0
SPLINE
  5
287
100
AcDbEntity
  8
_30_VOLUMEN
100
AcDbSpline
 62
4
  6
CONTINUOUS
 70
0
 71
3
 72
15
 73
11
 74
0
 42
0.0000001
 43
0.0000001
 44
0.0000000001
 40
0.0
 40
0.0
 40
0.0
 40
0.0
 40
0.12550181
 40
0.2514741487
 40
0.3771303346
 40
0.5024863175
 40
0.6274505827
 40
0.7519625193
 40
0.8760810344
 40
1.0
 40
1.0
 40
1.0
 40
1.0
 10
192.407072576
 20
7.7305781787
 30
0.0
 10
192.2068549446
 20
7.7868914293
 30
0.0
 10
191.8179518126
 20
7.9492714992
 30
0.0
 10
191.3092581063
 20
8.3220595989
 30
0.0
 10
190.9039110348
 20
8.8055440862
 30
0.0
 10
190.6262896271
 20
9.3700240947
 30
0.0
 10
190.4911667091
 20
9.9825823207
 30
0.0
 10
190.5084241502
 20
10.6077766741
 30
0.0
 10
190.6759474335
 20
11.2081745223
 30
0.0
 10
190.8821449197
 20
11.5694787077
 30
0.0
 10
191.005114056
 20
11.7339554443
 30
0.0
  0
SPLINE
  5
288
100
AcDbEntity
  8
_30_VOLUMEN
100
AcDbSpline
 62
4
  6
CONTINUOUS
 70
0
 71
3
 72
11
 73
7
 74
0
 42
0.0000001
 43
0.0000001
 44
0.0000000001
 40
0.0
 40
0.0
 40
0.0
 40
0.0
 40
0.2513480312
 40
0.501977564
 40
0.7512507583
 40
1.0
 40
1.0
 40
1.0
 40
1.0
 10
192.407072576
 20
7.7305781787
 30
0.0
 10
192.6529598933
 20
7.6614198631
 30
0.0
 10
193.1677870553
 20
7.5961213894
 30
0.0
 10
193.9310454306
 20
7.7282605837
 30
0.0
 10
194.6182837642
 20
8.0801512025
 30
0.0
 10
194.9859958614
 20
8.4411723451
 30
0.0
 10
195.1373618912
 20
8.6436312006
 30
0.0
  0
SPLINE
  5
289
100
AcDbEntity
  8
_30_VOLUMEN
100
AcDbSpline
 62
4
  6
CONTINUOUS
 70
0
 71
3
 72
11
 73
7
 74
0
 42
0.0000001
 43
0.0000001
 44
0.0000000001
 40
0.0
 40
0.0
 40
0.0
 40
0.0
 40
0.2488877241
 40
0.497972742
 40
0.7489948545
 40
1.0
 40
1.0
 40
1.0
 40
1.0
 10
195.302222999
 20
0.4294935151
 30
0.0
 10
195.2717860218
 20
0.3890566211
 30
0.0
 10
195.1945776791
 20
0.3189538971
 30
0.0
 10
195.0472353548
 20
0.2669405947
 30
0.0
 10
194.8910881285
 20
0.2748696491
 30
0.0
 10
194.795467285
 20
0.3181630823
 30
0.0
 10
194.7538801214
 20
0.3477575108
 30
0.0
  0
SPLINE
  5
28A
100
AcDbEntity
  8
_30_VOLUMEN
100
AcDbSpline
 62
4
  6
CONTINUOUS
 70
0
 71
3
 72
11
 73
7
 74
0
 42
0.0000001
 43
0.0000001
 44
0.0000000001
 40
0.0
 40
0.0
 40
0.0
 40
0.0
 40
0.2487438275
 40
0.4983081243
 40
0.7491588645
 40
1.0
 40
1.0
 40
1.0
 40
1.0
 10
191.0684653375
 20
11.6426011527
 30
0.0
 10
191.2233780833
 20
11.7575461594
 30
0.0
 10
191.5616816293
 20
11.9524996211
 30
0.0
 10
192.1226509457
 20
12.1217755981
 30
0.0
 10
192.7089152703
 20
12.158897856
 30
0.0
 10
193.0967864444
 20
12.0961428429
 30
0.0
 10
193.2840467785
 20
12.0434739643
 30
0.0
  0
SPLINE
  5
28B
100
AcDbEntity
  8
_30_VOLUMEN
100
AcDbSpline
 62
4
  6
CONTINUOUS
 70
0
 71
3
 72
11
 73
7
 74
0
 42
0.0000001
 43
0.0000001
 44
0.0000000001
 40
0.0
 40
0.0
 40
0.0
 40
0.0
 40
0.2482430545
 40
0.4979959434
 40
0.7489144289
 40
1.0
 40
1.0
 40
1.0
 40
1.0
 10
195.0336121113
 20
8.6831334365
 30
0.0
 10
195.1533238574
 20
9.0112129953
 30
0.0
 10
195.2545099993
 20
9.7289937249
 30
0.0
 10
194.9584191917
 20
10.7705058126
 30
0.0
 10
194.2719632966
 20
11.6124869924
 30
0.0
 10
193.6240896555
 20
11.9478334374
 30
0.0
 10
193.2840467785
 20
12.0434739643
 30
0.0
  0
SPLINE
  5
28C
100
AcDbEntity
  8
_30_VOLUMEN
100
AcDbSpline
 62
4
  6
CONTINUOUS
 70
0
 71
3
 72
15
 73
11
 74
0
 42
0.0000001
 43
0.0000001
 44
0.0000000001
 40
0.0
 40
0.0
 40
0.0
 40
0.0
 40
0.1259035517
 40
0.251745741
 40
0.377078994
 40
0.5016813848
 40
0.6257888515
 40
0.7499305943
 40
0.8745864388
 40
1.0
 40
1.0
 40
1.0
 40
1.0
 10
193.8452836325
 20
13.0047519479
 30
0.0
 10
194.2115459066
 20
12.9017369482
 30
0.0
 10
194.9108719726
 20
12.5487415327
 30
0.0
 10
195.6764438129
 20
11.6678261148
 30
0.0
 10
196.0524280996
 20
10.5651780968
 30
0.0
 10
195.9772494355
 20
9.4074581048
 30
0.0
 10
195.461400734
 20
8.3718105757
 30
0.0
 10
194.5826312458
 20
7.6186526766
 30
0.0
 10
193.4793467519
 20
7.2621265145
 30
0.0
 10
192.7034380337
 20
7.3255907481
 30
0.0
 10
192.3386011763
 20
7.4282048348
 30
0.0
  0
SPLINE
  5
28D
100
AcDbEntity
  8
_30_VOLUMEN
100
AcDbSpline
 62
4
  6
CONTINUOUS
 70
0
 71
3
 72
11
 73
7
 74
0
 42
0.0000001
 43
0.0000001
 44
0.0000000001
 40
0.0
 40
0.0
 40
0.0
 40
0.0
 40
0.2510051455
 40
0.502027258
 40
0.7511122759
 40
1.0
 40
1.0
 40
1.0
 40
1.0
 10
195.2466455758
 20
1.0066621506
 30
0.0
 10
195.2882327394
 20
0.9770677221
 30
0.0
 10
195.3838535829
 20
0.9337742889
 30
0.0
 10
195.5400008092
 20
0.9258452344
 30
0.0
 10
195.6873431335
 20
0.9778585369
 30
0.0
 10
195.7645514762
 20
1.0479612609
 30
0.0
 10
195.7949884534
 20
1.0883981549
 30
0.0
  0
SPLINE
  5
28E
100
AcDbEntity
  8
_30_VOLUMEN
100
AcDbSpline
 62
4
  6
CONTINUOUS
 70
0
 71
3
 72
9
 73
5
 74
0
 42
0.0000001
 43
0.0000001
 44
0.0000000001
 40
0.0
 40
0.0
 40
0.0
 40
0.0
 40
0.4979043951
 40
1.0
 40
1.0
 40
1.0
 40
1.0
 10
183.8785985642
 20
12.9572449279
 30
0.0
 10
183.8300714198
 20
12.8928929456
 30
0.0
 10
183.7736528867
 20
12.7276728336
 30
0.0
 10
183.8264955915
 20
12.5619819785
 30
0.0
 10
183.872934274
 20
12.4952786486
 30
0.0
  0
SPLINE
  5
28F
100
AcDbEntity
  8
_30_VOLUMEN
100
AcDbSpline
 62
4
  6
CONTINUOUS
 70
0
 71
3
 72
11
 73
7
 74
0
 42
0.0000001
 43
0.0000001
 44
0.0000000001
 40
0.0
 40
0.0
 40
0.0
 40
0.0
 40
0.2487492417
 40
0.498022436
 40
0.7486519688
 40
1.0
 40
1.0
 40
1.0
 40
1.0
 10
191.005114056
 20
11.7339554443
 30
0.0
 10
191.1564800857
 20
11.9364142998
 30
0.0
 10
191.524192183
 20
12.2974354424
 30
0.0
 10
192.2114305166
 20
12.6493260612
 30
0.0
 10
192.9746888918
 20
12.7814652555
 30
0.0
 10
193.4895160539
 20
12.7161667818
 30
0.0
 10
193.7354033712
 20
12.6470084662
 30
0.0
  0
SPLINE
  5
290
100
AcDbEntity
  8
_30_VOLUMEN
100
AcDbSpline
 62
4
  6
CONTINUOUS
 70
0
 71
3
 72
15
 73
11
 74
0
 42
0.0000001
 43
0.0000001
 44
0.0000000001
 40
0.0
 40
0.0
 40
0.0
 40
0.0
 40
0.1259035517
 40
0.251745741
 40
0.377078994
 40
0.5016813848
 40
0.6257888515
 40
0.7499305943
 40
0.8745864388
 40
1.0
 40
1.0
 40
1.0
 40
1.0
 10
192.3386011763
 20
7.4282048348
 30
0.0
 10
191.9723389023
 20
7.5312198345
 30
0.0
 10
191.2730128362
 20
7.88421525
 30
0.0
 10
190.507440996
 20
8.7651306679
 30
0.0
 10
190.1314567092
 20
9.8677786859
 30
0.0
 10
190.2066353733
 20
11.0254986779
 30
0.0
 10
190.7224840749
 20
12.061146207
 30
0.0
 10
191.601253563
 20
12.8143041061
 30
0.0
 10
192.7045380569
 20
13.1708302682
 30
0.0
 10
193.4804467752
 20
13.1073660346
 30
0.0
 10
193.8452836325
 20
13.0047519479
 30
0.0
  0
SPLINE
  5
291
100
AcDbEntity
  8
_30_VOLUMEN
100
AcDbSpline
 62
4
  6
CONTINUOUS
 70
0
 71
3
 72
15
 73
11
 74
0
 42
0.0000001
 43
0.0000001
 44
0.0000000001
 40
0.0
 40
0.0
 40
0.0
 40
0.0
 40
0.1239189656
 40
0.2480374807
 40
0.3725494173
 40
0.4975136825
 40
0.6228696654
 40
0.7485258513
 40
0.87449819
 40
1.0
 40
1.0
 40
1.0
 40
1.0
 10
195.1373618912
 20
8.6436312006
 30
0.0
 10
195.2603310275
 20
8.8081079372
 30
0.0
 10
195.4665285137
 20
9.1694121226
 30
0.0
 10
195.6340517969
 20
9.7698099707
 30
0.0
 10
195.6513092381
 20
10.3950043242
 30
0.0
 10
195.5161863201
 20
11.0075625501
 30
0.0
 10
195.2385649124
 20
11.5720425587
 30
0.0
 10
194.8332178408
 20
12.055527046
 30
0.0
 10
194.3245241346
 20
12.4283151457
 30
0.0
 10
193.9356210025
 20
12.5906952156
 30
0.0
 10
193.7354033712
 20
12.6470084662
 30
0.0
  0
SPLINE
  5
292
100
AcDbEntity
  8
_21_KURVEN
100
AcDbSpline
 62
5
  6
CONTINUOUS
 70
0
 71
3
 72
9
 73
5
 74
0
 42
0.0000001
 43
0.0000001
 44
0.0000000001
 40
0.0
 40
0.0
 40
0.0
 40
0.0
 40
0.5
 40
1.0
 40
1.0
 40
1.0
 40
1.0
 10
199.9984860574
 20
16.5635867622
 30
0.0
 10
199.9999903047
 20
16.6008533199
 30
0.0
 10
199.9990282792
 20
16.679905022
 30
0.0
 10
199.9694491189
 20
16.7507525461
 30
0.0
 10
199.9525156605
 20
16.7864399346
 30
0.0
  0
SPLINE
  5
293
100
AcDbEntity
  8
_21_KURVEN
100
AcDbSpline
 62
5
  6
CONTINUOUS
 70
0
 71
3
 72
9
 73
5
 74
0
 42
0.0000001
 43
0.0000001
 44
0.0000000001
 40
0.0
 40
0.0
 40
0.0
 40
0.0
 40
0.5
 40
1.0
 40
1.0
 40
1.0
 40
1.0
 10
199.9525156564
 20
16.7864399423
 30
0.0
 10
199.9332222088
 20
16.8187144496
 30
0.0
 10
199.8888572754
 20
16.8849074758
 30
0.0
 10
199.8253183705
 20
16.9285389296
 30
0.0
 10
199.791262772
 20
16.9496079113
 30
0.0
  0
SPLINE
  5
294
100
AcDbEntity
  8
_21_KURVEN
100
AcDbSpline
 62
5
  6
CONTINUOUS
 70
0
 71
3
 72
9
 73
5
 74
0
 42
0.0000001
 43
0.0000001
 44
0.0000000001
 40
0.0
 40
0.0
 40
0.0
 40
0.0
 40
0.5
 40
1.0
 40
1.0
 40
1.0
 40
1.0
 10
199.7912627787
 20
16.9496079076
 30
0.0
 10
199.7574827074
 20
16.9662697506
 30
0.0
 10
199.6849284275
 20
16.9977994271
 30
0.0
 10
199.6061859266
 20
16.9998792145
 30
0.0
 10
199.5674741491
 20
16.9989530496
 30
0.0
  0
SPLINE
  5
295
100
AcDbEntity
  8
_21_KURVEN
100
AcDbSpline
 62
5
  6
CONTINUOUS
 70
0
 71
3
 72
8
 73
4
 74
0
 42
0.0000001
 43
0.0000001
 44
0.0000000001
 40
0.0
 40
0.0
 40
0.0
 40
0.0
 40
1.0
 40
1.0
 40
1.0
 40
1.0
 10
199.2719053249
 20
8.4426959419
 30
0.0
 10
199.2747848384
 20
8.4489450551
 30
0.0
 10
199.2777740601
 20
8.4561986452
 30
0.0
 10
199.2807232028
 20
8.4648112211
 30
0.0
  0
LINE
  5
296
100
AcDbEntity
  8
_21_KURVEN
100
AcDbLine
 62
5
  6
CONTINUOUS
 10
199.2807232029
 20
8.4648112215
 11
199.2841540411
 21
8.4764280872
  0
SPLINE
  5
297
100
AcDbEntity
  8
_21_KURVEN
100
AcDbSpline
 62
5
  6
CONTINUOUS
 70
0
 71
3
 72
8
 73
4
 74
0
 42
0.0000001
 43
0.0000001
 44
0.0000000001
 40
0.0
 40
0.0
 40
0.0
 40
0.0
 40
1.0
 40
1.0
 40
1.0
 40
1.0
 10
199.284154041
 20
8.4764280869
 30
0.0
 10
199.2864828325
 20
8.4857910141
 30
0.0
 10
199.2885336663
 20
8.4967873446
 30
0.0
 10
199.2897861173
 20
8.5088764973
 30
0.0
  0
SPLINE
  5
298
100
AcDbEntity
  8
_21_KURVEN
100
AcDbSpline
 62
5
  6
CONTINUOUS
 70
0
 71
3
 72
11
 73
7
 74
0
 42
0.0000001
 43
0.0000001
 44
0.0000000001
 40
0.0
 40
0.0
 40
0.0
 40
0.0
 40
0.25
 40
0.5
 40
0.75
 40
1.0
 40
1.0
 40
1.0
 40
1.0
 10
195.2466455758
 20
1.0066621506
 30
0.0
 10
195.2735413461
 20
0.9904991703
 30
0.0
 10
195.3279137435
 20
0.9592244856
 30
0.0
 10
195.4188705877
 20
0.9321172774
 30
0.0
 10
195.513443802
 20
0.9305767467
 30
0.0
 10
195.5741502821
 20
0.9440820797
 30
0.0
 10
195.6043710337
 20
0.9514256875
 30
0.0
  0
SPLINE
  5
299
100
AcDbEntity
  8
_21_KURVEN
100
AcDbSpline
 62
5
  6
CONTINUOUS
 70
0
 71
3
 72
9
 73
5
 74
0
 42
0.0000001
 43
0.0000001
 44
0.0000000001
 40
0.0
 40
0.0
 40
0.0
 40
0.0
 40
0.5
 40
1.0
 40
1.0
 40
1.0
 40
1.0
 10
195.6043710238
 20
0.9514256842
 30
0.0
 10
195.6504969367
 20
0.9698737517
 30
0.0
 10
195.744907952
 20
1.0156238829
 30
0.0
 10
195.8031155681
 20
1.0992860327
 30
0.0
 10
195.8293311653
 20
1.142864887
 30
0.0
  0
LINE
  5
29A
100
AcDbEntity
  8
_21_KURVEN
100
AcDbLine
 62
5
  6
CONTINUOUS
 10
195.829331165
 20
1.1428648864
 11
195.8354187856
 21
1.1552034754
  0
SPLINE
  5
29B
100
AcDbEntity
  8
_21_KURVEN
100
AcDbSpline
 62
1
  6
CENTER
 70
0
 71
3
 72
74
 73
70
 74
0
 42
0.0000001
 43
0.0000001
 44
0.0000000001
 40
0.0
 40
0.0
 40
0.0
 40
0.0
 40
0.03125
 40
0.0625
 40
0.09375
 40
0.109375
 40
0.125
 40
0.1328125
 40
0.140625
 40
0.15625
 40
0.171875
 40
0.1875
 40
0.21875
 40
0.234375
 40
0.25
 40
0.265625
 40
0.2734375
 40
0.28125
 40
0.28515625
 40
0.2890625
 40
0.296875
 40
0.3125
 40
0.34375
 40
0.375
 40
0.40625
 40
0.4140625
 40
0.421875
 40
0.4296875
 40
0.43359375
 40
0.4375
 40
0.4453125
 40
0.453125
 40
0.46875
 40
0.5
 40
0.53125
 40
0.546875
 40
0.5546875
 40
0.5625
 40
0.56640625
 40
0.5703125
 40
0.578125
 40
0.5859375
 40
0.59375
 40
0.625
 40
0.65625
 40
0.6875
 40
0.703125
 40
0.7109375
 40
0.71484375
 40
0.71875
 40
0.7265625
 40
0.734375
 40
0.75
 40
0.765625
 40
0.78125
 40
0.8125
 40
0.828125
 40
0.84375
 40
0.8515625
 40
0.85546875
 40
0.857421875
 40
0.859375
 40
0.8671875
 40
0.875
 40
0.890625
 40
0.90625
 40
0.9375
 40
0.96875
 40
1.0
 40
1.0
 40
1.0
 40
1.0
 10
191.4572717553
 20
4.1662201886
 30
0.0
 10
191.5571813659
 20
4.1495516495
 30
0.0
 10
191.7570002774
 20
4.1162072189
 30
0.0
 10
192.0567305028
 20
4.0662346872
 30
0.0
 10
192.3065002709
 20
4.0244622441
 30
0.0
 10
192.5063281636
 20
3.9913310325
 30
0.0
 10
192.6311931108
 20
3.9699715013
 30
0.0
 10
192.7311480148
 20
3.9543782482
 30
0.0
 10
192.8308731227
 20
3.9333295269
 30
0.0
 10
192.9571742948
 20
3.9460666716
 30
0.0
 10
193.1083511898
 20
3.9522208883
 30
0.0
 10
193.3100546257
 20
3.9636230403
 30
0.0
 10
193.5117216296
 20
3.9741067283
 30
0.0
 10
193.7133972476
 20
3.9849484112
 30
0.0
 10
193.8646645508
 20
3.9929241525
 30
0.0
 10
193.9906817484
 20
3.999939842
 30
0.0
 10
194.0915835438
 20
4.0047439817
 30
0.0
 10
194.1544465169
 20
4.0095829795
 30
0.0
 10
194.2051964437
 20
4.0092488957
 30
0.0
 10
194.2542686966
 20
4.0242668116
 30
0.0
 10
194.3404373948
 20
4.0478725867
 30
0.0
 10
194.512569142
 20
4.09698013
 30
0.0
 10
194.7585643143
 20
4.1661714099
 30
0.0
 10
195.0537837297
 20
4.2494865434
 30
0.0
 10
195.2750114539
 20
4.3122709247
 30
0.0
 10
195.4228001212
 20
4.3535412111
 30
0.0
 10
195.4961496982
 20
4.3752489461
 30
0.0
 10
195.559039615
 20
4.3898610805
 30
0.0
 10
195.6020929735
 20
4.4158510191
 30
0.0
 10
195.6464139601
 20
4.4393435848
 30
0.0
 10
195.701381202
 20
4.4695643003
 30
0.0
 10
195.7895710773
 20
4.5174401376
 30
0.0
 10
195.9437896827
 20
4.6014465342
 30
0.0
 10
196.164167765
 20
4.7213283065
 30
0.0
 10
196.3844992184
 20
4.8412934819
 30
0.0
 10
196.5387831043
 20
4.9251831141
 30
0.0
 10
196.6268703959
 20
4.9732424383
 30
0.0
 10
196.6820999258
 20
5.0029940111
 30
0.0
 10
196.7258823477
 20
5.0274498829
 30
0.0
 10
196.7711295993
 20
5.0495157046
 30
0.0
 10
196.8172039436
 20
5.0942050904
 30
0.0
 10
196.8749408793
 20
5.1438384483
 30
0.0
 10
196.9891568445
 20
5.2451587036
 30
0.0
 10
197.1609914672
 20
5.396290284
 30
0.0
 10
197.3898965104
 20
5.5982189256
 30
0.0
 10
197.5804354701
 20
5.7666022169
 30
0.0
 10
197.714355659
 20
5.8840570396
 30
0.0
 10
197.780557879
 20
5.9433759491
 30
0.0
 10
197.8196093727
 20
5.9763175408
 30
0.0
 10
197.8463943984
 20
6.0188483948
 30
0.0
 10
197.8840757393
 20
6.0687285835
 30
0.0
 10
197.9420184439
 20
6.1503719849
 30
0.0
 10
198.0152523961
 20
6.2517965059
 30
0.0
 10
198.1027875575
 20
6.3737759898
 30
0.0
 10
198.219625653
 20
6.5363184144
 30
0.0
 10
198.3364076297
 20
6.6989020447
 30
0.0
 10
198.4532645524
 20
6.8614347234
 30
0.0
 10
198.5261595298
 20
6.9631106885
 30
0.0
 10
198.577464878
 20
7.0340996239
 30
0.0
 10
198.6027361634
 20
7.0698460286
 30
0.0
 10
198.6177908694
 20
7.0898669736
 30
0.0
 10
198.6308160125
 20
7.126211411
 30
0.0
 10
198.6543570544
 20
7.1780835859
 30
0.0
 10
198.6932248004
 20
7.2722712653
 30
0.0
 10
198.7428308672
 20
7.3893311679
 30
0.0
 10
198.8216297045
 20
7.5770041119
 30
0.0
 10
198.9203242363
 20
7.8114658297
 30
0.0
 10
199.03867325
 20
8.0928756594
 30
0.0
 10
199.1175886733
 20
8.28047159
 30
0.0
 10
199.1570443749
 20
8.3742708831
 30
0.0
  0
SPLINE
  5
29C
100
AcDbEntity
  8
_21_KURVEN
100
AcDbSpline
 62
1
  6
CENTER
 70
0
 71
3
 72
11
 73
7
 74
0
 42
0.0000001
 43
0.0000001
 44
0.0000000001
 40
0.0
 40
0.0
 40
0.0
 40
0.0
 40
0.375
 40
0.5625
 40
0.75
 40
1.0
 40
1.0
 40
1.0
 40
1.0
 10
199.1570443829
 20
8.3742709105
 30
0.0
 10
199.1601013024
 20
8.3847711598
 30
0.0
 10
199.164612302
 20
8.4002622101
 30
0.0
 10
199.1708135229
 20
8.421987525
 30
0.0
 10
199.1751546437
 20
8.4372101524
 30
0.0
 10
199.1806073154
 20
8.4568538615
 30
0.0
 10
199.1833290238
 20
8.4666114308
 30
0.0
  0
LINE
  5
29D
100
AcDbEntity
  8
_21_KURVEN
100
AcDbLine
 62
1
  6
CENTER
 10
199.1833290238
 20
8.4666114306
 11
199.2012212348
 21
8.5327936234
  0
SPLINE
  5
29E
100
AcDbEntity
  8
_21_KURVEN
100
AcDbSpline
 62
1
  6
CENTER
 70
0
 71
3
 72
11
 73
7
 74
0
 42
0.0000001
 43
0.0000001
 44
0.0000000001
 40
0.0
 40
0.0
 40
0.0
 40
0.0
 40
0.375
 40
0.5625
 40
0.75
 40
1.0
 40
1.0
 40
1.0
 40
1.0
 10
199.2012212351
 20
8.5327936243
 30
0.0
 10
199.2039990066
 20
8.5433741975
 30
0.0
 10
199.2080835729
 20
8.5589248313
 30
0.0
 10
199.2137462638
 20
8.5809702994
 30
0.0
 10
199.2175529409
 20
8.5957830266
 30
0.0
 10
199.2228962923
 20
8.6172358621
 30
0.0
 10
199.2255123008
 20
8.6276850046
 30
0.0
  0
SPLINE
  5
29F
100
AcDbEntity
  8
_21_KURVEN
100
AcDbSpline
 62
1
  6
CENTER
 70
0
 71
3
 72
70
 73
66
 74
0
 42
0.0000001
 43
0.0000001
 44
0.0000000001
 40
0.0
 40
0.0
 40
0.0
 40
0.0
 40
0.03125
 40
0.0625
 40
0.09375
 40
0.109375
 40
0.125
 40
0.1328125
 40
0.140625
 40
0.15625
 40
0.171875
 40
0.1875
 40
0.21875
 40
0.234375
 40
0.25
 40
0.265625
 40
0.2734375
 40
0.28125
 40
0.28515625
 40
0.2890625
 40
0.296875
 40
0.3125
 40
0.34375
 40
0.375
 40
0.40625
 40
0.4140625
 40
0.421875
 40
0.4296875
 40
0.43359375
 40
0.4375
 40
0.4453125
 40
0.453125
 40
0.46875
 40
0.5
 40
0.53125
 40
0.546875
 40
0.5546875
 40
0.5625
 40
0.56640625
 40
0.5703125
 40
0.578125
 40
0.5859375
 40
0.59375
 40
0.625
 40
0.65625
 40
0.6875
 40
0.703125
 40
0.7109375
 40
0.71484375
 40
0.71875
 40
0.7265625
 40
0.734375
 40
0.75
 40
0.78125
 40
0.8125
 40
0.828125
 40
0.84375
 40
0.859375
 40
0.8671875
 40
0.875
 40
0.890625
 40
0.90625
 40
0.9375
 40
0.96875
 40
1.0
 40
1.0
 40
1.0
 40
1.0
 10
199.2255123011
 20
8.6276850058
 30
0.0
 10
199.2387049179
 20
8.7272626059
 30
0.0
 10
199.2650975456
 20
8.9264175448
 30
0.0
 10
199.3046421224
 20
9.2251515211
 30
0.0
 10
199.3377253335
 20
9.4740919283
 30
0.0
 10
199.3639035317
 20
9.6732544452
 30
0.0
 10
199.3809211336
 20
9.7977078271
 30
0.0
 10
199.3930323606
 20
9.8973236436
 30
0.0
 10
199.4106300235
 20
9.996745569
 30
0.0
 10
199.3933574004
 20
10.1224107702
 30
0.0
 10
199.3818124351
 20
10.2728845908
 30
0.0
 10
199.3632044875
 20
10.4736295581
 30
0.0
 10
199.3455201377
 20
10.6743441283
 30
0.0
 10
199.3274759901
 20
10.8750649848
 30
0.0
 10
199.3140986749
 20
11.0256171653
 30
0.0
 10
199.3025815098
 20
11.1510362362
 30
0.0
 10
199.2941764458
 20
11.2514643146
 30
0.0
 10
199.2870863118
 20
11.314020349
 30
0.0
 10
199.2856207631
 20
11.3645496063
 30
0.0
 10
199.2687985559
 20
11.4133103559
 30
0.0
 10
199.2420360878
 20
11.4989497546
 30
0.0
 10
199.1866145282
 20
11.6700116778
 30
0.0
 10
199.1084039604
 20
11.9144842791
 30
0.0
 10
199.0142635925
 20
12.2078746717
 30
0.0
 10
198.9433656697
 20
12.4277295427
 30
0.0
 10
198.8966780346
 20
12.5746053902
 30
0.0
 10
198.8722764725
 20
12.6474940881
 30
0.0
 10
198.8553713781
 20
12.7100144337
 30
0.0
 10
198.8277448677
 20
12.7527125308
 30
0.0
 10
198.8025811873
 20
12.7966886651
 30
0.0
 10
198.7702834048
 20
12.851221278
 30
0.0
 10
198.7190776577
 20
12.9387177363
 30
0.0
 10
198.6292470178
 20
13.0917219302
 30
0.0
 10
198.5010430959
 20
13.3103656649
 30
0.0
 10
198.3727570768
 20
13.5289624418
 30
0.0
 10
198.2830413729
 20
13.6820323765
 30
0.0
 10
198.2316550122
 20
13.7694255278
 30
0.0
 10
198.1998190259
 20
13.824222278
 30
0.0
 10
198.173707124
 20
13.8676560504
 30
0.0
 10
198.1499432821
 20
13.9125635094
 30
0.0
 10
198.1034319205
 20
13.9581497178
 30
0.0
 10
198.0515420271
 20
14.0153156915
 30
0.0
 10
197.9457447548
 20
14.1283821195
 30
0.0
 10
197.7878830754
 20
14.2984956243
 30
0.0
 10
197.5769865852
 20
14.5251040678
 30
0.0
 10
197.4011372727
 20
14.7137294463
 30
0.0
 10
197.2784386873
 20
14.8463103763
 30
0.0
 10
197.2165223319
 20
14.911842529
 30
0.0
 10
197.1820571029
 20
14.9505118422
 30
0.0
 10
197.1383979092
 20
14.9769073142
 30
0.0
 10
197.0869713981
 20
15.0141034772
 30
0.0
 10
197.0029330313
 20
15.0712733531
 30
0.0
 10
196.8566774613
 20
15.1724022678
 30
0.0
 10
196.6473694101
 20
15.3163909598
 30
0.0
 10
196.4380015983
 20
15.4602441451
 30
0.0
 10
196.2709479924
 20
15.5760368582
 30
0.0
 10
196.1443717139
 20
15.6608322026
 30
0.0
 10
196.0429947938
 20
15.7380297222
 30
0.0
 10
195.945039912
 20
15.772948938
 30
0.0
 10
195.8500282918
 20
15.812555271
 30
0.0
 10
195.7302559871
 20
15.8604583077
 30
0.0
 10
195.5391835652
 20
15.9380001617
 30
0.0
 10
195.3001496632
 20
16.034619532
 30
0.0
 10
195.0133922806
 20
16.1506954305
 30
0.0
 10
194.8222048255
 20
16.2280540954
 30
0.0
 10
194.7266130814
 20
16.2667365862
 30
0.0
  0
SPLINE
  5
2A0
100
AcDbEntity
  8
_21_KURVEN
100
AcDbSpline
 62
1
  6
CENTER
 70
0
 71
3
 72
28
 73
24
 74
0
 42
0.0000001
 43
0.0000001
 44
0.0000000001
 40
0.0
 40
0.0
 40
0.0
 40
0.0
 40
0.125
 40
0.15625
 40
0.1875
 40
0.25
 40
0.3125
 40
0.34375
 40
0.375
 40
0.4375
 40
0.46875
 40
0.5
 40
0.53125
 40
0.5625
 40
0.625
 40
0.65625
 40
0.6875
 40
0.75
 40
0.8125
 40
0.84375
 40
0.875
 40
0.9375
 40
1.0
 40
1.0
 40
1.0
 40
1.0
 10
194.7266130536
 20
16.266736594
 30
0.0
 10
194.5975569895
 20
16.2973270338
 30
0.0
 10
194.4359360426
 20
16.3339082356
 30
0.0
 10
194.2428935068
 20
16.3827762215
 30
0.0
 10
194.1122729354
 20
16.4047510522
 30
0.0
 10
193.9482779689
 20
16.4280820913
 30
0.0
 10
193.7846637594
 20
16.4541576018
 30
0.0
 10
193.6534339768
 20
16.4717412784
 30
0.0
 10
193.5211686849
 20
16.4783107651
 30
0.0
 10
193.3892011719
 20
16.4884655029
 30
0.0
 10
193.257116954
 20
16.4961251299
 30
0.0
 10
193.1581061266
 20
16.5057699314
 30
0.0
 10
193.0589443076
 20
16.5010619634
 30
0.0
 10
192.926768184
 20
16.499985545
 30
0.0
 10
192.7946562333
 20
16.4964094315
 30
0.0
 10
192.6623220378
 20
16.4964317493
 30
0.0
 10
192.5307912574
 20
16.4853932687
 30
0.0
 10
192.3667135114
 20
16.4674860513
 30
0.0
 10
192.2023164245
 20
16.4523189435
 30
0.0
 10
192.0712965894
 20
16.4368962876
 30
0.0
 10
191.9420059413
 20
16.4106051169
 30
0.0
 10
191.779795379
 20
16.3814950813
 30
0.0
 10
191.6502089489
 20
16.3570629986
 30
0.0
 10
191.5853929814
 20
16.344989964
 30
0.0
  0
SPLINE
  5
2A1
100
AcDbEntity
  8
_21_KURVEN
100
AcDbSpline
 62
1
  6
CENTER
 70
0
 71
3
 72
11
 73
7
 74
0
 42
0.0000001
 43
0.0000001
 44
0.0000000001
 40
0.0
 40
0.0
 40
0.0
 40
0.0
 40
0.375
 40
0.5625
 40
0.75
 40
1.0
 40
1.0
 40
1.0
 40
1.0
 10
191.5853931403
 20
16.3449900006
 30
0.0
 10
191.5746926523
 20
16.3425085032
 30
0.0
 10
191.5589774008
 20
16.3388662001
 30
0.0
 10
191.5367097364
 20
16.333578104
 30
0.0
 10
191.5218813452
 20
16.3300597145
 30
0.0
 10
191.4999709068
 20
16.3246877875
 30
0.0
 10
191.4893331975
 20
16.3220930627
 30
0.0
  0
LINE
  5
2A2
100
AcDbEntity
  8
_21_KURVEN
100
AcDbLine
 62
1
  6
CENTER
 10
191.489333195
 20
16.322093062
 11
191.4226005223
 21
16.305241588
  0
SPLINE
  5
2A3
100
AcDbEntity
  8
_21_KURVEN
100
AcDbSpline
 62
1
  6
CENTER
 70
0
 71
3
 72
11
 73
7
 74
0
 42
0.0000001
 43
0.0000001
 44
0.0000000001
 40
0.0
 40
0.0
 40
0.0
 40
0.0
 40
0.375
 40
0.5625
 40
0.75
 40
1.0
 40
1.0
 40
1.0
 40
1.0
 10
191.4226005214
 20
16.3052415877
 30
0.0
 10
191.4119743424
 20
16.3024762613
 30
0.0
 10
191.3962844058
 20
16.2983940786
 30
0.0
 10
191.3743980615
 20
16.2925767574
 30
0.0
 10
191.3589302277
 20
16.2884602911
 30
0.0
 10
191.3395467609
 20
16.2831581271
 30
0.0
 10
191.3298673894
 20
16.2805235253
 30
0.0
  0
SPLINE
  5
2A4
100
AcDbEntity
  8
_21_KURVEN
100
AcDbSpline
 62
1
  6
CENTER
 70
0
 71
3
 72
17
 73
13
 74
0
 42
0.0000001
 43
0.0000001
 44
0.0000000001
 40
0.0
 40
0.0
 40
0.0
 40
0.0
 40
0.125
 40
0.1875
 40
0.25
 40
0.375
 40
0.5
 40
0.625
 40
0.75
 40
0.8125
 40
0.875
 40
1.0
 40
1.0
 40
1.0
 40
1.0
 10
191.3298673909
 20
16.2805235256
 30
0.0
 10
191.2929529772
 20
16.2698919398
 30
0.0
 10
191.2383190294
 20
16.2543504784
 30
0.0
 10
191.1625230749
 20
16.23200486
 30
0.0
 10
191.0768700161
 20
16.2045958576
 30
0.0
 10
190.9735725642
 20
16.1710560094
 30
0.0
 10
190.8487401652
 20
16.1279594195
 30
0.0
 10
190.7262383391
 20
16.0811414605
 30
0.0
 10
190.6236727503
 20
16.039620867
 30
0.0
 10
190.544423874
 20
16.0074377446
 30
0.0
 10
190.4562219523
 20
15.9685651558
 30
0.0
 10
190.3880658826
 20
15.9378244603
 30
0.0
 10
190.3430739757
 20
15.9176831642
 30
0.0
  0
SPLINE
  5
2A5
100
AcDbEntity
  8
_21_KURVEN
100
AcDbSpline
 62
1
  6
CENTER
 70
0
 71
3
 72
19
 73
15
 74
0
 42
0.0000001
 43
0.0000001
 44
0.0000000001
 40
0.0
 40
0.0
 40
0.0
 40
0.0
 40
0.125
 40
0.25
 40
0.3125
 40
0.375
 40
0.4375
 40
0.5
 40
0.5625
 40
0.625
 40
0.75
 40
0.8125
 40
0.875
 40
1.0
 40
1.0
 40
1.0
 40
1.0
 10
190.3430739684
 20
15.9176831607
 30
0.0
 10
190.3381159258
 20
15.9153580346
 30
0.0
 10
190.3284569052
 20
15.9108439045
 30
0.0
 10
190.315097807
 20
15.9045206316
 30
0.0
 10
190.3071603093
 20
15.9007872637
 30
0.0
 10
190.2937543386
 20
15.8943678372
 30
0.0
 10
190.2792404733
 20
15.8873971931
 30
0.0
 10
190.2618388367
 20
15.8790677228
 30
0.0
 10
190.2570961797
 20
15.8767247751
 30
0.0
 10
190.2465051883
 20
15.8715947598
 30
0.0
 10
190.2362009295
 20
15.8665282099
 30
0.0
 10
190.2282891069
 20
15.8626724892
 30
0.0
 10
190.2104599278
 20
15.8538199386
 30
0.0
 10
190.194808074
 20
15.8460322207
 30
0.0
 10
190.1848801647
 20
15.8410955876
 30
0.0
  0
SPLINE
  5
2A6
100
AcDbEntity
  8
_21_KURVEN
100
AcDbSpline
 62
1
  6
CENTER
 70
0
 71
3
 72
8
 73
4
 74
0
 42
0.0000001
 43
0.0000001
 44
0.0000000001
 40
0.0
 40
0.0
 40
0.0
 40
0.0
 40
1.0
 40
1.0
 40
1.0
 40
1.0
 10
190.1848801612
 20
15.8410955858
 30
0.0
 10
190.1588072878
 20
15.8279571551
 30
0.0
 10
190.1326421018
 20
15.8145969025
 30
0.0
 10
190.1073673486
 20
15.8015252736
 30
0.0
  0
SPLINE
  5
2A7
100
AcDbEntity
  8
_21_KURVEN
100
AcDbSpline
 62
1
  6
CENTER
 70
0
 71
3
 72
85
 73
81
 74
0
 42
0.0000001
 43
0.0000001
 44
0.0000000001
 40
0.0
 40
0.0
 40
0.0
 40
0.0
 40
0.0625
 40
0.078125
 40
0.09375
 40
0.1015625
 40
0.10546875
 40
0.109375
 40
0.1171875
 40
0.125
 40
0.140625
 40
0.15625
 40
0.171875
 40
0.1875
 40
0.203125
 40
0.2109375
 40
0.21875
 40
0.22265625
 40
0.2265625
 40
0.234375
 40
0.25
 40
0.28125
 40
0.296875
 40
0.3125
 40
0.3203125
 40
0.328125
 40
0.33203125
 40
0.3359375
 40
0.34375
 40
0.359375
 40
0.375
 40
0.390625
 40
0.40625
 40
0.421875
 40
0.4296875
 40
0.4375
 40
0.4453125
 40
0.44921875
 40
0.453125
 40
0.46875
 40
0.5
 40
0.53125
 40
0.546875
 40
0.55078125
 40
0.5546875
 40
0.5625
 40
0.5703125
 40
0.578125
 40
0.59375
 40
0.609375
 40
0.625
 40
0.640625
 40
0.65625
 40
0.6640625
 40
0.66796875
 40
0.671875
 40
0.6796875
 40
0.6875
 40
0.703125
 40
0.71875
 40
0.75
 40
0.765625
 40
0.7734375
 40
0.77734375
 40
0.78125
 40
0.7890625
 40
0.796875
 40
0.8125
 40
0.828125
 40
0.84375
 40
0.859375
 40
0.875
 40
0.8828125
 40
0.890625
 40
0.89453125
 40
0.8984375
 40
0.90625
 40
0.921875
 40
0.9375
 40
1.0
 40
1.0
 40
1.0
 40
1.0
 10
190.1073673503
 20
15.8015252745
 30
0.0
 10
189.9089393769
 20
15.6711447872
 30
0.0
 10
189.660936507
 20
15.5081232409
 30
0.0
 10
189.3632367729
 20
15.312635197
 30
0.0
 10
189.239323604
 20
15.2309980965
 30
0.0
 10
189.1523231985
 20
15.1742259403
 30
0.0
 10
189.1030179145
 20
15.1411990085
 30
0.0
 10
189.0521751966
 20
15.11037247
 30
0.0
 10
188.9996410122
 20
15.0560684722
 30
0.0
 10
188.9143863953
 20
14.9708993152
 30
0.0
 10
188.8082307798
 20
14.8638479867
 30
0.0
 10
188.6806631766
 20
14.735641968
 30
0.0
 10
188.5531587827
 20
14.6073574593
 30
0.0
 10
188.4255824164
 20
14.4791313348
 30
0.0
 10
188.3194560112
 20
14.3721470253
 30
0.0
 10
188.2341415132
 20
14.2868404795
 30
0.0
 10
188.1817597699
 20
14.2328862368
 30
0.0
 10
188.1377021557
 20
14.1911829808
 30
0.0
 10
188.1083486522
 20
14.1395040364
 30
0.0
 10
188.050142068
 20
14.0537049732
 30
0.0
 10
187.9385877565
 20
13.8788101371
 30
0.0
 10
187.8090384523
 20
13.6803290673
 30
0.0
 10
187.6801121562
 20
13.481419437
 30
0.0
 10
187.5996912532
 20
13.3570067003
 30
0.0
 10
187.5348195018
 20
13.2578097738
 30
0.0
 10
187.4955332135
 20
13.1950256465
 30
0.0
 10
187.461217405
 20
13.1466015445
 30
0.0
 10
187.4374418629
 20
13.091593482
 30
0.0
 10
187.4007317151
 20
12.9922703715
 30
0.0
 10
187.3457293459
 20
12.8519793704
 30
0.0
 10
187.2808178883
 20
12.6829462187
 30
0.0
 10
187.2156357701
 20
12.5140902181
 30
0.0
 10
187.1504449091
 20
12.3452095633
 30
0.0
 10
187.0963738848
 20
12.2044102388
 30
0.0
 10
187.0525101729
 20
12.0919401756
 30
0.0
 10
187.0212802504
 20
12.0071187064
 30
0.0
 10
186.989948649
 20
11.9379266395
 30
0.0
 10
186.9828287092
 20
11.8775257368
 30
0.0
 10
186.9675371281
 20
11.7882211716
 30
0.0
 10
186.9371209819
 20
11.5939701216
 30
0.0
 10
186.8883180741
 20
11.2956337191
 30
0.0
 10
186.8408659279
 20
10.9971172658
 30
0.0
 10
186.8086937915
 20
10.803100282
 30
0.0
 10
186.7951244316
 20
10.7135661518
 30
0.0
 10
186.7829391355
 20
10.6538404401
 30
0.0
 10
186.7906107778
 20
10.5794494024
 30
0.0
 10
186.7933148943
 20
10.4901046305
 30
0.0
 10
186.7991908491
 20
10.3710046139
 30
0.0
 10
186.805761933
 20
10.2221208144
 30
0.0
 10
186.8139560604
 20
10.0434628745
 30
0.0
 10
186.8221530563
 20
9.8648085025
 30
0.0
 10
186.8300297515
 20
9.6861372395
 30
0.0
 10
186.8376589428
 20
9.5372978503
 30
0.0
 10
186.8409024232
 20
9.4330056748
 30
0.0
 10
186.8460310343
 20
9.3735734665
 30
0.0
 10
186.8634960927
 20
9.3147563604
 30
0.0
 10
186.8811040053
 20
9.2410245681
 30
0.0
 10
186.9116335973
 20
9.1231701185
 30
0.0
 10
186.9490122405
 20
8.9758205593
 30
0.0
 10
187.0091176252
 20
8.7400300105
 30
0.0
 10
187.0699323858
 20
8.5045277773
 30
0.0
 10
187.1210866063
 20
8.2977270053
 30
0.0
 10
187.1494414071
 20
8.1953049581
 30
0.0
 10
187.1611764944
 20
8.1352061101
 30
0.0
 10
187.1897240382
 20
8.0810224172
 30
0.0
 10
187.2223324431
 20
8.0122105483
 30
0.0
 10
187.2762252472
 20
7.9027165261
 30
0.0
 10
187.343000179
 20
7.7656407492
 30
0.0
 10
187.4233882153
 20
7.6012419611
 30
0.0
 10
187.5036894961
 20
7.4368077947
 30
0.0
 10
187.5840796809
 20
7.2724229973
 30
0.0
 10
187.6508474512
 20
7.1353005848
 30
0.0
 10
187.7047549364
 20
7.0259021655
 30
0.0
 10
187.7373259674
 20
6.9568469173
 30
0.0
 10
187.7765617725
 20
6.9096108795
 30
0.0
 10
187.8134991136
 20
6.8609781882
 30
0.0
 10
187.8792101178
 20
6.7765215595
 30
0.0
 10
187.9725251594
 20
6.6555302745
 30
0.0
 10
188.1969419118
 20
6.3654311044
 30
0.0
 10
188.3838359106
 20
6.1236089018
 30
0.0
 10
188.5333894974
 20
5.9301744658
 30
0.0
  0
SPLINE
  5
2A8
100
AcDbEntity
  8
_21_KURVEN
100
AcDbSpline
 62
1
  6
CENTER
 70
0
 71
3
 72
17
 73
13
 74
0
 42
0.0000001
 43
0.0000001
 44
0.0000000001
 40
0.0
 40
0.0
 40
0.0
 40
0.0
 40
0.125
 40
0.1875
 40
0.25
 40
0.375
 40
0.5
 40
0.625
 40
0.75
 40
0.8125
 40
0.875
 40
1.0
 40
1.0
 40
1.0
 40
1.0
 10
188.53338969
 20
5.930174263
 30
0.0
 10
188.5372114743
 20
5.926164887
 30
0.0
 10
188.5423616004
 20
5.9207484132
 30
0.0
 10
188.5515586364
 20
5.9111360874
 30
0.0
 10
188.5684413598
 20
5.8936115895
 30
0.0
 10
188.5869382011
 20
5.8744850542
 30
0.0
 10
188.6104472826
 20
5.8503787205
 30
0.0
 10
188.6335351795
 20
5.8270775499
 30
0.0
 10
188.6539040765
 20
5.806736073
 30
0.0
 10
188.6680255858
 20
5.7925990023
 30
0.0
 10
188.6901552477
 20
5.7708708821
 30
0.0
 10
188.7085733982
 20
5.7528550388
 30
0.0
 10
188.7204475198
 20
5.741226644
 30
0.0
  0
SPLINE
  5
2A9
100
AcDbEntity
  8
_21_KURVEN
100
AcDbSpline
 62
1
  6
CENTER
 70
0
 71
3
 72
27
 73
23
 74
0
 42
0.0000001
 43
0.0000001
 44
0.0000000001
 40
0.0
 40
0.0
 40
0.0
 40
0.0
 40
0.125
 40
0.15625
 40
0.1875
 40
0.25
 40
0.3125
 40
0.34375
 40
0.375
 40
0.4375
 40
0.46875
 40
0.5
 40
0.53125
 40
0.5625
 40
0.625
 40
0.65625
 40
0.6875
 40
0.75
 40
0.8125
 40
0.84375
 40
0.875
 40
1.0
 40
1.0
 40
1.0
 40
1.0
 10
188.7204475213
 20
5.7412266425
 30
0.0
 10
188.8196428482
 20
5.6527205927
 30
0.0
 10
188.9447044734
 20
5.5433839854
 30
0.0
 10
189.091576024
 20
5.4082921918
 30
0.0
 10
189.1963221769
 20
5.3265251075
 30
0.0
 10
189.3298922244
 20
5.2275679134
 30
0.0
 10
189.461797964
 20
5.1264076229
 30
0.0
 10
189.5692070094
 20
5.0481654929
 30
0.0
 10
189.68286022
 20
4.9790011927
 30
0.0
 10
189.794515587
 20
4.9068631
 30
0.0
 10
189.9074813612
 20
4.8368380123
 30
0.0
 10
189.9902723137
 20
4.7809539739
 30
0.0
 10
190.080141575
 20
4.7374743236
 30
0.0
 10
190.1974156827
 20
4.6749993788
 30
0.0
 10
190.3158426168
 20
4.6147281248
 30
0.0
 10
190.4327247524
 20
4.5512223567
 30
0.0
 10
190.55424898
 20
4.4977163903
 30
0.0
 10
190.7078479704
 20
4.4345724534
 30
0.0
 10
190.860395655
 20
4.3688726439
 30
0.0
 10
190.9836019719
 20
4.3194560737
 30
0.0
 10
191.1739190349
 20
4.2605002629
 30
0.0
 10
191.3310823198
 20
4.2074201486
 30
0.0
 10
191.4572719134
 20
4.1662201442
 30
0.0
  0
SPLINE
  5
2AA
100
AcDbEntity
  8
_21_KURVEN
100
AcDbSpline
 62
5
  6
CONTINUOUS
 70
0
 71
3
 72
8
 73
4
 74
0
 42
0.0000001
 43
0.0000001
 44
0.0000000001
 40
0.0
 40
0.0
 40
0.0
 40
0.0
 40
1.0
 40
1.0
 40
1.0
 40
1.0
 10
188.5369251169
 20
5.7960420935
 30
0.0
 10
188.5501716213
 20
5.7780919506
 30
0.0
 10
188.5668500518
 20
5.7610168858
 30
0.0
 10
188.5857763485
 20
5.746697332
 30
0.0
  0
SPLINE
  5
2AB
100
AcDbEntity
  8
_21_KURVEN
100
AcDbSpline
 62
5
  6
CONTINUOUS
 70
0
 71
3
 72
9
 73
5
 74
0
 42
0.0000001
 43
0.0000001
 44
0.0000000001
 40
0.0
 40
0.0
 40
0.0
 40
0.0
 40
0.5
 40
1.0
 40
1.0
 40
1.0
 40
1.0
 10
184.0306955801
 20
13.0791862613
 30
0.0
 10
183.9868293344
 20
13.0560098424
 30
0.0
 10
183.8978823339
 20
13.000613291
 30
0.0
 10
183.8488656782
 20
12.9112232488
 30
0.0
 10
183.8274088436
 20
12.8650880057
 30
0.0
  0
SPLINE
  5
2AC
100
AcDbEntity
  8
_21_KURVEN
100
AcDbSpline
 62
5
  6
CONTINUOUS
 70
0
 71
3
 72
8
 73
4
 74
0
 42
0.0000001
 43
0.0000001
 44
0.0000000001
 40
0.0
 40
0.0
 40
0.0
 40
0.0
 40
1.0
 40
1.0
 40
1.0
 40
1.0
 10
183.8274088438
 20
12.8650880062
 30
0.0
 10
183.8152381205
 20
12.8314217631
 30
0.0
 10
183.806831776
 20
12.7964267546
 30
0.0
 10
183.8024977022
 20
12.7580197378
 30
0.0
  0
SPLINE
  5
2AD
100
AcDbEntity
  8
_21_KURVEN
100
AcDbSpline
 62
5
  6
CONTINUOUS
 70
0
 71
3
 72
9
 73
5
 74
0
 42
0.0000001
 43
0.0000001
 44
0.0000000001
 40
0.0
 40
0.0
 40
0.0
 40
0.0
 40
0.5
 40
1.0
 40
1.0
 40
1.0
 40
1.0
 10
183.8024977021
 20
12.7580197369
 30
0.0
 10
183.8011388755
 20
12.7124564375
 30
0.0
 10
183.8036931263
 20
12.6202319474
 30
0.0
 10
183.848207283
 20
12.5356538258
 30
0.0
 10
183.8729342694
 20
12.4952786553
 30
0.0
  0
SPLINE
  5
2AE
100
AcDbEntity
  8
_21_KURVEN
100
AcDbSpline
 62
5
  6
CONTINUOUS
 70
0
 71
3
 72
8
 73
4
 74
0
 42
0.0000001
 43
0.0000001
 44
0.0000000001
 40
0.0
 40
0.0
 40
0.0
 40
0.0
 40
1.0
 40
1.0
 40
1.0
 40
1.0
 10
191.4669967716
 20
16.4106971387
 30
0.0
 10
191.4600850198
 20
16.4101346484
 30
0.0
 10
191.4522432998
 20
16.4091771898
 30
0.0
 10
191.4432400275
 20
16.4075227967
 30
0.0
  0
LINE
  5
2AF
100
AcDbEntity
  8
_21_KURVEN
100
AcDbLine
 62
5
  6
CONTINUOUS
 10
191.4432400271
 20
16.4075227966
 11
191.4313765936
 21
16.4048195324
  0
SPLINE
  5
2B0
100
AcDbEntity
  8
_21_KURVEN
100
AcDbSpline
 62
5
  6
CONTINUOUS
 70
0
 71
3
 72
8
 73
4
 74
0
 42
0.0000001
 43
0.0000001
 44
0.0000000001
 40
0.0
 40
0.0
 40
0.0
 40
0.0
 40
1.0
 40
1.0
 40
1.0
 40
1.0
 10
191.4313765938
 20
16.4048195325
 30
0.0
 10
191.4220386297
 20
16.4022644195
 30
0.0
 10
191.4114223511
 20
16.3986734712
 30
0.0
 10
191.4002647455
 20
16.3938613462
 30
0.0
  0
SPLINE
  5
2B1
100
AcDbEntity
  8
0
100
AcDbSpline
 62
4
  6
CONTINUOUS
 70
0
 71
3
 72
10
 73
6
 74
0
 42
0.0000001
 43
0.0000001
 44
0.0000000001
 40
0.0
 40
0.0
 40
0.0
 40
0.0
 40
0.5389539105
 40
0.7718859947
 40
1.0
 40
1.0
 40
1.0
 40
1.0
 10
182.5569133884
 20
-13.0453472798
 30
0.0
 10
182.6002603368
 20
-13.107269095
 30
0.0
 10
182.6765403912
 20
-13.1901872615
 30
0.0
 10
182.8057057459
 20
-13.2489230633
 30
0.0
 10
182.870807059
 20
-13.2578425614
 30
0.0
 10
182.9027991527
 20
-13.2578411693
 30
0.0
  0
SPLINE
  5
2B2
100
AcDbEntity
  8
0
100
AcDbSpline
 62
4
  6
CONTINUOUS
 70
0
 71
3
 72
11
 73
7
 74
0
 42
0.0000001
 43
0.0000001
 44
0.0000000001
 40
0.0
 40
0.0
 40
0.0
 40
0.0
 40
0.2544798394
 40
0.5039715449
 40
0.7510971772
 40
1.0
 40
1.0
 40
1.0
 40
1.0
 10
182.0
 20
-10.4372014751
 30
0.0
 10
181.1933243395
 20
-10.2677978717
 30
0.0
 10
179.6084816817
 20
-9.8646032654
 30
0.0
 10
177.3263276613
 20
-9.0036524731
 30
0.0
 10
175.1988977299
 20
-7.843019447
 30
0.0
 10
173.921863812
 20
-6.8540386735
 30
0.0
 10
173.3271526556
 20
-6.3097147321
 30
0.0
  0
SPLINE
  5
2B3
100
AcDbEntity
  8
0
100
AcDbSpline
 62
4
  6
CONTINUOUS
 70
0
 71
3
 72
19
 73
15
 74
0
 42
0.0000001
 43
0.0000001
 44
0.0000000001
 40
0.0
 40
0.0
 40
0.0
 40
0.0
 40
0.0598700402
 40
0.117281829
 40
0.1731071904
 40
0.2284920036
 40
0.2844876227
 40
0.34184129
 40
0.4009474368
 40
0.4619272482
 40
0.5891392436
 40
0.7222641685
 40
0.8597044231
 40
1.0
 40
1.0
 40
1.0
 40
1.0
 10
168.2853817897
 20
6.3097147321
 30
0.0
 10
168.344943301
 20
6.6258218431
 30
0.0
 10
168.5048920258
 20
7.2382716919
 30
0.0
 10
168.8851445395
 20
8.0919412035
 30
0.0
 10
169.3970287903
 20
8.8453904368
 30
0.0
 10
170.0278077519
 20
9.4911628353
 30
0.0
 10
170.7599286788
 20
10.0315533544
 30
0.0
 10
171.5756373244
 20
10.4759646703
 30
0.0
 10
172.4595958102
 20
10.8371299372
 30
0.0
 10
173.7302754733
 20
11.2298483541
 30
0.0
 10
175.4273377873
 20
11.5674141652
 30
0.0
 10
177.5514620258
 20
11.8124126258
 30
0.0
 10
179.7549234325
 20
11.9553712497
 30
0.0
 10
181.246433298
 20
12.0058206458
 30
0.0
 10
182.0
 20
12.0237316181
 30
0.0
  0
SPLINE
  5
2B4
100
AcDbEntity
  8
0
100
AcDbSpline
 62
4
  6
CONTINUOUS
 70
0
 71
3
 72
11
 73
7
 74
0
 42
0.0000001
 43
0.0000001
 44
0.0000000001
 40
0.0
 40
0.0
 40
0.0
 40
0.0
 40
0.3413357635
 40
0.6211664777
 40
0.8394683274
 40
1.0
 40
1.0
 40
1.0
 40
1.0
 10
182.1750519015
 20
-10.7312072912
 30
0.0
 10
182.1750519125
 20
-11.0008269563
 30
0.0
 10
182.1872544454
 20
-11.4915926753
 30
0.0
 10
182.2544408662
 20
-12.1526029632
 30
0.0
 10
182.3653702018
 20
-12.6614612388
 30
0.0
 10
182.4841945908
 20
-12.9414673042
 30
0.0
 10
182.5569133884
 20
-13.0453472798
 30
0.0
  0
SPLINE
  5
2B5
100
AcDbEntity
  8
0
100
AcDbSpline
 62
4
  6
CONTINUOUS
 70
0
 71
3
 72
9
 73
5
 74
0
 42
0.0000001
 43
0.0000001
 44
0.0000000001
 40
0.0
 40
0.0
 40
0.0
 40
0.0
 40
0.4940260181
 40
1.0
 40
1.0
 40
1.0
 40
1.0
 10
182.1750518846
 20
-10.7312073499
 30
0.0
 10
183.2549797983
 20
-10.9500583701
 30
0.0
 10
185.4629089331
 20
-11.2871120936
 30
0.0
 10
187.687806378
 20
-11.4641925027
 30
0.0
 10
188.8148965534
 20
-11.5211630892
 30
0.0
  0
ELLIPSE
  5
2B6
100
AcDbEntity
  8
0
100
AcDbEllipse
 62
4
  6
CONTINUOUS
 10
142.8470714095
 20
163.854672373
 30
0.0
 11
-64.4135237747
 21
227.0626138178
 31
0.0
 40
0.1059221884
 41
-3.9760559069
 42
-3.8957588219
  0
ENDSEC
  0
SECTION
  2
OBJECTS
  0
DICTIONARY
  5
C
100
AcDbDictionary
280
0
281
1
  3
ACAD_GROUP
350
D
  3
ACAD_MLINESTYLE
350
17
  3
ACAD_LAYOUT
350
1A
  3
ACAD_PLOTSETTINGS
350
19
  3
ACAD_PLOTSTYLENAME
350
E
  0
DICTIONARY
  5
D
102
{ACAD_REACTORS
330
C
102
}
100
AcDbDictionary
280
0
281
1
  0
ACDBDICTIONARYWDFLT
  5
E
102
{ACAD_REACTORS
330
C
102
}
100
AcDbDictionary
281
1
  3
Normal
350
F
100
AcDbDictionaryWithDefault
340
F
  0
DICTIONARY
  5
17
102
{ACAD_REACTORS
330
C
102
}
100
AcDbDictionary
280
0
281
1
  3
Standard
350
18
  0
DICTIONARY
  5
19
102
{ACAD_REACTORS
330
C
102
}
100
AcDbDictionary
281
1
  0
DICTIONARY
  5
1A
102
{ACAD_REACTORS
330
C
102
}
100
AcDbDictionary
281
1
  3
Model
350
2B7
  3
Layout1
350
2B8
  0
ACDBPLACEHOLDER
  5
F
102
{ACAD_REACTORS
330
E
102
}
  0
MLINESTYLE
  5
18
102
{ACAD_REACTORS
330
17
102
}
100
AcDbMlineStyle
  2
STANDARD
 70
0
  3

 62
256
 51
90.0
 52
90.0
 71
2
 49
0.5
 62
256
  6
BYLAYER
 49
-0.5
 62
256
  6
BYLAYER
  0
LAYOUT
  5
2B7
102
{ACAD_REACTORS
330
1A
102
}
100
AcDbPlotSettings
  1

  2
none_device
  4
ISO_A3_(420.00_x_297.00_MM)
  6

 40
0.0
 41
0.0
 42
0.0
 43
0.0
 44
420.0
 45
297.0
 46
0.0
 47
0.0
 48
0.0
 49
0.0
140
0.0
141
0.0
142
1.0
143
1.0
 70
1024
 72
1
 73
0
 74
0
  7

 75
0
147
1.0
148
0.0
149
0.0
100
AcDbLayout
  1
Model
 70
0
 71
0
 10
0.0
 20
0.0
 11
420.0
 21
297.0
 12
0.0
 22
0.0
 32
0.0
 14
0.0
 24
0.0
 34
0.0
 15
0.0
 25
0.0
 35
0.0
146
0.0
 13
0.0
 23
0.0
 33
0.0
 16
1.0
 26
0.0
 36
0.0
 17
0.0
 27
1.0
 37
0.0
 76
0
330
20E
345
0
346
0
  0
LAYOUT
  5
2B8
102
{ACAD_REACTORS
330
1A
102
}
100
AcDbPlotSettings
  1

  2
none_device
  4
ISO_A3_(420.00_x_297.00_MM)
  6

 40
0.0
 41
0.0
 42
0.0
 43
0.0
 44
420.0
 45
297.0
 46
0.0
 47
0.0
 48
0.0
 49
0.0
140
0.0
141
0.0
142
1.0
143
1.0
 70
0
 72
1
 73
0
 74
0
  7

 75
0
147
1.0
148
0.0
149
0.0
100
AcDbLayout
  1
Layout1
 70
0
 71
1
 10
0.0
 20
0.0
 11
420.0
 21
297.0
 12
0.0
 22
0.0
 32
0.0
 14
0.0
 24
0.0
 34
0.0
 15
0.0
 25
0.0
 35
0.0
146
0.0
 13
0.0
 23
0.0
 33
0.0
 16
1.0
 26
0.0
 36
0.0
 17
0.0
 27
1.0
 37
0.0
 76
0
330
20F
345
0
346
0
  0
ENDSEC
  0
EOF
