999
DXF file: 70573040.dxf
999
Pro/ENGINEER 2016380 by Parametric Technology Corporation
  0
SECTION
  2
HEADER
  9
$ACADVER
  1
AC1027
  9
$DWGCODEPAGE
  3
ANSI_1252
  9
$EXTMAX
 10
420.0
 20
297.0
 30
0.0
  9
$EXTMIN
 10
0.0
 20
0.0
 30
0.0
  9
$LIMMIN
 10
0.0
 20
0.0
  9
$LIMMAX
 10
420.0
 20
297.0
  9
$VIEWCTR
 10
210.0
 20
148.5
  9
$VIEWSIZE
 40
297.0
  9
$CLAYER
  8
0
  9
$LTSCALE
 40
23.1
  9
$CELTYPE
  6
BYLAYER
  9
$DIMSCALE
 40
1.0
  9
$DIMASZ
 40
3.5
  9
$DIMEXO
 40
0.0
  9
$DIMDLI
 40
15.96
  9
$DIMEXE
 40
1.5
  9
$DIMCEN
 40
3.78
  9
$DIMLFAC
 40
1.0
  9
$DIMBLK
  1
_FILLED
  9
$DIMALT
 70
0
  9
$DIMALTF
 40
25.4
  9
$DIMTXT
 40
3.5
  9
$DIMTOL
 70
1
  9
$DIMLIM
 70
0
  9
$DIMTFAC
 40
1.0
  9
$DIMTP
 40
0.05
  9
$DIMTM
 40
0.05
  9
$DIMGAP
 40
0.625
  9
$DIMDSEP
 70
46
  9
$AUNITS
 70
0
  9
$PDMODE
 70
3
  9
$PDSIZE
 40
0.3125
  9
$HANDSEED
  5
2B3
  9
$TILEMODE
 70
1
  9
$MEASUREMENT
 70
1
  9
$INSUNITS
 70
4
  0
ENDSEC
  0
SECTION
  2
CLASSES
  0
CLASS
  1
ACDBDICTIONARYWDFLT
  2
AcDbDictionaryWithDefault
  3
AutoCAD 2000
 90
0
 91
1
280
0
281
0
  0
CLASS
  1
ACDBPLACEHOLDER
  2
AcDbPlaceHolder
  3
AutoCAD 2000
 90
0
 91
1
280
0
281
0
  0
CLASS
  1
LAYOUT
  2
AcDbLayout
  3
AutoCAD 2000
 90
0
 91
0
280
0
281
0
  0
ENDSEC
  0
SECTION
  2
TABLES
  0
TABLE
  2
VPORT
  5
8
100
AcDbSymbolTable
 70
2
  0
VPORT
  5
1F4
100
AcDbSymbolTableRecord
100
AcDbViewportTableRecord
  2
*ACTIVE
 70
0
 10
0.0
 20
0.0
 11
1.0
 21
1.0
 12
210.0
 22
148.5
 13
0.0
 23
0.0
 14
1.0
 24
1.0
 15
0.0
 25
0.0
 16
0.0
 26
0.0
 36
1.0
 17
0.0
 27
0.0
 37
0.0
 40
297.0
 41
1.4141414141
 42
50.0
 43
0.0
 44
0.0
 50
0.0
 51
0.0
 71
0
 72
100
 73
1
 74
1
 75
0
 76
0
 77
0
 78
0
  0
ENDTAB
  0
TABLE
  2
LTYPE
  5
5
100
AcDbSymbolTable
 70
6
  0
LTYPE
  5
14
100
AcDbSymbolTableRecord
100
AcDbLinetypeTableRecord
  2
BYBLOCK
 70
0
  3

 72
65
 73
0
 40
0.0
  0
LTYPE
  5
15
100
AcDbSymbolTableRecord
100
AcDbLinetypeTableRecord
  2
BYLAYER
 70
0
  3

 72
65
 73
0
 40
0.0
  0
LTYPE
  5
16
100
AcDbSymbolTableRecord
100
AcDbLinetypeTableRecord
  2
CONTINUOUS
 70
64
  3
Solid line
 72
65
 73
0
 40
0.0
  0
LTYPE
  5
1F5
100
AcDbSymbolTableRecord
100
AcDbLinetypeTableRecord
  2
CENTER
 70
64
  3
____ _ ____ _ ____ _ ____ _ ____ _ ____ _ ____
 72
65
 73
4
 40
0.6
 49
0.375
 74
0
 49
-0.075
 74
0
 49
0.075
 74
0
 49
-0.075
 74
0
  0
LTYPE
  5
1F6
100
AcDbSymbolTableRecord
100
AcDbLinetypeTableRecord
  2
HIDDEN
 70
64
  3
- - - - - - - - - - - - - - - - - - - -
 72
65
 73
2
 40
0.2
 49
0.1
 74
0
 49
-0.1
 74
0
  0
LTYPE
  5
1F7
100
AcDbSymbolTableRecord
100
AcDbLinetypeTableRecord
  2
PHANTOM
 70
64
  3
_____ _ _ _____ _ _ _____ _ _ _____
 72
65
 73
6
 40
0.8
 49
0.45
 74
0
 49
-0.05
 74
0
 49
0.1
 74
0
 49
-0.05
 74
0
 49
0.1
 74
0
 49
-0.05
 74
0
  0
LTYPE
  5
1F8
100
AcDbSymbolTableRecord
100
AcDbLinetypeTableRecord
  2
DOT
 70
64
  3
. . . . . . . . . . . . . . . . . . . .
 72
65
 73
2
 40
0.2
 49
0.1
 74
0
 49
-0.1
 74
0
  0
LTYPE
  5
1F9
100
AcDbSymbolTableRecord
100
AcDbLinetypeTableRecord
  2
DASHED
 70
64
  3
- - - - - - - - - - - - - - - - - - - -
 72
65
 73
2
 40
0.2
 49
0.1
 74
0
 49
-0.1
 74
0
  0
ENDTAB
  0
TABLE
  2
LAYER
  5
2
100
AcDbSymbolTable
 70
36
  0
LAYER
  5
10
100
AcDbSymbolTableRecord
100
AcDbLayerTableRecord
  2
0
 70
0
 62
7
  6
CONTINUOUS
370
-3
390
F
  0
LAYER
  5
1FA
100
AcDbSymbolTableRecord
100
AcDbLayerTableRecord
  2
DEFAULT_1
 70
0
 62
7
  6
CENTER
370
-3
390
F
  0
LAYER
  5
1FB
100
AcDbSymbolTableRecord
100
AcDbLayerTableRecord
  2
DEFAULT_2
 70
0
 62
1
  6
HIDDEN
370
-3
390
F
  0
LAYER
  5
1FC
100
AcDbSymbolTableRecord
100
AcDbLayerTableRecord
  2
DEFAULT_3
 70
0
 62
7
  6
PHANTOM
370
-3
390
F
  0
LAYER
  5
1FD
100
AcDbSymbolTableRecord
100
AcDbLayerTableRecord
  2
BG_STARTBEZUEGE
 70
0
 62
7
  6
CONTINUOUS
370
-3
390
F
  0
LAYER
  5
1FE
100
AcDbSymbolTableRecord
100
AcDbLayerTableRecord
  2
HILFEN
 70
0
 62
7
  6
CONTINUOUS
370
-3
390
F
  0
LAYER
  5
1FF
100
AcDbSymbolTableRecord
100
AcDbLayerTableRecord
  2
PLATZIERUNG
 70
0
 62
7
  6
CONTINUOUS
370
-3
390
F
  0
LAYER
  5
200
100
AcDbSymbolTableRecord
100
AcDbLayerTableRecord
  2
T_STARTBEZUEGE
 70
0
 62
7
  6
CONTINUOUS
370
-3
390
F
  0
LAYER
  5
201
100
AcDbSymbolTableRecord
100
AcDbLayerTableRecord
  2
_03_2D_ZEICHNUNG_BEMASSUNGEN
 70
0
 62
7
  6
CONTINUOUS
370
-3
390
F
  0
LAYER
  5
202
100
AcDbSymbolTableRecord
100
AcDbLayerTableRecord
  2
_04_NOTIZEN
 70
0
 62
7
  6
CONTINUOUS
370
-3
390
F
  0
LAYER
  5
203
100
AcDbSymbolTableRecord
100
AcDbLayerTableRecord
  2
_05_2D_ELEMENTE
 70
0
 62
7
  6
CONTINUOUS
370
-3
390
F
  0
LAYER
  5
204
100
AcDbSymbolTableRecord
100
AcDbLayerTableRecord
  2
_07_EINRASTLINIEN
 70
0
 62
7
  6
CONTINUOUS
370
-3
390
F
  0
LAYER
  5
205
100
AcDbSymbolTableRecord
100
AcDbLayerTableRecord
  2
_21_KURVEN
 70
0
 62
7
  6
CONTINUOUS
370
-3
390
F
  0
LAYER
  5
206
100
AcDbSymbolTableRecord
100
AcDbLayerTableRecord
  2
_26_BEZUGSACHSEN
 70
0
 62
7
  6
CONTINUOUS
370
-3
390
F
  0
LAYER
  5
207
100
AcDbSymbolTableRecord
100
AcDbLayerTableRecord
  2
_27_BEZUGSEBENEN
 70
0
 62
7
  6
CONTINUOUS
370
-3
390
F
  0
LAYER
  5
208
100
AcDbSymbolTableRecord
100
AcDbLayerTableRecord
  2
_28_BEZUGSPUNKTE
 70
0
 62
7
  6
CONTINUOUS
370
-3
390
F
  0
LAYER
  5
209
100
AcDbSymbolTableRecord
100
AcDbLayerTableRecord
  2
_29_KOORDINATENSYSTEME
 70
0
 62
7
  6
CONTINUOUS
370
-3
390
F
  0
LAYER
  5
20A
100
AcDbSymbolTableRecord
100
AcDbLayerTableRecord
  2
_30_VOLUMEN
 70
0
 62
7
  6
CONTINUOUS
370
-3
390
F
  0
ENDTAB
  0
TABLE
  2
STYLE
  5
3
100
AcDbSymbolTable
 70
1
  0
STYLE
  5
11
100
AcDbSymbolTableRecord
100
AcDbTextStyleTableRecord
  2
STANDARD
 70
0
 40
0.0
 41
0.7
 50
0.0
 71
0
 42
0.2
  3
SIMPLEX.SHX
  4

  0
STYLE
  5
20B
100
AcDbSymbolTableRecord
100
AcDbTextStyleTableRecord
  2
TEXTSTYLE_1
 70
0
 40
0.0
 41
0.8
 50
0.0
 71
0
 42
0.2
  3
gdt
  4

  0
STYLE
  5
20C
100
AcDbSymbolTableRecord
100
AcDbTextStyleTableRecord
  2
TEXTSTYLE_2
 70
0
 40
0.0
 41
0.7
 50
0.0
 71
0
 42
0.2
  3
gdt
  4

  0
ENDTAB
  0
TABLE
  2
VIEW
  5
6
100
AcDbSymbolTable
 70
0
  0
ENDTAB
  0
TABLE
  2
UCS
  5
7
100
AcDbSymbolTable
 70
0
  0
ENDTAB
  0
TABLE
  2
APPID
  5
9
100
AcDbSymbolTable
 70
1
  0
APPID
  5
20D
100
AcDbSymbolTableRecord
100
AcDbRegAppTableRecord
  2
ACAD
 70
0
  0
ENDTAB
  0
TABLE
  2
BLOCK_RECORD
  5
1
100
AcDbSymbolTable
 70
0
  0
BLOCK_RECORD
  5
20E
100
AcDbSymbolTableRecord
100
AcDbBlockTableRecord
  2
*Model_Space
  0
BLOCK_RECORD
  5
20F
100
AcDbSymbolTableRecord
100
AcDbBlockTableRecord
  2
*Paper_Space
  0
BLOCK_RECORD
  5
210
100
AcDbSymbolTableRecord
100
AcDbBlockTableRecord
  2
_FILLED
  0
BLOCK_RECORD
  5
211
100
AcDbSymbolTableRecord
100
AcDbBlockTableRecord
  2
*D0
  0
BLOCK_RECORD
  5
212
100
AcDbSymbolTableRecord
100
AcDbBlockTableRecord
  2
*D1
  0
BLOCK_RECORD
  5
213
100
AcDbSymbolTableRecord
100
AcDbBlockTableRecord
  2
*D2
  0
BLOCK_RECORD
  5
214
100
AcDbSymbolTableRecord
100
AcDbBlockTableRecord
  2
*D3
  0
ENDTAB
  0
TABLE
  2
DIMSTYLE
  5
A
100
AcDbSymbolTable
 70
1
100
AcDbDimStyleTable
 71
0
  0
DIMSTYLE
105
215
100
AcDbSymbolTableRecord
100
AcDbDimStyleTableRecord
  2
STANDARD
 70
0
  3

  4

 40
1.0
 41
3.5
 42
0.0
 43
0.38
 44
1.5
 45
0.0
 46
0.0
 47
0.05
 48
0.05
140
3.5
141
0.09
142
0.0
143
25.4
144
1.0
145
0.0
146
1.0
147
0.625
 71
1.0
 72
0.0
 73
0
 74
0
 75
0
 76
0
 77
1
 78
8
170
0
171
1
172
0
173
0
174
0
175
0
176
0
177
0
178
2
270
2
271
2
272
2
273
2
274
2
275
0
280
0
281
0
282
0
283
1
284
8
285
0
286
0
287
3
288
0
340
11
278
46
341
210
342
210
343
210
344
210
  0
DIMSTYLE
105
216
100
AcDbSymbolTableRecord
100
AcDbDimStyleTableRecord
  2
DIMSTYLE_1
 70
0
  3

  4

 40
1.0
 41
3.5
 42
0.0
 43
0.38
 44
1.5
 45
0.0
 46
0.0
 47
0.5
 48
0.5
140
3.5
141
0.09
142
0.0
143
25.4
144
1.0
145
0.0
146
1.0
147
0.875
 71
0.0
 72
0.0
 73
0
 74
0
 75
0
 76
0
 77
1
 78
8
170
0
171
1
172
0
173
0
174
0
175
0
176
0
177
0
178
2
270
2
271
2
272
2
273
2
274
2
275
0
280
0
281
0
282
0
283
1
284
8
285
0
286
0
287
3
288
0
340
11
278
46
341
210
342
210
343
210
344
210
  0
DIMSTYLE
105
217
100
AcDbSymbolTableRecord
100
AcDbDimStyleTableRecord
  2
DIMSTYLE_2
 70
0
  3

  4

 40
1.0
 41
3.5
 42
0.0
 43
0.38
 44
1.5
 45
0.0
 46
0.0
 47
0.3
 48
0.3
140
3.5
141
0.09
142
0.0
143
25.4
144
1.0
145
0.0
146
1.0
147
0.875
 71
0.0
 72
0.0
 73
0
 74
0
 75
0
 76
0
 77
1
 78
8
170
0
171
1
172
0
173
0
174
0
175
0
176
0
177
0
178
2
270
2
271
2
272
2
273
2
274
2
275
0
280
0
281
0
282
0
283
1
284
8
285
0
286
0
287
3
288
0
340
11
278
46
341
210
342
210
343
210
344
210
  0
DIMSTYLE
105
218
100
AcDbSymbolTableRecord
100
AcDbDimStyleTableRecord
  2
DIMSTYLE_3
 70
0
  3

  4

 40
1.0
 41
3.5
 42
0.0
 43
0.38
 44
1.5
 45
0.0
 46
0.0
 47
0.2
 48
0.2
140
3.5
141
0.09
142
0.0
143
25.4
144
1.0
145
0.0
146
1.0
147
0.875
 71
0.0
 72
0.0
 73
0
 74
0
 75
0
 76
0
 77
1
 78
8
170
0
171
1
172
0
173
0
174
0
175
0
176
0
177
0
178
2
270
2
271
2
272
2
273
2
274
2
275
0
280
0
281
0
282
0
283
1
284
8
285
0
286
0
287
3
288
0
340
11
278
46
341
210
342
210
343
210
344
210
  0
ENDTAB
  0
ENDSEC
  0
SECTION
  2
BLOCKS
  0
BLOCK
  5
20
100
AcDbEntity
  8
0
100
AcDbBlockBegin
  2
*Model_Space
 70
0
 10
0.0
 20
0.0
 30
0.0
  3
*Model_Space
  1

  0
ENDBLK
  5
21
100
AcDbEntity
  8
0
100
AcDbBlockEnd
  0
BLOCK
  5
1C
100
AcDbEntity
  8
0
100
AcDbBlockBegin
  2
*Paper_Space
 70
0
 10
0.0
 20
0.0
 30
0.0
  3
*Paper_Space
  1

  0
ENDBLK
  5
1D
100
AcDbEntity
  8
0
100
AcDbBlockEnd
  0
BLOCK
  5
219
100
AcDbEntity
  8
0
100
AcDbBlockBegin
  2
_FILLED
 70
64
 10
0.0
 20
0.0
  3
_FILLED
  1

  0
SOLID
  5
21A
100
AcDbEntity
  8
0
  6
BYBLOCK
 62
0
100
AcDbTrace
 10
0.0
 20
0.0
 11
-1.0
 21
0.125
 12
-1.0
 22
-0.125
 13
-1.0
 23
-0.125
  0
ENDBLK
  5
21B
100
AcDbEntity
  8
0
  6
BYBLOCK
 62
0
100
AcDbBlockEnd
  0
BLOCK
  5
21C
100
AcDbEntity
  8
_03_2D_ZEICHNUNG_BEMASSUNGEN
100
AcDbBlockBegin
 62
7
  6
CONTINUOUS
  2
*D0
 70
65
 10
0.0
 20
0.0
  3
*D0
  1

  0
TEXT
  5
21D
100
AcDbEntity
  8
_03_2D_ZEICHNUNG_BEMASSUNGEN
100
AcDbText
 62
2
  6
CONTINUOUS
 10
146.0
 20
34.8581415733
  7
STANDARD
 40
3.5
  1
300
 41
0.7619047619
 72
1
 11
150.0
 21
34.8581415733
100
AcDbText
  0
LINE
  5
21E
100
AcDbEntity
  8
_03_2D_ZEICHNUNG_BEMASSUNGEN
100
AcDbLine
 62
7
  6
CONTINUOUS
 10
0.0
 20
-28.6266192112
 11
-0.0
 21
35.4831415733
  0
LINE
  5
21F
100
AcDbEntity
  8
_03_2D_ZEICHNUNG_BEMASSUNGEN
100
AcDbLine
 62
7
  6
CONTINUOUS
 10
300.0
 20
-28.6266192112
 11
300.0
 21
35.4831415733
  0
LINE
  5
220
100
AcDbEntity
  8
_03_2D_ZEICHNUNG_BEMASSUNGEN
100
AcDbLine
 62
7
  6
CONTINUOUS
 10
-0.0
 20
33.9831415733
 11
150.0
 21
33.9831415733
  0
LINE
  5
221
100
AcDbEntity
  8
_03_2D_ZEICHNUNG_BEMASSUNGEN
100
AcDbLine
 62
7
  6
CONTINUOUS
 10
300.0
 20
33.9831415733
 11
150.0
 21
33.9831415733
  0
INSERT
  5
222
100
AcDbEntity
  8
_03_2D_ZEICHNUNG_BEMASSUNGEN
100
AcDbBlockReference
 62
7
  6
CONTINUOUS
  2
_FILLED
 10
-0.0
 20
33.9831415733
 41
3.5
 42
3.5
 43
3.5
 50
180.0
  0
INSERT
  5
223
100
AcDbEntity
  8
_03_2D_ZEICHNUNG_BEMASSUNGEN
100
AcDbBlockReference
 62
7
  6
CONTINUOUS
  2
_FILLED
 10
300.0
 20
33.9831415733
 41
3.5
 42
3.5
 43
3.5
 50
0.0
  0
ENDBLK
  5
224
100
AcDbEntity
  8
0
  6
BYBLOCK
 62
0
100
AcDbBlockEnd
  0
BLOCK
  5
225
100
AcDbEntity
  8
_03_2D_ZEICHNUNG_BEMASSUNGEN
100
AcDbBlockBegin
 62
7
  6
CONTINUOUS
  2
*D1
 70
65
 10
0.0
 20
0.0
  3
*D1
  1

  0
TEXT
  5
226
100
AcDbEntity
  8
_03_2D_ZEICHNUNG_BEMASSUNGEN
100
AcDbText
 62
2
  6
CONTINUOUS
 10
267.25
 20
25.8581415733
  7
STANDARD
 40
3.5
  1
60
 41
0.7857142857
 72
1
 11
270.0
 21
25.8581415733
100
AcDbText
  0
LINE
  5
227
100
AcDbEntity
  8
_03_2D_ZEICHNUNG_BEMASSUNGEN
100
AcDbLine
 62
7
  6
CONTINUOUS
 10
300.0
 20
-28.6266192112
 11
300.0
 21
26.4831415733
  0
LINE
  5
228
100
AcDbEntity
  8
_03_2D_ZEICHNUNG_BEMASSUNGEN
100
AcDbLine
 62
7
  6
CONTINUOUS
 10
240.0
 20
-28.6266192112
 11
240.0
 21
26.4831415733
  0
LINE
  5
229
100
AcDbEntity
  8
_03_2D_ZEICHNUNG_BEMASSUNGEN
100
AcDbLine
 62
7
  6
CONTINUOUS
 10
300.0
 20
24.9831415733
 11
270.0
 21
24.9831415733
  0
LINE
  5
22A
100
AcDbEntity
  8
_03_2D_ZEICHNUNG_BEMASSUNGEN
100
AcDbLine
 62
7
  6
CONTINUOUS
 10
240.0
 20
24.9831415733
 11
270.0
 21
24.9831415733
  0
INSERT
  5
22B
100
AcDbEntity
  8
_03_2D_ZEICHNUNG_BEMASSUNGEN
100
AcDbBlockReference
 62
7
  6
CONTINUOUS
  2
_FILLED
 10
300.0
 20
24.9831415733
 41
3.5
 42
3.5
 43
3.5
  0
INSERT
  5
22C
100
AcDbEntity
  8
_03_2D_ZEICHNUNG_BEMASSUNGEN
100
AcDbBlockReference
 62
7
  6
CONTINUOUS
  2
_FILLED
 10
240.0
 20
24.9831415733
 41
3.5
 42
3.5
 43
3.5
 50
180.0
  0
ENDBLK
  5
22D
100
AcDbEntity
  8
0
  6
BYBLOCK
 62
0
100
AcDbBlockEnd
  0
BLOCK
  5
22E
100
AcDbEntity
  8
_03_2D_ZEICHNUNG_BEMASSUNGEN
100
AcDbBlockBegin
 62
7
  6
CONTINUOUS
  2
*D2
 70
65
 10
0.0
 20
0.0
  3
*D2
  1

  0
TEXT
  5
22F
100
AcDbEntity
  8
_03_2D_ZEICHNUNG_BEMASSUNGEN
100
AcDbText
 62
2
  6
CONTINUOUS
 10
-9.875
 20
-5.0833333333
  7
TEXTSTYLE_2
 40
3.5
  1
n
 50
90.0
 41
1.0
 72
1
 11
-9.875
 21
-2.75
100
AcDbText
  0
TEXT
  5
230
100
AcDbEntity
  8
_03_2D_ZEICHNUNG_BEMASSUNGEN
100
AcDbText
 62
2
  6
CONTINUOUS
 10
-9.875
 20
-0.4166666667
  7
STANDARD
 40
3.5
  1
40
 50
90.0
 41
0.7857142857
 72
1
 11
-9.875
 21
2.3333333333
100
AcDbText
  0
LINE
  5
231
100
AcDbEntity
  8
_03_2D_ZEICHNUNG_BEMASSUNGEN
100
AcDbLine
 62
7
  6
CONTINUOUS
 10
0.5
 20
20.0
 11
-10.5
 21
20.0
  0
LINE
  5
232
100
AcDbEntity
  8
_03_2D_ZEICHNUNG_BEMASSUNGEN
100
AcDbLine
 62
7
  6
CONTINUOUS
 10
0.5
 20
-20.0
 11
-10.5
 21
-20.0
  0
LINE
  5
233
100
AcDbEntity
  8
_03_2D_ZEICHNUNG_BEMASSUNGEN
100
AcDbLine
 62
7
  6
CONTINUOUS
 10
-9.0
 20
20.0
 11
-9.0
 21
26.0
  0
LINE
  5
234
100
AcDbEntity
  8
_03_2D_ZEICHNUNG_BEMASSUNGEN
100
AcDbLine
 62
7
  6
CONTINUOUS
 10
-9.0
 20
26.0
 11
-9.0
 21
0.0
  0
LINE
  5
235
100
AcDbEntity
  8
_03_2D_ZEICHNUNG_BEMASSUNGEN
100
AcDbLine
 62
7
  6
CONTINUOUS
 10
-9.0
 20
-20.0
 11
-9.0
 21
-26.0
  0
LINE
  5
236
100
AcDbEntity
  8
_03_2D_ZEICHNUNG_BEMASSUNGEN
100
AcDbLine
 62
7
  6
CONTINUOUS
 10
-9.0
 20
-26.0
 11
-9.0
 21
0.0
  0
INSERT
  5
237
100
AcDbEntity
  8
_03_2D_ZEICHNUNG_BEMASSUNGEN
100
AcDbBlockReference
 62
7
  6
CONTINUOUS
  2
_FILLED
 10
-9.0
 20
20.0
 41
3.5
 42
3.5
 43
3.5
 50
270.0
  0
INSERT
  5
238
100
AcDbEntity
  8
_03_2D_ZEICHNUNG_BEMASSUNGEN
100
AcDbBlockReference
 62
7
  6
CONTINUOUS
  2
_FILLED
 10
-9.0
 20
-20.0
 41
3.5
 42
3.5
 43
3.5
 50
90.0
  0
ENDBLK
  5
239
100
AcDbEntity
  8
0
  6
BYBLOCK
 62
0
100
AcDbBlockEnd
  0
BLOCK
  5
23A
100
AcDbEntity
  8
_03_2D_ZEICHNUNG_BEMASSUNGEN
100
AcDbBlockBegin
 62
7
  6
CONTINUOUS
  2
*D3
 70
65
 10
0.0
 20
0.0
  3
*D3
  1

  0
TEXT
  5
23B
100
AcDbEntity
  8
_03_2D_ZEICHNUNG_BEMASSUNGEN
100
AcDbText
 62
2
  6
CONTINUOUS
 10
308.1647417427
 20
-16.25
  7
STANDARD
 40
3.5
  1
27
 50
90.0
 41
0.7857142857
 72
1
 11
308.1647417427
 21
-13.5
100
AcDbText
  0
LINE
  5
23C
100
AcDbEntity
  8
_03_2D_ZEICHNUNG_BEMASSUNGEN
100
AcDbLine
 62
7
  6
CONTINUOUS
 10
304.4837365978
 20
0.0
 11
310.5397417427
 21
0.0
  0
LINE
  5
23D
100
AcDbEntity
  8
_03_2D_ZEICHNUNG_BEMASSUNGEN
100
AcDbLine
 62
7
  6
CONTINUOUS
 10
300.0
 20
-27.0
 11
310.5397417427
 21
-27.0
  0
LINE
  5
23E
100
AcDbEntity
  8
_03_2D_ZEICHNUNG_BEMASSUNGEN
100
AcDbLine
 62
7
  6
CONTINUOUS
 10
309.0397417427
 20
0.0
 11
309.0397417427
 21
6.0
  0
LINE
  5
23F
100
AcDbEntity
  8
_03_2D_ZEICHNUNG_BEMASSUNGEN
100
AcDbLine
 62
7
  6
CONTINUOUS
 10
309.0397417427
 20
6.0
 11
309.0397417427
 21
-13.5
  0
LINE
  5
240
100
AcDbEntity
  8
_03_2D_ZEICHNUNG_BEMASSUNGEN
100
AcDbLine
 62
7
  6
CONTINUOUS
 10
309.0397417427
 20
-27.0
 11
309.0397417427
 21
-33.0
  0
LINE
  5
241
100
AcDbEntity
  8
_03_2D_ZEICHNUNG_BEMASSUNGEN
100
AcDbLine
 62
7
  6
CONTINUOUS
 10
309.0397417427
 20
-33.0
 11
309.0397417427
 21
-13.5
  0
INSERT
  5
242
100
AcDbEntity
  8
_03_2D_ZEICHNUNG_BEMASSUNGEN
100
AcDbBlockReference
 62
7
  6
CONTINUOUS
  2
_FILLED
 10
309.0397417427
 20
0.0
 41
3.5
 42
3.5
 43
3.5
 50
270.0
  0
INSERT
  5
243
100
AcDbEntity
  8
_03_2D_ZEICHNUNG_BEMASSUNGEN
100
AcDbBlockReference
 62
7
  6
CONTINUOUS
  2
_FILLED
 10
309.0397417427
 20
-27.0
 41
3.5
 42
3.5
 43
3.5
 50
90.0
  0
ENDBLK
  5
244
100
AcDbEntity
  8
0
  6
BYBLOCK
 62
0
100
AcDbBlockEnd
  0
ENDSEC
  0
SECTION
  2
ENTITIES
  0
DIMENSION
  5
245
100
AcDbEntity
  8
_03_2D_ZEICHNUNG_BEMASSUNGEN
100
AcDbDimension
 62
7
  6
CONTINUOUS
  2
*D0
 10
300.0
 20
33.9831415733
 11
149.4999984741
 21
33.9831415733
 70
160
 71
2
 42
300.0
  3
DIMSTYLE_1
100
AcDbAlignedDimension
 13
0.0
 23
-28.6266192112
 14
300.0
 24
-28.6266192112
100
AcDbRotatedDimension
  0
DIMENSION
  5
246
100
AcDbEntity
  8
_03_2D_ZEICHNUNG_BEMASSUNGEN
100
AcDbDimension
 62
7
  6
CONTINUOUS
  2
*D1
 10
240.0
 20
24.9831415733
 11
269.4999957275
 21
24.9831415733
 70
160
 71
2
 42
60.0
  3
DIMSTYLE_2
100
AcDbAlignedDimension
 13
300.0
 23
-28.6266192112
 14
240.0
 24
-28.6266192112
 50
180.0
100
AcDbRotatedDimension
  0
DIMENSION
  5
247
100
AcDbEntity
  8
_03_2D_ZEICHNUNG_BEMASSUNGEN
100
AcDbDimension
 62
7
  6
CONTINUOUS
  2
*D2
 10
-9.0
 20
-20.0
 11
-9.0
 21
0.0
 70
160
 71
2
 42
40.0
  1
%%c<>
  3
DIMSTYLE_2
100
AcDbAlignedDimension
 13
0.5
 23
20.0
 14
0.5
 24
-20.0
 50
270.0
100
AcDbRotatedDimension
  0
DIMENSION
  5
248
100
AcDbEntity
  8
_03_2D_ZEICHNUNG_BEMASSUNGEN
100
AcDbDimension
 62
7
  6
CONTINUOUS
  2
*D3
 10
309.0397417427
 20
-27.0
 11
309.0397417427
 21
-13.9999938179
 70
160
 71
2
 42
27.0
  3
DIMSTYLE_3
100
AcDbAlignedDimension
 13
304.4837365978
 23
0.0
 14
300.0
 24
-27.0
 50
270.0
100
AcDbRotatedDimension
  0
LINE
  5
249
100
AcDbEntity
  8
0
100
AcDbLine
 62
4
  6
CONTINUOUS
 10
0.0
 20
-19.4999364104
 11
-0.0
 21
19.499935336
  0
LINE
  5
24A
100
AcDbEntity
  8
0
100
AcDbLine
 62
4
  6
CONTINUOUS
 10
0.5
 20
-20.0
 11
0.5
 21
-6.2449979984
  0
LINE
  5
24B
100
AcDbEntity
  8
0
100
AcDbLine
 62
4
  6
CONTINUOUS
 10
0.5
 20
6.2449979984
 11
0.5
 21
20.0
  0
LINE
  5
24C
100
AcDbEntity
  8
_30_VOLUMEN
100
AcDbLine
 62
4
  6
CONTINUOUS
 10
-0.0
 20
19.5
 11
0.5
 21
20.0
  0
LINE
  5
24D
100
AcDbEntity
  8
_30_VOLUMEN
100
AcDbLine
 62
4
  6
CONTINUOUS
 10
0.0
 20
-19.5
 11
0.5
 21
-20.0
  0
LINE
  5
24E
100
AcDbEntity
  8
_30_VOLUMEN
100
AcDbLine
 62
4
  6
CONTINUOUS
 10
272.2643056366
 20
-25.84
 11
289.8664637031
 21
-25.84
  0
LINE
  5
24F
100
AcDbEntity
  8
_30_VOLUMEN
100
AcDbLine
 62
4
  6
CONTINUOUS
 10
0.5
 20
-20.0
 11
240.0
 21
-20.0
  0
LINE
  5
250
100
AcDbEntity
  8
_30_VOLUMEN
100
AcDbLine
 62
4
  6
CONTINUOUS
 10
240.0
 20
-19.75
 11
268.0
 21
-19.75
  0
LINE
  5
251
100
AcDbEntity
  8
_30_VOLUMEN
100
AcDbLine
 62
4
  6
CONTINUOUS
 10
299.568216814
 20
-26.9993019404
 11
291.4816482044
 21
-26.5226663662
  0
LINE
  5
252
100
AcDbEntity
  8
_21_KURVEN
100
AcDbLine
 62
5
  6
CONTINUOUS
 10
299.568216814
 20
-26.9993019404
 11
291.4816482044
 21
-26.5226663662
  0
LINE
  5
253
100
AcDbEntity
  8
0
100
AcDbLine
 62
4
  6
CONTINUOUS
 10
0.5
 20
-6.2449979984
 11
240.0
 21
-6.2449979984
  0
LINE
  5
254
100
AcDbEntity
  8
0
100
AcDbLine
 62
4
  6
CONTINUOUS
 10
240.0
 20
-5.3909646632
 11
252.9468522264
 21
-5.3909646632
  0
LINE
  5
255
100
AcDbEntity
  8
_26_BEZUGSACHSEN
100
AcDbLine
 62
7
  6
CENTER
 10
-3.0
 20
0.0
 11
304.4837365978
 21
0.0
  0
LINE
  5
256
100
AcDbEntity
  8
0
100
AcDbLine
 62
4
  6
CONTINUOUS
 10
240.0
 20
5.3909646632
 11
258.0770457728
 21
5.3909646632
  0
LINE
  5
257
100
AcDbEntity
  8
0
100
AcDbLine
 62
4
  6
CONTINUOUS
 10
0.5
 20
6.2449979984
 11
240.0
 21
6.2449979984
  0
LINE
  5
258
100
AcDbEntity
  8
_30_VOLUMEN
100
AcDbLine
 62
4
  6
CONTINUOUS
 10
240.0
 20
19.75
 11
268.0
 21
19.75
  0
LINE
  5
259
100
AcDbEntity
  8
0
100
AcDbLine
 62
4
  6
CONTINUOUS
 10
268.1090664836
 20
19.904621623
 11
280.1642976022
 21
19.904621623
  0
LINE
  5
25A
100
AcDbEntity
  8
_30_VOLUMEN
100
AcDbLine
 62
4
  6
CONTINUOUS
 10
0.5
 20
20.0
 11
240.0
 21
20.0
  0
LINE
  5
25B
100
AcDbEntity
  8
_21_KURVEN
100
AcDbLine
 62
5
  6
CONTINUOUS
 10
291.4150307596
 20
-26.5069425921
 11
284.0581153742
 21
-23.3384390417
  0
LINE
  5
25C
100
AcDbEntity
  8
_30_VOLUMEN
100
AcDbLine
 62
4
  6
CONTINUOUS
 10
283.6291362645
 20
-23.1536847309
 11
291.4150307596
 21
-26.5069425921
  0
LINE
  5
25D
100
AcDbEntity
  8
0
100
AcDbLine
 62
4
  6
CONTINUOUS
 10
268.1074577327
 20
19.9034690664
 11
268.1090654467
 21
19.904621623
  0
LINE
  5
25E
100
AcDbEntity
  8
0
100
AcDbLine
 62
4
  6
CONTINUOUS
 10
240.0
 20
19.9999265109
 11
240.0
 21
5.3909646632
  0
LINE
  5
25F
100
AcDbEntity
  8
0
100
AcDbLine
 62
4
  6
CONTINUOUS
 10
240.0
 20
-5.3909646632
 11
240.0
 21
-19.999925732
  0
LINE
  5
260
100
AcDbEntity
  8
_30_VOLUMEN
100
AcDbLine
 62
4
  6
CONTINUOUS
 10
268.0
 20
19.75
 11
268.107460197
 21
19.9034690662
  0
LINE
  5
261
100
AcDbEntity
  8
_30_VOLUMEN
100
AcDbLine
 62
4
  6
CONTINUOUS
 10
294.6893645125
 20
-10.255071162
 11
294.4401186882
 21
-10.4330424452
  0
LINE
  5
262
100
AcDbEntity
  8
_30_VOLUMEN
100
AcDbLine
 62
4
  6
CONTINUOUS
 10
288.5766917511
 20
-16.0866925282
 11
295.2548072337
 21
-11.3182564458
  0
LINE
  5
263
100
AcDbEntity
  8
_21_KURVEN
100
AcDbLine
 62
5
  6
CONTINUOUS
 10
288.6053749284
 20
-16.066211616
 11
295.2548072337
 21
-11.3182564458
  0
LINE
  5
264
100
AcDbEntity
  8
_30_VOLUMEN
100
AcDbLine
 62
4
  6
CONTINUOUS
 10
268.0
 20
-19.75
 11
272.2642639077
 21
-25.84
  0
LINE
  5
265
100
AcDbEntity
  8
_30_VOLUMEN
100
AcDbLine
 62
4
  6
CONTINUOUS
 10
283.8129317428
 20
-23.0559352445
 11
283.7631288471
 21
-22.9622923274
  0
LINE
  5
266
100
AcDbEntity
  8
0
100
AcDbLine
 62
4
  6
CONTINUOUS
 10
268.0
 20
19.75
 11
268.0
 21
12.9841853982
  0
LINE
  5
267
100
AcDbEntity
  8
0
100
AcDbLine
 62
4
  6
CONTINUOUS
 10
268.0
 20
-18.9520470205
 11
268.0
 21
-19.75
  0
LINE
  5
268
100
AcDbEntity
  8
0
100
AcDbLine
 62
7
  6
CONTINUOUS
 10
268.7609813164
 20
-20.1882140424
 11
279.6085809316
 21
15.8777599064
  0
LINE
  5
269
100
AcDbEntity
  8
_30_VOLUMEN
100
AcDbLine
 62
4
  6
CONTINUOUS
 10
288.5766917511
 20
-16.0866925282
 11
283.6291362645
 21
-23.1536847309
  0
LINE
  5
26A
100
AcDbEntity
  8
_21_KURVEN
100
AcDbLine
 62
5
  6
CONTINUOUS
 10
283.9006249491
 20
-22.7658955646
 11
288.5566075741
 21
-16.1153803767
  0
LINE
  5
26B
100
AcDbEntity
  8
_30_VOLUMEN
100
AcDbLine
 62
7
  6
CONTINUOUS
 10
288.5566075741
 20
-16.1153803767
 11
288.5491426074
 21
-16.1013442197
  0
LINE
  5
26C
100
AcDbEntity
  8
_30_VOLUMEN
100
AcDbLine
 62
4
  6
CONTINUOUS
 10
295.8425695015
 20
-11.4569864914
 11
295.8352818261
 21
-11.4438449034
  0
LINE
  5
26D
100
AcDbEntity
  8
_30_VOLUMEN
100
AcDbLine
 62
7
  6
CONTINUOUS
 10
295.2548072337
 20
-11.3182564458
 11
294.6893645125
 21
-10.255071162
  0
LINE
  5
26E
100
AcDbEntity
  8
_30_VOLUMEN
100
AcDbLine
 62
4
  6
CONTINUOUS
 10
295.8357734497
 20
-11.4435643618
 11
295.2703307285
 21
-10.380379078
  0
LINE
  5
26F
100
AcDbEntity
  8
_30_VOLUMEN
100
AcDbLine
 62
4
  6
CONTINUOUS
 10
295.8425695015
 20
-11.4569864914
 11
299.2731554862
 21
-18.5841372535
  0
LINE
  5
270
100
AcDbEntity
  8
_21_KURVEN
100
AcDbLine
 62
5
  6
CONTINUOUS
 10
295.8425695015
 20
-11.4569864914
 11
299.2731554862
 21
-18.5841372535
  0
LINE
  5
271
100
AcDbEntity
  8
0
100
AcDbLine
 62
4
  6
CONTINUOUS
 10
280.1642973832
 20
19.9046220886
 11
281.9720140497
 21
16.0630286257
  0
LINE
  5
272
100
AcDbEntity
  8
_30_VOLUMEN
100
AcDbLine
 62
4
  6
CONTINUOUS
 10
281.9720140497
 20
16.0630286257
 11
294.9567997047
 21
-11.5310454965
  0
LINE
  5
273
100
AcDbEntity
  8
_30_VOLUMEN
100
AcDbLine
 62
4
  6
CONTINUOUS
 10
299.2910055767
 20
-18.6490297883
 11
299.9984886569
 21
-26.5654885088
  0
LINE
  5
274
100
AcDbEntity
  8
_21_KURVEN
100
AcDbLine
 62
5
  6
CONTINUOUS
 10
299.2910055767
 20
-18.6490297883
 11
299.9984886569
 21
-26.5654885088
  0
ARC
  5
275
100
AcDbEntity
  8
_26_BEZUGSACHSEN
100
AcDbCircle
 62
4
  6
CONTINUOUS
 10
356.8485250316
 20
34.8905694124
 40
103.889786527
100
AcDbArc
 50
211.2160565624
 51
212.0166395218
  0
ARC
  5
276
100
AcDbEntity
  8
0
100
AcDbCircle
 62
4
  6
CONTINUOUS
 10
357.3116980462
 20
-32.2663524995
 40
100.1208798799
100
AcDbArc
 50
152.9097459963
 51
153.1305557079
  0
ARC
  5
277
100
AcDbEntity
  8
0
100
AcDbCircle
 62
4
  6
CONTINUOUS
 10
23.0823408295
 20
0.8296943751
 40
23.664602036
100
AcDbArc
 50
192.7362470521
 51
197.3949535332
  0
ARC
  5
278
100
AcDbEntity
  8
0
100
AcDbCircle
 62
4
  6
CONTINUOUS
 10
23.0823408295
 20
-0.8296943751
 40
23.664602036
100
AcDbArc
 50
162.6050464668
 51
167.2637529479
  0
ARC
  5
279
100
AcDbEntity
  8
_30_VOLUMEN
100
AcDbCircle
 62
4
  6
CONTINUOUS
 10
292.4444807153
 20
-19.4393737054
 40
2.4538795825
100
AcDbArc
 50
221.040013885
 51
232.0724568445
  0
ARC
  5
27A
100
AcDbEntity
  8
_30_VOLUMEN
100
AcDbCircle
 62
4
  6
CONTINUOUS
 10
288.7247472957
 20
-16.2333706841
 40
0.2054085651
100
AcDbArc
 50
125.5293786256
 51
144.9411391789
  0
SPLINE
  5
27B
100
AcDbEntity
  8
_30_VOLUMEN
100
AcDbSpline
 62
4
  6
CONTINUOUS
 70
0
 71
3
 72
11
 73
7
 74
0
 42
0.0000001
 43
0.0000001
 44
0.0000000001
 40
0.0
 40
0.0
 40
0.0
 40
0.0
 40
0.2509160696
 40
0.503295042
 40
0.7536651379
 40
1.0
 40
1.0
 40
1.0
 40
1.0
 10
299.568216814
 20
-26.9993019404
 30
0.0
 10
299.625542222
 20
-27.0026807937
 30
0.0
 10
299.743270897
 20
-26.9838433833
 30
0.0
 10
299.8923151242
 20
-26.8874187567
 30
0.0
 10
299.9872897366
 20
-26.7385168496
 30
0.0
 10
300.003506942
 20
-26.6216411556
 30
0.0
 10
299.9984886569
 20
-26.5654885088
 30
0.0
  0
SPLINE
  5
27C
100
AcDbEntity
  8
_30_VOLUMEN
100
AcDbSpline
 62
4
  6
CONTINUOUS
 70
0
 71
3
 72
8
 73
4
 74
0
 42
0.0000001
 43
0.0000001
 44
0.0000000001
 40
0.0
 40
0.0
 40
0.0
 40
0.0
 40
1.0
 40
1.0
 40
1.0
 40
1.0
 10
291.4816482044
 20
-26.5226663662
 30
0.0
 10
291.4588717528
 20
-26.5213238849
 30
0.0
 10
291.4359858959
 20
-26.5159676277
 30
0.0
 10
291.4150307596
 20
-26.5069425921
 30
0.0
  0
SPLINE
  5
27D
100
AcDbEntity
  8
_30_VOLUMEN
100
AcDbSpline
 62
4
  6
CONTINUOUS
 70
0
 71
3
 72
8
 73
4
 74
0
 42
0.0000001
 43
0.0000001
 44
0.0000000001
 40
0.0
 40
0.0
 40
0.0
 40
0.0
 40
1.0
 40
1.0
 40
1.0
 40
1.0
 10
299.2731554862
 20
-18.5841372535
 30
0.0
 10
299.282885507
 20
-18.6043516792
 30
0.0
 10
299.2890086158
 20
-18.6266845772
 30
0.0
 10
299.2910055767
 20
-18.6490297883
 30
0.0
  0
SPLINE
  5
27E
100
AcDbEntity
  8
_30_VOLUMEN
100
AcDbSpline
 62
4
  6
CONTINUOUS
 70
0
 71
3
 72
11
 73
7
 74
0
 42
0.0000001
 43
0.0000001
 44
0.0000000001
 40
0.0
 40
0.0
 40
0.0
 40
0.0
 40
0.2533050691
 40
0.5054652219
 40
0.754114083
 40
1.0
 40
1.0
 40
1.0
 40
1.0
 10
294.6893645125
 20
-10.255071162
 30
0.0
 10
294.7352122651
 20
-10.2223340704
 30
0.0
 10
294.8416208645
 20
-10.17583909
 30
0.0
 10
295.0141479086
 20
-10.1750656831
 30
0.0
 10
295.1701158033
 20
-10.2456687771
 30
0.0
 10
295.2445500945
 20
-10.3321693824
 30
0.0
 10
295.2703238194
 20
-10.3804006779
 30
0.0
  0
SPLINE
  5
27F
100
AcDbEntity
  8
_30_VOLUMEN
100
AcDbSpline
 62
4
  6
CONTINUOUS
 70
0
 71
3
 72
11
 73
7
 74
0
 42
0.0000001
 43
0.0000001
 44
0.0000000001
 40
0.0
 40
0.0
 40
0.0
 40
0.0
 40
0.2467198793
 40
0.4951461969
 40
0.7464394024
 40
1.0
 40
1.0
 40
1.0
 40
1.0
 10
295.3577975403
 20
-19.1513271596
 30
0.0
 10
295.2257668749
 20
-18.902990532
 30
0.0
 10
294.8692587769
 20
-18.4478498555
 30
0.0
 10
294.1329055016
 20
-17.9893362475
 30
0.0
 10
293.2784332245
 20
-17.8023262313
 30
0.0
 10
292.6946444111
 20
-17.8718792459
 30
0.0
 10
292.4170206525
 20
-17.9523501829
 30
0.0
  0
SPLINE
  5
280
100
AcDbEntity
  8
_30_VOLUMEN
100
AcDbSpline
 62
4
  6
CONTINUOUS
 70
0
 71
3
 72
14
 73
10
 74
0
 42
0.0000001
 43
0.0000001
 44
0.0000000001
 40
0.0
 40
0.0
 40
0.0
 40
0.0
 40
0.1229200577
 40
0.2462436591
 40
0.3702778159
 40
0.4952236327
 40
0.6209958898
 40
0.7475378112
 40
1.0
 40
1.0
 40
1.0
 40
1.0
 10
290.8022937745
 20
-21.5741188701
 30
0.0
 10
290.7153300429
 20
-21.4105486892
 30
0.0
 10
290.5781894709
 20
-21.0615061019
 30
0.0
 10
290.4982728501
 20
-20.5044851155
 30
0.0
 10
290.5457702688
 20
-19.9405259731
 30
0.0
 10
290.7192165482
 20
-19.3981688649
 30
0.0
 10
291.0093019512
 20
-18.9035203821
 30
0.0
 10
291.5292697794
 20
-18.3424066625
 30
0.0
 10
292.0515807643
 20
-18.0582751597
 30
0.0
 10
292.4170206525
 20
-17.9523501829
 30
0.0
  0
SPLINE
  5
281
100
AcDbEntity
  8
_30_VOLUMEN
100
AcDbSpline
 62
4
  6
CONTINUOUS
 70
0
 71
3
 72
9
 73
5
 74
0
 42
0.0000001
 43
0.0000001
 44
0.0000000001
 40
0.0
 40
0.0
 40
0.0
 40
0.0
 40
0.2512400641
 40
1.0
 40
1.0
 40
1.0
 40
1.0
 10
283.8727582381
 20
-23.1685428613
 30
0.0
 10
283.8827703927
 20
-23.1873225044
 30
0.0
 10
283.9290795531
 20
-23.2584900403
 30
0.0
 10
283.999862824
 20
-23.3133506178
 30
0.0
 10
284.0581153742
 20
-23.3384390417
 30
0.0
  0
SPLINE
  5
282
100
AcDbEntity
  8
_30_VOLUMEN
100
AcDbSpline
 62
4
  6
CONTINUOUS
 70
0
 71
3
 72
11
 73
7
 74
0
 42
0.0000001
 43
0.0000001
 44
0.0000000001
 40
0.0
 40
0.0
 40
0.0
 40
0.0
 40
0.2522078013
 40
0.5036632373
 40
0.752785445
 40
1.0
 40
1.0
 40
1.0
 40
1.0
 10
293.2251441361
 20
-21.7992538642
 30
0.0
 10
293.0304667965
 20
-21.8556822765
 30
0.0
 10
292.6271117746
 20
-21.9233094226
 30
0.0
 10
292.0180340882
 20
-21.8844877783
 30
0.0
 10
291.4387168558
 20
-21.7048503938
 30
0.0
 10
291.0928600862
 20
-21.4971153627
 30
0.0
 10
290.9361681551
 20
-21.3749661796
 30
0.0
  0
SPLINE
  5
283
100
AcDbEntity
  8
_30_VOLUMEN
100
AcDbSpline
 62
4
  6
CONTINUOUS
 70
0
 71
3
 72
11
 73
7
 74
0
 42
0.0000001
 43
0.0000001
 44
0.0000000001
 40
0.0
 40
0.0
 40
0.0
 40
0.0
 40
0.2529340831
 40
0.5048169856
 40
0.753887887
 40
1.0
 40
1.0
 40
1.0
 40
1.0
 10
293.2251441361
 20
-21.7992538642
 30
0.0
 10
293.5445988845
 20
-21.7066579602
 30
0.0
 10
294.1530803434
 20
-21.3977455088
 30
0.0
 10
294.8246730214
 20
-20.6373221469
 30
0.0
 10
295.1627118973
 20
-19.689256373
 30
0.0
 10
295.1268580978
 20
-19.0186070367
 30
0.0
 10
295.0455690828
 20
-18.7053491841
 30
0.0
  0
SPLINE
  5
284
100
AcDbEntity
  8
_30_VOLUMEN
100
AcDbSpline
 62
4
  6
CONTINUOUS
 70
0
 71
3
 72
15
 73
11
 74
0
 42
0.0000001
 43
0.0000001
 44
0.0000000001
 40
0.0
 40
0.0
 40
0.0
 40
0.0
 40
0.1264267827
 40
0.2513470822
 40
0.3748401433
 40
0.4977644645
 40
0.6213526551
 40
0.7464355642
 40
0.8729273806
 40
1.0
 40
1.0
 40
1.0
 40
1.0
 10
293.8558514726
 20
-23.1414022424
 30
0.0
 10
293.4921121725
 20
-23.2468342934
 30
0.0
 10
292.7206738565
 20
-23.319367789
 30
0.0
 10
291.6195277191
 20
-22.9844465182
 30
0.0
 10
290.7398272031
 20
-22.2545200656
 30
0.0
 10
290.222918896
 20
-21.2390899396
 30
0.0
 10
290.148740071
 20
-20.097939369
 30
0.0
 10
290.5259536023
 20
-19.0082523819
 30
0.0
 10
291.2901352332
 20
-18.1341655212
 30
0.0
 10
291.9861586167
 20
-17.779357727
 30
0.0
 10
292.3517560372
 20
-17.6733870885
 30
0.0
  0
SPLINE
  5
285
100
AcDbEntity
  8
_30_VOLUMEN
100
AcDbSpline
 62
4
  6
CONTINUOUS
 70
0
 71
3
 72
15
 73
11
 74
0
 42
0.0000001
 43
0.0000001
 44
0.0000000001
 40
0.0
 40
0.0
 40
0.0
 40
0.0
 40
0.1264267827
 40
0.2513470822
 40
0.3748401433
 40
0.4977644645
 40
0.6213526551
 40
0.7464355642
 40
0.8729273806
 40
1.0
 40
1.0
 40
1.0
 40
1.0
 10
292.3517560372
 20
-17.6733870885
 30
0.0
 10
292.7154953373
 20
-17.5679550375
 30
0.0
 10
293.4869336533
 20
-17.4954215419
 30
0.0
 10
294.5880797907
 20
-17.8303428127
 30
0.0
 10
295.4677803067
 20
-18.5602692652
 30
0.0
 10
295.9846886138
 20
-19.5756993913
 30
0.0
 10
296.0588674388
 20
-20.7168499619
 30
0.0
 10
295.6816539075
 20
-21.8065369489
 30
0.0
 10
294.9174722766
 20
-22.6806238097
 30
0.0
 10
294.2214488931
 20
-23.0354316039
 30
0.0
 10
293.8558514726
 20
-23.1414022424
 30
0.0
  0
SPLINE
  5
286
100
AcDbEntity
  8
_30_VOLUMEN
100
AcDbSpline
 62
4
  6
CONTINUOUS
 70
0
 71
3
 72
11
 73
7
 74
0
 42
0.0000001
 43
0.0000001
 44
0.0000000001
 40
0.0
 40
0.0
 40
0.0
 40
0.0
 40
0.2535605976
 40
0.5048538031
 40
0.7532801207
 40
1.0
 40
1.0
 40
1.0
 40
1.0
 10
293.7430706623
 20
-22.7730958468
 30
0.0
 10
293.4654469036
 20
-22.8535667838
 30
0.0
 10
292.8816580903
 20
-22.9231197985
 30
0.0
 10
292.0271858131
 20
-22.7361097822
 30
0.0
 10
291.2908325378
 20
-22.2775961742
 30
0.0
 10
290.9343244398
 20
-21.8224554977
 30
0.0
 10
290.8022937745
 20
-21.5741188701
 30
0.0
  0
SPLINE
  5
287
100
AcDbEntity
  8
_30_VOLUMEN
100
AcDbSpline
 62
4
  6
CONTINUOUS
 70
0
 71
3
 72
14
 73
10
 74
0
 42
0.0000001
 43
0.0000001
 44
0.0000000001
 40
0.0
 40
0.0
 40
0.0
 40
0.0
 40
0.2524621888
 40
0.3790041102
 40
0.5047763673
 40
0.6297221841
 40
0.7537563409
 40
0.8770799423
 40
1.0
 40
1.0
 40
1.0
 40
1.0
 10
293.7430706623
 20
-22.7730958468
 30
0.0
 10
294.1085105504
 20
-22.66717087
 30
0.0
 10
294.6308215353
 20
-22.3830393672
 30
0.0
 10
295.1507893636
 20
-21.8219256476
 30
0.0
 10
295.4408747665
 20
-21.3272771648
 30
0.0
 10
295.614321046
 20
-20.7849200566
 30
0.0
 10
295.6618184646
 20
-20.2209609142
 30
0.0
 10
295.5819018439
 20
-19.6639399279
 30
0.0
 10
295.4447612718
 20
-19.3148973405
 30
0.0
 10
295.3577975403
 20
-19.1513271596
 30
0.0
  0
SPLINE
  5
288
100
AcDbEntity
  8
_30_VOLUMEN
100
AcDbSpline
 62
4
  6
CONTINUOUS
 70
0
 71
3
 72
9
 73
5
 74
0
 42
0.0000001
 43
0.0000001
 44
0.0000000001
 40
0.0
 40
0.0
 40
0.0
 40
0.0
 40
0.5037620853
 40
1.0
 40
1.0
 40
1.0
 40
1.0
 10
283.9006249491
 20
-22.7658955646
 30
0.0
 10
283.86023702
 20
-22.8235848985
 30
0.0
 10
283.8094943358
 20
-22.962252933
 30
0.0
 10
283.8401227696
 20
-23.1073290193
 30
0.0
 10
283.8727582381
 20
-23.1685428613
 30
0.0
  0
SPLINE
  5
289
100
AcDbEntity
  8
_30_VOLUMEN
100
AcDbSpline
 62
4
  6
CONTINUOUS
 70
0
 71
3
 72
11
 73
7
 74
0
 42
0.0000001
 43
0.0000001
 44
0.0000000001
 40
0.0
 40
0.0
 40
0.0
 40
0.0
 40
0.245885917
 40
0.4945347781
 40
0.7466949309
 40
1.0
 40
1.0
 40
1.0
 40
1.0
 10
295.8357665406
 20
-11.4435859617
 30
0.0
 10
295.8099928157
 20
-11.3953546662
 30
0.0
 10
295.7355585245
 20
-11.3088540609
 30
0.0
 10
295.5795906298
 20
-11.2382509669
 30
0.0
 10
295.4070635857
 20
-11.2390243738
 30
0.0
 10
295.3006549863
 20
-11.2855193542
 30
0.0
 10
295.2548072337
 20
-11.3182564458
 30
0.0
  0
SPLINE
  5
28A
100
AcDbEntity
  8
_21_KURVEN
100
AcDbSpline
 62
5
  6
CONTINUOUS
 70
0
 71
3
 72
9
 73
5
 74
0
 42
0.0000001
 43
0.0000001
 44
0.0000000001
 40
0.0
 40
0.0
 40
0.0
 40
0.0
 40
0.5
 40
1.0
 40
1.0
 40
1.0
 40
1.0
 10
283.9006249491
 20
-22.7658955646
 30
0.0
 10
283.8813172715
 20
-22.796270848
 30
0.0
 10
283.8445918087
 20
-22.8599186895
 30
0.0
 10
283.8330586591
 20
-22.9343286612
 30
0.0
 10
283.8293422805
 20
-22.9709664133
 30
0.0
  0
SPLINE
  5
28B
100
AcDbEntity
  8
_21_KURVEN
100
AcDbSpline
 62
5
  6
CONTINUOUS
 70
0
 71
3
 72
9
 73
5
 74
0
 42
0.0000001
 43
0.0000001
 44
0.0000000001
 40
0.0
 40
0.0
 40
0.0
 40
0.0
 40
0.5
 40
1.0
 40
1.0
 40
1.0
 40
1.0
 10
283.8293422804
 20
-22.970966415
 30
0.0
 10
283.8292068323
 20
-23.0090480309
 30
0.0
 10
283.8333697134
 20
-23.0894296493
 30
0.0
 10
283.8677869292
 20
-23.1587341726
 30
0.0
 10
283.8873890793
 20
-23.193548146
 30
0.0
  0
SPLINE
  5
28C
100
AcDbEntity
  8
_21_KURVEN
100
AcDbSpline
 62
5
  6
CONTINUOUS
 70
0
 71
3
 72
9
 73
5
 74
0
 42
0.0000001
 43
0.0000001
 44
0.0000000001
 40
0.0
 40
0.0
 40
0.0
 40
0.0
 40
0.5
 40
1.0
 40
1.0
 40
1.0
 40
1.0
 10
283.8873890736
 20
-23.193548137
 30
0.0
 10
283.9076000943
 20
-23.222278479
 30
0.0
 10
283.9506702697
 20
-23.2780161126
 30
0.0
 10
284.0138425678
 20
-23.3159027223
 30
0.0
 10
284.045655335
 20
-23.3328107376
 30
0.0
  0
LINE
  5
28D
100
AcDbEntity
  8
_21_KURVEN
100
AcDbLine
 62
5
  6
CONTINUOUS
 10
284.0456553334
 20
-23.3328107369
 11
284.0581153741
 21
-23.3384390417
  0
SPLINE
  5
28E
100
AcDbEntity
  8
_21_KURVEN
100
AcDbSpline
 62
5
  6
CONTINUOUS
 70
0
 71
3
 72
8
 73
4
 74
0
 42
0.0000001
 43
0.0000001
 44
0.0000000001
 40
0.0
 40
0.0
 40
0.0
 40
0.0
 40
1.0
 40
1.0
 40
1.0
 40
1.0
 10
288.6053749284
 20
-16.066211616
 30
0.0
 10
288.5875691207
 20
-16.079667536
 30
0.0
 10
288.5706905797
 20
-16.0964605306
 30
0.0
 10
288.5566075753
 20
-16.115380375
 30
0.0
  0
LINE
  5
28F
100
AcDbEntity
  8
_21_KURVEN
100
AcDbLine
 62
5
  6
CONTINUOUS
 10
295.8425695015
 20
-11.4569864914
 11
295.8357734497
 21
-11.4435643619
  0
SPLINE
  5
290
100
AcDbEntity
  8
_21_KURVEN
100
AcDbSpline
 62
5
  6
CONTINUOUS
 70
0
 71
3
 72
8
 73
4
 74
0
 42
0.0000001
 43
0.0000001
 44
0.0000000001
 40
0.0
 40
0.0
 40
0.0
 40
0.0
 40
1.0
 40
1.0
 40
1.0
 40
1.0
 10
295.8357734497
 20
-11.4435643618
 30
0.0
 10
295.81717679
 20
-11.4106316202
 30
0.0
 10
295.7918239686
 20
-11.3767971715
 30
0.0
 10
295.7634532864
 20
-11.3482368735
 30
0.0
  0
SPLINE
  5
291
100
AcDbEntity
  8
_21_KURVEN
100
AcDbSpline
 62
5
  6
CONTINUOUS
 70
0
 71
3
 72
9
 73
5
 74
0
 42
0.0000001
 43
0.0000001
 44
0.0000000001
 40
0.0
 40
0.0
 40
0.0
 40
0.0
 40
0.5
 40
1.0
 40
1.0
 40
1.0
 40
1.0
 10
295.7634532888
 20
-11.3482368758
 30
0.0
 10
295.7452650257
 20
-11.3319655328
 30
0.0
 10
295.705937174
 20
-11.2992656764
 30
0.0
 10
295.6616873013
 20
-11.278685575
 30
0.0
 10
295.6377990866
 20
-11.2684470802
 30
0.0
  0
SPLINE
  5
292
100
AcDbEntity
  8
_21_KURVEN
100
AcDbSpline
 62
5
  6
CONTINUOUS
 70
0
 71
3
 72
11
 73
7
 74
0
 42
0.0000001
 43
0.0000001
 44
0.0000000001
 40
0.0
 40
0.0
 40
0.0
 40
0.0
 40
0.25
 40
0.5
 40
0.75
 40
1.0
 40
1.0
 40
1.0
 40
1.0
 10
295.6377990869
 20
-11.2684470803
 30
0.0
 10
295.606227583
 20
-11.2591104873
 30
0.0
 10
295.5425788225
 20
-11.2417756789
 30
0.0
 10
295.4424064158
 20
-11.2398079007
 30
0.0
 10
295.3426574423
 20
-11.2672879013
 30
0.0
 10
295.2841573643
 20
-11.3007707234
 30
0.0
 10
295.2548072374
 20
-11.3182564431
 30
0.0
  0
SPLINE
  5
293
100
AcDbEntity
  8
_21_KURVEN
100
AcDbSpline
 62
5
  6
CONTINUOUS
 70
0
 71
3
 72
8
 73
4
 74
0
 42
0.0000001
 43
0.0000001
 44
0.0000000001
 40
0.0
 40
0.0
 40
0.0
 40
0.0
 40
1.0
 40
1.0
 40
1.0
 40
1.0
 10
299.2910055767
 20
-18.6490297883
 30
0.0
 10
299.2903411934
 20
-18.6422766851
 30
0.0
 10
299.2892672774
 20
-18.6346235755
 30
0.0
 10
299.2874776904
 20
-18.6258518308
 30
0.0
  0
LINE
  5
294
100
AcDbEntity
  8
_21_KURVEN
100
AcDbLine
 62
5
  6
CONTINUOUS
 10
299.2874776903
 20
-18.6258518304
 11
299.2845948828
 21
-18.6143075975
  0
SPLINE
  5
295
100
AcDbEntity
  8
_21_KURVEN
100
AcDbSpline
 62
5
  6
CONTINUOUS
 70
0
 71
3
 72
8
 73
4
 74
0
 42
0.0000001
 43
0.0000001
 44
0.0000000001
 40
0.0
 40
0.0
 40
0.0
 40
0.0
 40
1.0
 40
1.0
 40
1.0
 40
1.0
 10
299.2845948828
 20
-18.6143075977
 30
0.0
 10
299.2818973034
 20
-18.6052324142
 30
0.0
 10
299.278142549
 20
-18.5949334024
 30
0.0
 10
299.273155486
 20
-18.5841372531
 30
0.0
  0
SPLINE
  5
296
100
AcDbEntity
  8
_21_KURVEN
100
AcDbSpline
 62
5
  6
CONTINUOUS
 70
0
 71
3
 72
9
 73
5
 74
0
 42
0.0000001
 43
0.0000001
 44
0.0000000001
 40
0.0
 40
0.0
 40
0.0
 40
0.0
 40
0.5
 40
1.0
 40
1.0
 40
1.0
 40
1.0
 10
299.568216814
 20
-26.9993019404
 30
0.0
 10
299.6056049945
 20
-26.9997693381
 30
0.0
 10
299.6848543714
 20
-26.9966940987
 30
0.0
 10
299.7554619667
 20
-26.9658171283
 30
0.0
 10
299.7909989587
 20
-26.9482721523
 30
0.0
  0
SPLINE
  5
297
100
AcDbEntity
  8
_21_KURVEN
100
AcDbSpline
 62
5
  6
CONTINUOUS
 70
0
 71
3
 72
9
 73
5
 74
0
 42
0.0000001
 43
0.0000001
 44
0.0000000001
 40
0.0
 40
0.0
 40
0.0
 40
0.0
 40
0.5
 40
1.0
 40
1.0
 40
1.0
 40
1.0
 10
299.7909989663
 20
-26.9482721481
 30
0.0
 10
299.823079663
 20
-26.9285082656
 30
0.0
 10
299.8888055486
 20
-26.8832780363
 30
0.0
 10
299.9316309721
 20
-26.8198806534
 30
0.0
 10
299.9522617352
 20
-26.785963421
 30
0.0
  0
SPLINE
  5
298
100
AcDbEntity
  8
_21_KURVEN
100
AcDbSpline
 62
5
  6
CONTINUOUS
 70
0
 71
3
 72
9
 73
5
 74
0
 42
0.0000001
 43
0.0000001
 44
0.0000000001
 40
0.0
 40
0.0
 40
0.0
 40
0.0
 40
0.5
 40
1.0
 40
1.0
 40
1.0
 40
1.0
 10
299.9522617316
 20
-26.7859634276
 30
0.0
 10
299.9684775585
 20
-26.7524349284
 30
0.0
 10
299.999037864
 20
-26.6805358685
 30
0.0
 10
299.9999795551
 20
-26.6033717341
 30
0.0
 10
299.9984886565
 20
-26.5654885044
 30
0.0
  0
SPLINE
  5
299
100
AcDbEntity
  8
_21_KURVEN
100
AcDbSpline
 62
1
  6
CENTER
 70
0
 71
3
 72
70
 73
66
 74
0
 42
0.0000001
 43
0.0000001
 44
0.0000000001
 40
0.0
 40
0.0
 40
0.0
 40
0.0
 40
0.03125
 40
0.0625
 40
0.09375
 40
0.109375
 40
0.125
 40
0.1328125
 40
0.140625
 40
0.15625
 40
0.171875
 40
0.1875
 40
0.21875
 40
0.25
 40
0.265625
 40
0.2734375
 40
0.28125
 40
0.28515625
 40
0.2890625
 40
0.296875
 40
0.3125
 40
0.34375
 40
0.375
 40
0.40625
 40
0.4140625
 40
0.421875
 40
0.4296875
 40
0.43359375
 40
0.4375
 40
0.4453125
 40
0.453125
 40
0.46875
 40
0.5
 40
0.53125
 40
0.546875
 40
0.5546875
 40
0.5625
 40
0.56640625
 40
0.5703125
 40
0.578125
 40
0.5859375
 40
0.59375
 40
0.625
 40
0.65625
 40
0.6875
 40
0.703125
 40
0.7109375
 40
0.71484375
 40
0.71875
 40
0.7265625
 40
0.734375
 40
0.75
 40
0.765625
 40
0.78125
 40
0.8125
 40
0.828125
 40
0.84375
 40
0.859375
 40
0.8671875
 40
0.875
 40
0.890625
 40
0.90625
 40
0.9375
 40
0.96875
 40
1.0
 40
1.0
 40
1.0
 40
1.0
 10
294.7356676235
 20
-26.3399014418
 30
0.0
 10
294.8296743536
 20
-26.301404494
 30
0.0
 10
295.0176912343
 20
-26.2244169268
 30
0.0
 10
295.2996960326
 20
-26.1088976052
 30
0.0
 10
295.5347598892
 20
-26.0127422521
 30
0.0
 10
295.7226775767
 20
-25.9355711591
 30
0.0
 10
295.8404296968
 20
-25.8879008781
 30
0.0
 10
295.9339361852
 20
-25.848478391
 30
0.0
 10
296.0299806522
 20
-25.8137516315
 30
0.0
 10
296.1318704064
 20
-25.7367330522
 30
0.0
 10
296.2583839113
 20
-25.6521668793
 30
0.0
 10
296.4255907074
 20
-25.5366745162
 30
0.0
 10
296.6350687817
 20
-25.3931997502
 30
0.0
 10
296.8445158856
 20
-25.2495840654
 30
0.0
 10
296.9908651908
 20
-25.148725534
 30
0.0
 10
297.0749546578
 20
-25.0916958808
 30
0.0
 10
297.126420121
 20
-25.0546208529
 30
0.0
 10
297.1700942573
 20
-25.0282454694
 30
0.0
 10
297.2046336935
 20
-24.9898767265
 30
0.0
 10
297.2666695836
 20
-24.9248216895
 30
0.0
 10
297.3896145575
 20
-24.7932296312
 30
0.0
 10
297.5658121348
 20
-24.6059993379
 30
0.0
 10
297.7771276632
 20
-24.3810702436
 30
0.0
 10
297.9353047225
 20
-24.2122216162
 30
0.0
 10
298.0413100625
 20
-24.0999878577
 30
0.0
 10
298.0933079938
 20
-24.0432575945
 30
0.0
 10
298.1398964045
 20
-23.9979716563
 30
0.0
 10
298.1637752698
 20
-23.9535627397
 30
0.0
 10
298.1899928722
 20
-23.9105823961
 30
0.0
 10
298.2219641759
 20
-23.8563678771
 30
0.0
 10
298.2735652626
 20
-23.7698976734
 30
0.0
 10
298.3636575721
 20
-23.6184469376
 30
0.0
 10
298.492481124
 20
-23.4021610019
 30
0.0
 10
298.6212228888
 20
-23.1858296128
 30
0.0
 10
298.7114297002
 20
-23.0344425117
 30
0.0
 10
298.7628508553
 20
-22.9478723107
 30
0.0
 10
298.7952822116
 20
-22.8939134666
 30
0.0
 10
298.8205551727
 20
-22.8504081371
 30
0.0
 10
298.8482821221
 20
-22.8081377997
 30
0.0
 10
298.8653760511
 20
-22.7464602545
 30
0.0
 10
298.8899894397
 20
-22.6745109865
 30
0.0
 10
298.9371083247
 20
-22.5295509835
 30
0.0
 10
299.0086499793
 20
-22.3125545873
 30
0.0
 10
299.1036502255
 20
-22.022983082
 30
0.0
 10
299.1825777159
 20
-21.7816947809
 30
0.0
 10
299.2384996842
 20
-21.6128545705
 30
0.0
 10
299.2655144184
 20
-21.528336477
 30
0.0
 10
299.2824774486
 20
-21.4801996036
 30
0.0
 10
299.2841172499
 20
-21.4304636258
 30
0.0
 10
299.2914137541
 20
-21.3688411905
 30
0.0
 10
299.3001554022
 20
-21.2699392668
 30
0.0
 10
299.3120911418
 20
-21.146416919
 30
0.0
 10
299.3259715056
 20
-20.9981448695
 30
0.0
 10
299.3446869345
 20
-20.8004659202
 30
0.0
 10
299.3630377477
 20
-20.6027747352
 30
0.0
 10
299.3823261999
 20
-20.4051074197
 30
0.0
 10
299.3943442378
 20
-20.2567975604
 30
0.0
 10
299.4121295909
 20
-20.133393974
 30
0.0
 10
299.3944555476
 20
-20.0338995345
 30
0.0
 10
299.3823529136
 20
-19.9345398418
 30
0.0
 10
299.3653169579
 20
-19.8102940882
 30
0.0
 10
299.3391256552
 20
-19.6115266697
 30
0.0
 10
299.3060204808
 20
-19.3630585436
 30
0.0
 10
299.2664519529
 20
-19.0649006058
 30
0.0
 10
299.2400428998
 20
-18.8661279208
 30
0.0
 10
299.2268421275
 20
-18.7667416692
 30
0.0
  0
SPLINE
  5
29A
100
AcDbEntity
  8
_21_KURVEN
100
AcDbSpline
 62
1
  6
CENTER
 70
0
 71
3
 72
11
 73
7
 74
0
 42
0.0000001
 43
0.0000001
 44
0.0000000001
 40
0.0
 40
0.0
 40
0.0
 40
0.0
 40
0.375
 40
0.5625
 40
0.75
 40
1.0
 40
1.0
 40
1.0
 40
1.0
 10
299.2268421207
 20
-18.766741642
 30
0.0
 10
299.2241985645
 20
-18.7563302306
 30
0.0
 10
299.2203177153
 20
-18.7410374507
 30
0.0
 10
299.2146934952
 20
-18.7193800951
 30
0.0
 10
299.2109454765
 20
-18.7049364694
 30
0.0
 10
299.2052563249
 20
-18.6836829422
 30
0.0
 10
299.2025058772
 20
-18.673357333
 30
0.0
  0
LINE
  5
29B
100
AcDbEntity
  8
_21_KURVEN
100
AcDbLine
 62
1
  6
CENTER
 10
299.2025058784
 20
-18.6733573374
 11
299.1846407704
 21
-18.6084643846
  0
SPLINE
  5
29C
100
AcDbEntity
  8
_21_KURVEN
100
AcDbSpline
 62
1
  6
CENTER
 70
0
 71
3
 72
11
 73
7
 74
0
 42
0.0000001
 43
0.0000001
 44
0.0000000001
 40
0.0
 40
0.0
 40
0.0
 40
0.0
 40
0.375
 40
0.5625
 40
0.75
 40
1.0
 40
1.0
 40
1.0
 40
1.0
 10
299.1846407701
 20
-18.6084643837
 30
0.0
 10
299.1817138182
 20
-18.5981333639
 30
0.0
 10
299.1773935908
 20
-18.582881222
 30
0.0
 10
299.1712414531
 20
-18.5616007383
 30
0.0
 10
299.1668947971
 20
-18.5465828412
 30
0.0
 10
299.1612801978
 20
-18.5276880407
 30
0.0
 10
299.158491764
 20
-18.5182595461
 30
0.0
  0
SPLINE
  5
29D
100
AcDbEntity
  8
_21_KURVEN
100
AcDbSpline
 62
1
  6
CENTER
 70
0
 71
3
 72
70
 73
66
 74
0
 42
0.0000001
 43
0.0000001
 44
0.0000000001
 40
0.0
 40
0.0
 40
0.0
 40
0.0
 40
0.03125
 40
0.0625
 40
0.09375
 40
0.109375
 40
0.125
 40
0.1328125
 40
0.140625
 40
0.15625
 40
0.171875
 40
0.1875
 40
0.21875
 40
0.234375
 40
0.25
 40
0.265625
 40
0.2734375
 40
0.28125
 40
0.28515625
 40
0.2890625
 40
0.296875
 40
0.3125
 40
0.34375
 40
0.375
 40
0.40625
 40
0.4140625
 40
0.421875
 40
0.4296875
 40
0.43359375
 40
0.4375
 40
0.4453125
 40
0.453125
 40
0.46875
 40
0.5
 40
0.53125
 40
0.546875
 40
0.5546875
 40
0.5625
 40
0.56640625
 40
0.5703125
 40
0.578125
 40
0.5859375
 40
0.59375
 40
0.625
 40
0.65625
 40
0.6875
 40
0.703125
 40
0.7109375
 40
0.71484375
 40
0.71875
 40
0.7265625
 40
0.734375
 40
0.75
 40
0.78125
 40
0.8125
 40
0.828125
 40
0.84375
 40
0.859375
 40
0.8671875
 40
0.875
 40
0.890625
 40
0.90625
 40
0.9375
 40
0.96875
 40
1.0
 40
1.0
 40
1.0
 40
1.0
 10
299.158491764
 20
-18.5182595463
 30
0.0
 10
299.1198793814
 20
-18.4278216355
 30
0.0
 10
299.042661086
 20
-18.2469421496
 30
0.0
 10
298.9267948241
 20
-17.9756449076
 30
0.0
 10
298.8303528274
 20
-17.7494997441
 30
0.0
 10
298.7529469076
 20
-17.5687265281
 30
0.0
 10
298.7051424031
 20
-17.4554180453
 30
0.0
 10
298.6655838112
 20
-17.3655160652
 30
0.0
 10
298.6308258163
 20
-17.2728950387
 30
0.0
 10
298.5530175807
 20
-17.1765805962
 30
0.0
 10
298.4676820106
 20
-17.0564525624
 30
0.0
 10
298.3510886434
 20
-16.8978753533
 30
0.0
 10
298.2353022938
 20
-16.7388385335
 30
0.0
 10
298.1192043466
 20
-16.5799854189
 30
0.0
 10
298.0322586614
 20
-16.4607540781
 30
0.0
 10
297.9595078386
 20
-16.3616230997
 30
0.0
 10
297.9019538971
 20
-16.2818157359
 30
0.0
 10
297.8645139342
 20
-16.2330783501
 30
0.0
 10
297.8379252835
 20
-16.191472767
 30
0.0
 10
297.799058354
 20
-16.1594161085
 30
0.0
 10
297.733181181
 20
-16.1016528586
 30
0.0
 10
297.5999096323
 20
-15.9873044021
 30
0.0
 10
297.4102979942
 20
-15.8233610775
 30
0.0
 10
297.182505735
 20
-15.6267606742
 30
0.0
 10
297.0115048746
 20
-15.4796216772
 30
0.0
 10
296.8978461277
 20
-15.3809690494
 30
0.0
 10
296.840385323
 20
-15.3326588934
 30
0.0
 10
296.7945491186
 20
-15.2891065641
 30
0.0
 10
296.7494593574
 20
-15.267808987
 30
0.0
 10
296.7058401927
 20
-15.2441460538
 30
0.0
 10
296.6508127601
 20
-15.2153771998
 30
0.0
 10
296.5630499262
 20
-15.1688949458
 30
0.0
 10
296.4093333243
 20
-15.087762972
 30
0.0
 10
296.1898125752
 20
-14.9717385887
 30
0.0
 10
295.970244988
 20
-14.8557967057
 30
0.0
 10
295.8165939595
 20
-14.7745492316
 30
0.0
 10
295.7287280817
 20
-14.7282484779
 30
0.0
 10
295.6739641138
 20
-14.6990155606
 30
0.0
 10
295.6298039682
 20
-14.6763055041
 30
0.0
 10
295.5869179429
 20
-14.6511262951
 30
0.0
 10
295.5241907234
 20
-14.6373255817
 30
0.0
 10
295.4510472318
 20
-14.616638708
 30
0.0
 10
295.3036651596
 20
-14.5773859096
 30
0.0
 10
295.0830495969
 20
-14.517637608
 30
0.0
 10
294.7886454477
 20
-14.4383665293
 30
0.0
 10
294.5433287944
 20
-14.3725412931
 30
0.0
 10
294.3716742517
 20
-14.3258001569
 30
0.0
 10
294.2857410222
 20
-14.3033633712
 30
0.0
 10
294.2368083744
 20
-14.2890363625
 30
0.0
 10
294.1861473092
 20
-14.289831522
 30
0.0
 10
294.1234127025
 20
-14.2856485414
 30
0.0
 10
294.0227071283
 20
-14.2818437877
 30
0.0
 10
293.8466258511
 20
-14.2738521169
 30
0.0
 10
293.5950039089
 20
-14.2630341167
 30
0.0
 10
293.3433986702
 20
-14.2523611445
 30
0.0
 10
293.1421361994
 20
-14.2429957616
 30
0.0
 10
292.9911141638
 20
-14.238365723
 30
0.0
 10
292.8655040257
 20
-14.2268719478
 30
0.0
 10
292.7640232685
 20
-14.2490366511
 30
0.0
 10
292.6627158668
 20
-14.2657247048
 30
0.0
 10
292.5360222573
 20
-14.2884599892
 30
0.0
 10
292.3333456581
 20
-14.3237883524
 30
0.0
 10
292.0799885193
 20
-14.3683086267
 30
0.0
 10
291.7759648592
 20
-14.4215779563
 30
0.0
 10
291.5732814845
 20
-14.4571203664
 30
0.0
 10
291.471939914
 20
-14.474887881
 30
0.0
  0
SPLINE
  5
29E
100
AcDbEntity
  8
_21_KURVEN
100
AcDbSpline
 62
1
  6
CENTER
 70
0
 71
3
 72
27
 73
23
 74
0
 42
0.0000001
 43
0.0000001
 44
0.0000000001
 40
0.0
 40
0.0
 40
0.0
 40
0.0
 40
0.125
 40
0.15625
 40
0.1875
 40
0.25
 40
0.3125
 40
0.34375
 40
0.375
 40
0.4375
 40
0.46875
 40
0.5
 40
0.53125
 40
0.5625
 40
0.625
 40
0.65625
 40
0.6875
 40
0.75
 40
0.8125
 40
0.84375
 40
0.875
 40
1.0
 40
1.0
 40
1.0
 40
1.0
 10
291.4719398863
 20
-14.474887889
 30
0.0
 10
291.3459670036
 20
-14.5170181546
 30
0.0
 10
291.1890736163
 20
-14.5712284931
 30
0.0
 10
290.9990834037
 20
-14.6316383796
 30
0.0
 10
290.8760886438
 20
-14.6818156793
 30
0.0
 10
290.7238028844
 20
-14.7483849077
 30
0.0
 10
290.5704676294
 20
-14.8124525552
 30
0.0
 10
290.4491520625
 20
-14.8666323842
 30
0.0
 10
290.3324706172
 20
-14.9305929219
 30
0.0
 10
290.2142470259
 20
-14.9913903588
 30
0.0
 10
290.0971742815
 20
-15.0543415666
 30
0.0
 10
290.0074593285
 20
-15.0982567606
 30
0.0
 10
289.9248105306
 20
-15.1542879166
 30
0.0
 10
289.8120387222
 20
-15.2246137117
 30
0.0
 10
289.700575071
 20
-15.2970020602
 30
0.0
 10
289.5871170064
 20
-15.3664895583
 30
0.0
 10
289.4798923858
 20
-15.4448303867
 30
0.0
 10
289.3482131316
 20
-15.546030435
 30
0.0
 10
289.214872431
 20
-15.6450837451
 30
0.0
 10
289.1103061247
 20
-15.7268593546
 30
0.0
 10
288.9636867047
 20
-15.8616349841
 30
0.0
 10
288.8388397819
 20
-15.970793786
 30
0.0
 10
288.739814747
 20
-16.0591301788
 30
0.0
  0
SPLINE
  5
29F
100
AcDbEntity
  8
_21_KURVEN
100
AcDbSpline
 62
1
  6
CENTER
 70
0
 71
3
 72
17
 73
13
 74
0
 42
0.0000001
 43
0.0000001
 44
0.0000000001
 40
0.0
 40
0.0
 40
0.0
 40
0.0
 40
0.125
 40
0.1875
 40
0.25
 40
0.375
 40
0.5
 40
0.625
 40
0.75
 40
0.8125
 40
0.875
 40
1.0
 40
1.0
 40
1.0
 40
1.0
 10
288.7398148649
 20
-16.0591300646
 30
0.0
 10
288.7358502625
 20
-16.0629807103
 30
0.0
 10
288.730494088
 20
-16.0681700949
 30
0.0
 10
288.7209896056
 20
-16.0774356098
 30
0.0
 10
288.7036633953
 20
-16.0944407844
 30
0.0
 10
288.6847543021
 20
-16.1130698026
 30
0.0
 10
288.6609248763
 20
-16.136741398
 30
0.0
 10
288.637896652
 20
-16.1599788246
 30
0.0
 10
288.6177965543
 20
-16.1804738242
 30
0.0
 10
288.6038267363
 20
-16.1946836918
 30
0.0
 10
288.5823618564
 20
-16.2169403256
 30
0.0
 10
288.564565286
 20
-16.2354623147
 30
0.0
 10
288.5530782192
 20
-16.2474037488
 30
0.0
  0
SPLINE
  5
2A0
100
AcDbEntity
  8
_21_KURVEN
100
AcDbSpline
 62
1
  6
CENTER
 70
0
 71
3
 72
84
 73
80
 74
0
 42
0.0000001
 43
0.0000001
 44
0.0000000001
 40
0.0
 40
0.0
 40
0.0
 40
0.0
 40
0.0625
 40
0.078125
 40
0.09375
 40
0.1015625
 40
0.109375
 40
0.1171875
 40
0.125
 40
0.140625
 40
0.15625
 40
0.171875
 40
0.1875
 40
0.203125
 40
0.2109375
 40
0.21875
 40
0.22265625
 40
0.2265625
 40
0.234375
 40
0.25
 40
0.28125
 40
0.296875
 40
0.3125
 40
0.3203125
 40
0.328125
 40
0.33203125
 40
0.3359375
 40
0.34375
 40
0.359375
 40
0.375
 40
0.390625
 40
0.40625
 40
0.421875
 40
0.4296875
 40
0.4375
 40
0.4453125
 40
0.44921875
 40
0.453125
 40
0.46875
 40
0.5
 40
0.53125
 40
0.546875
 40
0.55078125
 40
0.5546875
 40
0.5625
 40
0.5703125
 40
0.578125
 40
0.59375
 40
0.609375
 40
0.625
 40
0.640625
 40
0.65625
 40
0.6640625
 40
0.66796875
 40
0.671875
 40
0.6796875
 40
0.6875
 40
0.703125
 40
0.71875
 40
0.75
 40
0.765625
 40
0.7734375
 40
0.77734375
 40
0.78125
 40
0.7890625
 40
0.796875
 40
0.8125
 40
0.828125
 40
0.84375
 40
0.859375
 40
0.875
 40
0.8828125
 40
0.890625
 40
0.89453125
 40
0.8984375
 40
0.90625
 40
0.921875
 40
0.9375
 40
1.0
 40
1.0
 40
1.0
 40
1.0
 10
288.5530782178
 20
-16.2474037503
 30
0.0
 10
288.4081793488
 20
-16.4326474502
 30
0.0
 10
288.22686733
 20
-16.6640897975
 30
0.0
 10
288.0098582051
 20
-16.9421574473
 30
0.0
 10
287.9186840061
 20
-17.0575698573
 30
0.0
 10
287.8474970698
 20
-17.1509439677
 30
0.0
 10
287.7893018372
 20
-17.21811147
 30
0.0
 10
287.7494505148
 20
-17.2962092028
 30
0.0
 10
287.6967863758
 20
-17.4006201692
 30
0.0
 10
287.6307955512
 20
-17.5310379054
 30
0.0
 10
287.5516712494
 20
-17.6875788695
 30
0.0
 10
287.4725452384
 20
-17.8441146656
 30
0.0
 10
287.3933613762
 20
-18.000631453
 30
0.0
 10
287.3275690862
 20
-18.1311297783
 30
0.0
 10
287.2744979512
 20
-18.2353755369
 30
0.0
 10
287.2423246186
 20
-18.3008775556
 30
0.0
 10
287.2143045741
 20
-18.352481189
 30
0.0
 10
287.2018712036
 20
-18.4095367399
 30
0.0
 10
287.1728644454
 20
-18.5068485502
 30
0.0
 10
287.1200012084
 20
-18.7032744499
 30
0.0
 10
287.0574052377
 20
-18.9269931246
 30
0.0
 10
286.9954657614
 20
-19.1509562551
 30
0.0
 10
286.9569297215
 20
-19.2909621285
 30
0.0
 10
286.9255140473
 20
-19.4028363129
 30
0.0
 10
286.9072582904
 20
-19.4730695055
 30
0.0
 10
286.8894907006
 20
-19.5285403026
 30
0.0
 10
286.8832718165
 20
-19.5866246659
 30
0.0
 10
286.8777543643
 20
-19.6894866546
 30
0.0
 10
286.867067961
 20
-19.8357971853
 30
0.0
 10
286.8554408379
 20
-20.0116429623
 30
0.0
 10
286.843514397
 20
-20.1874124467
 30
0.0
 10
286.8315886666
 20
-20.3632139614
 30
0.0
 10
286.8218976213
 20
-20.509672033
 30
0.0
 10
286.8135514776
 20
-20.6269261327
 30
0.0
 10
286.8089235543
 20
-20.7146296945
 30
0.0
 10
286.7998752147
 20
-20.7884695215
 30
0.0
 10
286.8101932812
 20
-20.8449933678
 30
0.0
 10
286.82115863
 20
-20.930434029
 30
0.0
 10
286.84757249
 20
-21.1151678912
 30
0.0
 10
286.886254683
 20
-21.399676946
 30
0.0
 10
286.9262180625
 20
-21.6839275681
 30
0.0
 10
286.95096638
 20
-21.8689973929
 30
0.0
 10
286.9635652416
 20
-21.9541085523
 30
0.0
 10
286.9690788589
 20
-22.0116015214
 30
0.0
 10
286.9970247775
 20
-22.0779791026
 30
0.0
 10
287.0245830262
 20
-22.1591903111
 30
0.0
 10
287.0634144997
 20
-22.266927905
 30
0.0
 10
287.1112424114
 20
-22.4017847505
 30
0.0
 10
287.1689200575
 20
-22.5635416963
 30
0.0
 10
287.2265993838
 20
-22.7252879525
 30
0.0
 10
287.2839878371
 20
-22.8871482357
 30
0.0
 10
287.3327797246
 20
-23.021660623
 30
0.0
 10
287.3650281323
 20
-23.1165488895
 30
0.0
 10
287.3864326213
 20
-23.1696313758
 30
0.0
 10
287.4190497503
 20
-23.2184223355
 30
0.0
 10
287.4559824056
 20
-23.2808800616
 30
0.0
 10
287.5172174115
 20
-23.3799937072
 30
0.0
 10
287.5930455119
 20
-23.5041500292
 30
0.0
 10
287.7146651628
 20
-23.7027462804
 30
0.0
 10
287.8368067742
 20
-23.9008200678
 30
0.0
 10
287.9421171474
 20
-24.0755414476
 30
0.0
 10
287.9968892814
 20
-24.1610204916
 30
0.0
 10
288.0247819535
 20
-24.2128903645
 30
0.0
 10
288.0654909302
 20
-24.2533782354
 30
0.0
 10
288.1140322662
 20
-24.3060705429
 30
0.0
 10
288.1930090956
 20
-24.3892142162
 30
0.0
 10
288.2912794839
 20
-24.4935440722
 30
0.0
 10
288.4094010251
 20
-24.6185646581
 30
0.0
 10
288.5274553028
 20
-24.7436457864
 30
0.0
 10
288.645581559
 20
-24.8686599866
 30
0.0
 10
288.7438362307
 20
-24.9730111283
 30
0.0
 10
288.822845279
 20
-25.056111166
 30
0.0
 10
288.8713045944
 20
-25.1089145579
 30
0.0
 10
288.9209023773
 20
-25.1409789621
 30
0.0
 10
288.9686113095
 20
-25.174818502
 30
0.0
 10
289.0529817943
 20
-25.2332108134
 30
0.0
 10
289.1730526472
 20
-25.3170592144
 30
0.0
 10
289.4616012531
 20
-25.5179396083
 30
0.0
 10
289.7019598417
 20
-25.6854325846
 30
0.0
 10
289.8942782591
 20
-25.8193973183
 30
0.0
  0
LINE
  5
2A1
100
AcDbEntity
  8
_21_KURVEN
100
AcDbLine
 62
1
  6
CENTER
 10
289.8942783752
 20
-25.8193973826
 11
289.9330578017
 21
-25.8406766239
  0
SPLINE
  5
2A2
100
AcDbEntity
  8
_21_KURVEN
100
AcDbSpline
 62
1
  6
CENTER
 70
0
 71
3
 72
18
 73
14
 74
0
 42
0.0000001
 43
0.0000001
 44
0.0000000001
 40
0.0
 40
0.0
 40
0.0
 40
0.0
 40
0.125
 40
0.1875
 40
0.25
 40
0.3125
 40
0.375
 40
0.4375
 40
0.5
 40
0.5625
 40
0.625
 40
0.75
 40
1.0
 40
1.0
 40
1.0
 40
1.0
 10
289.9330578023
 20
-25.8406766242
 30
0.0
 10
289.9859431546
 20
-25.8681288976
 30
0.0
 10
290.0643384131
 20
-25.909235939
 30
0.0
 10
290.172596504
 20
-25.9643308018
 30
0.0
 10
290.2626088793
 20
-26.0054316689
 30
0.0
 10
290.3517734986
 20
-26.04825773
 30
0.0
 10
290.4355103349
 20
-26.084403295
 30
0.0
 10
290.5186501941
 20
-26.1186745342
 30
0.0
 10
290.5980278117
 20
-26.1536880146
 30
0.0
 10
290.6930513728
 20
-26.1876068559
 30
0.0
 10
290.813993906
 20
-26.2339264558
 30
0.0
 10
291.0313157933
 20
-26.3073249706
 30
0.0
 10
291.2191999931
 20
-26.361090108
 30
0.0
 10
291.3447542991
 20
-26.3963122948
 30
0.0
  0
SPLINE
  5
2A3
100
AcDbEntity
  8
_21_KURVEN
100
AcDbSpline
 62
1
  6
CENTER
 70
0
 71
3
 72
10
 73
6
 74
0
 42
0.0000001
 43
0.0000001
 44
0.0000000001
 40
0.0
 40
0.0
 40
0.0
 40
0.0
 40
0.375
 40
0.75
 40
1.0
 40
1.0
 40
1.0
 40
1.0
 10
291.3447542791
 20
-26.3963122897
 30
0.0
 10
291.3553270401
 20
-26.3990224099
 30
0.0
 10
291.3774647254
 20
-26.4046712465
 30
0.0
 10
291.4017465703
 20
-26.4107890774
 30
0.0
 10
291.4265680393
 20
-26.4168350048
 30
0.0
 10
291.4357250016
 20
-26.4190755931
 30
0.0
  0
LINE
  5
2A4
100
AcDbEntity
  8
_21_KURVEN
100
AcDbLine
 62
1
  6
CENTER
 10
291.4357249989
 20
-26.4190755925
 11
291.5023383767
 21
-26.4348321507
  0
SPLINE
  5
2A5
100
AcDbEntity
  8
_21_KURVEN
100
AcDbSpline
 62
1
  6
CENTER
 70
0
 71
3
 72
11
 73
7
 74
0
 42
0.0000001
 43
0.0000001
 44
0.0000000001
 40
0.0
 40
0.0
 40
0.0
 40
0.0
 40
0.375
 40
0.5625
 40
0.75
 40
1.0
 40
1.0
 40
1.0
 40
1.0
 10
291.5023383777
 20
-26.434832151
 30
0.0
 10
291.512986711
 20
-26.4372702095
 30
0.0
 10
291.5285731817
 20
-26.4408417792
 30
0.0
 10
291.5509281409
 20
-26.445835692
 30
0.0
 10
291.5652676256
 20
-26.4490469868
 30
0.0
 10
291.588656146
 20
-26.4540937788
 30
0.0
 10
291.5998412791
 20
-26.456520699
 30
0.0
  0
SPLINE
  5
2A6
100
AcDbEntity
  8
_21_KURVEN
100
AcDbSpline
 62
1
  6
CENTER
 70
0
 71
3
 72
27
 73
23
 74
0
 42
0.0000001
 43
0.0000001
 44
0.0000000001
 40
0.0
 40
0.0
 40
0.0
 40
0.0
 40
0.125
 40
0.15625
 40
0.1875
 40
0.25
 40
0.3125
 40
0.34375
 40
0.375
 40
0.4375
 40
0.46875
 40
0.5
 40
0.53125
 40
0.5625
 40
0.625
 40
0.65625
 40
0.6875
 40
0.75
 40
0.8125
 40
0.84375
 40
0.875
 40
1.0
 40
1.0
 40
1.0
 40
1.0
 10
291.5998412829
 20
-26.4565206998
 30
0.0
 10
291.7292505962
 20
-26.4786439858
 30
0.0
 10
291.8912776393
 20
-26.5046505999
 30
0.0
 10
292.0849138865
 20
-26.5408010169
 30
0.0
 10
292.2157032877
 20
-26.5543573374
 30
0.0
 10
292.3798207988
 20
-26.5671905755
 30
0.0
 10
292.5436160357
 20
-26.5827455427
 30
0.0
 10
292.6749210758
 20
-26.5919470966
 30
0.0
 10
292.8070280241
 20
-26.5902560804
 30
0.0
 10
292.9389131453
 20
-26.5921083054
 30
0.0
 10
293.0708623166
 20
-26.5915002344
 30
0.0
 10
293.1698538719
 20
-26.594881828
 30
0.0
 10
293.2686946946
 20
-26.5841429822
 30
0.0
 10
293.4005521198
 20
-26.5749402646
 30
0.0
 10
293.5322930404
 20
-26.5632839656
 30
0.0
 10
293.6643312287
 20
-26.555151603
 30
0.0
 10
293.7953356856
 20
-26.5361949367
 30
0.0
 10
293.9586689655
 20
-26.5084742811
 30
0.0
 10
294.1223823436
 20
-26.4834492353
 30
0.0
 10
294.2527786433
 20
-26.4601795934
 30
0.0
 10
294.4454897892
 20
-26.4096611608
 30
0.0
 10
294.6068332711
 20
-26.371628605
 30
0.0
 10
294.7356677813
 20
-26.3399013961
 30
0.0
  0
SPLINE
  5
2A7
100
AcDbEntity
  8
_21_KURVEN
100
AcDbSpline
 62
5
  6
CONTINUOUS
 70
0
 71
3
 72
8
 73
4
 74
0
 42
0.0000001
 43
0.0000001
 44
0.0000000001
 40
0.0
 40
0.0
 40
0.0
 40
0.0
 40
1.0
 40
1.0
 40
1.0
 40
1.0
 10
291.4150307596
 20
-26.5069425921
 30
0.0
 10
291.4213384262
 20
-26.5095937042
 30
0.0
 10
291.4286548523
 20
-26.5123251418
 30
0.0
 10
291.4373333205
 20
-26.5149806606
 30
0.0
  0
LINE
  5
2A8
100
AcDbEntity
  8
_21_KURVEN
100
AcDbLine
 62
5
  6
CONTINUOUS
 10
291.4373333209
 20
-26.5149806607
 11
291.4490311187
 21
-26.5180268064
  0
SPLINE
  5
2A9
100
AcDbEntity
  8
_21_KURVEN
100
AcDbSpline
 62
5
  6
CONTINUOUS
 70
0
 71
3
 72
8
 73
4
 74
0
 42
0.0000001
 43
0.0000001
 44
0.0000000001
 40
0.0
 40
0.0
 40
0.0
 40
0.0
 40
1.0
 40
1.0
 40
1.0
 40
1.0
 10
291.4490311184
 20
-26.5180268064
 30
0.0
 10
291.4584529368
 20
-26.5200546029
 30
0.0
 10
291.4695084947
 20
-26.5217661344
 30
0.0
 10
291.4816482047
 20
-26.5226663662
 30
0.0
  0
SPLINE
  5
2AA
100
AcDbEntity
  8
0
100
AcDbSpline
 62
4
  6
CONTINUOUS
 70
0
 71
3
 72
22
 73
18
 74
0
 42
0.0000001
 43
0.0000001
 44
0.0000000001
 40
0.0
 40
0.0
 40
0.0
 40
0.0
 40
0.1404937379
 40
0.2088756869
 40
0.2755609557
 40
0.3401929978
 40
0.4024526758
 40
0.4621513619
 40
0.5193787356
 40
0.5746879469
 40
0.6291902852
 40
0.6843710916
 40
0.7416215263
 40
0.8018065908
 40
0.8651516547
 40
0.9313930941
 40
1.0
 40
1.0
 40
1.0
 40
1.0
 10
268.0
 20
-18.9520470205
 30
0.0
 10
266.8492652494
 20
-18.8945436037
 30
0.0
 10
265.1393795688
 20
-18.7749190685
 30
0.0
 10
262.8951707279
 20
-18.5056019264
 30
0.0
 10
261.2783990586
 20
-18.2404425326
 30
0.0
 10
259.7278185741
 20
-17.8949717101
 30
0.0
 10
258.2615970274
 20
-17.4506284421
 30
0.0
 10
256.9015394583
 20
-16.8860097007
 30
0.0
 10
255.6736007604
 20
-16.1778907956
 30
0.0
 10
254.6083603865
 20
-15.3050132324
 30
0.0
 10
253.7388864577
 20
-14.2564483552
 30
0.0
 10
253.0907879939
 20
-13.0403013737
 30
0.0
 10
252.6703987054
 20
-11.6808394774
 30
0.0
 10
252.465522784
 20
-10.2072025239
 30
0.0
 10
252.4551822497
 20
-8.647348695
 30
0.0
 10
252.6167567808
 20
-7.027640919
 30
0.0
 10
252.8222373343
 20
-5.9396272222
 30
0.0
 10
252.9468522264
 20
-5.3909646632
 30
0.0
  0
SPLINE
  5
2AB
100
AcDbEntity
  8
_30_VOLUMEN
100
AcDbSpline
 62
4
  6
CONTINUOUS
 70
0
 71
3
 72
8
 73
4
 74
0
 42
0.0000001
 43
0.0000001
 44
0.0000000001
 40
0.0
 40
0.0
 40
0.0
 40
0.0
 40
1.0
 40
1.0
 40
1.0
 40
1.0
 10
268.7609813164
 20
-20.1882140424
 30
0.0
 10
269.9506261841
 20
-22.0913740337
 30
0.0
 10
271.1769856726
 20
-23.9716560644
 30
0.0
 10
272.4205948562
 20
-25.84
 30
0.0
  0
SPLINE
  5
2AC
100
AcDbEntity
  8
0
100
AcDbSpline
 62
4
  6
CONTINUOUS
 70
0
 71
3
 72
26
 73
22
 74
0
 42
0.0000001
 43
0.0000001
 44
0.0000000001
 40
0.0
 40
0.0
 40
0.0
 40
0.0
 40
0.0003914845
 40
0.0012204487
 40
0.0043781264
 40
0.0095835493
 40
0.016845006
 40
0.0261604906
 40
0.0375256702
 40
0.0509352058
 40
0.0663805245
 40
0.1033313448
 40
0.1482804455
 40
0.2011030863
 40
0.2616542862
 40
0.3297676823
 40
0.4052554038
 40
0.4879095684
 40
0.5774955933
 40
0.7764802628
 40
1.0
 40
1.0
 40
1.0
 40
1.0
 10
268.1090664306
 20
19.9046138386
 30
0.0
 10
268.1099249515
 20
19.9046136137
 30
0.0
 10
268.1117861799
 20
19.9019149194
 30
0.0
 10
268.1142547903
 20
19.8932172142
 30
0.0
 10
268.1175721219
 20
19.8727208498
 30
0.0
 10
268.1208387998
 20
19.8389409984
 30
0.0
 10
268.1243000004
 20
19.7911485421
 30
0.0
 10
268.1276338075
 20
19.7300173011
 30
0.0
 10
268.1309208549
 20
19.6553089096
 30
0.0
 10
268.1341076677
 20
19.5671706987
 30
0.0
 10
268.1384955264
 20
19.4229228185
 30
0.0
 10
268.1435214841
 20
19.2095046785
 30
0.0
 10
268.1488537283
 20
18.9141062975
 30
0.0
 10
268.1537399844
 20
18.566939825
 30
0.0
 10
268.1581623687
 20
18.1689645185
 30
0.0
 10
268.1620993316
 20
17.7212778889
 30
0.0
 10
268.1655368743
 20
17.2251143765
 30
0.0
 10
268.1684628332
 20
16.6818576711
 30
0.0
 10
268.1717851615
 20
15.8677724978
 30
0.0
 10
268.1744375441
 20
14.7447665079
 30
0.0
 10
268.1750518847
 20
13.8182191268
 30
0.0
 10
268.1750518844
 20
13.3280429632
 30
0.0
  0
SPLINE
  5
2AD
100
AcDbEntity
  8
0
100
AcDbSpline
 62
4
  6
CONTINUOUS
 70
0
 71
3
 72
10
 73
6
 74
0
 42
0.0000001
 43
0.0000001
 44
0.0000000001
 40
0.0
 40
0.0
 40
0.0
 40
0.0
 40
0.254945496
 40
0.5069172424
 40
1.0
 40
1.0
 40
1.0
 40
1.0
 10
279.6085809316
 20
15.8777599064
 30
0.0
 10
278.6129600859
 20
15.798622429
 30
0.0
 10
276.6369887187
 20
15.5823879194
 30
0.0
 10
272.7784385878
 20
14.9004723098
 30
0.0
 10
269.9606966115
 20
14.0648206209
 30
0.0
 10
268.1750518846
 20
13.3280429782
 30
0.0
  0
SPLINE
  5
2AE
100
AcDbEntity
  8
0
100
AcDbSpline
 62
4
  6
CONTINUOUS
 70
0
 71
3
 72
11
 73
7
 74
0
 42
0.0000001
 43
0.0000001
 44
0.0000000001
 40
0.0
 40
0.0
 40
0.0
 40
0.0
 40
0.2542301321
 40
0.5041129577
 40
0.7518356562
 40
1.0
 40
1.0
 40
1.0
 40
1.0
 10
258.0770457728
 20
5.3909646632
 30
0.0
 10
258.7324767803
 20
6.2369880539
 30
0.0
 10
260.1377888332
 20
7.8363225775
 30
0.0
 10
262.5300274625
 20
9.9226281779
 30
0.0
 10
265.158077099
 20
11.6561079774
 30
0.0
 10
267.0375763427
 20
12.5778807042
 30
0.0
 10
268.0
 20
12.9841853982
 30
0.0
  0
ELLIPSE
  5
2AF
100
AcDbEntity
  8
0
100
AcDbEllipse
 62
4
  6
CONTINUOUS
 10
347.3533265225
 20
0.190529859
 30
0.0
 11
164.780905948
 21
4.4957303909
 31
0.0
 40
0.1164857659
 41
1.9756192738
 42
1.9912984563
  0
ELLIPSE
  5
2B0
100
AcDbEntity
  8
0
100
AcDbEllipse
 62
4
  6
CONTINUOUS
 10
246.7064475963
 20
-112.9916851832
 30
0.0
 11
49.6874602861
 21
165.2002942433
 31
0.0
 40
0.1825972487
 41
0.8282894819
 42
0.9176096808
  0
ENDSEC
  0
SECTION
  2
OBJECTS
  0
DICTIONARY
  5
C
100
AcDbDictionary
280
0
281
1
  3
ACAD_GROUP
350
D
  3
ACAD_MLINESTYLE
350
17
  3
ACAD_LAYOUT
350
1A
  3
ACAD_PLOTSETTINGS
350
19
  3
ACAD_PLOTSTYLENAME
350
E
  0
DICTIONARY
  5
D
102
{ACAD_REACTORS
330
C
102
}
100
AcDbDictionary
280
0
281
1
  0
ACDBDICTIONARYWDFLT
  5
E
102
{ACAD_REACTORS
330
C
102
}
100
AcDbDictionary
281
1
  3
Normal
350
F
100
AcDbDictionaryWithDefault
340
F
  0
DICTIONARY
  5
17
102
{ACAD_REACTORS
330
C
102
}
100
AcDbDictionary
280
0
281
1
  3
Standard
350
18
  0
DICTIONARY
  5
19
102
{ACAD_REACTORS
330
C
102
}
100
AcDbDictionary
281
1
  0
DICTIONARY
  5
1A
102
{ACAD_REACTORS
330
C
102
}
100
AcDbDictionary
281
1
  3
Model
350
2B1
  3
Layout1
350
2B2
  0
ACDBPLACEHOLDER
  5
F
102
{ACAD_REACTORS
330
E
102
}
  0
MLINESTYLE
  5
18
102
{ACAD_REACTORS
330
17
102
}
100
AcDbMlineStyle
  2
STANDARD
 70
0
  3

 62
256
 51
90.0
 52
90.0
 71
2
 49
0.5
 62
256
  6
BYLAYER
 49
-0.5
 62
256
  6
BYLAYER
  0
LAYOUT
  5
2B1
102
{ACAD_REACTORS
330
1A
102
}
100
AcDbPlotSettings
  1

  2
none_device
  4
ISO_A3_(420.00_x_297.00_MM)
  6

 40
0.0
 41
0.0
 42
0.0
 43
0.0
 44
420.0
 45
297.0
 46
0.0
 47
0.0
 48
0.0
 49
0.0
140
0.0
141
0.0
142
1.0
143
1.0
 70
1024
 72
1
 73
0
 74
0
  7

 75
0
147
1.0
148
0.0
149
0.0
100
AcDbLayout
  1
Model
 70
0
 71
0
 10
0.0
 20
0.0
 11
420.0
 21
297.0
 12
0.0
 22
0.0
 32
0.0
 14
0.0
 24
0.0
 34
0.0
 15
0.0
 25
0.0
 35
0.0
146
0.0
 13
0.0
 23
0.0
 33
0.0
 16
1.0
 26
0.0
 36
0.0
 17
0.0
 27
1.0
 37
0.0
 76
0
330
20E
345
0
346
0
  0
LAYOUT
  5
2B2
102
{ACAD_REACTORS
330
1A
102
}
100
AcDbPlotSettings
  1

  2
none_device
  4
ISO_A3_(420.00_x_297.00_MM)
  6

 40
0.0
 41
0.0
 42
0.0
 43
0.0
 44
420.0
 45
297.0
 46
0.0
 47
0.0
 48
0.0
 49
0.0
140
0.0
141
0.0
142
1.0
143
1.0
 70
0
 72
1
 73
0
 74
0
  7

 75
0
147
1.0
148
0.0
149
0.0
100
AcDbLayout
  1
Layout1
 70
0
 71
1
 10
0.0
 20
0.0
 11
420.0
 21
297.0
 12
0.0
 22
0.0
 32
0.0
 14
0.0
 24
0.0
 34
0.0
 15
0.0
 25
0.0
 35
0.0
146
0.0
 13
0.0
 23
0.0
 33
0.0
 16
1.0
 26
0.0
 36
0.0
 17
0.0
 27
1.0
 37
0.0
 76
0
330
20F
345
0
346
0
  0
ENDSEC
  0
EOF
