999
DXF file: 7057312500.dxf
999
Pro/ENGINEER 2020053 by Parametric Technology Corporation
  0
SECTION
  2
HEADER
  9
$ACADVER
  1
AC1021
  9
$DWGCODEPAGE
  3
ANSI_1252
  9
$EXTMAX
 10
420.0
 20
297.0
 30
0.0
  9
$EXTMIN
 10
0.0
 20
0.0
 30
0.0
  9
$LIMMIN
 10
0.0
 20
0.0
  9
$LIMMAX
 10
420.0
 20
297.0
  9
$VIEWCTR
 10
210.0
 20
148.5
  9
$VIEWSIZE
 40
297.0
  9
$CLAYER
  8
0
  9
$LTSCALE
 40
23.1
  9
$CELTYPE
  6
BYLAYER
  9
$DIMSCALE
 40
1.0
  9
$DIMASZ
 40
3.5
  9
$DIMEXO
 40
0.0
  9
$DIMDLI
 40
15.96
  9
$DIMEXE
 40
1.5
  9
$DIMCEN
 40
3.78
  9
$DIMLFAC
 40
1.0
  9
$DIMBLK
  1
_FILLED
  9
$DIMALT
 70
0
  9
$DIMALTF
 40
0.0393700787
  9
$DIMTXT
 40
3.5
  9
$DIMTOL
 70
1
  9
$DIMLIM
 70
0
  9
$DIMTFAC
 40
1.0
  9
$DIMTP
 40
0.05
  9
$DIMTM
 40
0.05
  9
$DIMGAP
 40
0.625
  9
$DIMDSEP
 70
46
  9
$AUNITS
 70
0
  9
$PDMODE
 70
3
  9
$PDSIZE
 40
0.3125
  9
$HANDSEED
  5
2B5
  9
$TILEMODE
 70
1
  9
$MEASUREMENT
 70
1
  9
$INSUNITS
 70
4
  0
ENDSEC
  0
SECTION
  2
CLASSES
  0
CLASS
  1
ACDBDICTIONARYWDFLT
  2
AcDbDictionaryWithDefault
  3
AutoCAD 2000
 90
0
 91
1
280
0
281
0
  0
CLASS
  1
ACDBPLACEHOLDER
  2
AcDbPlaceHolder
  3
AutoCAD 2000
 90
0
 91
1
280
0
281
0
  0
CLASS
  1
LAYOUT
  2
AcDbLayout
  3
AutoCAD 2000
 90
0
 91
0
280
0
281
0
  0
ENDSEC
  0
SECTION
  2
TABLES
  0
TABLE
  2
VPORT
  5
8
100
AcDbSymbolTable
 70
2
  0
VPORT
  5
1F4
100
AcDbSymbolTableRecord
100
AcDbViewportTableRecord
  2
*ACTIVE
 70
0
 10
0.0
 20
0.0
 11
1.0
 21
1.0
 12
210.0
 22
148.5
 13
0.0
 23
0.0
 14
1.0
 24
1.0
 15
0.0
 25
0.0
 16
0.0
 26
0.0
 36
1.0
 17
0.0
 27
0.0
 37
0.0
 40
297.0
 41
1.4141414141
 42
50.0
 43
0.0
 44
0.0
 50
0.0
 51
0.0
 71
0
 72
100
 73
1
 74
1
 75
0
 76
0
 77
0
 78
0
  0
ENDTAB
  0
TABLE
  2
LTYPE
  5
5
100
AcDbSymbolTable
 70
6
  0
LTYPE
  5
14
100
AcDbSymbolTableRecord
100
AcDbLinetypeTableRecord
  2
BYBLOCK
 70
0
  3

 72
65
 73
0
 40
0.0
  0
LTYPE
  5
15
100
AcDbSymbolTableRecord
100
AcDbLinetypeTableRecord
  2
BYLAYER
 70
0
  3

 72
65
 73
0
 40
0.0
  0
LTYPE
  5
16
100
AcDbSymbolTableRecord
100
AcDbLinetypeTableRecord
  2
CONTINUOUS
 70
64
  3
Solid line
 72
65
 73
0
 40
0.0
  0
LTYPE
  5
1F5
100
AcDbSymbolTableRecord
100
AcDbLinetypeTableRecord
  2
CENTER
 70
64
  3
____ _ ____ _ ____ _ ____ _ ____ _ ____ _ ____
 72
65
 73
4
 40
0.6
 49
0.375
 74
0
 49
-0.075
 74
0
 49
0.075
 74
0
 49
-0.075
 74
0
  0
LTYPE
  5
1F6
100
AcDbSymbolTableRecord
100
AcDbLinetypeTableRecord
  2
HIDDEN
 70
64
  3
- - - - - - - - - - - - - - - - - - - -
 72
65
 73
2
 40
0.2
 49
0.1
 74
0
 49
-0.1
 74
0
  0
LTYPE
  5
1F7
100
AcDbSymbolTableRecord
100
AcDbLinetypeTableRecord
  2
PHANTOM
 70
64
  3
_____ _ _ _____ _ _ _____ _ _ _____
 72
65
 73
6
 40
0.8
 49
0.45
 74
0
 49
-0.05
 74
0
 49
0.1
 74
0
 49
-0.05
 74
0
 49
0.1
 74
0
 49
-0.05
 74
0
  0
LTYPE
  5
1F8
100
AcDbSymbolTableRecord
100
AcDbLinetypeTableRecord
  2
DOT
 70
64
  3
. . . . . . . . . . . . . . . . . . . .
 72
65
 73
2
 40
0.2
 49
0.1
 74
0
 49
-0.1
 74
0
  0
LTYPE
  5
1F9
100
AcDbSymbolTableRecord
100
AcDbLinetypeTableRecord
  2
DASHED
 70
64
  3
- - - - - - - - - - - - - - - - - - - -
 72
65
 73
2
 40
0.2
 49
0.1
 74
0
 49
-0.1
 74
0
  0
ENDTAB
  0
TABLE
  2
LAYER
  5
2
100
AcDbSymbolTable
 70
36
  0
LAYER
  5
10
100
AcDbSymbolTableRecord
100
AcDbLayerTableRecord
  2
0
 70
0
 62
7
  6
CONTINUOUS
370
-3
390
F
  0
LAYER
  5
1FA
100
AcDbSymbolTableRecord
100
AcDbLayerTableRecord
  2
DEFAULT_1
 70
0
 62
7
  6
CENTER
370
-3
390
F
  0
LAYER
  5
1FB
100
AcDbSymbolTableRecord
100
AcDbLayerTableRecord
  2
DEFAULT_2
 70
0
 62
1
  6
HIDDEN
370
-3
390
F
  0
LAYER
  5
1FC
100
AcDbSymbolTableRecord
100
AcDbLayerTableRecord
  2
DEFAULT_3
 70
0
 62
7
  6
PHANTOM
370
-3
390
F
  0
LAYER
  5
1FD
100
AcDbSymbolTableRecord
100
AcDbLayerTableRecord
  2
BG_STARTBEZUEGE
 70
0
 62
7
  6
CONTINUOUS
370
-3
390
F
  0
LAYER
  5
1FE
100
AcDbSymbolTableRecord
100
AcDbLayerTableRecord
  2
HILFEN
 70
0
 62
7
  6
CONTINUOUS
370
-3
390
F
  0
LAYER
  5
1FF
100
AcDbSymbolTableRecord
100
AcDbLayerTableRecord
  2
PLATZIERUNG
 70
0
 62
7
  6
CONTINUOUS
370
-3
390
F
  0
LAYER
  5
200
100
AcDbSymbolTableRecord
100
AcDbLayerTableRecord
  2
T_STARTBEZUEGE
 70
0
 62
7
  6
CONTINUOUS
370
-3
390
F
  0
LAYER
  5
201
100
AcDbSymbolTableRecord
100
AcDbLayerTableRecord
  2
_03_2D_ZEICHNUNG_BEMASSUNGEN
 70
0
 62
7
  6
CONTINUOUS
370
-3
390
F
  0
LAYER
  5
202
100
AcDbSymbolTableRecord
100
AcDbLayerTableRecord
  2
_04_NOTIZEN
 70
0
 62
7
  6
CONTINUOUS
370
-3
390
F
  0
LAYER
  5
203
100
AcDbSymbolTableRecord
100
AcDbLayerTableRecord
  2
_05_2D_ELEMENTE
 70
0
 62
7
  6
CONTINUOUS
370
-3
390
F
  0
LAYER
  5
204
100
AcDbSymbolTableRecord
100
AcDbLayerTableRecord
  2
_07_EINRASTLINIEN
 70
0
 62
7
  6
CONTINUOUS
370
-3
390
F
  0
LAYER
  5
205
100
AcDbSymbolTableRecord
100
AcDbLayerTableRecord
  2
_21_KURVEN
 70
0
 62
7
  6
CONTINUOUS
370
-3
390
F
  0
LAYER
  5
206
100
AcDbSymbolTableRecord
100
AcDbLayerTableRecord
  2
_26_BEZUGSACHSEN
 70
0
 62
7
  6
CONTINUOUS
370
-3
390
F
  0
LAYER
  5
207
100
AcDbSymbolTableRecord
100
AcDbLayerTableRecord
  2
_27_BEZUGSEBENEN
 70
0
 62
7
  6
CONTINUOUS
370
-3
390
F
  0
LAYER
  5
208
100
AcDbSymbolTableRecord
100
AcDbLayerTableRecord
  2
_28_BEZUGSPUNKTE
 70
0
 62
7
  6
CONTINUOUS
370
-3
390
F
  0
LAYER
  5
209
100
AcDbSymbolTableRecord
100
AcDbLayerTableRecord
  2
_29_KOORDINATENSYSTEME
 70
0
 62
7
  6
CONTINUOUS
370
-3
390
F
  0
LAYER
  5
20A
100
AcDbSymbolTableRecord
100
AcDbLayerTableRecord
  2
_30_VOLUMEN
 70
0
 62
7
  6
CONTINUOUS
370
-3
390
F
  0
ENDTAB
  0
TABLE
  2
STYLE
  5
3
100
AcDbSymbolTable
 70
1
  0
STYLE
  5
11
100
AcDbSymbolTableRecord
100
AcDbTextStyleTableRecord
  2
STANDARD
 70
0
 40
0.0
 41
0.7
 50
0.0
 71
0
 42
0.2
  3
SIMPLEX.SHX
  4

  0
STYLE
  5
20B
100
AcDbSymbolTableRecord
100
AcDbTextStyleTableRecord
  2
TEXTSTYLE_1
 70
0
 40
0.0
 41
0.8
 50
0.0
 71
0
 42
0.2
  3
gdt
  4

  0
STYLE
  5
20C
100
AcDbSymbolTableRecord
100
AcDbTextStyleTableRecord
  2
TEXTSTYLE_2
 70
0
 40
0.0
 41
0.7
 50
0.0
 71
0
 42
0.2
  3
gdt
  4

  0
ENDTAB
  0
TABLE
  2
VIEW
  5
6
100
AcDbSymbolTable
 70
0
  0
ENDTAB
  0
TABLE
  2
UCS
  5
7
100
AcDbSymbolTable
 70
0
  0
ENDTAB
  0
TABLE
  2
APPID
  5
9
100
AcDbSymbolTable
 70
1
  0
APPID
  5
20D
100
AcDbSymbolTableRecord
100
AcDbRegAppTableRecord
  2
ACAD
 70
0
  0
ENDTAB
  0
TABLE
  2
BLOCK_RECORD
  5
1
100
AcDbSymbolTable
 70
0
  0
BLOCK_RECORD
  5
20E
100
AcDbSymbolTableRecord
100
AcDbBlockTableRecord
  2
*Model_Space
  0
BLOCK_RECORD
  5
20F
100
AcDbSymbolTableRecord
100
AcDbBlockTableRecord
  2
*Paper_Space
  0
BLOCK_RECORD
  5
210
100
AcDbSymbolTableRecord
100
AcDbBlockTableRecord
  2
_FILLED
  0
BLOCK_RECORD
  5
211
100
AcDbSymbolTableRecord
100
AcDbBlockTableRecord
  2
*D0
  0
BLOCK_RECORD
  5
212
100
AcDbSymbolTableRecord
100
AcDbBlockTableRecord
  2
*D1
  0
BLOCK_RECORD
  5
213
100
AcDbSymbolTableRecord
100
AcDbBlockTableRecord
  2
*D2
  0
BLOCK_RECORD
  5
214
100
AcDbSymbolTableRecord
100
AcDbBlockTableRecord
  2
*D3
  0
ENDTAB
  0
TABLE
  2
DIMSTYLE
  5
A
100
AcDbSymbolTable
 70
1
100
AcDbDimStyleTable
 71
0
  0
DIMSTYLE
105
215
100
AcDbSymbolTableRecord
100
AcDbDimStyleTableRecord
  2
STANDARD
 70
0
  3

  4

 40
1.0
 41
3.5
 42
0.0
 43
0.38
 44
1.5
 45
0.0
 46
0.0
 47
0.05
 48
0.05
140
3.5
141
0.09
142
0.0
143
25.4
144
1.0
145
0.0
146
1.0
147
0.625
 71
1
 72
0
 73
0
 74
0
 75
0
 76
0
 77
1
 78
8
 79
2
170
0
171
1
172
0
173
0
174
0
175
0
176
0
177
0
178
2
270
2
179
2
271
2
272
2
273
2
274
2
275
0
280
0
281
0
282
0
283
1
284
8
285
0
286
0
287
3
288
0
340
11
278
46
341
210
342
210
343
210
344
210
  0
DIMSTYLE
105
216
100
AcDbSymbolTableRecord
100
AcDbDimStyleTableRecord
  2
DIMSTYLE_1
 70
0
  3

  4

 40
1.0
 41
3.5
 42
0.0
 43
0.38
 44
1.5
 45
0.0
 46
0.0
 47
0.5
 48
0.5
140
3.5
141
0.09
142
0.0
143
25.4
144
1.0
145
0.0
146
1.0
147
0.875
 71
0
 72
0
 73
0
 74
0
 75
0
 76
0
 77
1
 78
8
 79
2
170
0
171
1
172
0
173
0
174
0
175
0
176
0
177
0
178
2
270
2
179
2
271
2
272
2
273
2
274
2
275
0
280
0
281
0
282
0
283
1
284
8
285
0
286
0
287
3
288
0
340
11
278
46
341
210
342
210
343
210
344
210
  0
DIMSTYLE
105
217
100
AcDbSymbolTableRecord
100
AcDbDimStyleTableRecord
  2
DIMSTYLE_2
 70
0
  3

  4

 40
1.0
 41
3.5
 42
0.0
 43
0.38
 44
1.5
 45
0.0
 46
0.0
 47
0.2
 48
0.2
140
3.5
141
0.09
142
0.0
143
25.4
144
1.0
145
0.0
146
1.0
147
0.875
 71
0
 72
0
 73
0
 74
0
 75
0
 76
0
 77
1
 78
8
 79
2
170
0
171
1
172
0
173
0
174
0
175
0
176
0
177
0
178
2
270
2
179
2
271
2
272
2
273
2
274
2
275
0
280
0
281
0
282
0
283
1
284
8
285
0
286
0
287
3
288
0
340
11
278
46
341
210
342
210
343
210
344
210
  0
ENDTAB
  0
ENDSEC
  0
SECTION
  2
BLOCKS
  0
BLOCK
  5
20
100
AcDbEntity
  8
0
100
AcDbBlockBegin
  2
*Model_Space
 70
0
 10
0.0
 20
0.0
 30
0.0
  3
*Model_Space
  1

  0
ENDBLK
  5
21
100
AcDbEntity
  8
0
100
AcDbBlockEnd
  0
BLOCK
  5
1C
100
AcDbEntity
  8
0
100
AcDbBlockBegin
  2
*Paper_Space
 70
0
 10
0.0
 20
0.0
 30
0.0
  3
*Paper_Space
  1

  0
ENDBLK
  5
1D
100
AcDbEntity
  8
0
100
AcDbBlockEnd
  0
BLOCK
  5
218
100
AcDbEntity
  8
0
100
AcDbBlockBegin
  2
_FILLED
 70
64
 10
0.0
 20
0.0
  3
_FILLED
  1

  0
SOLID
  5
219
100
AcDbEntity
  8
0
  6
BYBLOCK
 62
0
100
AcDbTrace
 10
0.0
 20
0.0
 11
-1.0
 21
0.125
 12
-1.0
 22
-0.125
 13
-1.0
 23
-0.125
  0
ENDBLK
  5
21A
100
AcDbEntity
  8
0
  6
BYBLOCK
 62
0
100
AcDbBlockEnd
  0
BLOCK
  5
21B
100
AcDbEntity
  8
_03_2D_ZEICHNUNG_BEMASSUNGEN
100
AcDbBlockBegin
 62
7
  6
CONTINUOUS
  2
*D0
 70
65
 10
0.0
 20
0.0
  3
*D0
  1

  0
TEXT
  5
21C
100
AcDbEntity
  8
_03_2D_ZEICHNUNG_BEMASSUNGEN
100
AcDbText
 62
2
  6
CONTINUOUS
 10
95.875
 20
28.1325746029
  7
STANDARD
 40
3.5
  1
200
 41
0.7857142857
 72
1
 11
100.0
 21
28.1325746029
100
AcDbText
  0
LINE
  5
21D
100
AcDbEntity
  8
_03_2D_ZEICHNUNG_BEMASSUNGEN
100
AcDbLine
 62
7
  6
CONTINUOUS
 10
0.0
 20
-18.1066889992
 11
-0.0
 21
28.7575746029
  0
LINE
  5
21E
100
AcDbEntity
  8
_03_2D_ZEICHNUNG_BEMASSUNGEN
100
AcDbLine
 62
7
  6
CONTINUOUS
 10
200.0
 20
-18.1066889992
 11
200.0
 21
28.7575746029
  0
LINE
  5
21F
100
AcDbEntity
  8
_03_2D_ZEICHNUNG_BEMASSUNGEN
100
AcDbLine
 62
7
  6
CONTINUOUS
 10
-0.0
 20
27.2575746029
 11
100.0
 21
27.2575746029
  0
LINE
  5
220
100
AcDbEntity
  8
_03_2D_ZEICHNUNG_BEMASSUNGEN
100
AcDbLine
 62
7
  6
CONTINUOUS
 10
200.0
 20
27.2575746029
 11
100.0
 21
27.2575746029
  0
INSERT
  5
221
100
AcDbEntity
  8
_03_2D_ZEICHNUNG_BEMASSUNGEN
100
AcDbBlockReference
 62
7
  6
CONTINUOUS
  2
_FILLED
 10
-0.0
 20
27.2575746029
 41
3.5
 42
3.5
 43
3.5
 50
180.0
  0
INSERT
  5
222
100
AcDbEntity
  8
_03_2D_ZEICHNUNG_BEMASSUNGEN
100
AcDbBlockReference
 62
7
  6
CONTINUOUS
  2
_FILLED
 10
200.0
 20
27.2575746029
 41
3.5
 42
3.5
 43
3.5
  0
ENDBLK
  5
223
100
AcDbEntity
  8
0
  6
BYBLOCK
 62
0
100
AcDbBlockEnd
  0
BLOCK
  5
224
100
AcDbEntity
  8
_03_2D_ZEICHNUNG_BEMASSUNGEN
100
AcDbBlockBegin
 62
7
  6
CONTINUOUS
  2
*D1
 70
65
 10
0.0
 20
0.0
  3
*D1
  1

  0
TEXT
  5
225
100
AcDbEntity
  8
_03_2D_ZEICHNUNG_BEMASSUNGEN
100
AcDbText
 62
2
  6
CONTINUOUS
 10
184.875
 20
19.1325746029
  7
STANDARD
 40
3.5
  1
25
 41
0.75
 72
1
 11
187.5
 21
19.1325746029
100
AcDbText
  0
LINE
  5
226
100
AcDbEntity
  8
_03_2D_ZEICHNUNG_BEMASSUNGEN
100
AcDbLine
 62
7
  6
CONTINUOUS
 10
200.0
 20
-18.1066889992
 11
200.0
 21
19.7575746029
  0
LINE
  5
227
100
AcDbEntity
  8
_03_2D_ZEICHNUNG_BEMASSUNGEN
100
AcDbLine
 62
7
  6
CONTINUOUS
 10
175.0
 20
-18.1066889992
 11
175.0
 21
19.7575746029
  0
LINE
  5
228
100
AcDbEntity
  8
_03_2D_ZEICHNUNG_BEMASSUNGEN
100
AcDbLine
 62
7
  6
CONTINUOUS
 10
200.0
 20
18.2575746029
 11
187.5
 21
18.2575746029
  0
LINE
  5
229
100
AcDbEntity
  8
_03_2D_ZEICHNUNG_BEMASSUNGEN
100
AcDbLine
 62
7
  6
CONTINUOUS
 10
175.0
 20
18.2575746029
 11
187.5
 21
18.2575746029
  0
INSERT
  5
22A
100
AcDbEntity
  8
_03_2D_ZEICHNUNG_BEMASSUNGEN
100
AcDbBlockReference
 62
7
  6
CONTINUOUS
  2
_FILLED
 10
200.0
 20
18.2575746029
 41
3.5
 42
3.5
 43
3.5
  0
INSERT
  5
22B
100
AcDbEntity
  8
_03_2D_ZEICHNUNG_BEMASSUNGEN
100
AcDbBlockReference
 62
7
  6
CONTINUOUS
  2
_FILLED
 10
175.0
 20
18.2575746029
 41
3.5
 42
3.5
 43
3.5
 50
180.0
  0
ENDBLK
  5
22C
100
AcDbEntity
  8
0
  6
BYBLOCK
 62
0
100
AcDbBlockEnd
  0
BLOCK
  5
22D
100
AcDbEntity
  8
_03_2D_ZEICHNUNG_BEMASSUNGEN
100
AcDbBlockBegin
 62
7
  6
CONTINUOUS
  2
*D2
 70
65
 10
0.0
 20
0.0
  3
*D2
  1

  0
TEXT
  5
22E
100
AcDbEntity
  8
_03_2D_ZEICHNUNG_BEMASSUNGEN
100
AcDbText
 62
2
  6
CONTINUOUS
 10
-9.875
 20
-4.9583333333
  7
TEXTSTYLE_2
 40
3.5
  1
n
 50
90.0
 41
1.0
 72
1
 11
-9.875
 21
-2.625
100
AcDbText
  0
TEXT
  5
22F
100
AcDbEntity
  8
_03_2D_ZEICHNUNG_BEMASSUNGEN
100
AcDbText
 62
2
  6
CONTINUOUS
 10
-9.875
 20
-0.2916666667
  7
STANDARD
 40
3.5
  1
25
 50
90.0
 41
0.75
 72
1
 11
-9.875
 21
2.3333333333
100
AcDbText
  0
LINE
  5
230
100
AcDbEntity
  8
_03_2D_ZEICHNUNG_BEMASSUNGEN
100
AcDbLine
 62
7
  6
CONTINUOUS
 10
0.5
 20
12.5
 11
-10.5
 21
12.5
  0
LINE
  5
231
100
AcDbEntity
  8
_03_2D_ZEICHNUNG_BEMASSUNGEN
100
AcDbLine
 62
7
  6
CONTINUOUS
 10
0.5
 20
-12.5
 11
-10.5
 21
-12.5
  0
LINE
  5
232
100
AcDbEntity
  8
_03_2D_ZEICHNUNG_BEMASSUNGEN
100
AcDbLine
 62
7
  6
CONTINUOUS
 10
-9.0
 20
12.5
 11
-9.0
 21
18.5
  0
LINE
  5
233
100
AcDbEntity
  8
_03_2D_ZEICHNUNG_BEMASSUNGEN
100
AcDbLine
 62
7
  6
CONTINUOUS
 10
-9.0
 20
18.5
 11
-9.0
 21
0.0
  0
LINE
  5
234
100
AcDbEntity
  8
_03_2D_ZEICHNUNG_BEMASSUNGEN
100
AcDbLine
 62
7
  6
CONTINUOUS
 10
-9.0
 20
-12.5
 11
-9.0
 21
-18.5
  0
LINE
  5
235
100
AcDbEntity
  8
_03_2D_ZEICHNUNG_BEMASSUNGEN
100
AcDbLine
 62
7
  6
CONTINUOUS
 10
-9.0
 20
-18.5
 11
-9.0
 21
0.0
  0
INSERT
  5
236
100
AcDbEntity
  8
_03_2D_ZEICHNUNG_BEMASSUNGEN
100
AcDbBlockReference
 62
7
  6
CONTINUOUS
  2
_FILLED
 10
-9.0
 20
12.5
 41
3.5
 42
3.5
 43
3.5
 50
270.0
  0
INSERT
  5
237
100
AcDbEntity
  8
_03_2D_ZEICHNUNG_BEMASSUNGEN
100
AcDbBlockReference
 62
7
  6
CONTINUOUS
  2
_FILLED
 10
-9.0
 20
-12.5
 41
3.5
 42
3.5
 43
3.5
 50
90.0
  0
ENDBLK
  5
238
100
AcDbEntity
  8
0
  6
BYBLOCK
 62
0
100
AcDbBlockEnd
  0
BLOCK
  5
239
100
AcDbEntity
  8
_03_2D_ZEICHNUNG_BEMASSUNGEN
100
AcDbBlockBegin
 62
7
  6
CONTINUOUS
  2
*D3
 70
65
 10
0.0
 20
0.0
  3
*D3
  1

  0
TEXT
  5
23A
100
AcDbEntity
  8
_03_2D_ZEICHNUNG_BEMASSUNGEN
100
AcDbText
 62
2
  6
CONTINUOUS
 10
208.1648100979
 20
-10.875
  7
STANDARD
 40
3.5
  1
17
 50
90.0
 41
0.6785714286
 72
1
 11
208.1648100979
 21
-8.5
100
AcDbText
  0
LINE
  5
23B
100
AcDbEntity
  8
_03_2D_ZEICHNUNG_BEMASSUNGEN
100
AcDbLine
 62
7
  6
CONTINUOUS
 10
204.1206562004
 20
0.0
 11
210.5398100979
 21
0.0
  0
LINE
  5
23C
100
AcDbEntity
  8
_03_2D_ZEICHNUNG_BEMASSUNGEN
100
AcDbLine
 62
7
  6
CONTINUOUS
 10
200.0
 20
-17.0
 11
210.5398100979
 21
-17.0
  0
LINE
  5
23D
100
AcDbEntity
  8
_03_2D_ZEICHNUNG_BEMASSUNGEN
100
AcDbLine
 62
7
  6
CONTINUOUS
 10
209.0398100979
 20
0.0
 11
209.0398100979
 21
6.0
  0
LINE
  5
23E
100
AcDbEntity
  8
_03_2D_ZEICHNUNG_BEMASSUNGEN
100
AcDbLine
 62
7
  6
CONTINUOUS
 10
209.0398100979
 20
6.0
 11
209.0398100979
 21
-8.5
  0
LINE
  5
23F
100
AcDbEntity
  8
_03_2D_ZEICHNUNG_BEMASSUNGEN
100
AcDbLine
 62
7
  6
CONTINUOUS
 10
209.0398100979
 20
-17.0
 11
209.0398100979
 21
-23.0
  0
LINE
  5
240
100
AcDbEntity
  8
_03_2D_ZEICHNUNG_BEMASSUNGEN
100
AcDbLine
 62
7
  6
CONTINUOUS
 10
209.0398100979
 20
-23.0
 11
209.0398100979
 21
-8.5
  0
INSERT
  5
241
100
AcDbEntity
  8
_03_2D_ZEICHNUNG_BEMASSUNGEN
100
AcDbBlockReference
 62
7
  6
CONTINUOUS
  2
_FILLED
 10
209.0398100979
 20
0.0
 41
3.5
 42
3.5
 43
3.5
 50
270.0
  0
INSERT
  5
242
100
AcDbEntity
  8
_03_2D_ZEICHNUNG_BEMASSUNGEN
100
AcDbBlockReference
 62
7
  6
CONTINUOUS
  2
_FILLED
 10
209.0398100979
 20
-17.0
 41
3.5
 42
3.5
 43
3.5
 50
90.0
  0
ENDBLK
  5
243
100
AcDbEntity
  8
0
  6
BYBLOCK
 62
0
100
AcDbBlockEnd
  0
ENDSEC
  0
SECTION
  2
ENTITIES
  0
DIMENSION
  5
244
100
AcDbEntity
  8
_03_2D_ZEICHNUNG_BEMASSUNGEN
100
AcDbDimension
 62
7
  6
CONTINUOUS
  2
*D0
 10
200.0
 20
27.2575746029
 11
99.5000001526
 21
27.2575746029
 70
160
 71
2
 72
2
 41
0.9
 42
200.0
  3
DIMSTYLE_1
100
AcDbAlignedDimension
 13
0.0
 23
-18.1066889992
 14
200.0
 24
-18.1066889992
100
AcDbRotatedDimension
  0
DIMENSION
  5
245
100
AcDbEntity
  8
_03_2D_ZEICHNUNG_BEMASSUNGEN
100
AcDbDimension
 62
7
  6
CONTINUOUS
  2
*D1
 10
175.0
 20
18.2575746029
 11
186.999994812
 21
18.2575746029
 70
160
 71
2
 72
2
 41
0.9
 42
25.0
  3
DIMSTYLE_2
100
AcDbAlignedDimension
 13
200.0
 23
-18.1066889992
 14
175.0
 24
-18.1066889992
 50
180.0
100
AcDbRotatedDimension
  0
DIMENSION
  5
246
100
AcDbEntity
  8
_03_2D_ZEICHNUNG_BEMASSUNGEN
100
AcDbDimension
 62
7
  6
CONTINUOUS
  2
*D2
 10
-9.0
 20
-12.5
 11
-9.0
 21
-0.0
 70
160
 71
2
 72
2
 41
0.9
 42
25.0
  1
%%c<>
  3
DIMSTYLE_2
100
AcDbAlignedDimension
 13
0.5
 23
12.5
 14
0.5
 24
-12.5
 50
270.0
100
AcDbRotatedDimension
  0
DIMENSION
  5
247
100
AcDbEntity
  8
_03_2D_ZEICHNUNG_BEMASSUNGEN
100
AcDbDimension
 62
7
  6
CONTINUOUS
  2
*D3
 10
209.0398100979
 20
-17.0
 11
209.0398100979
 21
-8.9999993068
 70
160
 71
2
 72
2
 41
0.9
 42
17.0
  3
DIMSTYLE_2
100
AcDbAlignedDimension
 13
204.1206562004
 23
0.0
 14
200.0
 24
-17.0
 50
270.0
100
AcDbRotatedDimension
  0
LINE
  5
248
100
AcDbEntity
  8
0
100
AcDbLine
 62
4
  6
CONTINUOUS
 10
0.0
 20
-11.9999895247
 11
-0.0
 21
11.9999871444
  0
LINE
  5
249
100
AcDbEntity
  8
0
100
AcDbLine
 62
4
  6
CONTINUOUS
 10
0.5
 20
-12.5
 11
0.5
 21
-6.7823299831
  0
LINE
  5
24A
100
AcDbEntity
  8
0
100
AcDbLine
 62
4
  6
CONTINUOUS
 10
0.5
 20
6.7823299831
 11
0.5
 21
12.5
  0
LINE
  5
24B
100
AcDbEntity
  8
_30_VOLUMEN
100
AcDbLine
 62
4
  6
CONTINUOUS
 10
-0.0
 20
12.0
 11
0.5
 21
12.5
  0
LINE
  5
24C
100
AcDbEntity
  8
_30_VOLUMEN
100
AcDbLine
 62
4
  6
CONTINUOUS
 10
0.0
 20
-12.0
 11
0.5
 21
-12.5
  0
LINE
  5
24D
100
AcDbEntity
  8
_30_VOLUMEN
100
AcDbLine
 62
4
  6
CONTINUOUS
 10
184.7658235146
 20
-16.2
 11
192.779816362
 21
-16.2
  0
LINE
  5
24E
100
AcDbEntity
  8
_30_VOLUMEN
100
AcDbLine
 62
4
  6
CONTINUOUS
 10
0.5
 20
-12.5
 11
175.0
 21
-12.5
  0
LINE
  5
24F
100
AcDbEntity
  8
_30_VOLUMEN
100
AcDbLine
 62
4
  6
CONTINUOUS
 10
175.0
 20
-12.25
 11
182.0
 21
-12.25
  0
LINE
  5
250
100
AcDbEntity
  8
_30_VOLUMEN
100
AcDbLine
 62
4
  6
CONTINUOUS
 10
199.5647387727
 20
-16.99626928
 11
193.6195892139
 21
-16.5645330741
  0
LINE
  5
251
100
AcDbEntity
  8
_21_KURVEN
100
AcDbLine
 62
5
  6
CONTINUOUS
 10
199.5647387727
 20
-16.99626928
 11
193.6195892139
 21
-16.5645330741
  0
LINE
  5
252
100
AcDbEntity
  8
0
100
AcDbLine
 62
4
  6
CONTINUOUS
 10
0.5
 20
-6.7823299831
 11
168.1010610958
 21
-6.7823299831
  0
LINE
  5
253
100
AcDbEntity
  8
_26_BEZUGSACHSEN
100
AcDbLine
 62
7
  6
CENTER
 10
-3.0
 20
0.0
 11
204.1206562004
 21
0.0
  0
LINE
  5
254
100
AcDbEntity
  8
0
100
AcDbLine
 62
4
  6
CONTINUOUS
 10
0.5
 20
6.7823299831
 11
173.5208993617
 21
6.7823299831
  0
LINE
  5
255
100
AcDbEntity
  8
_30_VOLUMEN
100
AcDbLine
 62
4
  6
CONTINUOUS
 10
175.0
 20
12.25
 11
182.0
 21
12.25
  0
LINE
  5
256
100
AcDbEntity
  8
_30_VOLUMEN
100
AcDbLine
 62
4
  6
CONTINUOUS
 10
0.5
 20
12.5
 11
175.0
 21
12.5
  0
LINE
  5
257
100
AcDbEntity
  8
0
100
AcDbLine
 62
4
  6
CONTINUOUS
 10
182.9027993698
 20
13.2578414503
 11
187.5217230327
 21
13.2578414503
  0
LINE
  5
258
100
AcDbEntity
  8
_30_VOLUMEN
100
AcDbLine
 62
4
  6
CONTINUOUS
 10
193.5528571881
 20
-16.5476972817
 11
187.7106864993
 21
-13.9227450659
  0
LINE
  5
259
100
AcDbEntity
  8
_21_KURVEN
100
AcDbLine
 62
5
  6
CONTINUOUS
 10
193.5528571881
 20
-16.5476972817
 11
188.1441400462
 21
-14.1149716299
  0
LINE
  5
25A
100
AcDbEntity
  8
_30_VOLUMEN
100
AcDbLine
 62
4
  6
CONTINUOUS
 10
182.0
 20
12.25
 11
182.5569112859
 21
13.0453517429
  0
LINE
  5
25B
100
AcDbEntity
  8
_30_VOLUMEN
100
AcDbLine
 62
4
  6
CONTINUOUS
 10
191.4277354032
 20
-8.5836715699
 11
196.3468372608
 21
-5.08614229
  0
LINE
  5
25C
100
AcDbEntity
  8
_21_KURVEN
100
AcDbLine
 62
5
  6
CONTINUOUS
 10
191.4582533082
 20
-8.564976528
 11
196.3468372608
 21
-5.08614229
  0
LINE
  5
25D
100
AcDbEntity
  8
_28_BEZUGSPUNKTE
100
AcDbLine
 62
1
  6
CONTINUOUS
 10
200.15625
 20
-17.15625
 11
199.84375
 21
-16.84375
  0
LINE
  5
25E
100
AcDbEntity
  8
_30_VOLUMEN
100
AcDbLine
 62
4
  6
CONTINUOUS
 10
182.0
 20
-12.25
 11
184.7658197759
 21
-16.2
  0
LINE
  5
25F
100
AcDbEntity
  8
_30_VOLUMEN
100
AcDbLine
 62
4
  6
CONTINUOUS
 10
187.9919496515
 20
-13.9931011425
 11
187.8209202901
 21
-13.7644080823
  0
LINE
  5
260
100
AcDbEntity
  8
_30_VOLUMEN
100
AcDbLine
 62
7
  6
CONTINUOUS
 10
187.9863787401
 20
-13.5310640172
 11
187.9848225292
 21
-13.5289831193
  0
LINE
  5
261
100
AcDbEntity
  8
0
100
AcDbLine
 62
4
  6
CONTINUOUS
 10
175.0
 20
12.4999908951
 11
175.0
 21
7.9157764599
  0
LINE
  5
262
100
AcDbEntity
  8
_26_BEZUGSACHSEN
100
AcDbLine
 62
4
  6
CONTINUOUS
 10
175.0
 20
7.9157764599
 11
175.0
 21
7.6329968408
  0
LINE
  5
263
100
AcDbEntity
  8
_26_BEZUGSACHSEN
100
AcDbLine
 62
4
  6
CONTINUOUS
 10
175.0
 20
-11.4675681598
 11
175.0
 21
-11.7587466573
  0
LINE
  5
264
100
AcDbEntity
  8
0
100
AcDbLine
 62
4
  6
CONTINUOUS
 10
175.0
 20
-11.7587466573
 11
175.0
 21
-12.4998840422
  0
LINE
  5
265
100
AcDbEntity
  8
_30_VOLUMEN
100
AcDbLine
 62
7
  6
CONTINUOUS
 10
191.4094020749
 20
-8.6143212906
 11
191.407845864
 21
-8.6122403928
  0
LINE
  5
266
100
AcDbEntity
  8
_30_VOLUMEN
100
AcDbLine
 62
7
  6
CONTINUOUS
 10
191.4582533082
 20
-8.564976528
 11
191.456273492
 21
-8.5623292034
  0
LINE
  5
267
100
AcDbEntity
  8
_30_VOLUMEN
100
AcDbLine
 62
4
  6
CONTINUOUS
 10
191.4277354032
 20
-8.5836715699
 11
187.7106864993
 21
-13.9227450659
  0
LINE
  5
268
100
AcDbEntity
  8
_21_KURVEN
100
AcDbLine
 62
5
  6
CONTINUOUS
 10
187.9863787401
 20
-13.5310640172
 11
191.4094020749
 21
-8.6143212906
  0
LINE
  5
269
100
AcDbEntity
  8
_28_BEZUGSPUNKTE
100
AcDbLine
 62
1
  6
CONTINUOUS
 10
200.15625
 20
-16.84375
 11
199.84375
 21
-17.15625
  0
LINE
  5
26A
100
AcDbEntity
  8
_30_VOLUMEN
100
AcDbLine
 62
7
  6
CONTINUOUS
 10
196.3468372608
 20
-5.08614229
 11
195.8540718063
 21
-4.4272376503
  0
LINE
  5
26B
100
AcDbEntity
  8
_30_VOLUMEN
100
AcDbLine
 62
4
  6
CONTINUOUS
 10
196.8953645721
 20
-5.167748688
 11
196.4025991177
 21
-4.5088440482
  0
LINE
  5
26C
100
AcDbEntity
  8
_30_VOLUMEN
100
AcDbLine
 62
4
  6
CONTINUOUS
 10
196.9356104706
 20
-5.2346836149
 11
196.8942840656
 21
-5.168552641
  0
LINE
  5
26D
100
AcDbEntity
  8
_26_BEZUGSACHSEN
100
AcDbLine
 62
4
  6
CONTINUOUS
 10
182.0
 20
12.25
 11
182.0
 21
10.4372014751
  0
LINE
  5
26E
100
AcDbEntity
  8
_26_BEZUGSACHSEN
100
AcDbLine
 62
4
  6
CONTINUOUS
 10
182.0
 20
-12.0237316181
 11
182.0
 21
-12.25
  0
LINE
  5
26F
100
AcDbEntity
  8
_30_VOLUMEN
100
AcDbLine
 62
7
  6
CONTINUOUS
 10
182.2440625878
 20
-12.3935334577
 11
188.7689772375
 21
10.6072913456
  0
LINE
  5
270
100
AcDbEntity
  8
_30_VOLUMEN
100
AcDbLine
 62
4
  6
CONTINUOUS
 10
196.9356104706
 20
-5.2346836149
 11
199.4577366946
 21
-10.5831625474
  0
LINE
  5
271
100
AcDbEntity
  8
_21_KURVEN
100
AcDbLine
 62
5
  6
CONTINUOUS
 10
196.9356104706
 20
-5.2346836149
 11
199.4577366946
 21
-10.5831625474
  0
LINE
  5
272
100
AcDbEntity
  8
0
100
AcDbLine
 62
4
  6
CONTINUOUS
 10
187.5217228961
 20
13.2578417406
 11
188.7689772375
 21
10.6072913456
  0
LINE
  5
273
100
AcDbEntity
  8
_30_VOLUMEN
100
AcDbLine
 62
4
  6
CONTINUOUS
 10
188.7689772375
 20
10.6072913456
 11
196.201119996
 21
-5.1868159746
  0
LINE
  5
274
100
AcDbEntity
  8
_30_VOLUMEN
100
AcDbLine
 62
4
  6
CONTINUOUS
 10
199.475617487
 20
-10.6493431025
 11
199.9957506764
 21
-16.5609029922
  0
LINE
  5
275
100
AcDbEntity
  8
_21_KURVEN
100
AcDbLine
 62
5
  6
CONTINUOUS
 10
199.475617487
 20
-10.6493431025
 11
199.9957506764
 21
-16.5609029922
  0
ARC
  5
276
100
AcDbEntity
  8
_30_VOLUMEN
100
AcDbCircle
 62
4
  6
CONTINUOUS
 10
438.7643296966
 20
157.873138794
 40
307.8853473572
100
AcDbArc
 50
213.5744268655
 51
214.4288911643
  0
ARC
  5
277
100
AcDbEntity
  8
_26_BEZUGSACHSEN
100
AcDbCircle
 62
4
  6
CONTINUOUS
 10
291.0547646623
 20
59.6850195698
 40
130.5185300733
100
AcDbArc
 50
213.3268430627
 51
213.5213490083
  0
ARC
  5
278
100
AcDbEntity
  8
0
100
AcDbCircle
 62
4
  6
CONTINUOUS
 10
270.9955297537
 20
-42.3518589614
 40
103.4740992611
100
AcDbArc
 50
149.1355838419
 51
149.3250525028
  0
ARC
  5
279
100
AcDbEntity
  8
0
100
AcDbCircle
 62
4
  6
CONTINUOUS
 10
21.2755342886
 20
4.510196594
 40
23.6462255227
100
AcDbArc
 50
205.875647103
 51
208.5262595076
  0
ARC
  5
27A
100
AcDbEntity
  8
0
100
AcDbCircle
 62
4
  6
CONTINUOUS
 10
21.2755342886
 20
-4.510196594
 40
23.6462255227
100
AcDbArc
 50
151.4737404924
 51
154.124352897
  0
ARC
  5
27B
100
AcDbEntity
  8
0
100
AcDbCircle
 62
4
  6
CONTINUOUS
 10
183.3721826778
 20
-4.5413803962
 40
15.009137208
100
AcDbArc
 50
123.9041845018
 51
131.0222762468
  0
ARC
  5
27C
100
AcDbEntity
  8
_30_VOLUMEN
100
AcDbCircle
 62
4
  6
CONTINUOUS
 10
194.3199970682
 20
-11.3110741549
 40
1.863423923
100
AcDbArc
 50
238.9757799263
 51
242.9127923598
  0
ARC
  5
27D
100
AcDbEntity
  8
_30_VOLUMEN
100
AcDbCircle
 62
4
  6
CONTINUOUS
 10
194.3969789354
 20
-11.2568729428
 40
1.853652116
100
AcDbArc
 50
19.420633694
 51
24.971721783
  0
ARC
  5
27E
100
AcDbEntity
  8
_30_VOLUMEN
100
AcDbCircle
 62
4
  6
CONTINUOUS
 10
194.3119852845
 20
-11.3254130645
 40
1.8470069997
100
AcDbArc
 50
228.5367041568
 51
238.9595068327
  0
ARC
  5
27F
100
AcDbEntity
  8
_30_VOLUMEN
100
AcDbCircle
 62
4
  6
CONTINUOUS
 10
191.5768664093
 20
-8.731257003
 40
0.2042504936
100
AcDbArc
 50
125.5014595311
 51
145.0744684681
  0
SPLINE
  5
280
100
AcDbEntity
  8
_30_VOLUMEN
100
AcDbSpline
 62
4
  6
CONTINUOUS
 70
0
 71
3
 72
11
 73
7
 74
0
 42
0.0000001
 43
0.0000001
 44
0.0000000001
 40
0.0
 40
0.0
 40
0.0
 40
0.0
 40
0.2496562509
 40
0.5007759495
 40
0.7514212823
 40
1.0
 40
1.0
 40
1.0
 40
1.0
 10
199.5647387727
 20
-16.99626928
 30
0.0
 10
199.6220217945
 20
-17.0004291677
 30
0.0
 10
199.7401217106
 20
-16.9828606375
 30
0.0
 10
199.8898254759
 20
-16.886347637
 30
0.0
 10
199.9847778252
 20
-16.7359001226
 30
0.0
 10
200.0007628657
 20
-16.6178688967
 30
0.0
 10
199.9957506764
 20
-16.5609029922
 30
0.0
  0
SPLINE
  5
281
100
AcDbEntity
  8
_30_VOLUMEN
100
AcDbSpline
 62
4
  6
CONTINUOUS
 70
0
 71
3
 72
8
 73
4
 74
0
 42
0.0000001
 43
0.0000001
 44
0.0000000001
 40
0.0
 40
0.0
 40
0.0
 40
0.0
 40
1.0
 40
1.0
 40
1.0
 40
1.0
 10
193.6195892139
 20
-16.5645330741
 30
0.0
 10
193.5967084626
 20
-16.562871476
 30
0.0
 10
193.5737793159
 20
-16.5571076087
 30
0.0
 10
193.5528571881
 20
-16.5476972817
 30
0.0
  0
SPLINE
  5
282
100
AcDbEntity
  8
_30_VOLUMEN
100
AcDbSpline
 62
4
  6
CONTINUOUS
 70
0
 71
3
 72
8
 73
4
 74
0
 42
0.0000001
 43
0.0000001
 44
0.0000000001
 40
0.0
 40
0.0
 40
0.0
 40
0.0
 40
1.0
 40
1.0
 40
1.0
 40
1.0
 10
199.4577366946
 20
-10.5831625474
 30
0.0
 10
199.4674830925
 20
-10.6038309832
 30
0.0
 10
199.4736146456
 20
-10.6265798615
 30
0.0
 10
199.475617487
 20
-10.6493431025
 30
0.0
  0
SPLINE
  5
283
100
AcDbEntity
  8
_30_VOLUMEN
100
AcDbSpline
 62
4
  6
CONTINUOUS
 70
0
 71
3
 72
8
 73
4
 74
0
 42
0.0000001
 43
0.0000001
 44
0.0000000001
 40
0.0
 40
0.0
 40
0.0
 40
0.0
 40
1.0
 40
1.0
 40
1.0
 40
1.0
 10
195.8540718063
 20
-4.4272376503
 30
0.0
 10
195.8969052248
 20
-4.3967563567
 30
0.0
 10
195.946806113
 20
-4.3746912044
 30
0.0
 10
195.9980070424
 20
-4.3627632616
 30
0.0
  0
SPLINE
  5
284
100
AcDbEntity
  8
_30_VOLUMEN
100
AcDbSpline
 62
4
  6
CONTINUOUS
 70
0
 71
3
 72
9
 73
5
 74
0
 42
0.0000001
 43
0.0000001
 44
0.0000000001
 40
0.0
 40
0.0
 40
0.0
 40
0.0
 40
0.5015646732
 40
1.0
 40
1.0
 40
1.0
 40
1.0
 10
195.9980070424
 20
-4.3627632616
 30
0.0
 10
196.0710864228
 20
-4.3457384403
 30
0.0
 10
196.2302626489
 20
-4.3535067804
 30
0.0
 10
196.3575708237
 20
-4.4493965682
 30
0.0
 10
196.402414684
 20
-4.5089736546
 30
0.0
  0
SPLINE
  5
285
100
AcDbEntity
  8
_30_VOLUMEN
100
AcDbSpline
 62
4
  6
CONTINUOUS
 70
0
 71
3
 72
11
 73
7
 74
0
 42
0.0000001
 43
0.0000001
 44
0.0000000001
 40
0.0
 40
0.0
 40
0.0
 40
0.0
 40
0.2487296314
 40
0.498006746
 40
0.7488315167
 40
1.0
 40
1.0
 40
1.0
 40
1.0
 10
196.3335945124
 20
-10.7522164436
 30
0.0
 10
196.2217042071
 20
-10.6028447814
 30
0.0
 10
195.9507815099
 20
-10.335780276
 30
0.0
 10
195.4429573103
 20
-10.0760943588
 30
0.0
 10
194.8793889083
 20
-9.9790219911
 30
0.0
 10
194.4992258712
 20
-10.0268829392
 30
0.0
 10
194.3178037022
 20
-10.0779097743
 30
0.0
  0
SPLINE
  5
286
100
AcDbEntity
  8
_30_VOLUMEN
100
AcDbSpline
 62
4
  6
CONTINUOUS
 70
0
 71
3
 72
13
 73
9
 74
0
 42
0.0000001
 43
0.0000001
 44
0.0000000001
 40
0.0
 40
0.0
 40
0.0
 40
0.0
 40
0.1243495766
 40
0.2489393731
 40
0.3738819416
 40
0.4993050437
 40
0.7494172905
 40
1.0
 40
1.0
 40
1.0
 40
1.0
 10
193.2828152814
 20
-13.0337580267
 30
0.0
 10
193.1919199392
 20
-12.9124142846
 30
0.0
 10
193.039536358
 20
-12.6456884169
 30
0.0
 10
192.9158115108
 20
-12.2023848805
 30
0.0
 10
192.9035998601
 20
-11.7406343849
 30
0.0
 10
193.0349783424
 20
-11.1394946122
 30
0.0
 10
193.467502548
 20
-10.4729416126
 30
0.0
 10
194.0236944423
 20
-10.160631003
 30
0.0
 10
194.3178037022
 20
-10.0779097743
 30
0.0
  0
SPLINE
  5
287
100
AcDbEntity
  8
_30_VOLUMEN
100
AcDbSpline
 62
4
  6
CONTINUOUS
 70
0
 71
3
 72
8
 73
4
 74
0
 42
0.0000001
 43
0.0000001
 44
0.0000000001
 40
0.0
 40
0.0
 40
0.0
 40
0.0
 40
1.0
 40
1.0
 40
1.0
 40
1.0
 10
187.9920430303
 20
-13.9930302965
 30
0.0
 10
188.0311674991
 20
-14.0449133643
 30
0.0
 10
188.0848772419
 20
-14.088316484
 30
0.0
 10
188.1441400462
 20
-14.1149716299
 30
0.0
  0
SPLINE
  5
288
100
AcDbEntity
  8
_30_VOLUMEN
100
AcDbSpline
 62
4
  6
CONTINUOUS
 70
0
 71
3
 72
9
 73
5
 74
0
 42
0.0000001
 43
0.0000001
 44
0.0000000001
 40
0.0
 40
0.0
 40
0.0
 40
0.0
 40
0.5010905204
 40
1.0
 40
1.0
 40
1.0
 40
1.0
 10
194.847249499
 20
-13.104530194
 30
0.0
 10
194.62106428
 20
-13.1681470934
 30
0.0
 10
194.1419076851
 20
-13.211737529
 30
0.0
 10
193.6797694324
 20
-13.0766379538
 30
0.0
 10
193.4714941793
 20
-12.9701074771
 30
0.0
  0
SPLINE
  5
289
100
AcDbEntity
  8
_30_VOLUMEN
100
AcDbSpline
 62
4
  6
CONTINUOUS
 70
0
 71
3
 72
12
 73
8
 74
0
 42
0.0000001
 43
0.0000001
 44
0.0000000001
 40
0.0
 40
0.0
 40
0.0
 40
0.0
 40
0.2506691151
 40
0.5013457562
 40
0.7507378064
 40
0.8755198802
 40
1.0
 40
1.0
 40
1.0
 40
1.0
 10
194.847249499
 20
-13.104530194
 30
0.0
 10
195.0968039564
 20
-13.0343404579
 30
0.0
 10
195.5723626956
 20
-12.7884577706
 30
0.0
 10
196.0789507963
 20
-12.1734705419
 30
0.0
 10
196.2632503031
 20
-11.5332288297
 30
0.0
 10
196.2487783485
 20
-11.0147988872
 30
0.0
 10
196.1879789363
 20
-10.7619388022
 30
0.0
 10
196.1451637643
 20
-10.6405321512
 30
0.0
  0
SPLINE
  5
28A
100
AcDbEntity
  8
_30_VOLUMEN
100
AcDbSpline
 62
4
  6
CONTINUOUS
 70
0
 71
3
 72
15
 73
11
 74
0
 42
0.0000001
 43
0.0000001
 44
0.0000000001
 40
0.0
 40
0.0
 40
0.0
 40
0.0
 40
0.1253979969
 40
0.2500712774
 40
0.3742092801
 40
0.4983186071
 40
0.6229229445
 40
0.7482523969
 40
0.8741120599
 40
1.0
 40
1.0
 40
1.0
 40
1.0
 10
195.408486353
 20
-14.0658081776
 30
0.0
 10
195.1278314504
 20
-14.1447452311
 30
0.0
 10
194.5308935942
 20
-14.1935117335
 30
0.0
 10
193.6820044745
 20
-13.919412761
 30
0.0
 10
193.005945004
 20
-13.3398629511
 30
0.0
 10
192.6090017996
 20
-12.5431188555
 30
0.0
 10
192.551243534
 20
-11.65241573
 30
0.0
 10
192.8404336629
 20
-10.8040123171
 30
0.0
 10
193.429591037
 20
-10.1264056738
 30
0.0
 10
193.9675808516
 20
-9.8547818993
 30
0.0
 10
194.2493323026
 20
-9.7755364304
 30
0.0
  0
SPLINE
  5
28B
100
AcDbEntity
  8
_30_VOLUMEN
100
AcDbSpline
 62
4
  6
CONTINUOUS
 70
0
 71
3
 72
15
 73
11
 74
0
 42
0.0000001
 43
0.0000001
 44
0.0000000001
 40
0.0
 40
0.0
 40
0.0
 40
0.0
 40
0.1253979969
 40
0.2500712774
 40
0.3742092801
 40
0.4983186071
 40
0.6229229445
 40
0.7482523969
 40
0.8741120599
 40
1.0
 40
1.0
 40
1.0
 40
1.0
 10
194.2493323026
 20
-9.7755364304
 30
0.0
 10
194.5299872052
 20
-9.696599377
 30
0.0
 10
195.1269250613
 20
-9.6478328745
 30
0.0
 10
195.9758141811
 20
-9.9219318471
 30
0.0
 10
196.6518736516
 20
-10.5014816569
 30
0.0
 10
197.048816856
 20
-11.2982257526
 30
0.0
 10
197.1065751216
 20
-12.1889288781
 30
0.0
 10
196.8173849927
 20
-13.0373322909
 30
0.0
 10
196.2282276185
 20
-13.7149389343
 30
0.0
 10
195.6902378039
 20
-13.9865627088
 30
0.0
 10
195.408486353
 20
-14.0658081776
 30
0.0
  0
SPLINE
  5
28C
100
AcDbEntity
  8
_30_VOLUMEN
100
AcDbSpline
 62
4
  6
CONTINUOUS
 70
0
 71
3
 72
11
 73
7
 74
0
 42
0.0000001
 43
0.0000001
 44
0.0000000001
 40
0.0
 40
0.0
 40
0.0
 40
0.0
 40
0.2511684833
 40
0.501993254
 40
0.7512703686
 40
1.0
 40
1.0
 40
1.0
 40
1.0
 10
195.2986060917
 20
-13.708064696
 30
0.0
 10
195.1171839227
 20
-13.7590915311
 30
0.0
 10
194.7370208855
 20
-13.8069524792
 30
0.0
 10
194.1734524835
 20
-13.7098801115
 30
0.0
 10
193.6656282839
 20
-13.4501941943
 30
0.0
 10
193.3947055867
 20
-13.1831296889
 30
0.0
 10
193.2828152814
 20
-13.0337580267
 30
0.0
  0
SPLINE
  5
28D
100
AcDbEntity
  8
_30_VOLUMEN
100
AcDbSpline
 62
4
  6
CONTINUOUS
 70
0
 71
3
 72
13
 73
9
 74
0
 42
0.0000001
 43
0.0000001
 44
0.0000000001
 40
0.0
 40
0.0
 40
0.0
 40
0.0
 40
0.2505827095
 40
0.5006949563
 40
0.6261180584
 40
0.7510606269
 40
0.8756504234
 40
1.0
 40
1.0
 40
1.0
 40
1.0
 10
195.2986060917
 20
-13.708064696
 30
0.0
 10
195.5927153516
 20
-13.6253434673
 30
0.0
 10
196.1489072458
 20
-13.3130328577
 30
0.0
 10
196.5814314514
 20
-12.6464798581
 30
0.0
 10
196.7128099337
 20
-12.0453400853
 30
0.0
 10
196.700598283
 20
-11.5835895898
 30
0.0
 10
196.5768734359
 20
-11.1402860534
 30
0.0
 10
196.4244898547
 20
-10.8735601856
 30
0.0
 10
196.3335945124
 20
-10.7522164436
 30
0.0
  0
SPLINE
  5
28E
100
AcDbEntity
  8
_30_VOLUMEN
100
AcDbSpline
 62
4
  6
CONTINUOUS
 70
0
 71
3
 72
9
 73
5
 74
0
 42
0.0000001
 43
0.0000001
 44
0.0000000001
 40
0.0
 40
0.0
 40
0.0
 40
0.0
 40
0.5020956049
 40
1.0
 40
1.0
 40
1.0
 40
1.0
 10
187.9863787401
 20
-13.5310640172
 30
0.0
 10
187.9399400576
 20
-13.5977673471
 30
0.0
 10
187.8870973528
 20
-13.7634582022
 30
0.0
 10
187.9435158859
 20
-13.9286783142
 30
0.0
 10
187.9920430303
 20
-13.9930302965
 30
0.0
  0
SPLINE
  5
28F
100
AcDbEntity
  8
_30_VOLUMEN
100
AcDbSpline
 62
4
  6
CONTINUOUS
 70
0
 71
3
 72
11
 73
7
 74
0
 42
0.0000001
 43
0.0000001
 44
0.0000000001
 40
0.0
 40
0.0
 40
0.0
 40
0.0
 40
0.2488877241
 40
0.497972742
 40
0.7489948545
 40
1.0
 40
1.0
 40
1.0
 40
1.0
 10
196.8951801384
 20
-5.1678782943
 30
0.0
 10
196.8647431611
 20
-5.1274414003
 30
0.0
 10
196.7875348185
 20
-5.0573386763
 30
0.0
 10
196.6401924942
 20
-5.0053253739
 30
0.0
 10
196.4840452678
 20
-5.0132544283
 30
0.0
 10
196.3884244243
 20
-5.0565478615
 30
0.0
 10
196.3468372608
 20
-5.08614229
 30
0.0
  0
SPLINE
  5
290
100
AcDbEntity
  8
_21_KURVEN
100
AcDbSpline
 62
5
  6
CONTINUOUS
 70
0
 71
3
 72
9
 73
5
 74
0
 42
0.0000001
 43
0.0000001
 44
0.0000000001
 40
0.0
 40
0.0
 40
0.0
 40
0.0
 40
0.5
 40
1.0
 40
1.0
 40
1.0
 40
1.0
 10
187.9863787401
 20
-13.5310640172
 30
0.0
 10
187.9623101443
 20
-13.5702122438
 30
0.0
 10
187.918225544
 20
-13.6519590609
 30
0.0
 10
187.914624541
 20
-13.7468591435
 30
0.0
 10
187.9159421675
 20
-13.7938050975
 30
0.0
  0
SPLINE
  5
291
100
AcDbEntity
  8
_21_KURVEN
100
AcDbSpline
 62
5
  6
CONTINUOUS
 70
0
 71
3
 72
11
 73
7
 74
0
 42
0.0000001
 43
0.0000001
 44
0.0000000001
 40
0.0
 40
0.0
 40
0.0
 40
0.0
 40
0.25
 40
0.5
 40
0.75
 40
1.0
 40
1.0
 40
1.0
 40
1.0
 10
187.9159421682
 20
-13.7938051055
 30
0.0
 10
187.921608664
 20
-13.826384762
 30
0.0
 10
187.9343735178
 20
-13.891336607
 30
0.0
 10
187.9772791097
 20
-13.9811511096
 30
0.0
 10
188.0465372417
 20
-14.0561551145
 30
0.0
 10
188.1028078009
 20
-14.0916300788
 30
0.0
 10
188.1316585703
 20
-14.1090914852
 30
0.0
  0
LINE
  5
292
100
AcDbEntity
  8
_21_KURVEN
100
AcDbLine
 62
5
  6
CONTINUOUS
 10
188.1316585744
 20
-14.1090914873
 11
188.1441400461
 21
-14.1149716298
  0
SPLINE
  5
293
100
AcDbEntity
  8
_21_KURVEN
100
AcDbSpline
 62
5
  6
CONTINUOUS
 70
0
 71
3
 72
8
 73
4
 74
0
 42
0.0000001
 43
0.0000001
 44
0.0000000001
 40
0.0
 40
0.0
 40
0.0
 40
0.0
 40
1.0
 40
1.0
 40
1.0
 40
1.0
 10
191.4582533082
 20
-8.564976528
 30
0.0
 10
191.4404168748
 20
-8.5784233445
 30
0.0
 10
191.423509303
 20
-8.5952735913
 30
0.0
 10
191.409402076
 20
-8.614321289
 30
0.0
  0
SPLINE
  5
294
100
AcDbEntity
  8
_21_KURVEN
100
AcDbSpline
 62
5
  6
CONTINUOUS
 70
0
 71
3
 72
9
 73
5
 74
0
 42
0.0000001
 43
0.0000001
 44
0.0000000001
 40
0.0
 40
0.0
 40
0.0
 40
0.0
 40
0.5
 40
1.0
 40
1.0
 40
1.0
 40
1.0
 10
196.9356104706
 20
-5.2346836149
 30
0.0
 10
196.9195840898
 20
-5.2042642965
 30
0.0
 10
196.8844367416
 20
-5.1443460723
 30
0.0
 10
196.8307687416
 20
-5.1001686891
 30
0.0
 10
196.803233012
 20
-5.0795312451
 30
0.0
  0
SPLINE
  5
295
100
AcDbEntity
  8
_21_KURVEN
100
AcDbSpline
 62
5
  6
CONTINUOUS
 70
0
 71
3
 72
8
 73
4
 74
0
 42
0.0000001
 43
0.0000001
 44
0.0000000001
 40
0.0
 40
0.0
 40
0.0
 40
0.0
 40
1.0
 40
1.0
 40
1.0
 40
1.0
 10
196.8032330168
 20
-5.0795312484
 30
0.0
 10
196.7731955623
 20
-5.0600216537
 30
0.0
 10
196.7410055929
 20
-5.043871526
 30
0.0
 10
196.7045627096
 20
-5.0309058239
 30
0.0
  0
SPLINE
  5
296
100
AcDbEntity
  8
_21_KURVEN
100
AcDbSpline
 62
5
  6
CONTINUOUS
 70
0
 71
3
 72
11
 73
7
 74
0
 42
0.0000001
 43
0.0000001
 44
0.0000000001
 40
0.0
 40
0.0
 40
0.0
 40
0.0
 40
0.25
 40
0.5
 40
0.75
 40
1.0
 40
1.0
 40
1.0
 40
1.0
 10
196.7045627088
 20
-5.0309058237
 30
0.0
 10
196.6743419621
 20
-5.0235622175
 30
0.0
 10
196.6136354894
 20
-5.0100568868
 30
0.0
 10
196.5190622715
 20
-5.011597417
 30
0.0
 10
196.4281054306
 20
-5.0387046236
 30
0.0
 10
196.3737330268
 20
-5.0699793127
 30
0.0
 10
196.3468372522
 20
-5.0861422961
 30
0.0
  0
SPLINE
  5
297
100
AcDbEntity
  8
_21_KURVEN
100
AcDbSpline
 62
5
  6
CONTINUOUS
 70
0
 71
3
 72
8
 73
4
 74
0
 42
0.0000001
 43
0.0000001
 44
0.0000000001
 40
0.0
 40
0.0
 40
0.0
 40
0.0
 40
1.0
 40
1.0
 40
1.0
 40
1.0
 10
199.475617487
 20
-10.6493431025
 30
0.0
 10
199.474951961
 20
-10.6424712827
 30
0.0
 10
199.4736725079
 20
-10.6335783799
 30
0.0
 10
199.4720293762
 20
-10.6254879003
 30
0.0
  0
SPLINE
  5
298
100
AcDbEntity
  8
_21_KURVEN
100
AcDbSpline
 62
5
  6
CONTINUOUS
 70
0
 71
3
 72
8
 73
4
 74
0
 42
0.0000001
 43
0.0000001
 44
0.0000000001
 40
0.0
 40
0.0
 40
0.0
 40
0.0
 40
1.0
 40
1.0
 40
1.0
 40
1.0
 10
199.4720293761
 20
-10.6254878998
 30
0.0
 10
199.4711420236
 20
-10.6214479213
 30
0.0
 10
199.4697350758
 20
-10.6157582196
 30
0.0
 10
199.4679872549
 20
-10.6098122225
 30
0.0
  0
SPLINE
  5
299
100
AcDbEntity
  8
_21_KURVEN
100
AcDbSpline
 62
5
  6
CONTINUOUS
 70
0
 71
3
 72
8
 73
4
 74
0
 42
0.0000001
 43
0.0000001
 44
0.0000000001
 40
0.0
 40
0.0
 40
0.0
 40
0.0
 40
1.0
 40
1.0
 40
1.0
 40
1.0
 10
199.4679872549
 20
-10.6098122227
 30
0.0
 10
199.4655098176
 20
-10.6019273819
 30
0.0
 10
199.4620227577
 20
-10.5925741285
 30
0.0
 10
199.4577366947
 20
-10.5831625476
 30
0.0
  0
SPLINE
  5
29A
100
AcDbEntity
  8
_21_KURVEN
100
AcDbSpline
 62
5
  6
CONTINUOUS
 70
0
 71
3
 72
9
 73
5
 74
0
 42
0.0000001
 43
0.0000001
 44
0.0000000001
 40
0.0
 40
0.0
 40
0.0
 40
0.0
 40
0.5
 40
1.0
 40
1.0
 40
1.0
 40
1.0
 10
199.5647387727
 20
-16.99626928
 30
0.0
 10
199.6021912602
 20
-16.9972244232
 30
0.0
 10
199.6815769448
 20
-16.9951166864
 30
0.0
 10
199.7523059841
 20
-16.9646426273
 30
0.0
 10
199.7877290095
 20
-16.9473639936
 30
0.0
  0
SPLINE
  5
29B
100
AcDbEntity
  8
_21_KURVEN
100
AcDbSpline
 62
5
  6
CONTINUOUS
 70
0
 71
3
 72
9
 73
5
 74
0
 42
0.0000001
 43
0.0000001
 44
0.0000000001
 40
0.0
 40
0.0
 40
0.0
 40
0.0
 40
0.5
 40
1.0
 40
1.0
 40
1.0
 40
1.0
 10
199.7877290185
 20
-16.9473639887
 30
0.0
 10
199.8198745297
 20
-16.9277054479
 30
0.0
 10
199.885735622
 20
-16.8826136886
 30
0.0
 10
199.9286664472
 20
-16.818752733
 30
0.0
 10
199.9493755422
 20
-16.7845091376
 30
0.0
  0
SPLINE
  5
29C
100
AcDbEntity
  8
_21_KURVEN
100
AcDbSpline
 62
5
  6
CONTINUOUS
 70
0
 71
3
 72
9
 73
5
 74
0
 42
0.0000001
 43
0.0000001
 44
0.0000000001
 40
0.0
 40
0.0
 40
0.0
 40
0.0
 40
0.5
 40
1.0
 40
1.0
 40
1.0
 40
1.0
 10
199.9493755456
 20
-16.7845091314
 30
0.0
 10
199.9656315289
 20
-16.7506475073
 30
0.0
 10
199.9962707424
 20
-16.6779784592
 30
0.0
 10
199.9972426468
 20
-16.5995673252
 30
0.0
 10
199.9957506766
 20
-16.5609029952
 30
0.0
  0
SPLINE
  5
29D
100
AcDbEntity
  8
_21_KURVEN
100
AcDbSpline
 62
1
  6
CENTER
 70
0
 71
3
 72
63
 73
59
 74
0
 42
0.0000001
 43
0.0000001
 44
0.0000000001
 40
0.0
 40
0.0
 40
0.0
 40
0.0
 40
0.03125
 40
0.0625
 40
0.09375
 40
0.109375
 40
0.125
 40
0.1328125
 40
0.140625
 40
0.15625
 40
0.171875
 40
0.1875
 40
0.21875
 40
0.25
 40
0.265625
 40
0.2734375
 40
0.28125
 40
0.28515625
 40
0.2890625
 40
0.296875
 40
0.3125
 40
0.34375
 40
0.375
 40
0.40625
 40
0.421875
 40
0.4296875
 40
0.4375
 40
0.453125
 40
0.46875
 40
0.5
 40
0.53125
 40
0.546875
 40
0.5625
 40
0.5703125
 40
0.578125
 40
0.59375
 40
0.625
 40
0.65625
 40
0.6875
 40
0.703125
 40
0.7109375
 40
0.71484375
 40
0.71875
 40
0.7265625
 40
0.734375
 40
0.75
 40
0.78125
 40
0.8125
 40
0.828125
 40
0.84375
 40
0.859375
 40
0.8671875
 40
0.875
 40
0.890625
 40
0.90625
 40
0.9375
 40
0.96875
 40
1.0
 40
1.0
 40
1.0
 40
1.0
 10
196.0542687435
 20
-16.4559839646
 30
0.0
 10
196.1248579845
 20
-16.4275604783
 30
0.0
 10
196.2660390349
 20
-16.3707183597
 30
0.0
 10
196.4777952001
 20
-16.2854260568
 30
0.0
 10
196.6543036181
 20
-16.214434086
 30
0.0
 10
196.7954101848
 20
-16.1574511959
 30
0.0
 10
196.8838297349
 20
-16.122267699
 30
0.0
 10
196.9540433466
 20
-16.0931342872
 30
0.0
 10
197.0261627152
 20
-16.0676026852
 30
0.0
 10
197.1026712844
 20
-16.0099078765
 30
0.0
 10
197.1976697199
 20
-15.946700061
 30
0.0
 10
197.3232245692
 20
-15.8603232448
 30
0.0
 10
197.4805207354
 20
-15.7530353035
 30
0.0
 10
197.6377936473
 20
-15.6456397076
 30
0.0
 10
197.7476866964
 20
-15.5702107098
 30
0.0
 10
197.8108291108
 20
-15.5275728601
 30
0.0
 10
197.8494742941
 20
-15.4998231362
 30
0.0
 10
197.8822690259
 20
-15.4801498113
 30
0.0
 10
197.9082044778
 20
-15.4512515237
 30
0.0
 10
197.9547875898
 20
-15.40228775
 30
0.0
 10
198.047099231
 20
-15.3032149732
 30
0.0
 10
198.1794633072
 20
-15.1623088028
 30
0.0
 10
198.3379000763
 20
-14.9928324997
 30
0.0
 10
198.4706107211
 20
-14.852063419
 30
0.0
 10
198.5622552178
 20
-14.7527267446
 30
0.0
 10
198.6165674227
 20
-14.6971931241
 30
0.0
 10
198.6514109249
 20
-14.6293444788
 30
0.0
 10
198.7016344065
 20
-14.548751928
 30
0.0
 10
198.7782471173
 20
-14.4174370588
 30
0.0
 10
198.8754230394
 20
-14.2541713586
 30
0.0
 10
198.9716399018
 20
-14.0903525983
 30
0.0
 10
199.049787108
 20
-13.9599226251
 30
0.0
 10
199.0961743512
 20
-13.8771178345
 30
0.0
 10
199.1388821422
 20
-13.8138042808
 30
0.0
 10
199.161161756
 20
-13.7397984578
 30
0.0
 10
199.2037214545
 20
-13.6121561014
 30
0.0
 10
199.2626356251
 20
-13.428830881
 30
0.0
 10
199.3342216882
 20
-13.2092704673
 30
0.0
 10
199.3934270776
 20
-13.0261759495
 30
0.0
 10
199.4354261799
 20
-12.8980894906
 30
0.0
 10
199.455710773
 20
-12.8339601762
 30
0.0
 10
199.4684482786
 20
-12.7974510417
 30
0.0
 10
199.4696796707
 20
-12.7595761181
 30
0.0
 10
199.4751579183
 20
-12.7127000416
 30
0.0
 10
199.4817256935
 20
-12.6374373984
 30
0.0
 10
199.4942337781
 20
-12.5058490043
 30
0.0
 10
199.5116472743
 20
-12.3178049097
 30
0.0
 10
199.5289492156
 20
-12.1297725956
 30
0.0
 10
199.5434226573
 20
-11.9793670108
 30
0.0
 10
199.5524490056
 20
-11.8664949543
 30
0.0
 10
199.5658034524
 20
-11.7726526893
 30
0.0
 10
199.5525321556
 20
-11.6966840174
 30
0.0
 10
199.543444325
 20
-11.6208716235
 30
0.0
 10
199.5306521083
 20
-11.5260526213
 30
0.0
 10
199.5109851711
 20
-11.3743721252
 30
0.0
 10
199.4861266425
 20
-11.1847612376
 30
0.0
 10
199.4564148081
 20
-10.9572325955
 30
0.0
 10
199.4365843661
 20
-10.8055459915
 30
0.0
 10
199.4266719642
 20
-10.7297027949
 30
0.0
  0
SPLINE
  5
29E
100
AcDbEntity
  8
_21_KURVEN
100
AcDbSpline
 62
1
  6
CENTER
 70
0
 71
3
 72
15
 73
11
 74
0
 42
0.0000001
 43
0.0000001
 44
0.0000000001
 40
0.0
 40
0.0
 40
0.0
 40
0.0
 40
0.125
 40
0.1875
 40
0.25
 40
0.5
 40
0.75
 40
0.8125
 40
0.875
 40
1.0
 40
1.0
 40
1.0
 40
1.0
 10
199.426671959
 20
-10.7297027741
 30
0.0
 10
199.4256794417
 20
-10.7257241513
 30
0.0
 10
199.4243493509
 20
-10.7203634062
 30
0.0
 10
199.4219411554
 20
-10.7107869896
 30
0.0
 10
199.4152956548
 20
-10.6847608753
 30
0.0
 10
199.4066539436
 20
-10.6512123466
 30
0.0
 10
199.3962501354
 20
-10.6134651502
 30
0.0
 10
199.3903209902
 20
-10.5919279374
 30
0.0
 10
199.3840214221
 20
-10.5698892314
 30
0.0
 10
199.3787436023
 20
-10.5515609804
 30
0.0
 10
199.3753479767
 20
-10.5397419734
 30
0.0
  0
SPLINE
  5
29F
100
AcDbEntity
  8
_21_KURVEN
100
AcDbSpline
 62
1
  6
CENTER
 70
0
 71
3
 72
65
 73
61
 74
0
 42
0.0000001
 43
0.0000001
 44
0.0000000001
 40
0.0
 40
0.0
 40
0.0
 40
0.0
 40
0.03125
 40
0.0625
 40
0.09375
 40
0.109375
 40
0.125
 40
0.1328125
 40
0.140625
 40
0.15625
 40
0.171875
 40
0.1875
 40
0.21875
 40
0.25
 40
0.265625
 40
0.2734375
 40
0.28125
 40
0.28515625
 40
0.2890625
 40
0.296875
 40
0.3125
 40
0.34375
 40
0.375
 40
0.40625
 40
0.4140625
 40
0.421875
 40
0.4296875
 40
0.4375
 40
0.453125
 40
0.46875
 40
0.5
 40
0.53125
 40
0.546875
 40
0.5625
 40
0.5703125
 40
0.578125
 40
0.5859375
 40
0.59375
 40
0.625
 40
0.65625
 40
0.6875
 40
0.703125
 40
0.7109375
 40
0.71484375
 40
0.71875
 40
0.7265625
 40
0.734375
 40
0.75
 40
0.78125
 40
0.8125
 40
0.828125
 40
0.84375
 40
0.859375
 40
0.8671875
 40
0.875
 40
0.890625
 40
0.90625
 40
0.9375
 40
0.96875
 40
1.0
 40
1.0
 40
1.0
 40
1.0
 10
199.3753479762
 20
-10.5397419719
 30
0.0
 10
199.3463541076
 20
-10.4704713392
 30
0.0
 10
199.2883712285
 20
-10.3319273443
 30
0.0
 10
199.2013677614
 20
-10.1241277284
 30
0.0
 10
199.1289498882
 20
-9.9509136174
 30
0.0
 10
199.0708261253
 20
-9.812448775
 30
0.0
 10
199.0349299264
 20
-9.7256660146
 30
0.0
 10
199.0052255664
 20
-9.6567945561
 30
0.0
 10
198.9791258875
 20
-9.5858978853
 30
0.0
 10
198.9207004314
 20
-9.5117727019
 30
0.0
 10
198.8566206443
 20
-9.4194344752
 30
0.0
 10
198.7690795175
 20
-9.297496215
 30
0.0
 10
198.6603367889
 20
-9.1446980914
 30
0.0
 10
198.5514861038
 20
-8.9919269416
 30
0.0
 10
198.475038757
 20
-8.8851932005
 30
0.0
 10
198.4318187181
 20
-8.8238411469
 30
0.0
 10
198.403705764
 20
-8.7863504118
 30
0.0
 10
198.3837403925
 20
-8.7543978437
 30
0.0
 10
198.3545553974
 20
-8.7296017567
 30
0.0
 10
198.3050885695
 20
-8.6849613436
 30
0.0
 10
198.2050148421
 20
-8.5965647289
 30
0.0
 10
198.0626420527
 20
-8.4698320995
 30
0.0
 10
197.8915701276
 20
-8.317900296
 30
0.0
 10
197.7632323032
 20
-8.2040514894
 30
0.0
 10
197.6778004019
 20
-8.1279394942
 30
0.0
 10
197.6348424482
 20
-8.0902757294
 30
0.0
 10
197.5928271767
 20
-8.0510855917
 30
0.0
 10
197.524449131
 20
-8.0188398588
 30
0.0
 10
197.4432094384
 20
-7.9716789351
 30
0.0
 10
197.3108509645
 20
-7.9000699376
 30
0.0
 10
197.1462836571
 20
-7.8091101174
 30
0.0
 10
196.9811619169
 20
-7.7191339901
 30
0.0
 10
196.8496905355
 20
-7.6459510838
 30
0.0
 10
196.7662331117
 20
-7.6027249321
 30
0.0
 10
196.7024014149
 20
-7.5624129165
 30
0.0
 10
196.6464976018
 20
-7.5478642888
 30
0.0
 10
196.5914106314
 20
-7.5317202267
 30
0.0
 10
196.4808166301
 20
-7.5002516616
 30
0.0
 10
196.3151002161
 20
-7.4527211849
 30
0.0
 10
196.0940539825
 20
-7.3894554527
 30
0.0
 10
195.9098417925
 20
-7.3369556717
 30
0.0
 10
195.7809477686
 20
-7.2996929802
 30
0.0
 10
195.7164208293
 20
-7.2817727153
 30
0.0
 10
195.6796775239
 20
-7.2703868317
 30
0.0
 10
195.6416363512
 20
-7.2705049501
 30
0.0
 10
195.594529211
 20
-7.2667143131
 30
0.0
 10
195.5189098372
 20
-7.2628463144
 30
0.0
 10
195.3866911792
 20
-7.2550629963
 30
0.0
 10
195.1977493673
 20
-7.2443993181
 30
0.0
 10
195.008820098
 20
-7.2338462882
 30
0.0
 10
194.8576929921
 20
-7.2247740303
 30
0.0
 10
194.7442912085
 20
-7.2197929498
 30
0.0
 10
194.6499711072
 20
-7.209827437
 30
0.0
 10
194.5737696521
 20
-7.2257364695
 30
0.0
 10
194.4976983688
 20
-7.2374748564
 30
0.0
 10
194.4025646936
 20
-7.2535758787
 30
0.0
 10
194.2503757249
 20
-7.2785393584
 30
0.0
 10
194.0601309615
 20
-7.3100177228
 30
0.0
 10
193.8318409297
 20
-7.3476737229
 30
0.0
 10
193.6796468733
 20
-7.3728002063
 30
0.0
 10
193.6035499329
 20
-7.3853606376
 30
0.0
  0
SPLINE
  5
2A0
100
AcDbEntity
  8
_21_KURVEN
100
AcDbSpline
 62
1
  6
CENTER
 70
0
 71
3
 72
23
 73
19
 74
0
 42
0.0000001
 43
0.0000001
 44
0.0000000001
 40
0.0
 40
0.0
 40
0.0
 40
0.0
 40
0.125
 40
0.15625
 40
0.1875
 40
0.25
 40
0.3125
 40
0.375
 40
0.4375
 40
0.5
 40
0.5625
 40
0.625
 40
0.6875
 40
0.75
 40
0.8125
 40
0.84375
 40
0.875
 40
1.0
 40
1.0
 40
1.0
 40
1.0
 10
193.6035499121
 20
-7.3853606434
 30
0.0
 10
193.5089574275
 20
-7.4162444179
 30
0.0
 10
193.3911429388
 20
-7.4560250303
 30
0.0
 10
193.2484872011
 20
-7.5002340825
 30
0.0
 10
193.1561105256
 20
-7.5372325069
 30
0.0
 10
193.0419171268
 20
-7.5868241618
 30
0.0
 10
192.9030993418
 20
-7.6422052481
 30
0.0
 10
192.7693804694
 20
-7.7087521339
 30
0.0
 10
192.6377878012
 20
-7.7795575303
 30
0.0
 10
192.5029594776
 20
-7.8445594891
 30
0.0
 10
192.3789475715
 20
-7.9285166879
 30
0.0
 10
192.2515856506
 20
-8.0067362613
 30
0.0
 10
192.1268073711
 20
-8.0889510963
 30
0.0
 10
192.0090440389
 20
-8.1812290782
 30
0.0
 10
191.908704233
 20
-8.2550984682
 30
0.0
 10
191.8302137843
 20
-8.3164318347
 30
0.0
 10
191.7201082367
 20
-8.4176836027
 30
0.0
 10
191.6263666019
 20
-8.4996507745
 30
0.0
 10
191.5520091379
 20
-8.5659954884
 30
0.0
  0
SPLINE
  5
2A1
100
AcDbEntity
  8
_21_KURVEN
100
AcDbSpline
 62
1
  6
CENTER
 70
0
 71
3
 72
15
 73
11
 74
0
 42
0.0000001
 43
0.0000001
 44
0.0000000001
 40
0.0
 40
0.0
 40
0.0
 40
0.0
 40
0.125
 40
0.1875
 40
0.25
 40
0.5
 40
0.75
 40
0.8125
 40
0.875
 40
1.0
 40
1.0
 40
1.0
 40
1.0
 10
191.5520092264
 20
-8.5659954026
 30
0.0
 10
191.5490322239
 20
-8.5688908035
 30
0.0
 10
191.5450175327
 20
-8.5727858076
 30
0.0
 10
191.5378613605
 20
-8.5797715354
 30
0.0
 10
191.5184618861
 20
-8.598843681
 30
0.0
 10
191.4934920862
 20
-8.6234933722
 30
0.0
 10
191.4657289737
 20
-8.6518149543
 30
0.0
 10
191.4498849628
 20
-8.6679682957
 30
0.0
 10
191.4337852784
 20
-8.6846981598
 30
0.0
 10
191.4204150869
 20
-8.6986448765
 30
0.0
 10
191.4117894989
 20
-8.707631728
 30
0.0
  0
SPLINE
  5
2A2
100
AcDbEntity
  8
_21_KURVEN
100
AcDbSpline
 62
1
  6
CENTER
 70
0
 71
3
 72
75
 73
71
 74
0
 42
0.0000001
 43
0.0000001
 44
0.0000000001
 40
0.0
 40
0.0
 40
0.0
 40
0.0
 40
0.0625
 40
0.078125
 40
0.09375
 40
0.1015625
 40
0.109375
 40
0.1171875
 40
0.125
 40
0.140625
 40
0.15625
 40
0.171875
 40
0.1875
 40
0.203125
 40
0.2109375
 40
0.21875
 40
0.234375
 40
0.25
 40
0.28125
 40
0.3125
 40
0.3203125
 40
0.328125
 40
0.33203125
 40
0.3359375
 40
0.34375
 40
0.359375
 40
0.375
 40
0.390625
 40
0.40625
 40
0.421875
 40
0.4375
 40
0.4453125
 40
0.44921875
 40
0.453125
 40
0.46875
 40
0.5
 40
0.53125
 40
0.546875
 40
0.55078125
 40
0.5546875
 40
0.5625
 40
0.578125
 40
0.59375
 40
0.609375
 40
0.625
 40
0.640625
 40
0.65625
 40
0.6640625
 40
0.66796875
 40
0.671875
 40
0.6796875
 40
0.6875
 40
0.71875
 40
0.75
 40
0.765625
 40
0.78125
 40
0.7890625
 40
0.796875
 40
0.8125
 40
0.828125
 40
0.84375
 40
0.859375
 40
0.875
 40
0.8828125
 40
0.890625
 40
0.8984375
 40
0.90625
 40
0.921875
 40
0.9375
 40
1.0
 40
1.0
 40
1.0
 40
1.0
 10
191.4117894978
 20
-8.7076317291
 30
0.0
 10
191.3013297902
 20
-8.8499941281
 30
0.0
 10
191.1631135406
 20
-9.0278433084
 30
0.0
 10
190.9976788863
 20
-9.2415737801
 30
0.0
 10
190.9281813201
 20
-9.3302128695
 30
0.0
 10
190.8739002872
 20
-9.4020896527
 30
0.0
 10
190.8295783285
 20
-9.4533498692
 30
0.0
 10
190.7990425961
 20
-9.5147168137
 30
0.0
 10
190.7586826903
 20
-9.5967990571
 30
0.0
 10
190.7081088721
 20
-9.6993121461
 30
0.0
 10
190.6474835768
 20
-9.8223690097
 30
0.0
 10
190.5868034329
 20
-9.9454047908
 30
0.0
 10
190.5262793969
 20
-10.0684837452
 30
0.0
 10
190.4753680478
 20
-10.1709231981
 30
0.0
 10
190.4357000803
 20
-10.2531563957
 30
0.0
 10
190.3921673876
 20
-10.334364126
 30
0.0
 10
190.3654105711
 20
-10.44321275
 30
0.0
 10
190.3196061216
 20
-10.6165754531
 30
0.0
 10
190.2632525013
 20
-10.8335236962
 30
0.0
 10
190.2126549893
 20
-11.0287900861
 30
0.0
 10
190.1782711
 20
-11.1588236287
 30
0.0
 10
190.1649979632
 20
-11.2132407527
 30
0.0
 10
190.1519163141
 20
-11.256221302
 30
0.0
 10
190.1478444368
 20
-11.301225266
 30
0.0
 10
190.1449060678
 20
-11.3809224644
 30
0.0
 10
190.1385149889
 20
-11.4942842041
 30
0.0
 10
190.1318028198
 20
-11.6305278466
 30
0.0
 10
190.1247716025
 20
-11.766719511
 30
0.0
 10
190.1180594524
 20
-11.9029095331
 30
0.0
 10
190.1103900816
 20
-12.0391581023
 30
0.0
 10
190.1069237856
 20
-12.1525047885
 30
0.0
 10
190.0987739852
 20
-12.2322288094
 30
0.0
 10
190.1077344861
 20
-12.2768775876
 30
0.0
 10
190.1176758085
 20
-12.3440842377
 30
0.0
 10
190.1412746811
 20
-12.4895571306
 30
0.0
 10
190.1760684842
 20
-12.7135004646
 30
0.0
 10
190.2118417603
 20
-12.9372366113
 30
0.0
 10
190.2341673179
 20
-13.0829788478
 30
0.0
 10
190.2453574685
 20
-13.149921334
 30
0.0
 10
190.2506449453
 20
-13.1953470647
 30
0.0
 10
190.2820903441
 20
-13.2666955367
 30
0.0
 10
190.3193981557
 20
-13.3714170418
 30
0.0
 10
190.3674361672
 20
-13.4958827662
 30
0.0
 10
190.414582327
 20
-13.6206766311
 30
0.0
 10
190.4620272562
 20
-13.7453580158
 30
0.0
 10
190.5091689592
 20
-13.8701611805
 30
0.0
 10
190.5492154912
 20
-13.9738516178
 30
0.0
 10
190.5757809882
 20
-14.0470372652
 30
0.0
 10
190.5932477248
 20
-14.0879187101
 30
0.0
 10
190.6193238151
 20
-14.1252647671
 30
0.0
 10
190.6489767522
 20
-14.1731553115
 30
0.0
 10
190.7225606269
 20
-14.28710224
 30
0.0
 10
190.8319901641
 20
-14.4583826256
 30
0.0
 10
190.9537561624
 20
-14.6487448271
 30
0.0
 10
191.0517520241
 20
-14.8005290074
 30
0.0
 10
191.1114529682
 20
-14.8966327413
 30
0.0
 10
191.1775217817
 20
-14.9589056847
 30
0.0
 10
191.2403929253
 20
-15.0237304156
 30
0.0
 10
191.3200793058
 20
-15.1038854775
 30
0.0
 10
191.4152317029
 20
-15.200447959
 30
0.0
 10
191.5105132162
 20
-15.2969061743
 30
0.0
 10
191.6057495242
 20
-15.3934050472
 30
0.0
 10
191.6851562017
 20
-15.4737721378
 30
0.0
 10
191.7486007363
 20
-15.5381622098
 30
0.0
 10
191.7964007068
 20
-15.5861947472
 30
0.0
 10
191.8554331719
 20
-15.6207368289
 30
0.0
 10
191.9302201175
 20
-15.6715045504
 30
0.0
 10
192.0250451221
 20
-15.7333532466
 30
0.0
 10
192.2515174601
 20
-15.8831204551
 30
0.0
 10
192.440532865
 20
-16.0075800201
 30
0.0
 10
192.5916528828
 20
-16.1072585335
 30
0.0
  0
SPLINE
  5
2A3
100
AcDbEntity
  8
_21_KURVEN
100
AcDbSpline
 62
1
  6
CENTER
 70
0
 71
3
 72
11
 73
7
 74
0
 42
0.0000001
 43
0.0000001
 44
0.0000000001
 40
0.0
 40
0.0
 40
0.0
 40
0.0
 40
0.5
 40
0.75
 40
0.875
 40
1.0
 40
1.0
 40
1.0
 40
1.0
 10
192.5916530667
 20
-16.1072586291
 30
0.0
 10
192.6208366534
 20
-16.1222850775
 30
0.0
 10
192.6653111572
 20
-16.1449588067
 30
0.0
 10
192.7155948918
 20
-16.1693277488
 30
0.0
 10
192.747484041
 20
-16.1845289048
 30
0.0
 10
192.7704595928
 20
-16.195271283
 30
0.0
 10
192.7810684965
 20
-16.200249747
 30
0.0
  0
SPLINE
  5
2A4
100
AcDbEntity
  8
_21_KURVEN
100
AcDbSpline
 62
1
  6
CENTER
 70
0
 71
3
 72
13
 73
9
 74
0
 42
0.0000001
 43
0.0000001
 44
0.0000000001
 40
0.0
 40
0.0
 40
0.0
 40
0.0
 40
0.125
 40
0.1875
 40
0.25
 40
0.375
 40
0.5
 40
1.0
 40
1.0
 40
1.0
 40
1.0
 10
192.7810684992
 20
-16.2002497483
 30
0.0
 10
192.7847966857
 20
-16.2019685138
 30
0.0
 10
192.789823985
 20
-16.2042939961
 30
0.0
 10
192.7987869726
 20
-16.2084053034
 30
0.0
 10
192.8152037635
 20
-16.215866022
 30
0.0
 10
192.8331971088
 20
-16.2240015993
 30
0.0
 10
192.8785779782
 20
-16.2442770967
 30
0.0
 10
192.9161596289
 20
-16.260238159
 30
0.0
 10
192.9486423364
 20
-16.2739065453
 30
0.0
  0
SPLINE
  5
2A5
100
AcDbEntity
  8
_21_KURVEN
100
AcDbSpline
 62
1
  6
CENTER
 70
0
 71
3
 72
15
 73
11
 74
0
 42
0.0000001
 43
0.0000001
 44
0.0000000001
 40
0.0
 40
0.0
 40
0.0
 40
0.0
 40
0.125
 40
0.1875
 40
0.25
 40
0.5
 40
0.75
 40
0.8125
 40
0.875
 40
1.0
 40
1.0
 40
1.0
 40
1.0
 10
192.9486423365
 20
-16.2739065454
 30
0.0
 10
192.9524369559
 20
-16.2754786382
 30
0.0
 10
192.9575453317
 20
-16.2776025783
 30
0.0
 10
192.9666907124
 20
-16.2813712949
 30
0.0
 10
192.9916074225
 20
-16.2915337927
 30
0.0
 10
193.023772377
 20
-16.3045737519
 30
0.0
 10
193.0603822005
 20
-16.3187058568
 30
0.0
 10
193.0812662174
 20
-16.3267746077
 30
0.0
 10
193.1027796972
 20
-16.3348469271
 30
0.0
 10
193.1206950897
 20
-16.3415293663
 30
0.0
 10
193.1322430664
 20
-16.3458447258
 30
0.0
  0
SPLINE
  5
2A6
100
AcDbEntity
  8
_21_KURVEN
100
AcDbSpline
 62
1
  6
CENTER
 70
0
 71
3
 72
15
 73
11
 74
0
 42
0.0000001
 43
0.0000001
 44
0.0000000001
 40
0.0
 40
0.0
 40
0.0
 40
0.0
 40
0.125
 40
0.1875
 40
0.25
 40
0.5
 40
0.75
 40
0.8125
 40
0.875
 40
1.0
 40
1.0
 40
1.0
 40
1.0
 10
193.1322430678
 20
-16.3458447264
 30
0.0
 10
193.1438375594
 20
-16.3500387685
 30
0.0
 10
193.1606264333
 20
-16.3561463481
 30
0.0
 10
193.1854230528
 20
-16.3650237224
 30
0.0
 10
193.2341706409
 20
-16.3819211385
 30
0.0
 10
193.3020336616
 20
-16.4051774093
 30
0.0
 10
193.374994416
 20
-16.4275052531
 30
0.0
 10
193.4200384969
 20
-16.4412333361
 30
0.0
 10
193.4579631199
 20
-16.4521275572
 30
0.0
 10
193.4882605154
 20
-16.460695193
 30
0.0
 10
193.508046795
 20
-16.4663187346
 30
0.0
  0
SPLINE
  5
2A7
100
AcDbEntity
  8
_21_KURVEN
100
AcDbSpline
 62
1
  6
CENTER
 70
0
 71
3
 72
15
 73
11
 74
0
 42
0.0000001
 43
0.0000001
 44
0.0000000001
 40
0.0
 40
0.0
 40
0.0
 40
0.0
 40
0.125
 40
0.1875
 40
0.25
 40
0.5
 40
0.75
 40
0.8125
 40
0.875
 40
1.0
 40
1.0
 40
1.0
 40
1.0
 10
193.5080467979
 20
-16.4663187354
 30
0.0
 10
193.5120163178
 20
-16.4674019573
 30
0.0
 10
193.5173610997
 20
-16.4688676983
 30
0.0
 10
193.5269254675
 20
-16.471458387
 30
0.0
 10
193.5529704425
 20
-16.4784123558
 30
0.0
 10
193.5865819536
 20
-16.4873111934
 30
0.0
 10
193.6247488743
 20
-16.4967368076
 30
0.0
 10
193.6465220304
 20
-16.5021206791
 30
0.0
 10
193.6689212829
 20
-16.507429521
 30
0.0
 10
193.6875692941
 20
-16.5118110552
 30
0.0
 10
193.6995905078
 20
-16.5146432108
 30
0.0
  0
SPLINE
  5
2A8
100
AcDbEntity
  8
_21_KURVEN
100
AcDbSpline
 62
1
  6
CENTER
 70
0
 71
3
 72
23
 73
19
 74
0
 42
0.0000001
 43
0.0000001
 44
0.0000000001
 40
0.0
 40
0.0
 40
0.0
 40
0.0
 40
0.125
 40
0.15625
 40
0.1875
 40
0.25
 40
0.3125
 40
0.375
 40
0.4375
 40
0.5
 40
0.5625
 40
0.625
 40
0.6875
 40
0.75
 40
0.8125
 40
0.84375
 40
0.875
 40
1.0
 40
1.0
 40
1.0
 40
1.0
 10
193.6995905093
 20
-16.5146432111
 30
0.0
 10
193.7967633946
 20
-16.5327432498
 30
0.0
 10
193.9184280636
 20
-16.5541251852
 30
0.0
 10
194.0638299793
 20
-16.5835128465
 30
0.0
 10
194.1620353891
 20
-16.5951486978
 30
0.0
 10
194.2852995649
 20
-16.6061271891
 30
0.0
 10
194.4327710177
 20
-16.6238051824
 30
0.0
 10
194.5812128416
 20
-16.6291740771
 30
0.0
 10
194.7298669453
 20
-16.6297613288
 30
0.0
 10
194.878525662
 20
-16.6370271343
 30
0.0
 10
195.0269536467
 20
-16.6223603677
 30
0.0
 10
195.1755175016
 20
-16.614368885
 30
0.0
 10
195.3237686078
 20
-16.6016088388
 30
0.0
 10
195.4707909354
 20
-16.5765944785
 30
0.0
 10
195.5937595885
 20
-16.5594818877
 30
0.0
 10
195.691668788
 20
-16.5429604692
 30
0.0
 10
195.8363764064
 20
-16.506345647
 30
0.0
 10
195.9575275938
 20
-16.478914726
 30
0.0
 10
196.054268862
 20
-16.4559839313
 30
0.0
  0
SPLINE
  5
2A9
100
AcDbEntity
  8
_21_KURVEN
100
AcDbSpline
 62
5
  6
CONTINUOUS
 70
0
 71
3
 72
8
 73
4
 74
0
 42
0.0000001
 43
0.0000001
 44
0.0000000001
 40
0.0
 40
0.0
 40
0.0
 40
0.0
 40
1.0
 40
1.0
 40
1.0
 40
1.0
 10
193.5528571881
 20
-16.5476972817
 30
0.0
 10
193.5591757038
 20
-16.5504726496
 30
0.0
 10
193.5675669323
 20
-16.5537036351
 30
0.0
 10
193.5754466046
 20
-16.5562298787
 30
0.0
  0
SPLINE
  5
2AA
100
AcDbEntity
  8
_21_KURVEN
100
AcDbSpline
 62
5
  6
CONTINUOUS
 70
0
 71
3
 72
8
 73
4
 74
0
 42
0.0000001
 43
0.0000001
 44
0.0000000001
 40
0.0
 40
0.0
 40
0.0
 40
0.0
 40
1.0
 40
1.0
 40
1.0
 40
1.0
 10
193.5754466051
 20
-16.5562298788
 30
0.0
 10
193.579415587
 20
-16.5574337009
 30
0.0
 10
193.5850859046
 20
-16.5589934929
 30
0.0
 10
193.5911538891
 20
-16.5603842301
 30
0.0
  0
SPLINE
  5
2AB
100
AcDbEntity
  8
_21_KURVEN
100
AcDbSpline
 62
5
  6
CONTINUOUS
 70
0
 71
3
 72
8
 73
4
 74
0
 42
0.0000001
 43
0.0000001
 44
0.0000000001
 40
0.0
 40
0.0
 40
0.0
 40
0.0
 40
1.0
 40
1.0
 40
1.0
 40
1.0
 10
193.5911538889
 20
-16.56038423
 30
0.0
 10
193.5992823538
 20
-16.5620907296
 30
0.0
 10
193.6092056316
 20
-16.5636422225
 30
0.0
 10
193.6195892136
 20
-16.564533074
 30
0.0
  0
SPLINE
  5
2AC
100
AcDbEntity
  8
0
100
AcDbSpline
 62
4
  6
CONTINUOUS
 70
0
 71
3
 72
10
 73
6
 74
0
 42
0.0000001
 43
0.0000001
 44
0.0000000001
 40
0.0
 40
0.0
 40
0.0
 40
0.0
 40
0.2281141418
 40
0.4610464053
 40
1.0
 40
1.0
 40
1.0
 40
1.0
 10
182.9027991552
 20
13.2578411928
 30
0.0
 10
182.870807053
 20
13.257842536
 30
0.0
 10
182.8057057416
 20
13.2489228619
 30
0.0
 10
182.6765404934
 20
13.1901870349
 30
0.0
 10
182.6002602856
 20
13.1072691034
 30
0.0
 10
182.5569133666
 20
13.0453473523
 30
0.0
  0
SPLINE
  5
2AD
100
AcDbEntity
  8
0
100
AcDbSpline
 62
4
  6
CONTINUOUS
 70
0
 71
3
 72
9
 73
5
 74
0
 42
0.0000001
 43
0.0000001
 44
0.0000000001
 40
0.0
 40
0.0
 40
0.0
 40
0.0
 40
0.5057294469
 40
1.0
 40
1.0
 40
1.0
 40
1.0
 10
188.3508705726
 20
11.4958132364
 30
0.0
 10
187.3029895844
 20
11.4342540054
 30
0.0
 10
185.2338172131
 20
11.2553128011
 30
0.0
 10
183.1805168508
 20
10.9349682034
 30
0.0
 10
182.1750518846
 20
10.7312073499
 30
0.0
  0
SPLINE
  5
2AE
100
AcDbEntity
  8
0
100
AcDbSpline
 62
4
  6
CONTINUOUS
 70
0
 71
3
 72
15
 73
11
 74
0
 42
0.0000001
 43
0.0000001
 44
0.0000000001
 40
0.0
 40
0.0
 40
0.0
 40
0.0
 40
0.1364912931
 40
0.2684811622
 40
0.3956221504
 40
0.5180853419
 40
0.6369946324
 40
0.7547439712
 40
0.8746783179
 40
1.0
 40
1.0
 40
1.0
 40
1.0
 10
175.0
 20
-11.7587466573
 30
0.0
 10
174.5920102872
 20
-11.6909203879
 30
0.0
 10
173.7926424935
 20
-11.5367101686
 30
0.0
 10
172.6332924437
 20
-11.2266968265
 30
0.0
 10
171.5475047183
 20
-10.8224979854
 30
0.0
 10
170.5551062558
 20
-10.3022623206
 30
0.0
 10
169.6814390613
 20
-9.6435945215
 30
0.0
 10
168.9577551859
 20
-8.830528284
 30
0.0
 10
168.413709105
 20
-7.8653169461
 30
0.0
 10
168.1857256869
 20
-7.1525151927
 30
0.0
 10
168.1010610958
 20
-6.7823299831
 30
0.0
  0
SPLINE
  5
2AF
100
AcDbEntity
  8
_26_BEZUGSACHSEN
100
AcDbSpline
 62
4
  6
CONTINUOUS
 70
0
 71
3
 72
11
 73
7
 74
0
 42
0.0000001
 43
0.0000001
 44
0.0000000001
 40
0.0
 40
0.0
 40
0.0
 40
0.0
 40
0.257335658
 40
0.5109006199
 40
0.7590573407
 40
1.0
 40
1.0
 40
1.0
 40
1.0
 10
182.0
 20
-12.0237316181
 30
0.0
 10
181.3973355395
 20
-12.0094073301
 30
0.0
 10
180.2010319623
 20
-11.9712446518
 30
0.0
 10
178.4252844617
 20
-11.8740821507
 30
0.0
 10
176.6918599817
 20
-11.721490319
 30
0.0
 10
175.5559245958
 20
-11.5651990973
 30
0.0
 10
175.0
 20
-11.4675681598
 30
0.0
  0
SPLINE
  5
2B0
100
AcDbEntity
  8
_26_BEZUGSACHSEN
100
AcDbSpline
 62
4
  6
CONTINUOUS
 70
0
 71
3
 72
10
 73
6
 74
0
 42
0.0000001
 43
0.0000001
 44
0.0000000001
 40
0.0
 40
0.0
 40
0.0
 40
0.0
 40
0.2469482188
 40
0.4947549676
 40
1.0
 40
1.0
 40
1.0
 40
1.0
 10
175.0
 20
7.6329968408
 30
0.0
 10
175.5159973628
 20
7.9843109847
 30
0.0
 10
176.5947254152
 20
8.6243628362
 30
0.0
 10
178.9051216534
 20
9.6597248369
 30
0.0
 10
180.7500974897
 20
10.1747192911
 30
0.0
 10
182.0
 20
10.4372014751
 30
0.0
  0
SPLINE
  5
2B1
100
AcDbEntity
  8
0
100
AcDbSpline
 62
4
  6
CONTINUOUS
 70
0
 71
3
 72
11
 73
7
 74
0
 42
0.0000001
 43
0.0000001
 44
0.0000000001
 40
0.0
 40
0.0
 40
0.0
 40
0.0
 40
0.1605324615
 40
0.3788350525
 40
0.6586647693
 40
1.0
 40
1.0
 40
1.0
 40
1.0
 10
182.5569133666
 20
13.0453473523
 30
0.0
 10
182.4841941936
 20
12.9414668775
 30
0.0
 10
182.3653698355
 20
12.661459394
 30
0.0
 10
182.2544408556
 20
12.152600697
 30
0.0
 10
182.1872536699
 20
11.4915910906
 30
0.0
 10
182.1750519124
 20
11.0008265419
 30
0.0
 10
182.1750519016
 20
10.7312072955
 30
0.0
  0
ELLIPSE
  5
2B2
100
AcDbEntity
  8
0
100
AcDbEllipse
 62
4
  6
CONTINUOUS
 10
142.8470714095
 20
-163.854672373
 30
0.0
 11
64.4135237747
 21
227.0626138178
 31
0.0
 40
0.1059221884
 41
0.7510201152
 42
0.8373470969
  0
ENDSEC
  0
SECTION
  2
OBJECTS
  0
DICTIONARY
  5
C
100
AcDbDictionary
280
0
281
1
  3
ACAD_GROUP
350
D
  3
ACAD_MLINESTYLE
350
17
  3
ACAD_LAYOUT
350
1A
  3
ACAD_PLOTSETTINGS
350
19
  3
ACAD_PLOTSTYLENAME
350
E
  0
DICTIONARY
  5
D
102
{ACAD_REACTORS
330
C
102
}
100
AcDbDictionary
280
0
281
1
  0
ACDBDICTIONARYWDFLT
  5
E
102
{ACAD_REACTORS
330
C
102
}
100
AcDbDictionary
281
1
  3
Normal
350
F
100
AcDbDictionaryWithDefault
340
F
  0
DICTIONARY
  5
17
102
{ACAD_REACTORS
330
C
102
}
100
AcDbDictionary
280
0
281
1
  3
Standard
350
18
  0
DICTIONARY
  5
19
102
{ACAD_REACTORS
330
C
102
}
100
AcDbDictionary
281
1
  0
DICTIONARY
  5
1A
102
{ACAD_REACTORS
330
C
102
}
100
AcDbDictionary
281
1
  3
Model
350
2B3
  3
Layout1
350
2B4
  0
ACDBPLACEHOLDER
  5
F
102
{ACAD_REACTORS
330
E
102
}
  0
MLINESTYLE
  5
18
102
{ACAD_REACTORS
330
17
102
}
100
AcDbMlineStyle
  2
STANDARD
 70
0
  3

 62
256
 51
90.0
 52
90.0
 71
2
 49
0.5
 62
256
  6
BYLAYER
 49
-0.5
 62
256
  6
BYLAYER
  0
LAYOUT
  5
2B3
102
{ACAD_REACTORS
330
1A
102
}
100
AcDbPlotSettings
  1

  2
none_device
  4
ISO_A3_(420.00_x_297.00_MM)
  6

 40
0.0
 41
0.0
 42
0.0
 43
0.0
 44
420.0
 45
297.0
 46
0.0
 47
0.0
 48
0.0
 49
0.0
140
0.0
141
0.0
142
1.0
143
1.0
 70
1024
 72
1
 73
0
 74
0
  7

 75
0
147
1.0
148
0.0
149
0.0
100
AcDbLayout
  1
Model
 70
0
 71
0
 10
0.0
 20
0.0
 11
420.0
 21
297.0
 12
0.0
 22
0.0
 32
0.0
 14
0.0
 24
0.0
 34
0.0
 15
0.0
 25
0.0
 35
0.0
146
0.0
 13
0.0
 23
0.0
 33
0.0
 16
1.0
 26
0.0
 36
0.0
 17
0.0
 27
1.0
 37
0.0
 76
0
330
20E
345
0
346
0
  0
LAYOUT
  5
2B4
102
{ACAD_REACTORS
330
1A
102
}
100
AcDbPlotSettings
  1

  2
none_device
  4
ISO_A3_(420.00_x_297.00_MM)
  6

 40
0.0
 41
0.0
 42
0.0
 43
0.0
 44
420.0
 45
297.0
 46
0.0
 47
0.0
 48
0.0
 49
0.0
140
0.0
141
0.0
142
1.0
143
1.0
 70
0
 72
1
 73
0
 74
0
  7

 75
0
147
1.0
148
0.0
149
0.0
100
AcDbLayout
  1
Layout1
 70
0
 71
1
 10
0.0
 20
0.0
 11
420.0
 21
297.0
 12
0.0
 22
0.0
 32
0.0
 14
0.0
 24
0.0
 34
0.0
 15
0.0
 25
0.0
 35
0.0
146
0.0
 13
0.0
 23
0.0
 33
0.0
 16
1.0
 26
0.0
 36
0.0
 17
0.0
 27
1.0
 37
0.0
 76
0
330
20F
345
0
346
0
  0
ENDSEC
  0
EOF
