999
DXF file: 70573225.dxf
999
Pro/ENGINEER 2016380 by Parametric Technology Corporation
  0
SECTION
  2
HEADER
  9
$ACADVER
  1
AC1027
  9
$DWGCODEPAGE
  3
ANSI_1252
  9
$EXTMAX
 10
420.0
 20
297.0
 30
0.0
  9
$EXTMIN
 10
0.0
 20
0.0
 30
0.0
  9
$LIMMIN
 10
0.0
 20
0.0
  9
$LIMMAX
 10
420.0
 20
297.0
  9
$VIEWCTR
 10
210.0
 20
148.5
  9
$VIEWSIZE
 40
297.0
  9
$CLAYER
  8
0
  9
$LTSCALE
 40
23.1
  9
$CELTYPE
  6
BYLAYER
  9
$DIMSCALE
 40
1.0
  9
$DIMASZ
 40
3.5
  9
$DIMEXO
 40
0.0
  9
$DIMDLI
 40
15.96
  9
$DIMEXE
 40
1.5
  9
$DIMCEN
 40
3.78
  9
$DIMLFAC
 40
1.0
  9
$DIMBLK
  1
_FILLED
  9
$DIMALT
 70
0
  9
$DIMALTF
 40
25.4
  9
$DIMTXT
 40
3.5
  9
$DIMTOL
 70
1
  9
$DIMLIM
 70
0
  9
$DIMTFAC
 40
1.0
  9
$DIMTP
 40
0.05
  9
$DIMTM
 40
0.05
  9
$DIMGAP
 40
0.625
  9
$DIMDSEP
 70
46
  9
$AUNITS
 70
0
  9
$PDMODE
 70
3
  9
$PDSIZE
 40
0.3125
  9
$HANDSEED
  5
2BA
  9
$TILEMODE
 70
1
  9
$MEASUREMENT
 70
1
  9
$INSUNITS
 70
4
  0
ENDSEC
  0
SECTION
  2
CLASSES
  0
CLASS
  1
ACDBDICTIONARYWDFLT
  2
AcDbDictionaryWithDefault
  3
AutoCAD 2000
 90
0
 91
1
280
0
281
0
  0
CLASS
  1
ACDBPLACEHOLDER
  2
AcDbPlaceHolder
  3
AutoCAD 2000
 90
0
 91
1
280
0
281
0
  0
CLASS
  1
LAYOUT
  2
AcDbLayout
  3
AutoCAD 2000
 90
0
 91
0
280
0
281
0
  0
ENDSEC
  0
SECTION
  2
TABLES
  0
TABLE
  2
VPORT
  5
8
100
AcDbSymbolTable
 70
2
  0
VPORT
  5
1F4
100
AcDbSymbolTableRecord
100
AcDbViewportTableRecord
  2
*ACTIVE
 70
0
 10
0.0
 20
0.0
 11
1.0
 21
1.0
 12
210.0
 22
148.5
 13
0.0
 23
0.0
 14
1.0
 24
1.0
 15
0.0
 25
0.0
 16
0.0
 26
0.0
 36
1.0
 17
0.0
 27
0.0
 37
0.0
 40
297.0
 41
1.4141414141
 42
50.0
 43
0.0
 44
0.0
 50
0.0
 51
0.0
 71
0
 72
100
 73
1
 74
1
 75
0
 76
0
 77
0
 78
0
  0
ENDTAB
  0
TABLE
  2
LTYPE
  5
5
100
AcDbSymbolTable
 70
6
  0
LTYPE
  5
14
100
AcDbSymbolTableRecord
100
AcDbLinetypeTableRecord
  2
BYBLOCK
 70
0
  3

 72
65
 73
0
 40
0.0
  0
LTYPE
  5
15
100
AcDbSymbolTableRecord
100
AcDbLinetypeTableRecord
  2
BYLAYER
 70
0
  3

 72
65
 73
0
 40
0.0
  0
LTYPE
  5
16
100
AcDbSymbolTableRecord
100
AcDbLinetypeTableRecord
  2
CONTINUOUS
 70
64
  3
Solid line
 72
65
 73
0
 40
0.0
  0
LTYPE
  5
1F5
100
AcDbSymbolTableRecord
100
AcDbLinetypeTableRecord
  2
CENTER
 70
64
  3
____ _ ____ _ ____ _ ____ _ ____ _ ____ _ ____
 72
65
 73
4
 40
0.6
 49
0.375
 74
0
 49
-0.075
 74
0
 49
0.075
 74
0
 49
-0.075
 74
0
  0
LTYPE
  5
1F6
100
AcDbSymbolTableRecord
100
AcDbLinetypeTableRecord
  2
HIDDEN
 70
64
  3
- - - - - - - - - - - - - - - - - - - -
 72
65
 73
2
 40
0.2
 49
0.1
 74
0
 49
-0.1
 74
0
  0
LTYPE
  5
1F7
100
AcDbSymbolTableRecord
100
AcDbLinetypeTableRecord
  2
PHANTOM
 70
64
  3
_____ _ _ _____ _ _ _____ _ _ _____
 72
65
 73
6
 40
0.8
 49
0.45
 74
0
 49
-0.05
 74
0
 49
0.1
 74
0
 49
-0.05
 74
0
 49
0.1
 74
0
 49
-0.05
 74
0
  0
LTYPE
  5
1F8
100
AcDbSymbolTableRecord
100
AcDbLinetypeTableRecord
  2
DOT
 70
64
  3
. . . . . . . . . . . . . . . . . . . .
 72
65
 73
2
 40
0.2
 49
0.1
 74
0
 49
-0.1
 74
0
  0
LTYPE
  5
1F9
100
AcDbSymbolTableRecord
100
AcDbLinetypeTableRecord
  2
DASHED
 70
64
  3
- - - - - - - - - - - - - - - - - - - -
 72
65
 73
2
 40
0.2
 49
0.1
 74
0
 49
-0.1
 74
0
  0
ENDTAB
  0
TABLE
  2
LAYER
  5
2
100
AcDbSymbolTable
 70
36
  0
LAYER
  5
10
100
AcDbSymbolTableRecord
100
AcDbLayerTableRecord
  2
0
 70
0
 62
7
  6
CONTINUOUS
370
-3
390
F
  0
LAYER
  5
1FA
100
AcDbSymbolTableRecord
100
AcDbLayerTableRecord
  2
DEFAULT_1
 70
0
 62
7
  6
CENTER
370
-3
390
F
  0
LAYER
  5
1FB
100
AcDbSymbolTableRecord
100
AcDbLayerTableRecord
  2
DEFAULT_2
 70
0
 62
1
  6
HIDDEN
370
-3
390
F
  0
LAYER
  5
1FC
100
AcDbSymbolTableRecord
100
AcDbLayerTableRecord
  2
DEFAULT_3
 70
0
 62
7
  6
PHANTOM
370
-3
390
F
  0
LAYER
  5
1FD
100
AcDbSymbolTableRecord
100
AcDbLayerTableRecord
  2
BG_STARTBEZUEGE
 70
0
 62
7
  6
CONTINUOUS
370
-3
390
F
  0
LAYER
  5
1FE
100
AcDbSymbolTableRecord
100
AcDbLayerTableRecord
  2
HILFEN
 70
0
 62
7
  6
CONTINUOUS
370
-3
390
F
  0
LAYER
  5
1FF
100
AcDbSymbolTableRecord
100
AcDbLayerTableRecord
  2
PLATZIERUNG
 70
0
 62
7
  6
CONTINUOUS
370
-3
390
F
  0
LAYER
  5
200
100
AcDbSymbolTableRecord
100
AcDbLayerTableRecord
  2
T_STARTBEZUEGE
 70
0
 62
7
  6
CONTINUOUS
370
-3
390
F
  0
LAYER
  5
201
100
AcDbSymbolTableRecord
100
AcDbLayerTableRecord
  2
_03_2D_ZEICHNUNG_BEMASSUNGEN
 70
0
 62
7
  6
CONTINUOUS
370
-3
390
F
  0
LAYER
  5
202
100
AcDbSymbolTableRecord
100
AcDbLayerTableRecord
  2
_04_NOTIZEN
 70
0
 62
7
  6
CONTINUOUS
370
-3
390
F
  0
LAYER
  5
203
100
AcDbSymbolTableRecord
100
AcDbLayerTableRecord
  2
_05_2D_ELEMENTE
 70
0
 62
7
  6
CONTINUOUS
370
-3
390
F
  0
LAYER
  5
204
100
AcDbSymbolTableRecord
100
AcDbLayerTableRecord
  2
_07_EINRASTLINIEN
 70
0
 62
7
  6
CONTINUOUS
370
-3
390
F
  0
LAYER
  5
205
100
AcDbSymbolTableRecord
100
AcDbLayerTableRecord
  2
_21_KURVEN
 70
0
 62
7
  6
CONTINUOUS
370
-3
390
F
  0
LAYER
  5
206
100
AcDbSymbolTableRecord
100
AcDbLayerTableRecord
  2
_26_BEZUGSACHSEN
 70
0
 62
7
  6
CONTINUOUS
370
-3
390
F
  0
LAYER
  5
207
100
AcDbSymbolTableRecord
100
AcDbLayerTableRecord
  2
_27_BEZUGSEBENEN
 70
0
 62
7
  6
CONTINUOUS
370
-3
390
F
  0
LAYER
  5
208
100
AcDbSymbolTableRecord
100
AcDbLayerTableRecord
  2
_28_BEZUGSPUNKTE
 70
0
 62
7
  6
CONTINUOUS
370
-3
390
F
  0
LAYER
  5
209
100
AcDbSymbolTableRecord
100
AcDbLayerTableRecord
  2
_29_KOORDINATENSYSTEME
 70
0
 62
7
  6
CONTINUOUS
370
-3
390
F
  0
LAYER
  5
20A
100
AcDbSymbolTableRecord
100
AcDbLayerTableRecord
  2
_30_VOLUMEN
 70
0
 62
7
  6
CONTINUOUS
370
-3
390
F
  0
ENDTAB
  0
TABLE
  2
STYLE
  5
3
100
AcDbSymbolTable
 70
1
  0
STYLE
  5
11
100
AcDbSymbolTableRecord
100
AcDbTextStyleTableRecord
  2
STANDARD
 70
0
 40
0.0
 41
0.7
 50
0.0
 71
0
 42
0.2
  3
SIMPLEX.SHX
  4

  0
STYLE
  5
20B
100
AcDbSymbolTableRecord
100
AcDbTextStyleTableRecord
  2
TEXTSTYLE_1
 70
0
 40
0.0
 41
0.8
 50
0.0
 71
0
 42
0.2
  3
gdt
  4

  0
STYLE
  5
20C
100
AcDbSymbolTableRecord
100
AcDbTextStyleTableRecord
  2
TEXTSTYLE_2
 70
0
 40
0.0
 41
0.7
 50
0.0
 71
0
 42
0.2
  3
gdt
  4

  0
ENDTAB
  0
TABLE
  2
VIEW
  5
6
100
AcDbSymbolTable
 70
0
  0
ENDTAB
  0
TABLE
  2
UCS
  5
7
100
AcDbSymbolTable
 70
0
  0
ENDTAB
  0
TABLE
  2
APPID
  5
9
100
AcDbSymbolTable
 70
1
  0
APPID
  5
20D
100
AcDbSymbolTableRecord
100
AcDbRegAppTableRecord
  2
ACAD
 70
0
  0
ENDTAB
  0
TABLE
  2
BLOCK_RECORD
  5
1
100
AcDbSymbolTable
 70
0
  0
BLOCK_RECORD
  5
20E
100
AcDbSymbolTableRecord
100
AcDbBlockTableRecord
  2
*Model_Space
  0
BLOCK_RECORD
  5
20F
100
AcDbSymbolTableRecord
100
AcDbBlockTableRecord
  2
*Paper_Space
  0
BLOCK_RECORD
  5
210
100
AcDbSymbolTableRecord
100
AcDbBlockTableRecord
  2
_FILLED
  0
BLOCK_RECORD
  5
211
100
AcDbSymbolTableRecord
100
AcDbBlockTableRecord
  2
*D0
  0
BLOCK_RECORD
  5
212
100
AcDbSymbolTableRecord
100
AcDbBlockTableRecord
  2
*D1
  0
BLOCK_RECORD
  5
213
100
AcDbSymbolTableRecord
100
AcDbBlockTableRecord
  2
*D2
  0
BLOCK_RECORD
  5
214
100
AcDbSymbolTableRecord
100
AcDbBlockTableRecord
  2
*D3
  0
ENDTAB
  0
TABLE
  2
DIMSTYLE
  5
A
100
AcDbSymbolTable
 70
1
100
AcDbDimStyleTable
 71
0
  0
DIMSTYLE
105
215
100
AcDbSymbolTableRecord
100
AcDbDimStyleTableRecord
  2
STANDARD
 70
0
  3

  4

 40
1.0
 41
3.5
 42
0.0
 43
0.38
 44
1.5
 45
0.0
 46
0.0
 47
0.05
 48
0.05
140
3.5
141
0.09
142
0.0
143
25.4
144
1.0
145
0.0
146
1.0
147
0.625
 71
1.0
 72
0.0
 73
0
 74
0
 75
0
 76
0
 77
1
 78
8
170
0
171
1
172
0
173
0
174
0
175
0
176
0
177
0
178
2
270
2
271
2
272
2
273
2
274
2
275
0
280
0
281
0
282
0
283
1
284
8
285
0
286
0
287
3
288
0
340
11
278
46
341
210
342
210
343
210
344
210
  0
DIMSTYLE
105
216
100
AcDbSymbolTableRecord
100
AcDbDimStyleTableRecord
  2
DIMSTYLE_1
 70
0
  3

  4

 40
1.0
 41
3.5
 42
0.0
 43
0.38
 44
1.5
 45
0.0
 46
0.0
 47
0.5
 48
0.5
140
3.5
141
0.09
142
0.0
143
25.4
144
1.0
145
0.0
146
1.0
147
0.875
 71
0.0
 72
0.0
 73
0
 74
0
 75
0
 76
0
 77
1
 78
8
170
0
171
1
172
0
173
0
174
0
175
0
176
0
177
0
178
2
270
2
271
2
272
2
273
2
274
2
275
0
280
0
281
0
282
0
283
1
284
8
285
0
286
0
287
3
288
0
340
11
278
46
341
210
342
210
343
210
344
210
  0
DIMSTYLE
105
217
100
AcDbSymbolTableRecord
100
AcDbDimStyleTableRecord
  2
DIMSTYLE_2
 70
0
  3

  4

 40
1.0
 41
3.5
 42
0.0
 43
0.38
 44
1.5
 45
0.0
 46
0.0
 47
0.3
 48
0.3
140
3.5
141
0.09
142
0.0
143
25.4
144
1.0
145
0.0
146
1.0
147
0.875
 71
0.0
 72
0.0
 73
0
 74
0
 75
0
 76
0
 77
1
 78
8
170
0
171
1
172
0
173
0
174
0
175
0
176
0
177
0
178
2
270
2
271
2
272
2
273
2
274
2
275
0
280
0
281
0
282
0
283
1
284
8
285
0
286
0
287
3
288
0
340
11
278
46
341
210
342
210
343
210
344
210
  0
DIMSTYLE
105
218
100
AcDbSymbolTableRecord
100
AcDbDimStyleTableRecord
  2
DIMSTYLE_3
 70
0
  3

  4

 40
1.0
 41
3.5
 42
0.0
 43
0.38
 44
1.5
 45
0.0
 46
0.0
 47
0.2
 48
0.2
140
3.5
141
0.09
142
0.0
143
25.4
144
1.0
145
0.0
146
1.0
147
0.875
 71
0.0
 72
0.0
 73
0
 74
0
 75
0
 76
0
 77
1
 78
8
170
0
171
1
172
0
173
0
174
0
175
0
176
0
177
0
178
2
270
2
271
2
272
2
273
2
274
2
275
0
280
0
281
0
282
0
283
1
284
8
285
0
286
0
287
3
288
0
340
11
278
46
341
210
342
210
343
210
344
210
  0
ENDTAB
  0
ENDSEC
  0
SECTION
  2
BLOCKS
  0
BLOCK
  5
20
100
AcDbEntity
  8
0
100
AcDbBlockBegin
  2
*Model_Space
 70
0
 10
0.0
 20
0.0
 30
0.0
  3
*Model_Space
  1

  0
ENDBLK
  5
21
100
AcDbEntity
  8
0
100
AcDbBlockEnd
  0
BLOCK
  5
1C
100
AcDbEntity
  8
0
100
AcDbBlockBegin
  2
*Paper_Space
 70
0
 10
0.0
 20
0.0
 30
0.0
  3
*Paper_Space
  1

  0
ENDBLK
  5
1D
100
AcDbEntity
  8
0
100
AcDbBlockEnd
  0
BLOCK
  5
219
100
AcDbEntity
  8
0
100
AcDbBlockBegin
  2
_FILLED
 70
64
 10
0.0
 20
0.0
  3
_FILLED
  1

  0
SOLID
  5
21A
100
AcDbEntity
  8
0
  6
BYBLOCK
 62
0
100
AcDbTrace
 10
0.0
 20
0.0
 11
-1.0
 21
0.125
 12
-1.0
 22
-0.125
 13
-1.0
 23
-0.125
  0
ENDBLK
  5
21B
100
AcDbEntity
  8
0
  6
BYBLOCK
 62
0
100
AcDbBlockEnd
  0
BLOCK
  5
21C
100
AcDbEntity
  8
_03_2D_ZEICHNUNG_BEMASSUNGEN
100
AcDbBlockBegin
 62
7
  6
CONTINUOUS
  2
*D0
 70
65
 10
0.0
 20
0.0
  3
*D0
  1

  0
TEXT
  5
21D
100
AcDbEntity
  8
_03_2D_ZEICHNUNG_BEMASSUNGEN
100
AcDbText
 62
2
  6
CONTINUOUS
 10
95.875
 20
28.1325746029
  7
STANDARD
 40
3.5
  1
200
 41
0.7857142857
 72
1
 11
100.0
 21
28.1325746029
100
AcDbText
  0
LINE
  5
21E
100
AcDbEntity
  8
_03_2D_ZEICHNUNG_BEMASSUNGEN
100
AcDbLine
 62
7
  6
CONTINUOUS
 10
0.0
 20
-18.1066595927
 11
-0.0
 21
28.7575746029
  0
LINE
  5
21F
100
AcDbEntity
  8
_03_2D_ZEICHNUNG_BEMASSUNGEN
100
AcDbLine
 62
7
  6
CONTINUOUS
 10
200.0
 20
-18.1066595927
 11
200.0
 21
28.7575746029
  0
LINE
  5
220
100
AcDbEntity
  8
_03_2D_ZEICHNUNG_BEMASSUNGEN
100
AcDbLine
 62
7
  6
CONTINUOUS
 10
-0.0
 20
27.2575746029
 11
100.0
 21
27.2575746029
  0
LINE
  5
221
100
AcDbEntity
  8
_03_2D_ZEICHNUNG_BEMASSUNGEN
100
AcDbLine
 62
7
  6
CONTINUOUS
 10
200.0
 20
27.2575746029
 11
100.0
 21
27.2575746029
  0
INSERT
  5
222
100
AcDbEntity
  8
_03_2D_ZEICHNUNG_BEMASSUNGEN
100
AcDbBlockReference
 62
7
  6
CONTINUOUS
  2
_FILLED
 10
-0.0
 20
27.2575746029
 41
3.5
 42
3.5
 43
3.5
 50
180.0
  0
INSERT
  5
223
100
AcDbEntity
  8
_03_2D_ZEICHNUNG_BEMASSUNGEN
100
AcDbBlockReference
 62
7
  6
CONTINUOUS
  2
_FILLED
 10
200.0
 20
27.2575746029
 41
3.5
 42
3.5
 43
3.5
 50
0.0
  0
ENDBLK
  5
224
100
AcDbEntity
  8
0
  6
BYBLOCK
 62
0
100
AcDbBlockEnd
  0
BLOCK
  5
225
100
AcDbEntity
  8
_03_2D_ZEICHNUNG_BEMASSUNGEN
100
AcDbBlockBegin
 62
7
  6
CONTINUOUS
  2
*D1
 70
65
 10
0.0
 20
0.0
  3
*D1
  1

  0
TEXT
  5
226
100
AcDbEntity
  8
_03_2D_ZEICHNUNG_BEMASSUNGEN
100
AcDbText
 62
2
  6
CONTINUOUS
 10
177.25
 20
19.1325746029
  7
STANDARD
 40
3.5
  1
40
 41
0.7857142857
 72
1
 11
180.0
 21
19.1325746029
100
AcDbText
  0
LINE
  5
227
100
AcDbEntity
  8
_03_2D_ZEICHNUNG_BEMASSUNGEN
100
AcDbLine
 62
7
  6
CONTINUOUS
 10
200.0
 20
-18.1066595927
 11
200.0
 21
19.7575746029
  0
LINE
  5
228
100
AcDbEntity
  8
_03_2D_ZEICHNUNG_BEMASSUNGEN
100
AcDbLine
 62
7
  6
CONTINUOUS
 10
160.0
 20
-18.1066595927
 11
160.0
 21
19.7575746029
  0
LINE
  5
229
100
AcDbEntity
  8
_03_2D_ZEICHNUNG_BEMASSUNGEN
100
AcDbLine
 62
7
  6
CONTINUOUS
 10
200.0
 20
18.2575746029
 11
180.0
 21
18.2575746029
  0
LINE
  5
22A
100
AcDbEntity
  8
_03_2D_ZEICHNUNG_BEMASSUNGEN
100
AcDbLine
 62
7
  6
CONTINUOUS
 10
160.0
 20
18.2575746029
 11
180.0
 21
18.2575746029
  0
INSERT
  5
22B
100
AcDbEntity
  8
_03_2D_ZEICHNUNG_BEMASSUNGEN
100
AcDbBlockReference
 62
7
  6
CONTINUOUS
  2
_FILLED
 10
200.0
 20
18.2575746029
 41
3.5
 42
3.5
 43
3.5
  0
INSERT
  5
22C
100
AcDbEntity
  8
_03_2D_ZEICHNUNG_BEMASSUNGEN
100
AcDbBlockReference
 62
7
  6
CONTINUOUS
  2
_FILLED
 10
160.0
 20
18.2575746029
 41
3.5
 42
3.5
 43
3.5
 50
180.0
  0
ENDBLK
  5
22D
100
AcDbEntity
  8
0
  6
BYBLOCK
 62
0
100
AcDbBlockEnd
  0
BLOCK
  5
22E
100
AcDbEntity
  8
_03_2D_ZEICHNUNG_BEMASSUNGEN
100
AcDbBlockBegin
 62
7
  6
CONTINUOUS
  2
*D2
 70
65
 10
0.0
 20
0.0
  3
*D2
  1

  0
TEXT
  5
22F
100
AcDbEntity
  8
_03_2D_ZEICHNUNG_BEMASSUNGEN
100
AcDbText
 62
2
  6
CONTINUOUS
 10
-9.875
 20
-4.9583333333
  7
TEXTSTYLE_2
 40
3.5
  1
n
 50
90.0
 41
1.0
 72
1
 11
-9.875
 21
-2.625
100
AcDbText
  0
TEXT
  5
230
100
AcDbEntity
  8
_03_2D_ZEICHNUNG_BEMASSUNGEN
100
AcDbText
 62
2
  6
CONTINUOUS
 10
-9.875
 20
-0.2916666667
  7
STANDARD
 40
3.5
  1
25
 50
90.0
 41
0.75
 72
1
 11
-9.875
 21
2.3333333333
100
AcDbText
  0
LINE
  5
231
100
AcDbEntity
  8
_03_2D_ZEICHNUNG_BEMASSUNGEN
100
AcDbLine
 62
7
  6
CONTINUOUS
 10
0.5
 20
12.5
 11
-10.5
 21
12.5
  0
LINE
  5
232
100
AcDbEntity
  8
_03_2D_ZEICHNUNG_BEMASSUNGEN
100
AcDbLine
 62
7
  6
CONTINUOUS
 10
0.5
 20
-12.5
 11
-10.5
 21
-12.5
  0
LINE
  5
233
100
AcDbEntity
  8
_03_2D_ZEICHNUNG_BEMASSUNGEN
100
AcDbLine
 62
7
  6
CONTINUOUS
 10
-9.0
 20
12.5
 11
-9.0
 21
18.5
  0
LINE
  5
234
100
AcDbEntity
  8
_03_2D_ZEICHNUNG_BEMASSUNGEN
100
AcDbLine
 62
7
  6
CONTINUOUS
 10
-9.0
 20
18.5
 11
-9.0
 21
0.0
  0
LINE
  5
235
100
AcDbEntity
  8
_03_2D_ZEICHNUNG_BEMASSUNGEN
100
AcDbLine
 62
7
  6
CONTINUOUS
 10
-9.0
 20
-12.5
 11
-9.0
 21
-18.5
  0
LINE
  5
236
100
AcDbEntity
  8
_03_2D_ZEICHNUNG_BEMASSUNGEN
100
AcDbLine
 62
7
  6
CONTINUOUS
 10
-9.0
 20
-18.5
 11
-9.0
 21
0.0
  0
INSERT
  5
237
100
AcDbEntity
  8
_03_2D_ZEICHNUNG_BEMASSUNGEN
100
AcDbBlockReference
 62
7
  6
CONTINUOUS
  2
_FILLED
 10
-9.0
 20
12.5
 41
3.5
 42
3.5
 43
3.5
 50
270.0
  0
INSERT
  5
238
100
AcDbEntity
  8
_03_2D_ZEICHNUNG_BEMASSUNGEN
100
AcDbBlockReference
 62
7
  6
CONTINUOUS
  2
_FILLED
 10
-9.0
 20
-12.5
 41
3.5
 42
3.5
 43
3.5
 50
90.0
  0
ENDBLK
  5
239
100
AcDbEntity
  8
0
  6
BYBLOCK
 62
0
100
AcDbBlockEnd
  0
BLOCK
  5
23A
100
AcDbEntity
  8
_03_2D_ZEICHNUNG_BEMASSUNGEN
100
AcDbBlockBegin
 62
7
  6
CONTINUOUS
  2
*D3
 70
65
 10
0.0
 20
0.0
  3
*D3
  1

  0
TEXT
  5
23B
100
AcDbEntity
  8
_03_2D_ZEICHNUNG_BEMASSUNGEN
100
AcDbText
 62
2
  6
CONTINUOUS
 10
208.1648100979
 20
-10.875
  7
STANDARD
 40
3.5
  1
17
 50
90.0
 41
0.6785714286
 72
1
 11
208.1648100979
 21
-8.5
100
AcDbText
  0
LINE
  5
23C
100
AcDbEntity
  8
_03_2D_ZEICHNUNG_BEMASSUNGEN
100
AcDbLine
 62
7
  6
CONTINUOUS
 10
204.4862886018
 20
0.0
 11
210.5398100979
 21
0.0
  0
LINE
  5
23D
100
AcDbEntity
  8
_03_2D_ZEICHNUNG_BEMASSUNGEN
100
AcDbLine
 62
7
  6
CONTINUOUS
 10
200.0
 20
-17.0
 11
210.5398100979
 21
-17.0
  0
LINE
  5
23E
100
AcDbEntity
  8
_03_2D_ZEICHNUNG_BEMASSUNGEN
100
AcDbLine
 62
7
  6
CONTINUOUS
 10
209.0398100979
 20
0.0
 11
209.0398100979
 21
6.0
  0
LINE
  5
23F
100
AcDbEntity
  8
_03_2D_ZEICHNUNG_BEMASSUNGEN
100
AcDbLine
 62
7
  6
CONTINUOUS
 10
209.0398100979
 20
6.0
 11
209.0398100979
 21
-8.5
  0
LINE
  5
240
100
AcDbEntity
  8
_03_2D_ZEICHNUNG_BEMASSUNGEN
100
AcDbLine
 62
7
  6
CONTINUOUS
 10
209.0398100979
 20
-17.0
 11
209.0398100979
 21
-23.0
  0
LINE
  5
241
100
AcDbEntity
  8
_03_2D_ZEICHNUNG_BEMASSUNGEN
100
AcDbLine
 62
7
  6
CONTINUOUS
 10
209.0398100979
 20
-23.0
 11
209.0398100979
 21
-8.5
  0
INSERT
  5
242
100
AcDbEntity
  8
_03_2D_ZEICHNUNG_BEMASSUNGEN
100
AcDbBlockReference
 62
7
  6
CONTINUOUS
  2
_FILLED
 10
209.0398100979
 20
0.0
 41
3.5
 42
3.5
 43
3.5
 50
270.0
  0
INSERT
  5
243
100
AcDbEntity
  8
_03_2D_ZEICHNUNG_BEMASSUNGEN
100
AcDbBlockReference
 62
7
  6
CONTINUOUS
  2
_FILLED
 10
209.0398100979
 20
-17.0
 41
3.5
 42
3.5
 43
3.5
 50
90.0
  0
ENDBLK
  5
244
100
AcDbEntity
  8
0
  6
BYBLOCK
 62
0
100
AcDbBlockEnd
  0
ENDSEC
  0
SECTION
  2
ENTITIES
  0
DIMENSION
  5
245
100
AcDbEntity
  8
_03_2D_ZEICHNUNG_BEMASSUNGEN
100
AcDbDimension
 62
7
  6
CONTINUOUS
  2
*D0
 10
200.0
 20
27.2575746029
 11
99.5000001526
 21
27.2575746029
 70
160
 71
2
 42
200.0
  3
DIMSTYLE_1
100
AcDbAlignedDimension
 13
0.0
 23
-18.1066595927
 14
200.0
 24
-18.1066595927
100
AcDbRotatedDimension
  0
DIMENSION
  5
246
100
AcDbEntity
  8
_03_2D_ZEICHNUNG_BEMASSUNGEN
100
AcDbDimension
 62
7
  6
CONTINUOUS
  2
*D1
 10
160.0
 20
18.2575746029
 11
179.4999993896
 21
18.2575746029
 70
160
 71
2
 42
40.0
  3
DIMSTYLE_2
100
AcDbAlignedDimension
 13
200.0
 23
-18.1066595927
 14
160.0
 24
-18.1066595927
 50
180.0
100
AcDbRotatedDimension
  0
DIMENSION
  5
247
100
AcDbEntity
  8
_03_2D_ZEICHNUNG_BEMASSUNGEN
100
AcDbDimension
 62
7
  6
CONTINUOUS
  2
*D2
 10
-9.0
 20
-12.5
 11
-9.0
 21
-0.0
 70
160
 71
2
 42
25.0
  1
%%c<>
  3
DIMSTYLE_3
100
AcDbAlignedDimension
 13
0.5
 23
12.5
 14
0.5
 24
-12.5
 50
270.0
100
AcDbRotatedDimension
  0
DIMENSION
  5
248
100
AcDbEntity
  8
_03_2D_ZEICHNUNG_BEMASSUNGEN
100
AcDbDimension
 62
7
  6
CONTINUOUS
  2
*D3
 10
209.0398100979
 20
-17.0
 11
209.0398100979
 21
-8.9999993068
 70
160
 71
2
 42
17.0
  3
DIMSTYLE_3
100
AcDbAlignedDimension
 13
204.4862886018
 23
0.0
 14
200.0
 24
-17.0
 50
270.0
100
AcDbRotatedDimension
  0
LINE
  5
249
100
AcDbEntity
  8
0
100
AcDbLine
 62
4
  6
CONTINUOUS
 10
0.0
 20
-11.9999895247
 11
-0.0
 21
11.9999871444
  0
LINE
  5
24A
100
AcDbEntity
  8
0
100
AcDbLine
 62
4
  6
CONTINUOUS
 10
0.5
 20
-12.5
 11
0.5
 21
-6.7823299831
  0
LINE
  5
24B
100
AcDbEntity
  8
0
100
AcDbLine
 62
4
  6
CONTINUOUS
 10
0.5
 20
6.7823299831
 11
0.5
 21
12.5
  0
LINE
  5
24C
100
AcDbEntity
  8
_30_VOLUMEN
100
AcDbLine
 62
4
  6
CONTINUOUS
 10
-0.0
 20
12.0
 11
0.5
 21
12.5
  0
LINE
  5
24D
100
AcDbEntity
  8
_30_VOLUMEN
100
AcDbLine
 62
4
  6
CONTINUOUS
 10
0.0
 20
-12.0
 11
0.5
 21
-12.5
  0
LINE
  5
24E
100
AcDbEntity
  8
_21_KURVEN
100
AcDbLine
 62
7
  6
CONTINUOUS
 10
200.0
 20
-17.0
 11
182.0
 21
-17.0
  0
LINE
  5
24F
100
AcDbEntity
  8
_30_VOLUMEN
100
AcDbLine
 62
4
  6
CONTINUOUS
 10
184.5137457861
 20
-15.84
 11
190.1688561175
 21
-15.84
  0
LINE
  5
250
100
AcDbEntity
  8
_30_VOLUMEN
100
AcDbLine
 62
4
  6
CONTINUOUS
 10
0.5
 20
-12.5
 11
160.0
 21
-12.5
  0
LINE
  5
251
100
AcDbEntity
  8
_30_VOLUMEN
100
AcDbLine
 62
4
  6
CONTINUOUS
 10
160.0
 20
-12.25
 11
182.0
 21
-12.25
  0
LINE
  5
252
100
AcDbEntity
  8
_30_VOLUMEN
100
AcDbLine
 62
4
  6
CONTINUOUS
 10
199.5674741537
 20
-16.9989530499
 11
191.4669967716
 21
-16.4106971387
  0
LINE
  5
253
100
AcDbEntity
  8
_21_KURVEN
100
AcDbLine
 62
7
  6
CONTINUOUS
 10
200.0398100979
 20
-17.0332540421
 11
191.4320543256
 21
-16.4081596215
  0
LINE
  5
254
100
AcDbEntity
  8
0
100
AcDbLine
 62
4
  6
CONTINUOUS
 10
0.5
 20
-6.7823299831
 11
160.0
 21
-6.7823299831
  0
LINE
  5
255
100
AcDbEntity
  8
0
100
AcDbLine
 62
4
  6
CONTINUOUS
 10
160.0
 20
-6.3097147321
 11
168.2853817897
 21
-6.3097147321
  0
LINE
  5
256
100
AcDbEntity
  8
_26_BEZUGSACHSEN
100
AcDbLine
 62
7
  6
CENTER
 10
-3.0
 20
0.0
 11
204.4862886018
 21
0.0
  0
LINE
  5
257
100
AcDbEntity
  8
0
100
AcDbLine
 62
4
  6
CONTINUOUS
 10
160.0
 20
6.3097147321
 11
173.3271526556
 21
6.3097147321
  0
LINE
  5
258
100
AcDbEntity
  8
0
100
AcDbLine
 62
4
  6
CONTINUOUS
 10
0.5
 20
6.7823299831
 11
160.0
 21
6.7823299831
  0
LINE
  5
259
100
AcDbEntity
  8
_30_VOLUMEN
100
AcDbLine
 62
4
  6
CONTINUOUS
 10
160.0
 20
12.25
 11
182.0
 21
12.25
  0
LINE
  5
25A
100
AcDbEntity
  8
_30_VOLUMEN
100
AcDbLine
 62
4
  6
CONTINUOUS
 10
0.5
 20
12.5
 11
160.0
 21
12.5
  0
LINE
  5
25B
100
AcDbEntity
  8
0
100
AcDbLine
 62
4
  6
CONTINUOUS
 10
182.9027993698
 20
13.2578414503
 11
187.9976777487
 21
13.2578414503
  0
LINE
  5
25C
100
AcDbEntity
  8
_21_KURVEN
100
AcDbLine
 62
7
  6
CONTINUOUS
 10
191.4320543256
 20
-16.4081596215
 11
183.6009786331
 21
-12.8859087404
  0
LINE
  5
25D
100
AcDbEntity
  8
_30_VOLUMEN
100
AcDbLine
 62
4
  6
CONTINUOUS
 10
183.6009786331
 20
-12.8859087404
 11
191.4002647458
 21
-16.3938613463
  0
LINE
  5
25E
100
AcDbEntity
  8
_30_VOLUMEN
100
AcDbLine
 62
4
  6
CONTINUOUS
 10
194.7538801214
 20
-0.3477575108
 11
194.4887645434
 21
-0.5364201499
  0
LINE
  5
25F
100
AcDbEntity
  8
_21_KURVEN
100
AcDbLine
 62
7
  6
CONTINUOUS
 10
195.6350384824
 20
-0.7302723915
 11
188.5570438383
 21
-5.7671440792
  0
LINE
  5
260
100
AcDbEntity
  8
_30_VOLUMEN
100
AcDbLine
 62
4
  6
CONTINUOUS
 10
188.5570438383
 20
-5.7671440792
 11
195.2466455758
 21
-1.0066621506
  0
LINE
  5
261
100
AcDbEntity
  8
0
100
AcDbLine
 62
4
  6
CONTINUOUS
 10
160.0
 20
12.4999440729
 11
160.0
 21
6.3097147321
  0
LINE
  5
262
100
AcDbEntity
  8
0
100
AcDbLine
 62
4
  6
CONTINUOUS
 10
160.0
 20
-6.3097147321
 11
160.0
 21
-12.4999425849
  0
LINE
  5
263
100
AcDbEntity
  8
_30_VOLUMEN
100
AcDbLine
 62
4
  6
CONTINUOUS
 10
182.0
 20
12.25
 11
182.5569112859
 21
13.0453517429
  0
LINE
  5
264
100
AcDbEntity
  8
_30_VOLUMEN
100
AcDbLine
 62
4
  6
CONTINUOUS
 10
183.8785051853
 20
-12.957315774
 11
183.7090320349
 21
-12.7307036116
  0
LINE
  5
265
100
AcDbEntity
  8
_30_VOLUMEN
100
AcDbLine
 62
4
  6
CONTINUOUS
 10
182.0
 20
-12.25
 11
184.5137450622
 21
-15.84
  0
LINE
  5
266
100
AcDbEntity
  8
_21_KURVEN
100
AcDbLine
 62
7
  6
CONTINUOUS
 10
188.5570438383
 20
-5.7671440792
 11
183.6009786331
 21
-12.8859087404
  0
LINE
  5
267
100
AcDbEntity
  8
_30_VOLUMEN
100
AcDbLine
 62
4
  6
CONTINUOUS
 10
188.5570438383
 20
-5.7671440792
 11
183.6009786331
 21
-12.8859087404
  0
LINE
  5
268
100
AcDbEntity
  8
_30_VOLUMEN
100
AcDbLine
 62
7
  6
CONTINUOUS
 10
188.5369251169
 20
-5.7960420935
 11
188.5302814541
 21
-5.7871584752
  0
LINE
  5
269
100
AcDbEntity
  8
_21_KURVEN
100
AcDbLine
 62
7
  6
CONTINUOUS
 10
193.7354033712
 20
-12.6470084662
 11
193.2840467785
 21
-12.0434739643
  0
LINE
  5
26A
100
AcDbEntity
  8
_21_KURVEN
100
AcDbLine
 62
7
  6
CONTINUOUS
 10
193.0919424044
 20
-10.2164783913
 11
192.59917695
 21
-9.5575737516
  0
LINE
  5
26B
100
AcDbEntity
  8
_30_VOLUMEN
100
AcDbLine
 62
7
  6
CONTINUOUS
 10
195.2466455758
 20
-1.0066621506
 11
194.7538801214
 21
-0.3477575108
  0
LINE
  5
26C
100
AcDbEntity
  8
_30_VOLUMEN
100
AcDbLine
 62
4
  6
CONTINUOUS
 10
195.7951728871
 20
-1.0882685486
 11
195.3024074327
 21
-0.4293639088
  0
LINE
  5
26D
100
AcDbEntity
  8
_30_VOLUMEN
100
AcDbLine
 62
4
  6
CONTINUOUS
 10
195.8354187856
 20
-1.1552034755
 11
195.7940923807
 21
-1.0890725016
  0
LINE
  5
26E
100
AcDbEntity
  8
0
100
AcDbLine
 62
4
  6
CONTINUOUS
 10
182.0
 20
12.25
 11
182.0
 21
10.4372014751
  0
LINE
  5
26F
100
AcDbEntity
  8
0
100
AcDbLine
 62
4
  6
CONTINUOUS
 10
182.0
 20
-12.0237316181
 11
182.0
 21
-12.25
  0
LINE
  5
270
100
AcDbEntity
  8
_30_VOLUMEN
100
AcDbLine
 62
7
  6
CONTINUOUS
 10
182.2440625878
 20
-12.3935334577
 11
188.9479900086
 21
11.2383250997
  0
LINE
  5
271
100
AcDbEntity
  8
_21_KURVEN
100
AcDbLine
 62
7
  6
CONTINUOUS
 10
199.2867290494
 20
-8.4741314733
 11
195.6350384824
 21
-0.7302723915
  0
LINE
  5
272
100
AcDbEntity
  8
_30_VOLUMEN
100
AcDbLine
 62
4
  6
CONTINUOUS
 10
195.8354187856
 20
-1.1552034755
 11
199.2719053249
 21
-8.4426959419
  0
LINE
  5
273
100
AcDbEntity
  8
0
100
AcDbLine
 62
4
  6
CONTINUOUS
 10
187.9976775355
 20
13.2578419034
 11
188.9479900086
 21
11.2383250997
  0
LINE
  5
274
100
AcDbEntity
  8
_30_VOLUMEN
100
AcDbLine
 62
4
  6
CONTINUOUS
 10
188.9479900086
 20
11.2383250997
 11
194.8446558712
 21
-1.2927277192
  0
LINE
  5
275
100
AcDbEntity
  8
_21_KURVEN
100
AcDbLine
 62
7
  6
CONTINUOUS
 10
193.7354033712
 20
-12.6470084662
 11
193.8452836325
 21
-13.0047519479
  0
LINE
  5
276
100
AcDbEntity
  8
_21_KURVEN
100
AcDbLine
 62
7
  6
CONTINUOUS
 10
192.59917695
 20
-9.5575737516
 11
193.2717220389
 21
-12.0468038866
  0
LINE
  5
277
100
AcDbEntity
  8
_21_KURVEN
100
AcDbLine
 62
7
  6
CONTINUOUS
 10
193.8452836325
 20
-13.0047519479
 11
193.0919424044
 21
-10.2164783913
  0
LINE
  5
278
100
AcDbEntity
  8
_30_VOLUMEN
100
AcDbLine
 62
4
  6
CONTINUOUS
 10
199.2897861173
 20
-8.5088764969
 11
199.9984860574
 21
-16.5635867622
  0
LINE
  5
279
100
AcDbEntity
  8
_21_KURVEN
100
AcDbLine
 62
7
  6
CONTINUOUS
 10
199.2867290494
 20
-8.4741314733
 11
200.0398100979
 21
-17.0332540421
  0
LINE
  5
27A
100
AcDbEntity
  8
_21_KURVEN
100
AcDbLine
 62
7
  6
CONTINUOUS
 10
200.0
 20
-17.0
 11
200.0
 21
0.0
  0
ARC
  5
27B
100
AcDbEntity
  8
_30_VOLUMEN
100
AcDbCircle
 62
4
  6
CONTINUOUS
 10
430.8205729527
 20
152.5507166114
 40
298.3234605861
100
AcDbArc
 50
213.566472069
 51
214.3645815175
  0
ARC
  5
27C
100
AcDbEntity
  8
_26_BEZUGSACHSEN
100
AcDbCircle
 62
4
  6
CONTINUOUS
 10
291.0547646517
 20
59.6850195628
 40
130.5185300606
100
AcDbArc
 50
213.3268430627
 51
213.5213490084
  0
ARC
  5
27D
100
AcDbEntity
  8
0
100
AcDbCircle
 62
4
  6
CONTINUOUS
 10
270.9955297546
 20
-42.3518589619
 40
103.4740992623
100
AcDbArc
 50
149.1355838419
 51
149.3250525028
  0
ARC
  5
27E
100
AcDbEntity
  8
0
100
AcDbCircle
 62
4
  6
CONTINUOUS
 10
21.2755342886
 20
4.510196594
 40
23.6462255227
100
AcDbArc
 50
205.875647103
 51
208.5262595076
  0
ARC
  5
27F
100
AcDbEntity
  8
0
100
AcDbCircle
 62
4
  6
CONTINUOUS
 10
21.2755342886
 20
-4.510196594
 40
23.6462255227
100
AcDbArc
 50
151.4737404924
 51
154.124352897
  0
ARC
  5
280
100
AcDbEntity
  8
_30_VOLUMEN
100
AcDbCircle
 62
4
  6
CONTINUOUS
 10
192.5755954123
 20
-9.6116257547
 40
2.5290911667
100
AcDbArc
 50
224.6582455554
 51
233.4219227491
  0
ARC
  5
281
100
AcDbEntity
  8
_30_VOLUMEN
100
AcDbCircle
 62
4
  6
CONTINUOUS
 10
192.6636064125
 20
-9.5481800316
 40
2.5229412645
100
AcDbArc
 50
20.0519651351
 51
27.2395626191
  0
ARC
  5
282
100
AcDbEntity
  8
_30_VOLUMEN
100
AcDbCircle
 62
4
  6
CONTINUOUS
 10
188.7035245902
 20
-5.9121514833
 40
0.2030756623
100
AcDbArc
 50
125.4381983541
 51
145.1070259785
  0
ARC
  5
283
100
AcDbEntity
  8
_30_VOLUMEN
100
AcDbCircle
 62
4
  6
CONTINUOUS
 10
191.4807977004
 20
-16.2147910191
 40
0.1963459673
100
AcDbArc
 50
245.7852121912
 51
265.8208899238
  0
ARC
  5
284
100
AcDbEntity
  8
_30_VOLUMEN
100
AcDbCircle
 62
4
  6
CONTINUOUS
 10
199.0944414227
 20
-8.526168424
 40
0.1961149965
100
AcDbArc
 50
5.0292494098
 51
25.1905649985
  0
SPLINE
  5
285
100
AcDbEntity
  8
_30_VOLUMEN
100
AcDbSpline
 62
4
  6
CONTINUOUS
 70
0
 71
3
 72
9
 73
5
 74
0
 42
0.0000001
 43
0.0000001
 44
0.0000000001
 40
0.0
 40
0.0
 40
0.0
 40
0.0
 40
0.4985388199
 40
1.0
 40
1.0
 40
1.0
 40
1.0
 10
199.5674741537
 20
-16.9989530499
 30
0.0
 10
199.6247571755
 20
-17.0031129376
 30
0.0
 10
199.7427322152
 20
-16.9856717396
 30
0.0
 10
199.8428766368
 20
-16.9209682866
 30
0.0
 10
199.8835207519
 20
-16.8799135562
 30
0.0
  0
SPLINE
  5
286
100
AcDbEntity
  8
_30_VOLUMEN
100
AcDbSpline
 62
4
  6
CONTINUOUS
 70
0
 71
3
 72
9
 73
5
 74
0
 42
0.0000001
 43
0.0000001
 44
0.0000000001
 40
0.0
 40
0.0
 40
0.0
 40
0.0
 40
0.5020698272
 40
1.0
 40
1.0
 40
1.0
 40
1.0
 10
199.8835207519
 20
-16.8799135562
 30
0.0
 10
199.9240880901
 20
-16.8389363783
 30
0.0
 10
199.9876375436
 20
-16.7384571098
 30
0.0
 10
200.0034982467
 20
-16.6205526667
 30
0.0
 10
199.9984860574
 20
-16.5635867622
 30
0.0
  0
SPLINE
  5
287
100
AcDbEntity
  8
_30_VOLUMEN
100
AcDbSpline
 62
4
  6
CONTINUOUS
 70
0
 71
3
 72
11
 73
7
 74
0
 42
0.0000001
 43
0.0000001
 44
0.0000000001
 40
0.0
 40
0.0
 40
0.0
 40
0.0
 40
0.2510051455
 40
0.502027258
 40
0.7511122759
 40
1.0
 40
1.0
 40
1.0
 40
1.0
 10
194.7538801214
 20
-0.3477575108
 30
0.0
 10
194.795467285
 20
-0.3181630823
 30
0.0
 10
194.8910881285
 20
-0.2748696491
 30
0.0
 10
195.0472353548
 20
-0.2669405947
 30
0.0
 10
195.1945776791
 20
-0.3189538971
 30
0.0
 10
195.2717860218
 20
-0.3890566211
 30
0.0
 10
195.302222999
 20
-0.4294935151
 30
0.0
  0
SPLINE
  5
288
100
AcDbEntity
  8
_30_VOLUMEN
100
AcDbSpline
 62
4
  6
CONTINUOUS
 70
0
 71
3
 72
11
 73
7
 74
0
 42
0.0000001
 43
0.0000001
 44
0.0000000001
 40
0.0
 40
0.0
 40
0.0
 40
0.0
 40
0.2508411355
 40
0.5016918757
 40
0.7512561725
 40
1.0
 40
1.0
 40
1.0
 40
1.0
 10
193.2840467785
 20
-12.0434739643
 30
0.0
 10
193.0967864444
 20
-12.0961428429
 30
0.0
 10
192.7089152703
 20
-12.158897856
 30
0.0
 10
192.1226509457
 20
-12.1217755981
 30
0.0
 10
191.5616816293
 20
-11.9524996211
 30
0.0
 10
191.2233780833
 20
-11.7575461594
 30
0.0
 10
191.0684653375
 20
-11.6426011527
 30
0.0
  0
SPLINE
  5
289
100
AcDbEntity
  8
_30_VOLUMEN
100
AcDbSpline
 62
4
  6
CONTINUOUS
 70
0
 71
3
 72
11
 73
7
 74
0
 42
0.0000001
 43
0.0000001
 44
0.0000000001
 40
0.0
 40
0.0
 40
0.0
 40
0.0
 40
0.2510855711
 40
0.5020040566
 40
0.7517569455
 40
1.0
 40
1.0
 40
1.0
 40
1.0
 10
193.2840467785
 20
-12.0434739643
 30
0.0
 10
193.6240896555
 20
-11.9478334374
 30
0.0
 10
194.2719632966
 20
-11.6124869924
 30
0.0
 10
194.9584191917
 20
-10.7705058126
 30
0.0
 10
195.2545099993
 20
-9.7289937249
 30
0.0
 10
195.1533238574
 20
-9.0112129953
 30
0.0
 10
195.0336121113
 20
-8.6831334365
 30
0.0
  0
SPLINE
  5
28A
100
AcDbEntity
  8
_30_VOLUMEN
100
AcDbSpline
 62
4
  6
CONTINUOUS
 70
0
 71
3
 72
8
 73
4
 74
0
 42
0.0000001
 43
0.0000001
 44
0.0000000001
 40
0.0
 40
0.0
 40
0.0
 40
0.0
 40
1.0
 40
1.0
 40
1.0
 40
1.0
 10
183.8785985642
 20
-12.9572449279
 30
0.0
 10
183.917723033
 20
-13.0091279957
 30
0.0
 10
183.9714327758
 20
-13.0525311154
 30
0.0
 10
184.0306955801
 20
-13.0791862613
 30
0.0
  0
SPLINE
  5
28B
100
AcDbEntity
  8
_30_VOLUMEN
100
AcDbSpline
 62
4
  6
CONTINUOUS
 70
0
 71
3
 72
15
 73
11
 74
0
 42
0.0000001
 43
0.0000001
 44
0.0000000001
 40
0.0
 40
0.0
 40
0.0
 40
0.0
 40
0.1239189656
 40
0.2480374807
 40
0.3725494173
 40
0.4975136825
 40
0.6228696654
 40
0.7485258513
 40
0.87449819
 40
1.0
 40
1.0
 40
1.0
 40
1.0
 10
191.005114056
 20
-11.7339554443
 30
0.0
 10
190.8821449197
 20
-11.5694787077
 30
0.0
 10
190.6759474335
 20
-11.2081745223
 30
0.0
 10
190.5084241502
 20
-10.6077766741
 30
0.0
 10
190.4911667091
 20
-9.9825823207
 30
0.0
 10
190.6262896271
 20
-9.3700240947
 30
0.0
 10
190.9039110348
 20
-8.8055440862
 30
0.0
 10
191.3092581063
 20
-8.3220595989
 30
0.0
 10
191.8179518126
 20
-7.9492714992
 30
0.0
 10
192.2068549446
 20
-7.7868914293
 30
0.0
 10
192.407072576
 20
-7.7305781787
 30
0.0
  0
SPLINE
  5
28C
100
AcDbEntity
  8
_30_VOLUMEN
100
AcDbSpline
 62
4
  6
CONTINUOUS
 70
0
 71
3
 72
11
 73
7
 74
0
 42
0.0000001
 43
0.0000001
 44
0.0000000001
 40
0.0
 40
0.0
 40
0.0
 40
0.0
 40
0.2487492417
 40
0.498022436
 40
0.7486519688
 40
1.0
 40
1.0
 40
1.0
 40
1.0
 10
195.1373618912
 20
-8.6436312006
 30
0.0
 10
194.9859958614
 20
-8.4411723451
 30
0.0
 10
194.6182837642
 20
-8.0801512025
 30
0.0
 10
193.9310454306
 20
-7.7282605837
 30
0.0
 10
193.1677870553
 20
-7.5961213894
 30
0.0
 10
192.6529598933
 20
-7.6614198631
 30
0.0
 10
192.407072576
 20
-7.7305781787
 30
0.0
  0
SPLINE
  5
28D
100
AcDbEntity
  8
_30_VOLUMEN
100
AcDbSpline
 62
4
  6
CONTINUOUS
 70
0
 71
3
 72
15
 73
11
 74
0
 42
0.0000001
 43
0.0000001
 44
0.0000000001
 40
0.0
 40
0.0
 40
0.0
 40
0.0
 40
0.12550181
 40
0.2514741487
 40
0.3771303346
 40
0.5024863175
 40
0.6274505827
 40
0.7519625193
 40
0.8760810344
 40
1.0
 40
1.0
 40
1.0
 40
1.0
 10
193.7354033712
 20
-12.6470084662
 30
0.0
 10
193.9356210025
 20
-12.5906952156
 30
0.0
 10
194.3245241346
 20
-12.4283151457
 30
0.0
 10
194.8332178408
 20
-12.055527046
 30
0.0
 10
195.2385649124
 20
-11.5720425587
 30
0.0
 10
195.5161863201
 20
-11.0075625501
 30
0.0
 10
195.6513092381
 20
-10.3950043242
 30
0.0
 10
195.6340517969
 20
-9.7698099707
 30
0.0
 10
195.4665285137
 20
-9.1694121226
 30
0.0
 10
195.2603310275
 20
-8.8081079372
 30
0.0
 10
195.1373618912
 20
-8.6436312006
 30
0.0
  0
SPLINE
  5
28E
100
AcDbEntity
  8
_30_VOLUMEN
100
AcDbSpline
 62
4
  6
CONTINUOUS
 70
0
 71
3
 72
11
 73
7
 74
0
 42
0.0000001
 43
0.0000001
 44
0.0000000001
 40
0.0
 40
0.0
 40
0.0
 40
0.0
 40
0.2488877241
 40
0.497972742
 40
0.7489948545
 40
1.0
 40
1.0
 40
1.0
 40
1.0
 10
195.7949884534
 20
-1.0883981549
 30
0.0
 10
195.7645514762
 20
-1.0479612609
 30
0.0
 10
195.6873431335
 20
-0.9778585369
 30
0.0
 10
195.5400008092
 20
-0.9258452344
 30
0.0
 10
195.3838535829
 20
-0.9337742889
 30
0.0
 10
195.2882327394
 20
-0.9770677221
 30
0.0
 10
195.2466455758
 20
-1.0066621506
 30
0.0
  0
SPLINE
  5
28F
100
AcDbEntity
  8
_30_VOLUMEN
100
AcDbSpline
 62
4
  6
CONTINUOUS
 70
0
 71
3
 72
9
 73
5
 74
0
 42
0.0000001
 43
0.0000001
 44
0.0000000001
 40
0.0
 40
0.0
 40
0.0
 40
0.0
 40
0.5020956049
 40
1.0
 40
1.0
 40
1.0
 40
1.0
 10
183.872934274
 20
-12.4952786486
 30
0.0
 10
183.8264955915
 20
-12.5619819785
 30
0.0
 10
183.7736528867
 20
-12.7276728336
 30
0.0
 10
183.8300714198
 20
-12.8928929456
 30
0.0
 10
183.8785985642
 20
-12.9572449279
 30
0.0
  0
SPLINE
  5
290
100
AcDbEntity
  8
_30_VOLUMEN
100
AcDbSpline
 62
4
  6
CONTINUOUS
 70
0
 71
3
 72
15
 73
11
 74
0
 42
0.0000001
 43
0.0000001
 44
0.0000000001
 40
0.0
 40
0.0
 40
0.0
 40
0.0
 40
0.1254135612
 40
0.2500694057
 40
0.3742111485
 40
0.4983186152
 40
0.622921006
 40
0.748254259
 40
0.8740964483
 40
1.0
 40
1.0
 40
1.0
 40
1.0
 10
193.8452836325
 20
-13.0047519479
 30
0.0
 10
193.4804467752
 20
-13.1073660346
 30
0.0
 10
192.7045380569
 20
-13.1708302682
 30
0.0
 10
191.601253563
 20
-12.8143041061
 30
0.0
 10
190.7224840749
 20
-12.061146207
 30
0.0
 10
190.2066353733
 20
-11.0254986779
 30
0.0
 10
190.1314567092
 20
-9.8677786859
 30
0.0
 10
190.507440996
 20
-8.7651306679
 30
0.0
 10
191.2730128362
 20
-7.88421525
 30
0.0
 10
191.9723389023
 20
-7.5312198345
 30
0.0
 10
192.3386011763
 20
-7.4282048348
 30
0.0
  0
SPLINE
  5
291
100
AcDbEntity
  8
_30_VOLUMEN
100
AcDbSpline
 62
4
  6
CONTINUOUS
 70
0
 71
3
 72
11
 73
7
 74
0
 42
0.0000001
 43
0.0000001
 44
0.0000000001
 40
0.0
 40
0.0
 40
0.0
 40
0.0
 40
0.2513480312
 40
0.501977564
 40
0.7512507583
 40
1.0
 40
1.0
 40
1.0
 40
1.0
 10
193.7354033712
 20
-12.6470084662
 30
0.0
 10
193.4895160539
 20
-12.7161667818
 30
0.0
 10
192.9746888918
 20
-12.7814652555
 30
0.0
 10
192.2114305166
 20
-12.6493260612
 30
0.0
 10
191.524192183
 20
-12.2974354424
 30
0.0
 10
191.1564800857
 20
-11.9364142998
 30
0.0
 10
191.005114056
 20
-11.7339554443
 30
0.0
  0
SPLINE
  5
292
100
AcDbEntity
  8
_30_VOLUMEN
100
AcDbSpline
 62
4
  6
CONTINUOUS
 70
0
 71
3
 72
15
 73
11
 74
0
 42
0.0000001
 43
0.0000001
 44
0.0000000001
 40
0.0
 40
0.0
 40
0.0
 40
0.0
 40
0.1254135612
 40
0.2500694057
 40
0.3742111485
 40
0.4983186152
 40
0.622921006
 40
0.748254259
 40
0.8740964483
 40
1.0
 40
1.0
 40
1.0
 40
1.0
 10
192.3386011763
 20
-7.4282048348
 30
0.0
 10
192.7034380337
 20
-7.3255907481
 30
0.0
 10
193.4793467519
 20
-7.2621265145
 30
0.0
 10
194.5826312458
 20
-7.6186526766
 30
0.0
 10
195.461400734
 20
-8.3718105757
 30
0.0
 10
195.9772494355
 20
-9.4074581048
 30
0.0
 10
196.0524280996
 20
-10.5651780968
 30
0.0
 10
195.6764438129
 20
-11.6678261148
 30
0.0
 10
194.9108719726
 20
-12.5487415327
 30
0.0
 10
194.2115459066
 20
-12.9017369482
 30
0.0
 10
193.8452836325
 20
-13.0047519479
 30
0.0
  0
SPLINE
  5
293
100
AcDbEntity
  8
_21_KURVEN
100
AcDbSpline
 62
5
  6
CONTINUOUS
 70
0
 71
3
 72
9
 73
5
 74
0
 42
0.0000001
 43
0.0000001
 44
0.0000000001
 40
0.0
 40
0.0
 40
0.0
 40
0.0
 40
0.5
 40
1.0
 40
1.0
 40
1.0
 40
1.0
 10
183.872934274
 20
-12.4952786486
 30
0.0
 10
183.8488656782
 20
-12.5344268753
 30
0.0
 10
183.8047810779
 20
-12.6161736924
 30
0.0
 10
183.8011800748
 20
-12.7110737749
 30
0.0
 10
183.8024977014
 20
-12.7580197289
 30
0.0
  0
SPLINE
  5
294
100
AcDbEntity
  8
_21_KURVEN
100
AcDbSpline
 62
5
  6
CONTINUOUS
 70
0
 71
3
 72
11
 73
7
 74
0
 42
0.0000001
 43
0.0000001
 44
0.0000000001
 40
0.0
 40
0.0
 40
0.0
 40
0.0
 40
0.25
 40
0.5
 40
0.75
 40
1.0
 40
1.0
 40
1.0
 40
1.0
 10
183.8024977021
 20
-12.7580197369
 30
0.0
 10
183.8081641979
 20
-12.7905993934
 30
0.0
 10
183.8209290517
 20
-12.8555512384
 30
0.0
 10
183.8638346436
 20
-12.945365741
 30
0.0
 10
183.9330927755
 20
-13.0203697459
 30
0.0
 10
183.9893633347
 20
-13.0558447102
 30
0.0
 10
184.0182141042
 20
-13.0733061166
 30
0.0
  0
LINE
  5
295
100
AcDbEntity
  8
_21_KURVEN
100
AcDbLine
 62
5
  6
CONTINUOUS
 10
184.0182141083
 20
-13.0733061187
 11
184.03069558
 21
-13.0791862612
  0
SPLINE
  5
296
100
AcDbEntity
  8
_21_KURVEN
100
AcDbSpline
 62
5
  6
CONTINUOUS
 70
0
 71
3
 72
8
 73
4
 74
0
 42
0.0000001
 43
0.0000001
 44
0.0000000001
 40
0.0
 40
0.0
 40
0.0
 40
0.0
 40
1.0
 40
1.0
 40
1.0
 40
1.0
 10
188.5857763502
 20
-5.7466973308
 30
0.0
 10
188.5679399167
 20
-5.7601441474
 30
0.0
 10
188.551032345
 20
-5.7769943942
 30
0.0
 10
188.536925118
 20
-5.7960420918
 30
0.0
  0
SPLINE
  5
297
100
AcDbEntity
  8
_21_KURVEN
100
AcDbSpline
 62
5
  6
CONTINUOUS
 70
0
 71
3
 72
9
 73
5
 74
0
 42
0.0000001
 43
0.0000001
 44
0.0000000001
 40
0.0
 40
0.0
 40
0.0
 40
0.0
 40
0.5
 40
1.0
 40
1.0
 40
1.0
 40
1.0
 10
195.8354187856
 20
-1.1552034755
 30
0.0
 10
195.8193924048
 20
-1.1247841571
 30
0.0
 10
195.7842450567
 20
-1.0648659329
 30
0.0
 10
195.7305770566
 20
-1.0206885496
 30
0.0
 10
195.7030413271
 20
-1.0000511057
 30
0.0
  0
SPLINE
  5
298
100
AcDbEntity
  8
_21_KURVEN
100
AcDbSpline
 62
5
  6
CONTINUOUS
 70
0
 71
3
 72
8
 73
4
 74
0
 42
0.0000001
 43
0.0000001
 44
0.0000000001
 40
0.0
 40
0.0
 40
0.0
 40
0.0
 40
1.0
 40
1.0
 40
1.0
 40
1.0
 10
195.7030413319
 20
-1.0000511089
 30
0.0
 10
195.6730038773
 20
-0.9805415143
 30
0.0
 10
195.6408139079
 20
-0.9643913866
 30
0.0
 10
195.6043710246
 20
-0.9514256845
 30
0.0
  0
SPLINE
  5
299
100
AcDbEntity
  8
_21_KURVEN
100
AcDbSpline
 62
5
  6
CONTINUOUS
 70
0
 71
3
 72
11
 73
7
 74
0
 42
0.0000001
 43
0.0000001
 44
0.0000000001
 40
0.0
 40
0.0
 40
0.0
 40
0.0
 40
0.25
 40
0.5
 40
0.75
 40
1.0
 40
1.0
 40
1.0
 40
1.0
 10
195.6043710238
 20
-0.9514256842
 30
0.0
 10
195.5741502772
 20
-0.9440820781
 30
0.0
 10
195.5134438044
 20
-0.9305767474
 30
0.0
 10
195.4188705865
 20
-0.9321172775
 30
0.0
 10
195.3279137456
 20
-0.9592244842
 30
0.0
 10
195.2735413418
 20
-0.9904991733
 30
0.0
 10
195.2466455673
 20
-1.0066621567
 30
0.0
  0
SPLINE
  5
29A
100
AcDbEntity
  8
_21_KURVEN
100
AcDbSpline
 62
5
  6
CONTINUOUS
 70
0
 71
3
 72
8
 73
4
 74
0
 42
0.0000001
 43
0.0000001
 44
0.0000000001
 40
0.0
 40
0.0
 40
0.0
 40
0.0
 40
1.0
 40
1.0
 40
1.0
 40
1.0
 10
199.2897861173
 20
-8.5088764969
 30
0.0
 10
199.2891205913
 20
-8.5020046771
 30
0.0
 10
199.2880448281
 20
-8.4942129073
 30
0.0
 10
199.2862521631
 20
-8.4852750603
 30
0.0
  0
LINE
  5
29B
100
AcDbEntity
  8
_21_KURVEN
100
AcDbLine
 62
5
  6
CONTINUOUS
 10
199.286252163
 20
-8.4852750599
 11
199.2833643971
 21
-8.4735054496
  0
SPLINE
  5
29C
100
AcDbEntity
  8
_21_KURVEN
100
AcDbSpline
 62
5
  6
CONTINUOUS
 70
0
 71
3
 72
8
 73
4
 74
0
 42
0.0000001
 43
0.0000001
 44
0.0000000001
 40
0.0
 40
0.0
 40
0.0
 40
0.0
 40
1.0
 40
1.0
 40
1.0
 40
1.0
 10
199.2833643971
 20
-8.4735054498
 30
0.0
 10
199.2806621779
 20
-8.464247553
 30
0.0
 10
199.2769009654
 20
-8.453732284
 30
0.0
 10
199.2719053247
 20
-8.4426959416
 30
0.0
  0
SPLINE
  5
29D
100
AcDbEntity
  8
_21_KURVEN
100
AcDbSpline
 62
5
  6
CONTINUOUS
 70
0
 71
3
 72
9
 73
5
 74
0
 42
0.0000001
 43
0.0000001
 44
0.0000000001
 40
0.0
 40
0.0
 40
0.0
 40
0.0
 40
0.5
 40
1.0
 40
1.0
 40
1.0
 40
1.0
 10
199.5674741537
 20
-16.9989530499
 30
0.0
 10
199.6049266412
 20
-16.9999081932
 30
0.0
 10
199.6843123258
 20
-16.9978004564
 30
0.0
 10
199.7550413651
 20
-16.9673263972
 30
0.0
 10
199.7906394802
 20
-16.9499515015
 30
0.0
  0
SPLINE
  5
29E
100
AcDbEntity
  8
_21_KURVEN
100
AcDbSpline
 62
5
  6
CONTINUOUS
 70
0
 71
3
 72
9
 73
5
 74
0
 42
0.0000001
 43
0.0000001
 44
0.0000000001
 40
0.0
 40
0.0
 40
0.0
 40
0.0
 40
0.5
 40
1.0
 40
1.0
 40
1.0
 40
1.0
 10
199.7906394878
 20
-16.9499514973
 30
0.0
 10
199.8227753628
 20
-16.930277107
 30
0.0
 10
199.8886142958
 20
-16.8851529101
 30
0.0
 10
199.9315133785
 20
-16.8212710653
 30
0.0
 10
199.9521796262
 20
-16.7870653623
 30
0.0
  0
SPLINE
  5
29F
100
AcDbEntity
  8
_21_KURVEN
100
AcDbSpline
 62
5
  6
CONTINUOUS
 70
0
 71
3
 72
9
 73
5
 74
0
 42
0.0000001
 43
0.0000001
 44
0.0000000001
 40
0.0
 40
0.0
 40
0.0
 40
0.0
 40
0.5
 40
1.0
 40
1.0
 40
1.0
 40
1.0
 10
199.9521796225
 20
-16.7870653691
 30
0.0
 10
199.9684233403
 20
-16.7531980477
 30
0.0
 10
199.9990362092
 20
-16.6805183086
 30
0.0
 10
199.9999795199
 20
-16.6021072426
 30
0.0
 10
199.998486057
 20
-16.5635867577
 30
0.0
  0
SPLINE
  5
2A0
100
AcDbEntity
  8
_21_KURVEN
100
AcDbSpline
 62
1
  6
CENTER
 70
0
 71
3
 72
71
 73
67
 74
0
 42
0.0000001
 43
0.0000001
 44
0.0000000001
 40
0.0
 40
0.0
 40
0.0
 40
0.0
 40
0.03125
 40
0.0625
 40
0.09375
 40
0.109375
 40
0.125
 40
0.1328125
 40
0.140625
 40
0.15625
 40
0.171875
 40
0.1875
 40
0.21875
 40
0.234375
 40
0.25
 40
0.265625
 40
0.2734375
 40
0.28125
 40
0.28515625
 40
0.2890625
 40
0.296875
 40
0.3125
 40
0.34375
 40
0.375
 40
0.40625
 40
0.4140625
 40
0.421875
 40
0.4296875
 40
0.43359375
 40
0.4375
 40
0.4453125
 40
0.453125
 40
0.46875
 40
0.5
 40
0.53125
 40
0.546875
 40
0.5546875
 40
0.5625
 40
0.56640625
 40
0.5703125
 40
0.578125
 40
0.5859375
 40
0.59375
 40
0.625
 40
0.65625
 40
0.6875
 40
0.703125
 40
0.7109375
 40
0.71484375
 40
0.71875
 40
0.7265625
 40
0.734375
 40
0.75
 40
0.765625
 40
0.78125
 40
0.8125
 40
0.828125
 40
0.84375
 40
0.859375
 40
0.8671875
 40
0.875
 40
0.890625
 40
0.90625
 40
0.9375
 40
0.96875
 40
1.0
 40
1.0
 40
1.0
 40
1.0
 10
194.7266130536
 20
-16.266736594
 30
0.0
 10
194.8207814738
 20
-16.2288187078
 30
0.0
 10
195.0091217407
 20
-16.1529894111
 30
0.0
 10
195.2916115825
 20
-16.0392066115
 30
0.0
 10
195.5270797464
 20
-15.9445009378
 30
0.0
 10
195.7153206471
 20
-15.8684838437
 30
0.0
 10
195.8332753048
 20
-15.8215478847
 30
0.0
 10
195.9269426111
 20
-15.7826829167
 30
0.0
 10
196.0231523212
 20
-15.7486229722
 30
0.0
 10
196.1252169549
 20
-15.6716556158
 30
0.0
 10
196.2519495898
 20
-15.5873365096
 30
0.0
 10
196.4194364169
 20
-15.4720958312
 30
0.0
 10
196.5873532116
 20
-15.3576629309
 30
0.0
 10
196.7550976181
 20
-15.2429180988
 30
0.0
 10
196.8809931198
 20
-15.1569874921
 30
0.0
 10
196.9856872105
 20
-15.0850819
 30
0.0
 10
197.0699240703
 20
-15.0282056254
 30
0.0
 10
197.1214775531
 20
-14.9911858326
 30
0.0
 10
197.1652268735
 20
-14.9649410395
 30
0.0
 10
197.1998257011
 20
-14.9263897789
 30
0.0
 10
197.2619683018
 20
-14.8610699385
 30
0.0
 10
197.3851247321
 20
-14.7289095839
 30
0.0
 10
197.5616253705
 20
-14.5408870487
 30
0.0
 10
197.773304357
 20
-14.3150015703
 30
0.0
 10
197.9317534786
 20
-14.1454292042
 30
0.0
 10
198.0379411462
 20
-14.0327254836
 30
0.0
 10
198.0900285131
 20
-13.9757373289
 30
0.0
 10
198.1366970552
 20
-13.9303107607
 30
0.0
 10
198.1606169918
 20
-13.8854838998
 30
0.0
 10
198.186879688
 20
-13.8421389535
 30
0.0
 10
198.2189059819
 20
-13.787450419
 30
0.0
 10
198.2705958217
 20
-13.7002319853
 30
0.0
 10
198.3608430885
 20
-13.5474670691
 30
0.0
 10
198.4898882149
 20
-13.329306456
 30
0.0
 10
198.6188514136
 20
-13.1110985976
 30
0.0
 10
198.7092133793
 20
-12.9583998247
 30
0.0
 10
198.760722978
 20
-12.8710774515
 30
0.0
 10
198.7932101157
 20
-12.8166546714
 30
0.0
 10
198.8185265459
 20
-12.7727640428
 30
0.0
 10
198.8463011853
 20
-12.7301600696
 30
0.0
 10
198.8634245156
 20
-12.6676956933
 30
0.0
 10
198.8880802387
 20
-12.5948885598
 30
0.0
 10
198.9352801676
 20
-12.4481684383
 30
0.0
 10
199.0069448727
 20
-12.2285501887
 30
0.0
 10
199.1021085178
 20
-11.9354739238
 30
0.0
 10
199.1811717622
 20
-11.691262263
 30
0.0
 10
199.2371899155
 20
-11.5203853448
 30
0.0
 10
199.2642511146
 20
-11.4348351472
 30
0.0
 10
199.281243321
 20
-11.3861306939
 30
0.0
 10
199.2828859427
 20
-11.3356042721
 30
0.0
 10
199.2901949968
 20
-11.2730700915
 30
0.0
 10
199.2989516803
 20
-11.1726667212
 30
0.0
 10
199.3109079493
 20
-11.0472822322
 30
0.0
 10
199.324812187
 20
-10.8967691926
 30
0.0
 10
199.3435598062
 20
-10.6961052103
 30
0.0
 10
199.3619421825
 20
-10.4954241105
 30
0.0
 10
199.3812638106
 20
-10.2947793103
 30
0.0
 10
199.3933025193
 20
-10.144203929
 30
0.0
 10
199.411118463
 20
-10.0190152568
 30
0.0
 10
199.3934140205
 20
-9.9176704867
 30
0.0
 10
199.3812905702
 20
-9.816534207
 30
0.0
 10
199.3642253129
 20
-9.6900424697
 30
0.0
 10
199.3379889616
 20
-9.4876955899
 30
0.0
 10
199.3048268468
 20
-9.2347482922
 30
0.0
 10
199.2651902617
 20
-8.9312174356
 30
0.0
 10
199.2387357854
 20
-8.7288624072
 30
0.0
 10
199.225512308
 20
-8.6276850336
 30
0.0
  0
SPLINE
  5
2A1
100
AcDbEntity
  8
_21_KURVEN
100
AcDbSpline
 62
1
  6
CENTER
 70
0
 71
3
 72
11
 73
7
 74
0
 42
0.0000001
 43
0.0000001
 44
0.0000000001
 40
0.0
 40
0.0
 40
0.0
 40
0.0
 40
0.375
 40
0.5625
 40
0.75
 40
1.0
 40
1.0
 40
1.0
 40
1.0
 10
199.2255123011
 20
-8.6276850058
 30
0.0
 10
199.2228641981
 20
-8.6170697727
 30
0.0
 10
199.2189739157
 20
-8.6014672074
 30
0.0
 10
199.2133473771
 20
-8.5794120758
 30
0.0
 10
199.2095683949
 20
-8.5645919459
 30
0.0
 10
199.2039474019
 20
-8.5432133232
 30
0.0
 10
199.2012212354
 20
-8.5327936256
 30
0.0
  0
LINE
  5
2A2
100
AcDbEntity
  8
_21_KURVEN
100
AcDbLine
 62
1
  6
CENTER
 10
199.2012212351
 20
-8.5327936243
 11
199.183329024
 21
-8.4666114316
  0
SPLINE
  5
2A3
100
AcDbEntity
  8
_21_KURVEN
100
AcDbSpline
 62
1
  6
CENTER
 70
0
 71
3
 72
11
 73
7
 74
0
 42
0.0000001
 43
0.0000001
 44
0.0000000001
 40
0.0
 40
0.0
 40
0.0
 40
0.0
 40
0.375
 40
0.5625
 40
0.75
 40
1.0
 40
1.0
 40
1.0
 40
1.0
 10
199.1833290238
 20
-8.4666114306
 30
0.0
 10
199.1803976147
 20
-8.4560740947
 30
0.0
 10
199.1760738414
 20
-8.4405277216
 30
0.0
 10
199.1699042239
 20
-8.4187930684
 30
0.0
 10
199.1655778884
 20
-8.4035660721
 30
0.0
 10
199.1598689856
 20
-8.3839980757
 30
0.0
 10
199.1570443829
 20
-8.3742709103
 30
0.0
  0
SPLINE
  5
2A4
100
AcDbEntity
  8
_21_KURVEN
100
AcDbSpline
 62
1
  6
CENTER
 70
0
 71
3
 72
71
 73
67
 74
0
 42
0.0000001
 43
0.0000001
 44
0.0000000001
 40
0.0
 40
0.0
 40
0.0
 40
0.0
 40
0.03125
 40
0.0625
 40
0.09375
 40
0.109375
 40
0.125
 40
0.1328125
 40
0.140625
 40
0.15625
 40
0.171875
 40
0.1875
 40
0.21875
 40
0.234375
 40
0.25
 40
0.265625
 40
0.2734375
 40
0.28125
 40
0.28515625
 40
0.2890625
 40
0.296875
 40
0.3125
 40
0.34375
 40
0.375
 40
0.40625
 40
0.4140625
 40
0.421875
 40
0.4296875
 40
0.43359375
 40
0.4375
 40
0.4453125
 40
0.453125
 40
0.46875
 40
0.5
 40
0.53125
 40
0.546875
 40
0.5546875
 40
0.5625
 40
0.56640625
 40
0.5703125
 40
0.578125
 40
0.5859375
 40
0.59375
 40
0.625
 40
0.65625
 40
0.6875
 40
0.703125
 40
0.7109375
 40
0.71484375
 40
0.71875
 40
0.7265625
 40
0.734375
 40
0.75
 40
0.765625
 40
0.78125
 40
0.8125
 40
0.828125
 40
0.84375
 40
0.859375
 40
0.8671875
 40
0.875
 40
0.890625
 40
0.90625
 40
0.9375
 40
0.96875
 40
1.0
 40
1.0
 40
1.0
 40
1.0
 10
199.1570443829
 20
-8.3742709105
 30
0.0
 10
199.1183655876
 20
-8.281861558
 30
0.0
 10
199.041014478
 20
-8.0970392118
 30
0.0
 10
198.9249489278
 20
-7.8198275397
 30
0.0
 10
198.8283410525
 20
-7.5887540921
 30
0.0
 10
198.7508019957
 20
-7.4040373405
 30
0.0
 10
198.7029152682
 20
-7.288266215
 30
0.0
 10
198.6632886361
 20
-7.1963893868
 30
0.0
 10
198.6284708579
 20
-7.1018107944
 30
0.0
 10
198.5505287934
 20
-7.002925695
 30
0.0
 10
198.4650464475
 20
-6.8797417952
 30
0.0
 10
198.3482525415
 20
-6.7170799801
 30
0.0
 10
198.2322670411
 20
-6.5539614184
 30
0.0
 10
198.1159694072
 20
-6.3910255579
 30
0.0
 10
198.0288741768
 20
-6.2687323055
 30
0.0
 10
197.9559982237
 20
-6.1670496598
 30
0.0
 10
197.8983452904
 20
-6.0852010667
 30
0.0
 10
197.8608409314
 20
-6.0351876883
 30
0.0
 10
197.8342065486
 20
-5.9925618232
 30
0.0
 10
197.7952727685
 20
-5.9594830136
 30
0.0
 10
197.7292822879
 20
-5.8999313277
 30
0.0
 10
197.5957815141
 20
-5.7820057373
 30
0.0
 10
197.4058437469
 20
-5.6129525898
 30
0.0
 10
197.1776596886
 20
-5.4102192292
 30
0.0
 10
197.0063647094
 20
-5.2584835817
 30
0.0
 10
196.8925104712
 20
-5.1567617733
 30
0.0
 10
196.8349508348
 20
-5.1069254983
 30
0.0
 10
196.7890357929
 20
-5.0620739567
 30
0.0
 10
196.743868478
 20
-5.0398498654
 30
0.0
 10
196.700174289
 20
-5.015240709
 30
0.0
 10
196.6450522101
 20
-4.9852958237
 30
0.0
 10
196.5571384255
 20
-4.9369281523
 30
0.0
 10
196.4031574334
 20
-4.8524984663
 30
0.0
 10
196.183259112
 20
-4.7317620375
 30
0.0
 10
195.963313872
 20
-4.6111088535
 30
0.0
 10
195.8093985661
 20
-4.5265626248
 30
0.0
 10
195.7213815603
 20
-4.4783780919
 30
0.0
 10
195.6665233992
 20
-4.4479649548
 30
0.0
 10
195.6222872989
 20
-4.4243172754
 30
0.0
 10
195.5793275103
 20
-4.3981765179
 30
0.0
 10
195.516492401
 20
-4.3833451195
 30
0.0
 10
195.4432231037
 20
-4.3613814446
 30
0.0
 10
195.2955875366
 20
-4.3195955872
 30
0.0
 10
195.0745925185
 20
-4.2560393927
 30
0.0
 10
194.779681999
 20
-4.1716943266
 30
0.0
 10
194.5339434041
 20
-4.1016448532
 30
0.0
 10
194.3619936195
 20
-4.0519367699
 30
0.0
 10
194.2759125845
 20
-4.0280304097
 30
0.0
 10
194.2268957759
 20
-4.0128412431
 30
0.0
 10
194.176147564
 20
-4.0129989307
 30
0.0
 10
194.1133051356
 20
-4.0079411983
 30
0.0
 10
194.0124259026
 20
-4.0027861059
 30
0.0
 10
193.8864406227
 20
-3.9953320131
 30
0.0
 10
193.7352092535
 20
-3.9868302736
 30
0.0
 10
193.5335862479
 20
-3.9752861892
 30
0.0
 10
193.3319483894
 20
-3.9641063515
 30
0.0
 10
193.1303409744
 20
-3.9519900974
 30
0.0
 10
192.9790589358
 20
-3.9453479092
 30
0.0
 10
192.85323281
 20
-3.932052918
 30
0.0
 10
192.7515774997
 20
-3.9532761885
 30
0.0
 10
192.6500958527
 20
-3.96893557
 30
0.0
 10
192.5231843313
 20
-3.9904148853
 30
0.0
 10
192.3201591318
 20
-4.0237170022
 30
0.0
 10
192.0663662225
 20
-4.0657102005
 30
0.0
 10
191.7618196464
 20
-4.1159445698
 30
0.0
 10
191.5587876595
 20
-4.1494641433
 30
0.0
 10
191.4572717831
 20
-4.1662201808
 30
0.0
  0
SPLINE
  5
2A5
100
AcDbEntity
  8
_21_KURVEN
100
AcDbSpline
 62
1
  6
CENTER
 70
0
 71
3
 72
27
 73
23
 74
0
 42
0.0000001
 43
0.0000001
 44
0.0000000001
 40
0.0
 40
0.0
 40
0.0
 40
0.0
 40
0.125
 40
0.15625
 40
0.1875
 40
0.25
 40
0.3125
 40
0.34375
 40
0.375
 40
0.4375
 40
0.46875
 40
0.5
 40
0.53125
 40
0.5625
 40
0.625
 40
0.65625
 40
0.6875
 40
0.75
 40
0.8125
 40
0.84375
 40
0.875
 40
1.0
 40
1.0
 40
1.0
 40
1.0
 10
191.4572717553
 20
-4.1662201886
 30
0.0
 10
191.3310822013
 20
-4.207420182
 30
0.0
 10
191.1739189597
 20
-4.2605002841
 30
0.0
 10
190.9836019669
 20
-4.3194560752
 30
0.0
 10
190.8603956579
 20
-4.3688726431
 30
0.0
 10
190.7078479694
 20
-4.4345724537
 30
0.0
 10
190.5542489801
 20
-4.4977163903
 30
0.0
 10
190.4327247523
 20
-4.5512223567
 30
0.0
 10
190.3158426168
 20
-4.6147281248
 30
0.0
 10
190.1974156827
 20
-4.6749993788
 30
0.0
 10
190.080141575
 20
-4.7374743236
 30
0.0
 10
189.9902723137
 20
-4.7809539739
 30
0.0
 10
189.9074813612
 20
-4.8368380123
 30
0.0
 10
189.794515587
 20
-4.9068631
 30
0.0
 10
189.6828602201
 20
-4.9790011927
 30
0.0
 10
189.5692070094
 20
-5.048165493
 30
0.0
 10
189.4617979641
 20
-5.1264076228
 30
0.0
 10
189.3298922236
 20
-5.2275679142
 30
0.0
 10
189.1963221791
 20
-5.3265251054
 30
0.0
 10
189.0915760203
 20
-5.4082921955
 30
0.0
 10
188.9447044172
 20
-5.5433840398
 30
0.0
 10
188.8196427596
 20
-5.6527206786
 30
0.0
 10
188.7204474032
 20
-5.741226757
 30
0.0
  0
SPLINE
  5
2A6
100
AcDbEntity
  8
_21_KURVEN
100
AcDbSpline
 62
1
  6
CENTER
 70
0
 71
3
 72
17
 73
13
 74
0
 42
0.0000001
 43
0.0000001
 44
0.0000000001
 40
0.0
 40
0.0
 40
0.0
 40
0.0
 40
0.125
 40
0.1875
 40
0.25
 40
0.375
 40
0.5
 40
0.625
 40
0.75
 40
0.8125
 40
0.875
 40
1.0
 40
1.0
 40
1.0
 40
1.0
 10
188.7204475213
 20
-5.7412266425
 30
0.0
 10
188.7164760998
 20
-5.7450892047
 30
0.0
 10
188.7111107128
 20
-5.7502944791
 30
0.0
 10
188.7015898828
 20
-5.7595891203
 30
0.0
 10
188.6842338718
 20
-5.7766492604
 30
0.0
 10
188.6652922552
 20
-5.7953394125
 30
0.0
 10
188.6414218431
 20
-5.8190912332
 30
0.0
 10
188.6183540106
 20
-5.8424120896
 30
0.0
 10
188.5982193411
 20
-5.8629833746
 30
0.0
 10
188.5842254952
 20
-5.8772457
 30
0.0
 10
188.5627236961
 20
-5.8995898364
 30
0.0
 10
188.5448965159
 20
-5.9181854996
 30
0.0
 10
188.5333896915
 20
-5.9301742615
 30
0.0
  0
SPLINE
  5
2A7
100
AcDbEntity
  8
_21_KURVEN
100
AcDbSpline
 62
1
  6
CENTER
 70
0
 71
3
 72
85
 73
81
 74
0
 42
0.0000001
 43
0.0000001
 44
0.0000000001
 40
0.0
 40
0.0
 40
0.0
 40
0.0
 40
0.0625
 40
0.078125
 40
0.09375
 40
0.1015625
 40
0.10546875
 40
0.109375
 40
0.1171875
 40
0.125
 40
0.140625
 40
0.15625
 40
0.171875
 40
0.1875
 40
0.203125
 40
0.2109375
 40
0.21875
 40
0.22265625
 40
0.2265625
 40
0.234375
 40
0.25
 40
0.28125
 40
0.296875
 40
0.3125
 40
0.3203125
 40
0.328125
 40
0.33203125
 40
0.3359375
 40
0.34375
 40
0.359375
 40
0.375
 40
0.390625
 40
0.40625
 40
0.421875
 40
0.4296875
 40
0.4375
 40
0.4453125
 40
0.44921875
 40
0.453125
 40
0.46875
 40
0.5
 40
0.53125
 40
0.546875
 40
0.55078125
 40
0.5546875
 40
0.5625
 40
0.5703125
 40
0.578125
 40
0.59375
 40
0.609375
 40
0.625
 40
0.640625
 40
0.65625
 40
0.6640625
 40
0.66796875
 40
0.671875
 40
0.6796875
 40
0.6875
 40
0.703125
 40
0.71875
 40
0.75
 40
0.765625
 40
0.7734375
 40
0.77734375
 40
0.78125
 40
0.7890625
 40
0.796875
 40
0.8125
 40
0.828125
 40
0.84375
 40
0.859375
 40
0.875
 40
0.8828125
 40
0.890625
 40
0.89453125
 40
0.8984375
 40
0.90625
 40
0.921875
 40
0.9375
 40
1.0
 40
1.0
 40
1.0
 40
1.0
 10
188.53338969
 20
-5.930174263
 30
0.0
 10
188.3860327272
 20
-6.1200904885
 30
0.0
 10
188.201881163
 20
-6.3575184956
 30
0.0
 10
187.9807653677
 20
-6.6423339287
 30
0.0
 10
187.8888123439
 20
-6.7611379264
 30
0.0
 10
187.8240819743
 20
-6.844034424
 30
0.0
 10
187.7876623438
 20
-6.8918210966
 30
0.0
 10
187.7491044868
 20
-6.9380402352
 30
0.0
 10
187.7162324239
 20
-7.0070491072
 30
0.0
 10
187.6619683322
 20
-7.1162399854
 30
0.0
 10
187.5947119073
 20
-7.2531486407
 30
0.0
 10
187.5137536734
 20
-7.4172577262
 30
0.0
 10
187.4328796323
 20
-7.5814199227
 30
0.0
 10
187.3519193439
 20
-7.7455509765
 30
0.0
 10
187.2846697671
 20
-7.8823864044
 30
0.0
 10
187.2303916368
 20
-7.9917273986
 30
0.0
 10
187.1975553125
 20
-8.0603541155
 30
0.0
 10
187.1687958532
 20
-8.1145946968
 30
0.0
 10
187.1570509526
 20
-8.1733497847
 30
0.0
 10
187.1285849716
 20
-8.2740717512
 30
0.0
 10
187.0772754359
 20
-8.4770077723
 30
0.0
 10
187.0162531798
 20
-8.70830062
 30
0.0
 10
186.955953654
 20
-8.9397903249
 30
0.0
 10
186.9184452803
 20
-9.0845076088
 30
0.0
 10
186.8878287069
 20
-9.2001452976
 30
0.0
 10
186.8701286197
 20
-9.2727410897
 30
0.0
 10
186.8526763676
 20
-9.3300783901
 30
0.0
 10
186.8472446281
 20
-9.3901152346
 30
0.0
 10
186.8433238836
 20
-9.4964339945
 30
0.0
 10
186.8348039448
 20
-9.6476619888
 30
0.0
 10
186.8258253634
 20
-9.8294172043
 30
0.0
 10
186.8165356016
 20
-10.0110954476
 30
0.0
 10
186.8072452162
 20
-10.1927999576
 30
0.0
 10
186.7997646239
 20
-10.3441969703
 30
0.0
 10
186.7931531127
 20
-10.4653576367
 30
0.0
 10
186.7899187539
 20
-10.5561130152
 30
0.0
 10
186.7817371387
 20
-10.632108295
 30
0.0
 10
186.793744751
 20
-10.6916676596
 30
0.0
 10
186.8069884493
 20
-10.7813248203
 30
0.0
 10
186.8384888327
 20
-10.9753891911
 30
0.0
 10
186.8848907587
 20
-11.2741389841
 30
0.0
 10
186.9326271462
 20
-11.572606498
 30
0.0
 10
186.9623927296
 20
-11.7670378316
 30
0.0
 10
186.9773378664
 20
-11.8563350865
 30
0.0
 10
186.984341248
 20
-11.9169529976
 30
0.0
 10
187.014692209
 20
-11.9847974697
 30
0.0
 10
187.0449824049
 20
-12.0684614252
 30
0.0
 10
187.0875102892
 20
-12.1792274804
 30
0.0
 10
187.1399403644
 20
-12.3179527184
 30
0.0
 10
187.2031479647
 20
-12.484317021
 30
0.0
 10
187.2663571729
 20
-12.650676985
 30
0.0
 10
187.3292684397
 20
-12.8171602862
 30
0.0
 10
187.3826862936
 20
-12.9554888622
 30
0.0
 10
187.4181263642
 20
-13.053120673
 30
0.0
 10
187.4414273116
 20
-13.1076580043
 30
0.0
 10
187.4762145401
 20
-13.15747854
 30
0.0
 10
187.5157661682
 20
-13.2213688526
 30
0.0
 10
187.5812436185
 20
-13.3226932295
 30
0.0
 10
187.6623587222
 20
-13.4496410535
 30
0.0
 10
187.7924361361
 20
-13.6526867596
 30
0.0
 10
187.9230955308
 20
-13.8552218101
 30
0.0
 10
188.0357023578
 20
-14.033826921
 30
0.0
 10
188.0943313697
 20
-14.1212724757
 30
0.0
 10
188.1240926568
 20
-14.1742266594
 30
0.0
 10
188.1679320233
 20
-14.2159470906
 30
0.0
 10
188.220155494
 20
-14.2701529781
 30
0.0
 10
188.3051527539
 20
-14.3557335164
 30
0.0
 10
188.4109044777
 20
-14.4631044082
 30
0.0
 10
188.5380222714
 20
-14.5917757499
 30
0.0
 10
188.6650689262
 20
-14.7205096554
 30
0.0
 10
188.7921844112
 20
-14.8491670339
 30
0.0
 10
188.8979438308
 20
-14.9565844693
 30
0.0
 10
188.9829253142
 20
-15.0420695933
 30
0.0
 10
189.0351889477
 20
-15.09651838
 30
0.0
 10
189.0869890071
 20
-15.1280802607
 30
0.0
 10
189.1370469204
 20
-15.1617344895
 30
0.0
 10
189.2254597851
 20
-15.2196547444
 30
0.0
 10
189.3513410707
 20
-15.3029057643
 30
0.0
 10
189.6538053127
 20
-15.5022888687
 30
0.0
 10
189.9057679215
 20
-15.6685506596
 30
0.0
 10
190.1073671049
 20
-15.8015251471
 30
0.0
  0
SPLINE
  5
2A8
100
AcDbEntity
  8
_21_KURVEN
100
AcDbSpline
 62
1
  6
CENTER
 70
0
 71
3
 72
8
 73
4
 74
0
 42
0.0000001
 43
0.0000001
 44
0.0000000001
 40
0.0
 40
0.0
 40
0.0
 40
0.0
 40
1.0
 40
1.0
 40
1.0
 40
1.0
 10
190.1073673503
 20
-15.8015252745
 30
0.0
 10
190.1332978545
 20
-15.8149345825
 30
0.0
 10
190.1594654589
 20
-15.8282902337
 30
0.0
 10
190.1848801629
 20
-15.8410955867
 30
0.0
  0
SPLINE
  5
2A9
100
AcDbEntity
  8
_21_KURVEN
100
AcDbSpline
 62
1
  6
CENTER
 70
0
 71
3
 72
19
 73
15
 74
0
 42
0.0000001
 43
0.0000001
 44
0.0000000001
 40
0.0
 40
0.0
 40
0.0
 40
0.0
 40
0.125
 40
0.25
 40
0.3125
 40
0.375
 40
0.4375
 40
0.5
 40
0.5625
 40
0.625
 40
0.75
 40
0.8125
 40
0.875
 40
1.0
 40
1.0
 40
1.0
 40
1.0
 10
190.1848801612
 20
-15.8410955858
 30
0.0
 10
190.1897776804
 20
-15.843541908
 30
0.0
 10
190.19930627
 20
-15.8483172221
 30
0.0
 10
190.2125492507
 20
-15.8548730166
 30
0.0
 10
190.2203986979
 20
-15.8587827028
 30
0.0
 10
190.2337476364
 20
-15.8653163346
 30
0.0
 10
190.2482164087
 20
-15.872377276
 30
0.0
 10
190.2655413811
 20
-15.8808602638
 30
0.0
 10
190.2703217192
 20
-15.8831277565
 30
0.0
 10
190.2809147356
 20
-15.8882537165
 30
0.0
 10
190.2912816264
 20
-15.8931948479
 30
0.0
 10
190.2992138058
 20
-15.8970098048
 30
0.0
 10
190.3172205555
 20
-15.9055067759
 30
0.0
 10
190.3330413677
 20
-15.9129561599
 30
0.0
 10
190.3430739648
 20
-15.9176831591
 30
0.0
  0
SPLINE
  5
2AA
100
AcDbEntity
  8
_21_KURVEN
100
AcDbSpline
 62
1
  6
CENTER
 70
0
 71
3
 72
17
 73
13
 74
0
 42
0.0000001
 43
0.0000001
 44
0.0000000001
 40
0.0
 40
0.0
 40
0.0
 40
0.0
 40
0.125
 40
0.1875
 40
0.25
 40
0.375
 40
0.5
 40
0.625
 40
0.75
 40
0.8125
 40
0.875
 40
1.0
 40
1.0
 40
1.0
 40
1.0
 10
190.3430739684
 20
-15.9176831607
 30
0.0
 10
190.378011329
 20
-15.9334712118
 30
0.0
 10
190.4295891835
 20
-15.9569834452
 30
0.0
 10
190.501672402
 20
-15.9890124628
 30
0.0
 10
190.5845798171
 20
-16.0235825357
 30
0.0
 10
190.6848917388
 20
-16.0649091162
 30
0.0
 10
190.8078397503
 20
-16.1129204851
 30
0.0
 10
190.931534163
 20
-16.1566279908
 30
0.0
 10
191.0366587474
 20
-16.1914743213
 30
0.0
 10
191.1179531529
 20
-16.2183223818
 30
0.0
 10
191.2104839581
 20
-16.2459045616
 30
0.0
 10
191.2824573901
 20
-16.266688976
 30
0.0
 10
191.329867383
 20
-16.2805235235
 30
0.0
  0
SPLINE
  5
2AB
100
AcDbEntity
  8
_21_KURVEN
100
AcDbSpline
 62
1
  6
CENTER
 70
0
 71
3
 72
11
 73
7
 74
0
 42
0.0000001
 43
0.0000001
 44
0.0000000001
 40
0.0
 40
0.0
 40
0.0
 40
0.0
 40
0.375
 40
0.5625
 40
0.75
 40
1.0
 40
1.0
 40
1.0
 40
1.0
 10
191.3298673909
 20
-16.2805235256
 30
0.0
 10
191.3404583368
 20
-16.2834136345
 30
0.0
 10
191.3560957666
 20
-16.2876817769
 30
0.0
 10
191.3779734481
 20
-16.2935297785
 30
0.0
 10
191.3934378722
 20
-16.2976583209
 30
0.0
 10
191.4128924969
 20
-16.3027084695
 30
0.0
 10
191.4226005228
 20
-16.3052415881
 30
0.0
  0
LINE
  5
2AC
100
AcDbEntity
  8
_21_KURVEN
100
AcDbLine
 62
1
  6
CENTER
 10
191.4226005214
 20
-16.3052415877
 11
191.489333194
 21
-16.3220930618
  0
SPLINE
  5
2AD
100
AcDbEntity
  8
_21_KURVEN
100
AcDbSpline
 62
1
  6
CENTER
 70
0
 71
3
 72
11
 73
7
 74
0
 42
0.0000001
 43
0.0000001
 44
0.0000000001
 40
0.0
 40
0.0
 40
0.0
 40
0.0
 40
0.375
 40
0.5625
 40
0.75
 40
1.0
 40
1.0
 40
1.0
 40
1.0
 10
191.489333195
 20
-16.322093062
 30
0.0
 10
191.5000005762
 20
-16.32470483
 30
0.0
 10
191.5156661784
 20
-16.3285424966
 30
0.0
 10
191.537924428
 20
-16.333867639
 30
0.0
 10
191.5527450939
 20
-16.3374164265
 30
0.0
 10
191.5747271
 20
-16.3425067438
 30
0.0
 10
191.5853931378
 20
-16.34499
 30
0.0
  0
SPLINE
  5
2AE
100
AcDbEntity
  8
_21_KURVEN
100
AcDbSpline
 62
1
  6
CENTER
 70
0
 71
3
 72
28
 73
24
 74
0
 42
0.0000001
 43
0.0000001
 44
0.0000000001
 40
0.0
 40
0.0
 40
0.0
 40
0.0
 40
0.0625
 40
0.125
 40
0.15625
 40
0.1875
 40
0.25
 40
0.3125
 40
0.34375
 40
0.375
 40
0.4375
 40
0.46875
 40
0.5
 40
0.53125
 40
0.5625
 40
0.625
 40
0.65625
 40
0.6875
 40
0.75
 40
0.8125
 40
0.84375
 40
0.875
 40
1.0
 40
1.0
 40
1.0
 40
1.0
 10
191.5853931403
 20
-16.3449900006
 30
0.0
 10
191.650209088
 20
-16.3570630306
 30
0.0
 10
191.7797954773
 20
-16.3814951039
 30
0.0
 10
191.9420059938
 20
-16.410605129
 30
0.0
 10
192.0712965943
 20
-16.4368962888
 30
0.0
 10
192.2023164217
 20
-16.4523189428
 30
0.0
 10
192.3667135124
 20
-16.4674860515
 30
0.0
 10
192.5307912573
 20
-16.4853932687
 30
0.0
 10
192.6623220378
 20
-16.4964317493
 30
0.0
 10
192.7946562333
 20
-16.4964094315
 30
0.0
 10
192.926768184
 20
-16.499985545
 30
0.0
 10
193.0589443076
 20
-16.5010619634
 30
0.0
 10
193.1581061266
 20
-16.5057699314
 30
0.0
 10
193.257116954
 20
-16.4961251299
 30
0.0
 10
193.3892011719
 20
-16.4884655029
 30
0.0
 10
193.5211686849
 20
-16.4783107651
 30
0.0
 10
193.6534339768
 20
-16.4717412784
 30
0.0
 10
193.7846637593
 20
-16.4541576019
 30
0.0
 10
193.9482779699
 20
-16.4280820911
 30
0.0
 10
194.1122729325
 20
-16.404751053
 30
0.0
 10
194.2428935118
 20
-16.3827762201
 30
0.0
 10
194.4359361179
 20
-16.3339082145
 30
0.0
 10
194.5975571081
 20
-16.2973270005
 30
0.0
 10
194.7266132116
 20
-16.2667365496
 30
0.0
  0
SPLINE
  5
2AF
100
AcDbEntity
  8
_21_KURVEN
100
AcDbSpline
 62
5
  6
CONTINUOUS
 70
0
 71
3
 72
8
 73
4
 74
0
 42
0.0000001
 43
0.0000001
 44
0.0000000001
 40
0.0
 40
0.0
 40
0.0
 40
0.0
 40
1.0
 40
1.0
 40
1.0
 40
1.0
 10
191.4002647458
 20
-16.3938613463
 30
0.0
 10
191.4065832615
 20
-16.3966367142
 30
0.0
 10
191.4139122717
 20
-16.3995066722
 30
0.0
 10
191.4226056668
 20
-16.4023169632
 30
0.0
  0
LINE
  5
2B0
100
AcDbEntity
  8
_21_KURVEN
100
AcDbLine
 62
5
  6
CONTINUOUS
 10
191.4226056672
 20
-16.4023169633
 11
191.434323585
 21
-16.4055630275
  0
SPLINE
  5
2B1
100
AcDbEntity
  8
_21_KURVEN
100
AcDbSpline
 62
5
  6
CONTINUOUS
 70
0
 71
3
 72
8
 73
4
 74
0
 42
0.0000001
 43
0.0000001
 44
0.0000000001
 40
0.0
 40
0.0
 40
0.0
 40
0.0
 40
1.0
 40
1.0
 40
1.0
 40
1.0
 10
191.4343235847
 20
-16.4055630275
 30
0.0
 10
191.4437616085
 20
-16.4077448999
 30
0.0
 10
191.4548361817
 20
-16.4096263268
 30
0.0
 10
191.4669967719
 20
-16.4106971387
 30
0.0
  0
SPLINE
  5
2B2
100
AcDbEntity
  8
0
100
AcDbSpline
 62
4
  6
CONTINUOUS
 70
0
 71
3
 72
10
 73
6
 74
0
 42
0.0000001
 43
0.0000001
 44
0.0000000001
 40
0.0
 40
0.0
 40
0.0
 40
0.0
 40
0.2281141418
 40
0.4610464053
 40
1.0
 40
1.0
 40
1.0
 40
1.0
 10
182.9027991552
 20
13.2578411928
 30
0.0
 10
182.870807053
 20
13.257842536
 30
0.0
 10
182.8057057416
 20
13.2489228619
 30
0.0
 10
182.6765404934
 20
13.1901870349
 30
0.0
 10
182.6002602856
 20
13.1072691034
 30
0.0
 10
182.5569133666
 20
13.0453473523
 30
0.0
  0
SPLINE
  5
2B3
100
AcDbEntity
  8
0
100
AcDbSpline
 62
4
  6
CONTINUOUS
 70
0
 71
3
 72
19
 73
15
 74
0
 42
0.0000001
 43
0.0000001
 44
0.0000000001
 40
0.0
 40
0.0
 40
0.0
 40
0.0
 40
0.140295685
 40
0.2777360698
 40
0.4108611047
 40
0.538073161
 40
0.5990529444
 40
0.6581590418
 40
0.7155126177
 40
0.7715081385
 40
0.8268928973
 40
0.8827182503
 40
0.9401299914
 40
1.0
 40
1.0
 40
1.0
 40
1.0
 10
182.0
 20
-12.0237316181
 30
0.0
 10
181.2464327149
 20
-12.0058206319
 30
0.0
 10
179.7549215743
 20
-11.9553711227
 30
0.0
 10
177.5514582546
 20
-11.8124126718
 30
0.0
 10
175.4273325311
 20
-11.5674131113
 30
0.0
 10
173.7302694068
 20
-11.229847135
 30
0.0
 10
172.459590217
 20
-10.8371275316
 30
0.0
 10
171.5756325129
 20
-10.4759627237
 30
0.0
 10
170.7599254981
 20
-10.0315510584
 30
0.0
 10
170.0278058845
 20
-9.4911610529
 30
0.0
 10
169.3970275312
 20
-8.8453892513
 30
0.0
 10
168.8851439851
 20
-8.0919402524
 30
0.0
 10
168.5048917326
 20
-7.2382711554
 30
0.0
 10
168.3449432698
 20
-6.6258216772
 30
0.0
 10
168.2853817897
 20
-6.3097147321
 30
0.0
  0
SPLINE
  5
2B4
100
AcDbEntity
  8
0
100
AcDbSpline
 62
4
  6
CONTINUOUS
 70
0
 71
3
 72
11
 73
7
 74
0
 42
0.0000001
 43
0.0000001
 44
0.0000000001
 40
0.0
 40
0.0
 40
0.0
 40
0.0
 40
0.2489028218
 40
0.4960284486
 40
0.7455201549
 40
1.0
 40
1.0
 40
1.0
 40
1.0
 10
173.3271526556
 20
6.3097147321
 30
0.0
 10
173.9218638098
 20
6.8540386714
 30
0.0
 10
175.1988977097
 20
7.8430194335
 30
0.0
 10
177.3263276212
 20
9.0036524579
 30
0.0
 10
179.6084816441
 20
9.8646032535
 30
0.0
 10
181.1933243216
 20
10.2677978679
 30
0.0
 10
182.0
 20
10.4372014751
 30
0.0
  0
SPLINE
  5
2B5
100
AcDbEntity
  8
0
100
AcDbSpline
 62
4
  6
CONTINUOUS
 70
0
 71
3
 72
9
 73
5
 74
0
 42
0.0000001
 43
0.0000001
 44
0.0000000001
 40
0.0
 40
0.0
 40
0.0
 40
0.0
 40
0.5059740676
 40
1.0
 40
1.0
 40
1.0
 40
1.0
 10
188.8148965534
 20
11.5211630891
 30
0.0
 10
187.6878061871
 20
11.464192493
 30
0.0
 10
185.4629087432
 20
11.2871120628
 30
0.0
 10
183.2549796108
 20
10.9500583321
 30
0.0
 10
182.1750518846
 20
10.7312073499
 30
0.0
  0
SPLINE
  5
2B6
100
AcDbEntity
  8
0
100
AcDbSpline
 62
4
  6
CONTINUOUS
 70
0
 71
3
 72
11
 73
7
 74
0
 42
0.0000001
 43
0.0000001
 44
0.0000000001
 40
0.0
 40
0.0
 40
0.0
 40
0.0
 40
0.1605324615
 40
0.3788350524
 40
0.6586647692
 40
1.0
 40
1.0
 40
1.0
 40
1.0
 10
182.5569133666
 20
13.0453473523
 30
0.0
 10
182.4841941935
 20
12.9414668774
 30
0.0
 10
182.3653698353
 20
12.6614593934
 30
0.0
 10
182.2544408552
 20
12.1526006956
 30
0.0
 10
182.1872536698
 20
11.4915910878
 30
0.0
 10
182.1750519124
 20
11.0008265383
 30
0.0
 10
182.1750519014
 20
10.7312072913
 30
0.0
  0
ELLIPSE
  5
2B7
100
AcDbEntity
  8
0
100
AcDbEllipse
 62
4
  6
CONTINUOUS
 10
142.8470714095
 20
-163.854672373
 30
0.0
 11
64.4135237747
 21
227.0626138178
 31
0.0
 40
0.1059221884
 41
0.7541661683
 42
0.8344632533
  0
ENDSEC
  0
SECTION
  2
OBJECTS
  0
DICTIONARY
  5
C
100
AcDbDictionary
280
0
281
1
  3
ACAD_GROUP
350
D
  3
ACAD_MLINESTYLE
350
17
  3
ACAD_LAYOUT
350
1A
  3
ACAD_PLOTSETTINGS
350
19
  3
ACAD_PLOTSTYLENAME
350
E
  0
DICTIONARY
  5
D
102
{ACAD_REACTORS
330
C
102
}
100
AcDbDictionary
280
0
281
1
  0
ACDBDICTIONARYWDFLT
  5
E
102
{ACAD_REACTORS
330
C
102
}
100
AcDbDictionary
281
1
  3
Normal
350
F
100
AcDbDictionaryWithDefault
340
F
  0
DICTIONARY
  5
17
102
{ACAD_REACTORS
330
C
102
}
100
AcDbDictionary
280
0
281
1
  3
Standard
350
18
  0
DICTIONARY
  5
19
102
{ACAD_REACTORS
330
C
102
}
100
AcDbDictionary
281
1
  0
DICTIONARY
  5
1A
102
{ACAD_REACTORS
330
C
102
}
100
AcDbDictionary
281
1
  3
Model
350
2B8
  3
Layout1
350
2B9
  0
ACDBPLACEHOLDER
  5
F
102
{ACAD_REACTORS
330
E
102
}
  0
MLINESTYLE
  5
18
102
{ACAD_REACTORS
330
17
102
}
100
AcDbMlineStyle
  2
STANDARD
 70
0
  3

 62
256
 51
90.0
 52
90.0
 71
2
 49
0.5
 62
256
  6
BYLAYER
 49
-0.5
 62
256
  6
BYLAYER
  0
LAYOUT
  5
2B8
102
{ACAD_REACTORS
330
1A
102
}
100
AcDbPlotSettings
  1

  2
none_device
  4
ISO_A3_(420.00_x_297.00_MM)
  6

 40
0.0
 41
0.0
 42
0.0
 43
0.0
 44
420.0
 45
297.0
 46
0.0
 47
0.0
 48
0.0
 49
0.0
140
0.0
141
0.0
142
1.0
143
1.0
 70
1024
 72
1
 73
0
 74
0
  7

 75
0
147
1.0
148
0.0
149
0.0
100
AcDbLayout
  1
Model
 70
0
 71
0
 10
0.0
 20
0.0
 11
420.0
 21
297.0
 12
0.0
 22
0.0
 32
0.0
 14
0.0
 24
0.0
 34
0.0
 15
0.0
 25
0.0
 35
0.0
146
0.0
 13
0.0
 23
0.0
 33
0.0
 16
1.0
 26
0.0
 36
0.0
 17
0.0
 27
1.0
 37
0.0
 76
0
330
20E
345
0
346
0
  0
LAYOUT
  5
2B9
102
{ACAD_REACTORS
330
1A
102
}
100
AcDbPlotSettings
  1

  2
none_device
  4
ISO_A3_(420.00_x_297.00_MM)
  6

 40
0.0
 41
0.0
 42
0.0
 43
0.0
 44
420.0
 45
297.0
 46
0.0
 47
0.0
 48
0.0
 49
0.0
140
0.0
141
0.0
142
1.0
143
1.0
 70
0
 72
1
 73
0
 74
0
  7

 75
0
147
1.0
148
0.0
149
0.0
100
AcDbLayout
  1
Layout1
 70
0
 71
1
 10
0.0
 20
0.0
 11
420.0
 21
297.0
 12
0.0
 22
0.0
 32
0.0
 14
0.0
 24
0.0
 34
0.0
 15
0.0
 25
0.0
 35
0.0
146
0.0
 13
0.0
 23
0.0
 33
0.0
 16
1.0
 26
0.0
 36
0.0
 17
0.0
 27
1.0
 37
0.0
 76
0
330
20F
345
0
346
0
  0
ENDSEC
  0
EOF
