  0
SECTION
  2
HEADER
  9
$ACADVER
  1
AC1018
  9
$ACADMAINTVER
 70
     0
  9
$DWGCODEPAGE
  3
ANSI_1252
  9
$INSBASE
 10
0.0
 20
0.0
 30
0.0
  9
$EXTMIN
 10
0.0
 20
0.0
 30
0.0
  9
$EXTMAX
 10
297.0
 20
210.0
 30
0.0
  9
$LIMMIN
 10
0.0
 20
0.0
  9
$LIMMAX
 10
297.0
 20
210.0
  9
$ORTHOMODE
 70
     0
  9
$REGENMODE
 70
     1
  9
$FILLMODE
 70
     1
  9
$QTEXTMODE
 70
     0
  9
$MIRRTEXT
 70
     1
  9
$LTSCALE
 40
1.0
  9
$ATTMODE
 70
     1
  9
$TEXTSIZE
 40
3.5
  9
$TRACEWID
 40
1.0
  9
$TEXTSTYLE
  7
Standard
  9
$CLAYER
  8
0
  9
$CELTYPE
  6
ByLayer
  9
$CECOLOR
 62
   256
  9
$CELTSCALE
 40
1.0
  9
$DISPSILH
 70
     0
  9
$DIMSCALE
 40
1.0
  9
$DIMASZ
 40
3.302
  9
$DIMEXO
 40
1.0
  9
$DIMDLI
 40
3.75
  9
$DIMRND
 40
0.0
  9
$DIMDLE
 40
0.0
  9
$DIMEXE
 40
1.0
  9
$DIMTP
 40
0.0
  9
$DIMTM
 40
0.0
  9
$DIMTXT
 40
3.5
  9
$DIMCEN
 40
2.5
  9
$DIMTSZ
 40
0.0
  9
$DIMTOL
 70
     0
  9
$DIMLIM
 70
     0
  9
$DIMTIH
 70
     1
  9
$DIMTOH
 70
     1
  9
$DIMSE1
 70
     0
  9
$DIMSE2
 70
     0
  9
$DIMTAD
 70
     1
  9
$DIMZIN
 70
     0
  9
$DIMBLK
  1

  9
$DIMASO
 70
     1
  9
$DIMSHO
 70
     1
  9
$DIMPOST
  1

  9
$DIMAPOST
  1

  9
$DIMALT
 70
     0
  9
$DIMALTD
 70
     3
  9
$DIMALTF
 40
0.0393700787
  9
$DIMLFAC
 40
1.0
  9
$DIMTOFL
 70
     1
  9
$DIMTVP
 40
0.0
  9
$DIMTIX
 70
     0
  9
$DIMSOXD
 70
     0
  9
$DIMSAH
 70
     0
  9
$DIMBLK1
  1

  9
$DIMBLK2
  1

  9
$DIMSTYLE
  2
ISO-25
  9
$DIMCLRD
 70
     0
  9
$DIMCLRE
 70
     0
  9
$DIMCLRT
 70
     0
  9
$DIMTFAC
 40
1.0
  9
$DIMGAP
 40
1.524
  9
$DIMJUST
 70
     0
  9
$DIMSD1
 70
     0
  9
$DIMSD2
 70
     0
  9
$DIMTOLJ
 70
     0
  9
$DIMTZIN
 70
     0
  9
$DIMALTZ
 70
     0
  9
$DIMALTTZ
 70
     0
  9
$DIMUPT
 70
     0
  9
$DIMDEC
 70
     2
  9
$DIMTDEC
 70
     2
  9
$DIMALTU
 70
     2
  9
$DIMALTTD
 70
     3
  9
$DIMTXSTY
  7
Standard
  9
$DIMAUNIT
 70
     0
  9
$DIMADEC
 70
     2
  9
$DIMALTRND
 40
0.0
  9
$DIMAZIN
 70
     0
  9
$DIMDSEP
 70
    44
  9
$DIMATFIT
 70
     3
  9
$DIMFRAC
 70
     0
  9
$DIMLDRBLK
  1

  9
$DIMLUNIT
 70
     2
  9
$DIMLWD
 70
    -2
  9
$DIMLWE
 70
    -2
  9
$DIMTMOVE
 70
     0
  9
$LUNITS
 70
     2
  9
$LUPREC
 70
     2
  9
$SKETCHINC
 40
1.0
  9
$FILLETRAD
 40
10.0
  9
$AUNITS
 70
     0
  9
$AUPREC
 70
     2
  9
$MENU
  1
.
  9
$ELEVATION
 40
0.0
  9
$PELEVATION
 40
0.0
  9
$THICKNESS
 40
0.0
  9
$LIMCHECK
 70
     0
  9
$CHAMFERA
 40
0.0
  9
$CHAMFERB
 40
0.0
  9
$CHAMFERC
 40
0.0
  9
$CHAMFERD
 40
0.0
  9
$SKPOLY
 70
     0
  9
$TDCREATE
 40
2457042.435169155
  9
$TDUCREATE
 40
2457042.393502488
  9
$TDUPDATE
 40
2457042.435169502
  9
$TDUUPDATE
 40
2457042.393502836
  9
$TDINDWG
 40
0.0000000116
  9
$TDUSRTIMER
 40
0.0000000116
  9
$USRTIMER
 70
     1
  9
$ANGBASE
 50
0.0
  9
$ANGDIR
 70
     0
  9
$PDMODE
 70
     0
  9
$PDSIZE
 40
-1.0
  9
$PLINEWID
 40
0.0
  9
$SPLFRAME
 70
     0
  9
$SPLINETYPE
 70
     6
  9
$SPLINESEGS
 70
     8
  9
$HANDSEED
  5
19B
  9
$SURFTAB1
 70
     6
  9
$SURFTAB2
 70
     6
  9
$SURFTYPE
 70
     6
  9
$SURFU
 70
     6
  9
$SURFV
 70
     6
  9
$UCSBASE
  2

  9
$UCSNAME
  2

  9
$UCSORG
 10
0.0
 20
0.0
 30
0.0
  9
$UCSXDIR
 10
1.0
 20
0.0
 30
0.0
  9
$UCSYDIR
 10
0.0
 20
1.0
 30
0.0
  9
$UCSORTHOREF
  2

  9
$UCSORTHOVIEW
 70
     0
  9
$UCSORGTOP
 10
0.0
 20
0.0
 30
0.0
  9
$UCSORGBOTTOM
 10
0.0
 20
0.0
 30
0.0
  9
$UCSORGLEFT
 10
0.0
 20
0.0
 30
0.0
  9
$UCSORGRIGHT
 10
0.0
 20
0.0
 30
0.0
  9
$UCSORGFRONT
 10
0.0
 20
0.0
 30
0.0
  9
$UCSORGBACK
 10
0.0
 20
0.0
 30
0.0
  9
$PUCSBASE
  2

  9
$PUCSNAME
  2

  9
$PUCSORG
 10
0.0
 20
0.0
 30
0.0
  9
$PUCSXDIR
 10
1.0
 20
0.0
 30
0.0
  9
$PUCSYDIR
 10
0.0
 20
1.0
 30
0.0
  9
$PUCSORTHOREF
  2

  9
$PUCSORTHOVIEW
 70
     0
  9
$PUCSORGTOP
 10
0.0
 20
0.0
 30
0.0
  9
$PUCSORGBOTTOM
 10
0.0
 20
0.0
 30
0.0
  9
$PUCSORGLEFT
 10
0.0
 20
0.0
 30
0.0
  9
$PUCSORGRIGHT
 10
0.0
 20
0.0
 30
0.0
  9
$PUCSORGFRONT
 10
0.0
 20
0.0
 30
0.0
  9
$PUCSORGBACK
 10
0.0
 20
0.0
 30
0.0
  9
$USERI1
 70
     0
  9
$USERI2
 70
     0
  9
$USERI3
 70
     0
  9
$USERI4
 70
     0
  9
$USERI5
 70
     0
  9
$USERR1
 40
0.0
  9
$USERR2
 40
0.0
  9
$USERR3
 40
0.0
  9
$USERR4
 40
0.0
  9
$USERR5
 40
0.0
  9
$WORLDVIEW
 70
     1
  9
$SHADEDGE
 70
     3
  9
$SHADEDIF
 70
    70
  9
$TILEMODE
 70
     1
  9
$MAXACTVP
 70
    64
  9
$PINSBASE
 10
0.0
 20
0.0
 30
0.0
  9
$PLIMCHECK
 70
     0
  9
$PEXTMIN
 10
1.0000000000E+20
 20
1.0000000000E+20
 30
1.0000000000E+20
  9
$PEXTMAX
 10
-1.0000000000E+20
 20
-1.0000000000E+20
 30
-1.0000000000E+20
  9
$PLIMMIN
 10
0.0
 20
0.0
  9
$PLIMMAX
 10
420.0
 20
297.0
  9
$UNITMODE
 70
     0
  9
$VISRETAIN
 70
     1
  9
$PLINEGEN
 70
     0
  9
$PSLTSCALE
 70
     1
  9
$TREEDEPTH
 70
  3020
  9
$CMLSTYLE
  2
Standard
  9
$CMLJUST
 70
     0
  9
$CMLSCALE
 40
20.0
  9
$PROXYGRAPHICS
 70
     1
  9
$MEASUREMENT
 70
     1
  9
$CELWEIGHT
370
    -1
  9
$ENDCAPS
280
     0
  9
$JOINSTYLE
280
     0
  9
$LWDISPLAY
290
     1
  9
$INSUNITS
 70
     4
  9
$HYPERLINKBASE
  1

  9
$STYLESHEET
  1

  9
$XEDIT
290
     1
  9
$CEPSNTYPE
380
     0
  9
$PSTYLEMODE
290
     1
  9
$FINGERPRINTGUID
  2
{546990FA-9F4F-4D8B-99B9-0079E47A7632}
  9
$VERSIONGUID
  2
{FAEB1C32-E019-11D5-929B-00C0DF256EC4}
  9
$EXTNAMES
290
     1
  9
$PSVPSCALE
 40
0.0
  9
$OLESTARTUP
290
     0
  9
$SORTENTS
280
   127
  9
$INDEXCTL
280
     0
  9
$HIDETEXT
280
     1
  9
$XCLIPFRAME
290
     0
  9
$HALOGAP
280
     0
  9
$OBSCOLOR
 70
   257
  9
$OBSLTYPE
280
     0
  9
$INTERSECTIONDISPLAY
280
     0
  9
$INTERSECTIONCOLOR
 70
   257
  9
$DIMASSOC
280
     2
  9
$PROJECTNAME
  1

  0
ENDSEC
  0
SECTION
  2
CLASSES
  0
CLASS
  1
ACDBDICTIONARYWDFLT
  2
AcDbDictionaryWithDefault
  3
ObjectDBX Classes
 90
        0
 91
        4
280
     0
281
     0
  0
CLASS
  1
VISUALSTYLE
  2
AcDbVisualStyle
  3
ObjectDBX Classes
 90
     4095
 91
        4
280
     0
281
     0
  0
CLASS
  1
MATERIAL
  2
AcDbMaterial
  3
ObjectDBX Classes
 90
     1153
 91
        4
280
     0
281
     0
  0
CLASS
  1
SCALE
  2
AcDbScale
  3
ObjectDBX Classes
 90
     1153
 91
        4
280
     0
281
     0
  0
CLASS
  1
SUN
  2
AcDbSun
  3
SCENEOE
 90
     1153
 91
        4
280
     0
281
     0
  0
CLASS
  1
DICTIONARYVAR
  2
AcDbDictionaryVar
  3
ObjectDBX Classes
 90
        0
 91
        4
280
     0
281
     0
  0
ENDSEC
  0
SECTION
  2
TABLES
  0
TABLE
  2
VPORT
  5
8
330
0
100
AcDbSymbolTable
 70
     1
  0
VPORT
  5
29
330
8
100
AcDbSymbolTableRecord
100
AcDbViewportTableRecord
  2
*Active
 70
     0
 10
0.0
 20
0.0
 11
1.0
 21
1.0
 12
148.5
 22
105.0
 13
0.0
 23
0.0
 14
10.0
 24
10.0
 15
10.0
 25
10.0
 16
0.0
 26
0.0
 36
1.0
 17
0.0
 27
0.0
 37
0.0
 40
210.0
 41
1.4142857143
 42
50.0
 43
0.0
 44
0.0
 50
0.0
 51
0.0
 71
     0
 72
  2000
 73
     1
 74
     3
 75
     0
 76
     0
 77
     0
 78
     0
281
     0
 65
     1
110
0.0
120
0.0
130
0.0
111
1.0
121
0.0
131
0.0
112
0.0
122
1.0
132
0.0
 79
     0
146
0.0
  0
ENDTAB
  0
TABLE
  2
LTYPE
  5
5
330
0
100
AcDbSymbolTable
 70
     8
  0
LTYPE
  5
14
330
5
100
AcDbSymbolTableRecord
100
AcDbLinetypeTableRecord
  2
ByBlock
 70
     0
  3

 72
    65
 73
     0
 40
0.0
  0
LTYPE
  5
15
330
5
100
AcDbSymbolTableRecord
100
AcDbLinetypeTableRecord
  2
ByLayer
 70
     0
  3

 72
    65
 73
     0
 40
0.0
  0
LTYPE
  5
16
330
5
100
AcDbSymbolTableRecord
100
AcDbLinetypeTableRecord
  2
Continuous
 70
     0
  3
Solid line
 72
    65
 73
     0
 40
0.0
  0
LTYPE
  5
6A
330
5
100
AcDbSymbolTableRecord
100
AcDbLinetypeTableRecord
  2
SLD-Durchgehend
 70
     0
  3
SolidWorks Line Style
 72
    65
 73
     0
 40
0.0
  0
LTYPE
  5
6B
330
5
100
AcDbSymbolTableRecord
100
AcDbLinetypeTableRecord
  2
SLD-Gestrichelt
 70
     0
  3
SolidWorks Line Style
 72
    65
 73
     2
 40
1.905
 49
1.27
 74
     0
 49
-0.635
 74
     0
  0
LTYPE
  5
6C
330
5
100
AcDbSymbolTableRecord
100
AcDbLinetypeTableRecord
  2
SLD-Phantom
 70
     0
  3
SolidWorks Line Style
 72
    65
 73
     6
 40
12.7
 49
6.35
 74
     0
 49
-1.27
 74
     0
 49
1.27
 74
     0
 49
-1.27
 74
     0
 49
1.27
 74
     0
 49
-1.27
 74
     0
  0
LTYPE
  5
6D
330
5
100
AcDbSymbolTableRecord
100
AcDbLinetypeTableRecord
  2
SLD-Kette
 70
     0
  3
SolidWorks Line Style
 72
    65
 73
     4
 40
10.16
 49
6.35
 74
     0
 49
-1.27
 74
     0
 49
1.27
 74
     0
 49
-1.27
 74
     0
  0
LTYPE
  5
6E
330
5
100
AcDbSymbolTableRecord
100
AcDbLinetypeTableRecord
  2
SLD-Punktstrich
 70
     0
  3
SolidWorks Line Style
 72
    65
 73
     4
 40
19.05
 49
15.24
 74
     0
 49
-1.27
 74
     0
 49
1.27
 74
     0
 49
-1.27
 74
     0
  0
LTYPE
  5
6F
330
5
100
AcDbSymbolTableRecord
100
AcDbLinetypeTableRecord
  2
SLD-Naht
 70
     0
  3
SolidWorks Line Style
 72
    65
 73
     2
 40
0.635
 49
0.0
 74
     0
 49
-0.635
 74
     0
  0
LTYPE
  5
70
330
5
100
AcDbSymbolTableRecord
100
AcDbLinetypeTableRecord
  2
SLD-Dicke-Dünne-Kette
 70
     0
  3
SolidWorks Line Style
 72
    65
 73
     4
 40
10.16
 49
6.35
 74
     0
 49
-1.27
 74
     0
 49
1.27
 74
     0
 49
-1.27
 74
     0
  0
ENDTAB
  0
TABLE
  2
LAYER
  5
2
330
0
100
AcDbSymbolTable
 70
     3
  0
LAYER
  5
10
330
2
100
AcDbSymbolTableRecord
100
AcDbLayerTableRecord
  2
0
 70
     0
 62
     7
  6
Continuous
370
    -3
390
F
  0
LAYER
  5
71
330
2
100
AcDbSymbolTableRecord
100
AcDbLayerTableRecord
  2
1
 70
     0
 62
     4
  6
Continuous
370
    -1
390
F
  0
LAYER
  5
72
330
2
100
AcDbSymbolTableRecord
100
AcDbLayerTableRecord
  2
2
 70
     0
 62
     7
  6
SLD-Durchgehend
370
    -3
390
F
  0
ENDTAB
  0
TABLE
  2
STYLE
  5
3
330
0
100
AcDbSymbolTable
 70
     2
  0
STYLE
  5
11
330
3
100
AcDbSymbolTableRecord
100
AcDbTextStyleTableRecord
  2
Standard
 70
     0
 40
0.0
 41
1.0
 50
0.0
 71
     0
 42
3.5
  3
txt
  4

  0
STYLE
  5
154
330
3
100
AcDbSymbolTableRecord
100
AcDbTextStyleTableRecord
  2
SLDTEXTSTYLE0
 70
     0
 40
0.0
 41
0.75
 50
0.0
 71
     0
 42
3.5
  3
TXT
  4

  0
ENDTAB
  0
TABLE
  2
VIEW
  5
6
330
0
100
AcDbSymbolTable
 70
     0
  0
ENDTAB
  0
TABLE
  2
UCS
  5
7
330
0
100
AcDbSymbolTable
 70
     0
  0
ENDTAB
  0
TABLE
  2
APPID
  5
9
330
0
100
AcDbSymbolTable
 70
     1
  0
APPID
  5
12
330
9
100
AcDbSymbolTableRecord
100
AcDbRegAppTableRecord
  2
ACAD
 70
     0
  0
ENDTAB
  0
TABLE
  2
DIMSTYLE
  5
A
330
0
100
AcDbSymbolTable
 70
     2
100
AcDbDimStyleTable
  0
DIMSTYLE
105
27
330
A
100
AcDbSymbolTableRecord
100
AcDbDimStyleTableRecord
  2
ISO-25
 70
     0
 41
2.5
 42
0.625
 43
3.75
 44
1.25
 73
     0
 74
     0
 77
     1
 78
     8
140
2.5
141
2.5
143
0.0393700787
147
0.625
171
     3
172
     1
178
     0
271
     2
272
     2
274
     3
278
    44
283
     0
284
     8
340
11
  0
DIMSTYLE
105
155
102
{ACAD_REACTORS
330
153
330
15F
330
169
330
173
102
}
330
A
100
AcDbSymbolTableRecord
100
AcDbDimStyleTableRecord
  2
SLDDIMSTYLE0
 70
     0
 41
3.302
 44
0.0
 45
0.000000001
 73
     0
 74
     0
 77
     1
 78
    12
 79
     3
140
3.5
147
0.875
173
     1
178
     0
271
     2
272
     2
276
     2
284
    12
340
154
  0
ENDTAB
  0
TABLE
  2
BLOCK_RECORD
  5
1
330
0
100
AcDbSymbolTable
 70
     7
  0
BLOCK_RECORD
  5
1F
330
1
100
AcDbSymbolTableRecord
100
AcDbBlockTableRecord
  2
*Model_Space
340
22
  0
BLOCK_RECORD
  5
1B
330
1
100
AcDbSymbolTableRecord
100
AcDbBlockTableRecord
  2
*Paper_Space
340
1E
  0
BLOCK_RECORD
  5
23
330
1
100
AcDbSymbolTableRecord
100
AcDbBlockTableRecord
  2
*Paper_Space0
340
26
  0
BLOCK_RECORD
  5
156
330
1
100
AcDbSymbolTableRecord
100
AcDbBlockTableRecord
  2
_D
340
0
  0
BLOCK_RECORD
  5
160
330
1
100
AcDbSymbolTableRecord
100
AcDbBlockTableRecord
  2
_D_1
340
0
  0
BLOCK_RECORD
  5
16A
330
1
100
AcDbSymbolTableRecord
100
AcDbBlockTableRecord
  2
_D_2
340
0
  0
BLOCK_RECORD
  5
174
330
1
100
AcDbSymbolTableRecord
100
AcDbBlockTableRecord
  2
_D_3
340
0
  0
BLOCK_RECORD
  5
17D
330
1
100
AcDbSymbolTableRecord
100
AcDbBlockTableRecord
  2
SW_CENTERMARKSYMBOL_0
340
0
102
{BLKREFS
331
188
102
}
  0
BLOCK_RECORD
  5
189
330
1
100
AcDbSymbolTableRecord
100
AcDbBlockTableRecord
  2
SW_CENTERMARKSYMBOL_1
340
0
102
{BLKREFS
331
194
102
}
  0
ENDTAB
  0
ENDSEC
  0
SECTION
  2
BLOCKS
  0
BLOCK
  5
20
330
1F
100
AcDbEntity
  8
0
100
AcDbBlockBegin
  2
*Model_Space
 70
     0
 10
0.0
 20
0.0
 30
0.0
  3
*Model_Space
  1
*Model_Space
  0
ENDBLK
  5
21
330
1F
100
AcDbEntity
  8
0
100
AcDbBlockEnd
  0
BLOCK
  5
1C
330
1B
100
AcDbEntity
 67
     1
  8
0
100
AcDbBlockBegin
  2
*Paper_Space
 70
     0
 10
0.0
 20
0.0
 30
0.0
  3
*Paper_Space
  1
*Paper_Space
  0
ENDBLK
  5
1D
330
1B
100
AcDbEntity
 67
     1
  8
0
100
AcDbBlockEnd
  0
BLOCK
  5
24
330
23
100
AcDbEntity
  8
0
100
AcDbBlockBegin
  2
*Paper_Space0
 70
     0
 10
0.0
 20
0.0
 30
0.0
  3
*Paper_Space0
  1
*Paper_Space0
  0
ENDBLK
  5
25
330
23
100
AcDbEntity
  8
0
100
AcDbBlockEnd
  0
BLOCK
  5
157
330
156
100
AcDbEntity
  8
0
100
AcDbBlockBegin
  2
_D
 70
     0
 10
0.0
 20
0.0
 30
0.0
  3
_D
  1
_D
  0
SOLID
  5
159
330
156
100
AcDbEntity
  8
2
 62
     7
420
 16777215
100
AcDbTrace
 10
150.0027086782
 20
43.9552149703
 30
0.0
 11
146.7007086782
 21
44.4632149703
 31
0.0
 12
146.7007086782
 22
43.4472149703
 32
0.0
 13
146.7007086782
 23
43.4472149703
 33
0.0
  0
SOLID
  5
15A
330
156
100
AcDbEntity
  8
2
 62
     7
420
 16777215
100
AcDbTrace
 10
0.0027086782
 20
43.9552149703
 30
0.0
 11
3.3047086782
 21
43.4472149703
 31
0.0
 12
3.3047086782
 22
44.4632149703
 32
0.0
 13
3.3047086782
 23
44.4632149703
 33
0.0
  0
LINE
  5
15B
330
156
100
AcDbEntity
  8
2
 62
     7
420
 16777215
100
AcDbLine
 10
150.0027086782
 20
32.9980059343
 30
0.0
 11
150.0027086782
 21
44.9552149703
 31
0.0
  0
LINE
  5
15C
330
156
100
AcDbEntity
  8
2
 62
     7
420
 16777215
100
AcDbLine
 10
0.0027086782
 20
0.9980059343
 30
0.0
 11
0.0027086782
 21
44.9552149703
 31
0.0
  0
LINE
  5
15D
330
156
100
AcDbEntity
  8
2
 62
     7
420
 16777215
100
AcDbLine
 10
150.0027086782
 20
43.9552149703
 30
0.0
 11
0.0027086782
 21
43.9552149703
 31
0.0
  0
MTEXT
  5
15E
330
156
100
AcDbEntity
  8
2
 62
     7
420
 16777215
100
AcDbMText
 10
71.1235420043
 20
48.4669518849
 30
0.0
 40
3.5
 41
0.0
 71
     1
 72
     1
  1
150
  7
SLDTEXTSTYLE0
 73
     1
 44
1.0
  0
ENDBLK
  5
158
330
156
100
AcDbEntity
  8
0
100
AcDbBlockEnd
  0
BLOCK
  5
161
330
160
100
AcDbEntity
  8
0
100
AcDbBlockBegin
  2
_D_1
 70
     0
 10
0.0
 20
0.0
 30
0.0
  3
_D_1
  1
_D_1
  0
SOLID
  5
163
330
160
100
AcDbEntity
  8
2
 62
     7
420
 16777215
100
AcDbTrace
 10
-5.9972913218
 20
24.9980059343
 30
0.0
 11
-6.5052913218
 21
21.6960059343
 31
0.0
 12
-5.4892913218
 22
21.6960059343
 32
0.0
 13
-5.4892913218
 23
21.6960059343
 33
0.0
  0
SOLID
  5
164
330
160
100
AcDbEntity
  8
2
 62
     7
420
 16777215
100
AcDbTrace
 10
-5.9972913218
 20
-0.0019940657
 30
0.0
 11
-5.4892913218
 21
3.3000059343
 31
0.0
 12
-6.5052913218
 22
3.3000059343
 32
0.0
 13
-6.5052913218
 23
3.3000059343
 33
0.0
  0
LINE
  5
165
330
160
100
AcDbEntity
  8
2
 62
     7
420
 16777215
100
AcDbLine
 10
0.0027086782
 20
24.9980059343
 30
0.0
 11
-6.9972913218
 21
24.9980059343
 31
0.0
  0
LINE
  5
166
330
160
100
AcDbEntity
  8
2
 62
     7
420
 16777215
100
AcDbLine
 10
0.0027086782
 20
-0.0019940657
 30
0.0
 11
-6.9972913218
 21
-0.0019940657
 31
0.0
  0
LINE
  5
167
330
160
100
AcDbEntity
  8
2
 62
     7
420
 16777215
100
AcDbLine
 10
-5.9972913218
 20
24.9980059343
 30
0.0
 11
-5.9972913218
 21
-0.0019940657
 31
0.0
  0
MTEXT
  5
168
330
160
100
AcDbEntity
  8
2
 62
     7
420
 16777215
100
AcDbMText
 10
-10.5090282364
 20
9.9118947408
 30
0.0
 40
3.5
 41
0.0
 71
     1
 72
     1
  1
25
  7
SLDTEXTSTYLE0
 11
-7.044195017643634E-15
 21
1.0
 31
0.0
 73
     1
 44
1.0
  0
ENDBLK
  5
162
330
160
100
AcDbEntity
  8
0
100
AcDbBlockEnd
  0
BLOCK
  5
16B
330
16A
100
AcDbEntity
  8
0
100
AcDbBlockBegin
  2
_D_2
 70
     0
 10
0.0
 20
0.0
 30
0.0
  3
_D_2
  1
_D_2
  0
SOLID
  5
16D
330
16A
100
AcDbEntity
  8
2
 62
     7
420
 16777215
100
AcDbTrace
 10
156.0119173109
 20
31.9980059343
 30
0.0
 11
155.5039173109
 21
28.6960059343
 31
0.0
 12
156.5199173109
 22
28.6960059343
 32
0.0
 13
156.5199173109
 23
28.6960059343
 33
0.0
  0
SOLID
  5
16E
330
16A
100
AcDbEntity
  8
2
 62
     7
420
 16777215
100
AcDbTrace
 10
156.0119173109
 20
-0.0019940657
 30
0.0
 11
156.5199173109
 21
3.3000059343
 31
0.0
 12
155.5039173109
 22
3.3000059343
 32
0.0
 13
155.5039173109
 23
3.3000059343
 33
0.0
  0
LINE
  5
16F
330
16A
100
AcDbEntity
  8
2
 62
     7
420
 16777215
100
AcDbLine
 10
151.0027086782
 20
31.9980059343
 30
0.0
 11
157.0119173109
 21
31.9980059343
 31
0.0
  0
LINE
  5
170
330
16A
100
AcDbEntity
  8
2
 62
     7
420
 16777215
100
AcDbLine
 10
151.0027086782
 20
-0.0019940657
 30
0.0
 11
157.0119173109
 21
-0.0019940657
 31
0.0
  0
LINE
  5
171
330
16A
100
AcDbEntity
  8
2
 62
     7
420
 16777215
100
AcDbLine
 10
156.0119173109
 20
31.9980059343
 30
0.0
 11
156.0119173109
 21
-0.0019940657
 31
0.0
  0
MTEXT
  5
172
330
16A
100
AcDbEntity
  8
2
 62
     7
420
 16777215
100
AcDbMText
 10
151.5001803963
 20
13.4118947408
 30
0.0
 40
3.5
 41
0.0
 71
     1
 72
     1
  1
32
  7
SLDTEXTSTYLE0
 11
-7.044195017643634E-15
 21
1.0
 31
0.0
 73
     1
 44
1.0
  0
ENDBLK
  5
16C
330
16A
100
AcDbEntity
  8
0
100
AcDbBlockEnd
  0
BLOCK
  5
175
330
174
100
AcDbEntity
  8
0
100
AcDbBlockBegin
  2
_D_3
 70
     0
 10
0.0
 20
0.0
 30
0.0
  3
_D_3
  1
_D_3
  0
SOLID
  5
177
330
174
100
AcDbEntity
  8
2
 62
     7
420
 16777215
100
AcDbTrace
 10
126.0027086782
 20
37.9552149703
 30
0.0
 11
129.3047086782
 21
37.4472149703
 31
0.0
 12
129.3047086782
 22
38.4632149703
 32
0.0
 13
129.3047086782
 23
38.4632149703
 33
0.0
  0
SOLID
  5
178
330
174
100
AcDbEntity
  8
2
 62
     7
420
 16777215
100
AcDbTrace
 10
150.0027086782
 20
37.9552149703
 30
0.0
 11
146.7007086782
 21
38.4632149703
 31
0.0
 12
146.7007086782
 22
37.4472149703
 32
0.0
 13
146.7007086782
 23
37.4472149703
 33
0.0
  0
LINE
  5
179
330
174
100
AcDbEntity
  8
2
 62
     7
420
 16777215
100
AcDbLine
 10
126.0027086782
 20
0.9980059343
 30
0.0
 11
126.0027086782
 21
38.9552149703
 31
0.0
  0
LINE
  5
17A
330
174
100
AcDbEntity
  8
2
 62
     7
420
 16777215
100
AcDbLine
 10
150.0027086782
 20
32.9980059343
 30
0.0
 11
150.0027086782
 21
38.9552149703
 31
0.0
  0
LINE
  5
17B
330
174
100
AcDbEntity
  8
2
 62
     7
420
 16777215
100
AcDbLine
 10
126.0027086782
 20
37.9552149703
 30
0.0
 11
150.0027086782
 21
37.9552149703
 31
0.0
  0
MTEXT
  5
17C
330
174
100
AcDbEntity
  8
2
 62
     7
420
 16777215
100
AcDbMText
 10
135.4165974846
 20
42.4669518849
 30
0.0
 40
3.5
 41
0.0
 71
     1
 72
     1
  1
24
  7
SLDTEXTSTYLE0
 73
     1
 44
1.0
  0
ENDBLK
  5
176
330
174
100
AcDbEntity
  8
0
100
AcDbBlockEnd
  0
BLOCK
  5
17E
330
17D
100
AcDbEntity
  8
0
100
AcDbBlockBegin
  2
SW_CENTERMARKSYMBOL_0
 70
     0
 10
0.0
 20
0.0
 30
0.0
  3
SW_CENTERMARKSYMBOL_0
  1
SW_CENTERMARKSYMBOL_0
  0
LINE
  5
180
330
17D
100
AcDbEntity
  8
0
  6
SLD-Punktstrich
 62
     0
370
    15
100
AcDbLine
 10
0.0
 20
0.0
 30
0.0
 11
0.0
 21
2.5
 31
0.0
  0
LINE
  5
181
330
17D
100
AcDbEntity
  8
0
  6
SLD-Punktstrich
 62
     0
370
    15
100
AcDbLine
 10
0.0
 20
0.0
 30
0.0
 11
-2.5
 21
0.0
 31
0.0
  0
LINE
  5
182
330
17D
100
AcDbEntity
  8
0
  6
SLD-Punktstrich
 62
     0
370
    15
100
AcDbLine
 10
0.0
 20
0.0
 30
0.0
 11
0.0
 21
-2.5
 31
0.0
  0
LINE
  5
183
330
17D
100
AcDbEntity
  8
0
  6
SLD-Punktstrich
 62
     0
370
    15
100
AcDbLine
 10
0.0
 20
0.0
 30
0.0
 11
2.5
 21
0.0
 31
0.0
  0
LINE
  5
184
330
17D
100
AcDbEntity
  8
0
  6
SLD-Punktstrich
 62
     0
370
    15
100
AcDbLine
 10
0.0
 20
2.5
 30
0.0
 11
0.0
 21
4.7
 31
0.0
  0
LINE
  5
185
330
17D
100
AcDbEntity
  8
0
  6
SLD-Punktstrich
 62
     0
370
    15
100
AcDbLine
 10
-2.5
 20
0.0
 30
0.0
 11
-4.7
 21
0.0
 31
0.0
  0
LINE
  5
186
330
17D
100
AcDbEntity
  8
0
  6
SLD-Punktstrich
 62
     0
370
    15
100
AcDbLine
 10
0.0
 20
-2.5
 30
0.0
 11
0.0
 21
-4.7
 31
0.0
  0
LINE
  5
187
330
17D
100
AcDbEntity
  8
0
  6
SLD-Punktstrich
 62
     0
370
    15
100
AcDbLine
 10
2.5
 20
0.0
 30
0.0
 11
4.7
 21
0.0
 31
0.0
  0
ENDBLK
  5
17F
330
17D
100
AcDbEntity
  8
0
100
AcDbBlockEnd
  0
BLOCK
  5
18A
330
189
100
AcDbEntity
  8
0
100
AcDbBlockBegin
  2
SW_CENTERMARKSYMBOL_1
 70
     0
 10
0.0
 20
0.0
 30
0.0
  3
SW_CENTERMARKSYMBOL_1
  1
SW_CENTERMARKSYMBOL_1
  0
LINE
  5
18C
330
189
100
AcDbEntity
  8
0
  6
SLD-Punktstrich
 62
     0
370
    15
100
AcDbLine
 10
0.0
 20
0.0
 30
0.0
 11
0.0
 21
2.5
 31
0.0
  0
LINE
  5
18D
330
189
100
AcDbEntity
  8
0
  6
SLD-Punktstrich
 62
     0
370
    15
100
AcDbLine
 10
0.0
 20
0.0
 30
0.0
 11
-2.5
 21
0.0
 31
0.0
  0
LINE
  5
18E
330
189
100
AcDbEntity
  8
0
  6
SLD-Punktstrich
 62
     0
370
    15
100
AcDbLine
 10
0.0
 20
0.0
 30
0.0
 11
0.0
 21
-2.5
 31
0.0
  0
LINE
  5
18F
330
189
100
AcDbEntity
  8
0
  6
SLD-Punktstrich
 62
     0
370
    15
100
AcDbLine
 10
0.0
 20
0.0
 30
0.0
 11
2.5
 21
0.0
 31
0.0
  0
LINE
  5
190
330
189
100
AcDbEntity
  8
0
  6
SLD-Punktstrich
 62
     0
370
    15
100
AcDbLine
 10
0.0
 20
2.5
 30
0.0
 11
0.0
 21
4.7
 31
0.0
  0
LINE
  5
191
330
189
100
AcDbEntity
  8
0
  6
SLD-Punktstrich
 62
     0
370
    15
100
AcDbLine
 10
-2.5
 20
0.0
 30
0.0
 11
-4.7
 21
0.0
 31
0.0
  0
LINE
  5
192
330
189
100
AcDbEntity
  8
0
  6
SLD-Punktstrich
 62
     0
370
    15
100
AcDbLine
 10
0.0
 20
-2.5
 30
0.0
 11
0.0
 21
-4.7
 31
0.0
  0
LINE
  5
193
330
189
100
AcDbEntity
  8
0
  6
SLD-Punktstrich
 62
     0
370
    15
100
AcDbLine
 10
2.5
 20
0.0
 30
0.0
 11
4.7
 21
0.0
 31
0.0
  0
ENDBLK
  5
18B
330
189
100
AcDbEntity
  8
0
100
AcDbBlockEnd
  0
ENDSEC
  0
SECTION
  2
ENTITIES
  0
LINE
  5
73
330
1F
100
AcDbEntity
  8
0
  6
SLD-Punktstrich
 62
     7
100
AcDbLine
 10
0.0027086782
 20
-0.0019940657
 30
0.0
 11
150.0027086782
 21
-0.0019940657
 31
0.0
  0
POINT
  5
74
330
1F
100
AcDbEntity
  8
1
 62
     4
420
    65535
100
AcDbPoint
 10
150.0027086782
 20
-0.0019940657
 30
0.0
  0
POINT
  5
75
330
1F
100
AcDbEntity
  8
1
 62
     4
420
    65535
100
AcDbPoint
 10
126.0027086782
 20
-0.0019940657
 30
0.0
  0
POINT
  5
76
330
1F
100
AcDbEntity
  8
1
 62
     4
420
    65535
100
AcDbPoint
 10
150.0027086782
 20
31.9980059343
 30
0.0
  0
LINE
  5
77
330
1F
100
AcDbEntity
  8
1
 62
     4
420
    65535
100
AcDbLine
 10
135.02577482
 20
31.0107385049
 30
0.0
 11
134.8712562701
 21
30.856219955
 31
0.0
  0
SPLINE
  5
78
330
1F
100
AcDbEntity
  8
1
 62
     4
420
    65535
100
AcDbSpline
210
0.0
220
0.0
230
1.0
 70
     8
 71
     3
 72
     9
 73
     5
 74
     0
 42
0.000000001
 43
0.00000001
 40
0.0
 40
0.0
 40
0.0
 40
0.0
 40
0.6395406682787788
 40
0.9999999999999999
 40
0.9999999999999999
 40
0.9999999999999999
 40
0.9999999999999999
 10
144.6967328246453
 20
18.58946971040337
 30
0.0
 10
144.7176659859098
 20
18.7600502111593
 30
0.0
 10
144.7503975420138
 20
19.02677367256952
 30
0.0
 10
144.7528617627354
 20
19.29555287288532
 30
0.0
 10
144.7537500140899
 20
19.39243684381172
 30
0.0
  0
LINE
  5
79
330
1F
100
AcDbEntity
  8
1
 62
     4
420
    65535
100
AcDbLine
 10
144.7537500141
 20
19.3924368438
 30
0.0
 11
144.7559899038
 21
20.0441109017
 31
0.0
  0
ARC
  5
7A
330
1F
100
AcDbEntity
  8
1
 62
     4
420
    65535
100
AcDbCircle
 10
143.555996992
 20
20.0482354356
 30
0.0
 40
1.200000000000028
100
AcDbArc
 50
359.8030676248
 51
3.4985423085
  0
LINE
  5
7B
330
1F
100
AcDbEntity
  8
1
 62
     4
420
    65535
100
AcDbLine
 10
144.7537606136
 20
20.1214632101
 30
0.0
 11
144.3410182554
 21
26.8725598355
 31
0.0
  0
LINE
  5
7C
330
1F
100
AcDbEntity
  8
1
 62
     4
420
    65535
100
AcDbLine
 10
136.5043103975
 20
11.4656276822
 30
0.0
 11
136.7054365654
 21
11.8379478066
 31
0.0
  0
LINE
  5
7D
330
1F
100
AcDbEntity
  8
1
 62
     4
420
    65535
100
AcDbLine
 10
136.6159223519
 20
11.8700907363
 30
0.0
 11
138.3498387756
 21
11.2474728131
 31
0.0
  0
LINE
  5
7E
330
1F
100
AcDbEntity
  8
1
 62
     4
420
    65535
100
AcDbLine
 10
144.3527230161
 20
15.5197835748
 30
0.0
 11
144.7041543944
 21
18.5558212393
 31
0.0
  0
ARC
  5
7F
330
1F
100
AcDbEntity
  8
1
 62
     4
420
    65535
100
AcDbCircle
 10
136.328343804
 20
11.5606842862
 30
0.0
 40
0.2000000000000125
100
AcDbArc
 50
315.0
 51
331.6222209736
  0
LINE
  5
80
330
1F
100
AcDbEntity
  8
1
 62
     4
420
    65535
100
AcDbLine
 10
136.2905689434
 20
11.2400667131
 30
0.0
 11
136.4697651602
 21
11.4192629299
 31
0.0
  0
SPLINE
  5
81
330
1F
100
AcDbEntity
  8
1
 62
     4
420
    65535
100
AcDbSpline
210
0.0
220
0.0
230
1.0
 70
     8
 71
     3
 72
    13
 73
     9
 74
     0
 42
0.000000001
 43
0.00000001
 40
0.0
 40
0.0
 40
0.0
 40
0.0
 40
0.1106760726940432
 40
0.3235669599052635
 40
0.5379460058747692
 40
0.7528682529675711
 40
0.947352920816311
 40
1.0
 40
1.0
 40
1.0
 40
1.0
 10
133.1429574974294
 20
16.31557605503846
 30
0.0
 10
133.1221368833101
 20
16.25845157985056
 30
0.0
 10
133.0612667905255
 20
16.09144535779365
 30
0.0
 10
132.9381157974748
 20
15.81940823652567
 30
0.0
 10
132.7761167838967
 20
15.52982560439909
 30
0.0
 10
132.6153593897978
 20
15.3034502258929
 30
0.0
 10
132.503797992651
 20
15.18456232321872
 30
0.0
 10
132.4534288631058
 20
15.14286173263786
 30
0.0
 10
132.4426986045153
 20
15.1339781540581
 30
0.0
  0
LINE
  5
82
330
1F
100
AcDbEntity
  8
1
 62
     4
420
    65535
100
AcDbLine
 10
133.5845962082
 20
17.5791085599
 30
0.0
 11
133.1429574974
 21
16.315576055
 31
0.0
  0
LINE
  5
83
330
1F
100
AcDbEntity
  8
1
 62
     4
420
    65535
100
AcDbLine
 10
143.5312592544
 20
12.5889333129
 30
0.0
 11
143.9728979651
 21
13.8524658178
 31
0.0
  0
LINE
  5
84
330
1F
100
AcDbEntity
  8
1
 62
     4
420
    65535
100
AcDbLine
 10
142.4386207133
 20
28.4395978485
 30
0.0
 11
142.3037439314
 21
28.4391810266
 31
0.0
  0
SPLINE
  5
85
330
1F
100
AcDbEntity
  8
1
 62
     4
420
    65535
100
AcDbSpline
210
0.0
220
0.0
230
1.0
 70
     8
 71
     3
 72
    11
 73
     7
 74
     0
 42
0.000000001
 43
0.00000001
 40
0.0
 40
0.0
 40
0.0
 40
0.0
 40
0.2530953267394163
 40
0.5811352077018163
 40
0.910790848931239
 40
1.0
 40
1.0
 40
1.0
 40
1.0
 10
143.6400396545524
 20
28.0101035001202
 30
0.0
 10
143.5517702420019
 20
28.07568933027494
 30
0.0
 10
143.3490937878091
 20
28.22628173954735
 30
0.0
 10
142.9796928359049
 20
28.37744659526924
 30
0.0
 10
142.658615897734
 20
28.43609742350339
 30
0.0
 10
142.4772481294447
 20
28.43898323334221
 30
0.0
 10
142.4386207133003
 20
28.43959784848915
 30
0.0
  0
LINE
  5
86
330
1F
100
AcDbEntity
  8
1
 62
     4
420
    65535
100
AcDbLine
 10
143.826774882
 20
27.8557914998
 30
0.0
 11
143.6400396546
 21
28.0101035001
 31
0.0
  0
SPLINE
  5
87
330
1F
100
AcDbEntity
  8
1
 62
     4
420
    65535
100
AcDbSpline
210
0.0
220
0.0
230
1.0
 70
     8
 71
     3
 72
    10
 73
     6
 74
     0
 42
0.000000001
 43
0.00000001
 40
0.0
 40
0.0
 40
0.0
 40
0.0
 40
0.1833287048615624
 40
0.9124446117316658
 40
1.0
 40
1.0
 40
1.0
 40
1.0
 10
144.3389455755214
 20
26.85014429496857
 30
0.0
 10
144.3373131995955
 20
26.88524655194485
 30
0.0
 10
144.3291887074757
 20
27.05995386393841
 30
0.0
 10
144.2858495178699
 20
27.25211423129102
 30
0.0
 10
144.218704404862
 20
27.39335196150724
 30
0.0
 10
144.2115057724689
 20
27.40849406871835
 30
0.0
  0
LINE
  5
88
330
1F
100
AcDbEntity
  8
1
 62
     4
420
    65535
100
AcDbLine
 10
141.270137621
 20
27.967928738
 30
0.0
 11
141.1916090499
 21
27.8894001669
 31
0.0
  0
LINE
  5
89
330
1F
100
AcDbEntity
  8
1
 62
     4
420
    65535
100
AcDbLine
 10
149.1659312152
 20
31.954124539
 30
0.0
 11
135.5411391609
 21
31.2396276604
 31
0.0
  0
ARC
  5
8A
330
1F
100
AcDbEntity
  8
1
 62
     4
420
    65535
100
AcDbCircle
 10
149.2077497143
 20
31.1518795036
 30
0.0
 40
0.8033342291649108
100
AcDbArc
 50
333.8892214534
 51
92.983947252
  0
LINE
  5
8B
330
1F
100
AcDbEntity
  8
1
 62
     4
420
    65535
100
AcDbLine
 10
144.737615007
 20
20.3855518067
 30
0.0
 11
149.9290995064
 21
30.7983256023
 31
0.0
  0
LINE
  5
8C
330
1F
100
AcDbEntity
  8
1
 62
     4
420
    65535
100
AcDbLine
 10
134.9289341217
 20
30.0117028558
 30
0.0
 11
138.5519836475
 21
24.5246866396
 31
0.0
  0
ARC
  5
8D
330
1F
100
AcDbEntity
  8
1
 62
     4
420
    65535
100
AcDbCircle
 10
135.5838674988
 20
30.4517490639
 30
0.0
 40
0.7890363703008577
100
AcDbArc
 50
93.1042314828
 51
213.8969408069
  0
ARC
  5
8E
330
1F
100
AcDbEntity
  8
1
 62
     4
420
    65535
100
AcDbCircle
 10
142.6551762664
 20
26.8600211942
 30
0.0
 40
2.098662171850213
100
AcDbArc
 50
326.8355203384
 51
173.7370440088
  0
ARC
  5
8F
330
1F
100
AcDbEntity
  8
1
 62
     4
420
    65535
100
AcDbCircle
 10
142.6390902204
 20
26.8466396586
 30
0.0
 40
1.900815079614017
100
AcDbArc
 50
336.9467909649
 51
162.7707139673
  0
LWPOLYLINE
  5
90
330
1F
100
AcDbEntity
  8
1
 62
     4
420
    65535
100
AcDbPolyline
 90
        3
 70
   128
 43
0.0
 10
141.408033085
 20
28.1266420851
 10
141.3876909372
 20
28.1177831144
 10
141.0798289812
 20
27.9450888588
  0
ELLIPSE
  5
91
330
1F
100
AcDbEntity
  8
1
 62
     4
420
    65535
100
AcDbEllipse
 10
136.6533543671
 20
15.1061735353
 30
0.0
 11
1.275539353706876
 21
0.5189161753430618
 31
0.0
210
0.0
220
0.0
230
1.0
 40
0.9427052749
 41
2.448110830373614
 42
3.951869658963631
  0
ARC
  5
92
330
1F
100
AcDbEntity
  8
1
 62
     4
420
    65535
100
AcDbCircle
 10
126.1067972294
 20
17.2093823053
 30
0.0
 40
10.56114227632054
100
AcDbArc
 50
334.7261098939
 51
341.6089392878
  0
ELLIPSE
  5
93
330
1F
100
AcDbEntity
  8
1
 62
     4
420
    65535
100
AcDbEllipse
 10
136.5285999056
 20
14.9814190738
 30
0.0
 11
-1.608532723917137
 21
1.916356178717594
 31
0.0
210
0.0
220
0.0
230
1.0
 40
0.9689256539
 41
0.5612649560607263
 42
2.065023784650696
  0
ARC
  5
94
330
1F
100
AcDbEntity
  8
1
 62
     4
420
    65535
100
AcDbCircle
 10
133.6910853003
 20
11.3586807254
 30
0.0
 40
4.442368140409015
100
AcDbArc
 50
67.9372389028
 51
83.700266837
  0
LINE
  5
95
330
1F
100
AcDbEntity
  8
1
 62
     4
420
    65535
100
AcDbLine
 10
136.1285317795
 20
13.8773314672
 30
0.0
 11
140.2247649788
 21
12.4064484576
 31
0.0
  0
LINE
  5
96
330
1F
100
AcDbEntity
  8
1
 62
     4
420
    65535
100
AcDbLine
 10
135.6180096161
 20
16.2146692603
 30
0.0
 11
135.3597364809
 21
15.4757473914
 31
0.0
  0
ARC
  5
97
330
1F
100
AcDbEntity
  8
1
 62
     4
420
    65535
100
AcDbCircle
 10
139.5837635376
 20
17.0714529564
 30
0.0
 40
4.057250604551496
100
AcDbArc
 50
192.1911295496
 51
226.0847707894
  0
ARC
  5
98
330
1F
100
AcDbEntity
  8
1
 62
     4
420
    65535
100
AcDbCircle
 10
139.589787813
 20
17.0748584053
 30
0.0
 40
4.063882655205794
100
AcDbArc
 50
226.0568877596
 51
245.3566730144
  0
ARC
  5
99
330
1F
100
AcDbEntity
  8
1
 62
     4
420
    65535
100
AcDbCircle
 10
139.581513292
 20
17.0575376125
 30
0.0
 40
4.044689220457133
100
AcDbArc
 50
245.3609038197
 51
255.1345115033
  0
ARC
  5
9A
330
1F
100
AcDbEntity
  8
1
 62
     4
420
    65535
100
AcDbCircle
 10
139.5746577972
 20
17.0279561556
 30
0.0
 40
4.014339165536728
100
AcDbArc
 50
255.1207654529
 51
274.5796584792
  0
ARC
  5
9B
330
1F
100
AcDbEntity
  8
1
 62
     4
420
    65535
100
AcDbCircle
 10
139.5808501566
 20
16.9734030146
 30
0.0
 40
3.959466184630138
100
AcDbArc
 50
274.5533684499
 51
309.0097945304
  0
LINE
  5
9C
330
1F
100
AcDbEntity
  8
1
 62
     4
420
    65535
100
AcDbLine
 10
141.8148758101
 20
13.1578239964
 30
0.0
 11
142.0731489453
 21
13.8967458652
 31
0.0
  0
ELLIPSE
  5
9D
330
1F
100
AcDbEntity
  8
1
 62
     4
420
    65535
100
AcDbEllipse
 10
140.5802257261
 20
13.6961052891
 30
0.0
 11
-0.6539946792777585
 21
1.225096894710708
 31
0.0
210
0.0
220
0.0
230
1.0
 40
0.9269182706
 41
2.344369481019176
 42
3.84812830960912
  0
ARC
  5
9E
330
1F
100
AcDbEntity
  8
1
 62
     4
420
    65535
100
AcDbCircle
 10
130.2030304286
 20
15.7384992956
 30
0.0
 40
10.56114227632962
100
AcDbArc
 50
334.7261098939
 51
341.6089392878
  0
LINE
  5
9F
330
1F
100
AcDbEntity
  8
1
 62
     4
420
    65535
100
AcDbLine
 10
139.7532306405
 20
11.2294636899
 30
0.0
 11
135.6569974413
 21
12.7003466996
 31
0.0
  0
SPLINE
  5
A0
330
1F
100
AcDbEntity
  8
1
 62
     4
420
    65535
100
AcDbSpline
210
0.0
220
0.0
230
1.0
 70
     8
 71
     3
 72
     8
 73
     4
 74
     0
 42
0.000000001
 43
0.00000001
 40
0.0
 40
0.0
 40
0.0
 40
0.0
 40
0.3774222843771821
 40
0.3774222843771821
 40
0.3774222843771821
 40
0.3774222843771821
 10
135.8697036484967
 20
18.31899130604052
 30
0.0
 10
135.6347828035137
 20
17.644756741835
 30
0.0
 10
135.5671673573459
 20
16.93014585660719
 30
0.0
 10
135.618009616103
 20
16.21466926028507
 30
0.0
  0
LINE
  5
A1
330
1F
100
AcDbEntity
  8
1
 62
     4
420
    65535
100
AcDbLine
 10
136.1967355786
 20
19.2546392498
 30
0.0
 11
135.8697015757
 21
18.3189918919
 31
0.0
  0
SPLINE
  5
A2
330
1F
100
AcDbEntity
  8
1
 62
     4
420
    65535
100
AcDbSpline
210
0.0
220
0.0
230
1.0
 70
     8
 71
     3
 72
     8
 73
     4
 74
     0
 42
0.000000001
 43
0.00000001
 40
0.5520503342527435
 40
0.5520503342527435
 40
0.5520503342527435
 40
0.5520503342527435
 40
0.6909536890333957
 40
0.6909536890333957
 40
0.6909536890333957
 40
0.6909536890333957
 10
136.520284884466
 20
19.97340440674267
 30
0.0
 10
136.3920851068837
 20
19.74346756850593
 30
0.0
 10
136.2834458254591
 20
19.50271808152944
 30
0.0
 10
136.1967355785914
 20
19.254639249785
 30
0.0
  0
SPLINE
  5
A3
330
1F
100
AcDbEntity
  8
1
 62
     4
420
    65535
100
AcDbSpline
210
0.0
220
0.0
230
1.0
 70
     8
 71
     3
 72
     8
 73
     4
 74
     0
 42
0.000000001
 43
0.00000001
 40
0.6909536890333957
 40
0.6909536890333957
 40
0.6909536890333957
 40
0.6909536890333957
 40
1.0
 40
1.0
 40
1.0
 40
1.0
 10
137.6403786464657
 20
21.30922708014628
 30
0.0
 10
137.1875768175918
 20
20.94305349418353
 30
0.0
 10
136.8055167882677
 20
20.48499127031846
 30
0.0
 10
136.520284884466
 20
19.97340440674267
 30
0.0
  0
ARC
  5
A4
330
1F
100
AcDbEntity
  8
1
 62
     4
420
    65535
100
AcDbCircle
 10
139.8103516984
 20
17.9892328809
 30
0.0
 40
3.96625068909763
100
AcDbArc
 50
92.0325848693
 51
123.1689311418
  0
SPLINE
  5
A5
330
1F
100
AcDbEntity
  8
1
 62
     4
420
    65535
100
AcDbSpline
210
0.0
220
0.0
230
1.0
 70
     8
 71
     3
 72
    12
 73
     8
 74
     0
 42
0.000000001
 43
0.00000001
 40
0.0
 40
0.0
 40
0.0
 40
0.0
 40
0.3781941854956319
 40
0.3781941854956319
 40
0.5520503342527435
 40
0.5520503342527435
 40
1.0
 40
1.0
 40
1.0
 40
1.0
 10
136.769681595728
 20
14.1487444022768
 30
0.0
 10
137.001578439856
 20
15.14504480797602
 30
0.0
 10
137.2874780385966
 20
16.16318233833382
 30
0.0
 10
137.8167207154835
 20
17.63953058272798
 30
0.0
 10
137.9833940926233
 20
18.10447409252993
 30
0.0
 10
138.5795103402868
 20
19.76736942224478
 30
0.0
 10
139.1082359916621
 20
20.93618711572011
 30
0.0
 10
139.6696772827853
 20
21.9529880748956
 30
0.0
  0
LINE
  5
A6
330
1F
100
AcDbEntity
  8
1
 62
     4
420
    65535
100
AcDbLine
 10
134.1785449439
 20
15.7742234769
 30
0.0
 11
135.7076594212
 21
20.1490343771
 31
0.0
  0
ARC
  5
A7
330
1F
100
AcDbEntity
  8
1
 62
     4
420
    65535
100
AcDbCircle
 10
135.4440598984
 20
16.9526774357
 30
0.0
 40
3.207207883097734
100
AcDbArc
 50
70.3934223762
 51
85.2855578495
  0
SPLINE
  5
A8
330
1F
100
AcDbEntity
  8
1
 62
     4
420
    65535
100
AcDbSpline
210
0.0
220
0.0
230
1.0
 70
     8
 71
     3
 72
    11
 73
     7
 74
     0
 42
0.000000001
 43
0.00000001
 40
0.5418267832002968
 40
0.5418267832002968
 40
0.5418267832002968
 40
0.5418267832002968
 40
0.5832795922873237
 40
0.6247324013743507
 40
0.6661852104613775
 40
0.7076380195484044
 40
0.7076380195484044
 40
0.7076380195484044
 40
0.7076380195484044
 10
140.880300301971
 20
21.81148415361147
 30
0.0
 10
140.7809466242928
 20
21.83421053983326
 30
0.0
 10
140.5813614212942
 20
21.87553187017777
 30
0.0
 10
140.2788353349073
 20
21.91894936447817
 30
0.0
 10
139.9747450101874
 20
21.94643460055618
 30
0.0
 10
139.7713602192258
 20
21.95221625501305
 30
0.0
 10
139.6696772827853
 20
21.9529880748956
 30
0.0
  0
SPLINE
  5
A9
330
1F
100
AcDbEntity
  8
1
 62
     4
420
    65535
100
AcDbSpline
210
0.0
220
0.0
230
1.0
 70
     8
 71
     3
 72
    12
 73
     8
 74
     0
 42
0.000000001
 43
0.00000001
 40
0.0
 40
0.0
 40
0.0
 40
0.0
 40
0.3781941854956319
 40
0.3781941854956319
 40
0.5520503342527435
 40
0.5520503342527435
 40
1.0
 40
1.0
 40
1.0
 40
1.0
 10
137.8952778300772
 20
13.38110988204935
 30
0.0
 10
138.2355587032764
 20
14.4210469236007
 30
0.0
 10
138.5930120328698
 20
15.49569886896674
 30
0.0
 10
139.1510179122742
 20
17.08259741079115
 30
0.0
 10
139.3267496293975
 20
17.58235631289093
 30
0.0
 10
139.9552635144835
 20
19.36977075521654
 30
0.0
 10
140.4342922836586
 20
20.65499952610307
 30
0.0
 10
140.880300301971
 20
21.81148415361147
 30
0.0
  0
ARC
  5
AA
330
1F
100
AcDbEntity
  8
1
 62
     4
420
    65535
100
AcDbCircle
 10
139.8075336598
 20
17.9116282626
 30
0.0
 40
4.044713122010089
100
AcDbArc
 50
65.8758498042
 51
74.6195655184
  0
SPLINE
  5
AB
330
1F
100
AcDbEntity
  8
1
 62
     4
420
    65535
100
AcDbSpline
210
0.0
220
0.0
230
1.0
 70
     8
 71
     3
 72
    12
 73
     8
 74
     0
 42
0.000000001
 43
0.00000001
 40
0.0
 40
0.0
 40
0.0
 40
0.0
 40
0.3781941854956319
 40
0.3781941854956319
 40
0.5520503342527435
 40
0.5520503342527435
 40
1.0
 40
1.0
 40
1.0
 40
1.0
 10
138.543845602259
 20
13.14822096428385
 30
0.0
 10
138.9248021463351
 20
14.17343780612865
 30
0.0
 10
139.3043498620531
 20
15.23986653098866
 30
0.0
 10
139.856423619709
 20
16.82891627050228
 30
0.0
 10
140.030287145153
 20
17.32935264514803
 30
0.0
 10
140.6521193427784
 20
19.11919010426844
 30
0.0
 10
141.0894870717125
 20
20.41963857061138
 30
0.0
 10
141.4606693280304
 20
21.60308416800927
 30
0.0
  0
SPLINE
  5
AC
330
1F
100
AcDbEntity
  8
1
 62
     4
420
    65535
100
AcDbSpline
210
0.0
220
0.0
230
1.0
 70
     8
 71
     3
 72
    11
 73
     7
 74
     0
 42
0.000000001
 43
0.00000001
 40
0.2923619804488338
 40
0.2923619804488338
 40
0.2923619804488338
 40
0.2923619804488338
 40
0.333814789535864
 40
0.3752675986228943
 40
0.4167204077099245
 40
0.4581732167969548
 40
0.4581732167969548
 40
0.4581732167969548
 40
0.4581732167969548
 10
142.4891802187909
 20
20.94055573463343
 30
0.0
 10
142.4096958317345
 20
21.00483781306917
 30
0.0
 10
142.2481165628948
 20
21.13008914049297
 30
0.0
 10
141.9946784810232
 20
21.30281810898526
 30
0.0
 10
141.7327517435657
 20
21.46206590019014
 30
0.0
 10
141.5519799314755
 20
21.55734647076548
 30
0.0
 10
141.4606693280304
 20
21.60308416800927
 30
0.0
  0
SPLINE
  5
AD
330
1F
100
AcDbEntity
  8
1
 62
     4
420
    65535
100
AcDbSpline
210
0.0
220
0.0
230
1.0
 70
     8
 71
     3
 72
    12
 73
     8
 74
     0
 42
0.000000001
 43
0.00000001
 40
0.0
 40
0.0
 40
0.0
 40
0.0
 40
0.3781941854956319
 40
0.3781941854956319
 40
0.5520503342527435
 40
0.5520503342527435
 40
1.0
 40
1.0
 40
1.0
 40
1.0
 10
139.8951828538443
 20
13.02643361734737
 30
0.0
 10
140.3331075309165
 20
13.94818573283386
 30
0.0
 10
140.7327930814123
 20
14.92402751049173
 30
0.0
 10
141.2385782197895
 20
16.40890357945375
 30
0.0
 10
141.3978641594959
 20
16.87653274062585
 30
0.0
 10
141.9675588420652
 20
18.54903344610655
 30
0.0
 10
142.2943304620415
 20
19.79165972938166
 30
0.0
 10
142.4891802187909
 20
20.94055573463343
 30
0.0
  0
ARC
  5
AE
330
1F
100
AcDbEntity
  8
1
 62
     4
420
    65535
100
AcDbCircle
 10
140.9159215529
 20
10.0368515407
 30
0.0
 40
3.247858960219296
100
AcDbArc
 50
54.3009779635
 51
73.9316637103
  0
ELLIPSE
  5
AF
330
1F
100
AcDbEntity
  8
1
 62
     4
420
    65535
100
AcDbEllipse
 10
140.4554712647
 20
13.5713508277
 30
0.0
 11
2.305506454946737
 21
-1.019515171361862
 31
0.0
210
0.0
220
0.0
230
1.0
 40
0.9694136721
 41
4.833629428323365
 42
6.337388256913334
  0
ARC
  5
B0
330
1F
100
AcDbEntity
  8
1
 62
     4
420
    65535
100
AcDbCircle
 10
139.8013808945
 20
17.8950544901
 30
0.0
 40
4.061938335092201
100
AcDbArc
 50
17.9296311033
 51
48.5700692381
  0
SPLINE
  5
B1
330
1F
100
AcDbEntity
  8
1
 62
     4
420
    65535
100
AcDbSpline
210
0.0
220
0.0
230
1.0
 70
     8
 71
     3
 72
     8
 73
     4
 74
     0
 42
0.000000001
 43
0.00000001
 40
0.6915351578656762
 40
0.6915351578656762
 40
0.6915351578656762
 40
0.6915351578656762
 40
1.0
 40
1.0
 40
1.0
 40
1.0
 10
143.6980496337853
 20
17.39593556307901
 30
0.0
 10
143.7971932521349
 20
17.97417574951234
 30
0.0
 10
143.7903821335808
 20
18.57234020875899
 30
0.0
 10
143.6660525103417
 20
19.14551694042424
 30
0.0
  0
SPLINE
  5
B2
330
1F
100
AcDbEntity
  8
1
 62
     4
420
    65535
100
AcDbSpline
210
0.0
220
0.0
230
1.0
 70
     8
 71
     3
 72
     8
 73
     4
 74
     0
 42
0.000000001
 43
0.00000001
 40
0.5527825791198664
 40
0.5527825791198664
 40
0.5527825791198664
 40
0.5527825791198664
 40
0.6915351578656769
 40
0.6915351578656769
 40
0.6915351578656769
 40
0.6915351578656769
 10
143.500997763494
 20
16.63181134380553
 30
0.0
 10
143.5874184206771
 20
16.87976297347659
 30
0.0
 10
143.6534531973906
 20
17.13583358047723
 30
0.0
 10
143.6980496337852
 20
17.39593556307901
 30
0.0
  0
LINE
  5
B3
330
1F
100
AcDbEntity
  8
1
 62
     4
420
    65535
100
AcDbLine
 10
143.1739654542
 20
15.6961632797
 30
0.0
 11
143.5009994568
 21
16.6318106368
 31
0.0
  0
SPLINE
  5
B4
330
1F
100
AcDbEntity
  8
1
 62
     4
420
    65535
100
AcDbSpline
210
0.0
220
0.0
230
1.0
 70
     8
 71
     3
 72
     8
 73
     4
 74
     0
 42
0.000000001
 43
0.00000001
 40
0.0
 40
0.0
 40
0.0
 40
0.0
 40
0.3781941854956319
 40
0.3781941854956319
 40
0.3781941854956319
 40
0.3781941854956319
 10
142.0731489453439
 20
13.89674586522025
 30
0.0
 10
142.5570763232002
 20
14.42025593610081
 30
0.0
 10
142.9378245911297
 20
15.0205620496177
 30
0.0
 10
143.1739654542369
 20
15.69616327974555
 30
0.0
  0
ARC
  5
B5
330
1F
100
AcDbEntity
  8
1
 62
     4
420
    65535
100
AcDbCircle
 10
143.0321700938
 20
15.3975782724
 30
0.0
 40
2.106898157728551
100
AcDbArc
 50
51.6213252044
 51
71.5385253298
  0
LINE
  5
B6
330
1F
100
AcDbEntity
  8
1
 62
     4
420
    65535
100
AcDbLine
 10
144.3402505627
 20
17.0492275493
 30
0.0
 11
142.8111360854
 21
12.6744166492
 31
0.0
  0
LINE
  5
B7
330
1F
100
AcDbEntity
  8
1
 62
     4
420
    65535
100
AcDbLine
 10
135.6569974413
 20
12.7003466996
 30
0.0
 11
134.5110808603
 21
12.0171049878
 31
0.0
  0
ELLIPSE
  5
B8
330
1F
100
AcDbEntity
  8
1
 62
     4
420
    65535
100
AcDbEllipse
 10
131.5582922552
 20
12.0179210641
 30
0.0
 11
3.806364512490689
 21
-0.5766758554161396
 31
0.0
210
0.0
220
0.0
230
1.0
 40
0.1759415877
 41
0.7099787893685291
 42
1.356632343364865
  0
ELLIPSE
  5
B9
330
1F
100
AcDbEntity
  8
1
 62
     4
420
    65535
100
AcDbEllipse
 10
134.7333605693
 20
13.9110249303
 30
0.0
 11
2.452960295590145
 21
0.9979157218135859
 31
0.0
210
0.0
220
0.0
230
1.0
 40
0.9427052749
 41
2.448110830373626
 42
3.30521610496725
  0
LINE
  5
BA
330
1F
100
AcDbEntity
  8
1
 62
     4
420
    65535
100
AcDbLine
 10
132.2456338651
 20
14.6217438845
 30
0.0
 11
134.1785449439
 21
15.7742234769
 31
0.0
  0
ELLIPSE
  5
BB
330
1F
100
AcDbEntity
  8
1
 62
     4
420
    65535
100
AcDbEllipse
 10
140.8343075083
 20
19.2397913413
 30
0.0
 11
3.012209154763127
 21
3.825055739282053
 31
0.0
210
0.0
220
0.0
230
1.0
 40
0.7803784766
 41
1.565897913879998
 42
1.642789057982108
  0
ELLIPSE
  5
BC
330
1F
100
AcDbEntity
  8
1
 62
     4
420
    65535
100
AcDbEllipse
 10
140.7095530469
 20
19.1150368799
 30
0.0
 11
3.444244488420765
 21
4.509241062870412
 31
0.0
210
0.0
220
0.0
230
1.0
 40
0.8810225236
 41
1.552242350140304
 42
1.971722450515286
  0
ARC
  5
BD
330
1F
100
AcDbEntity
  8
1
 62
     4
420
    65535
100
AcDbCircle
 10
136.1959110432
 20
19.9831334385
 30
0.0
 40
2.329560087136107
100
AcDbArc
 50
44.2666456677
 51
74.9350830961
  0
LINE
  5
BE
330
1F
100
AcDbEntity
  8
1
 62
     4
420
    65535
100
AcDbLine
 10
136.5533981275
 20
11.9089197617
 30
0.0
 11
138.4319514569
 21
11.2343653502
 31
0.0
  0
LINE
  5
BF
330
1F
100
AcDbEntity
  8
1
 62
     4
420
    65535
100
AcDbLine
 10
136.2705471579
 20
11.3853125685
 30
0.0
 11
136.5533981275
 21
11.9089197617
 31
0.0
  0
LINE
  5
C0
330
1F
100
AcDbEntity
  8
1
 62
     4
420
    65535
100
AcDbLine
 10
134.5110808603
 20
12.0171049878
 30
0.0
 11
136.2705471579
 21
11.3853125685
 31
0.0
  0
LINE
  5
C1
330
1F
100
AcDbEntity
  8
1
 62
     4
420
    65535
100
AcDbLine
 10
139.9085667848
 20
10.0789657377
 30
0.0
 11
139.7532306405
 21
11.2294636899
 31
0.0
  0
LINE
  5
C2
330
1F
100
AcDbEntity
  8
1
 62
     4
420
    65535
100
AcDbLine
 10
138.1491004873
 20
10.710758157
 30
0.0
 11
139.9085667848
 21
10.0789657377
 31
0.0
  0
LINE
  5
C3
330
1F
100
AcDbEntity
  8
1
 62
     4
420
    65535
100
AcDbLine
 10
138.4319514569
 20
11.2343653502
 30
0.0
 11
138.1491004873
 21
10.710758157
 31
0.0
  0
LINE
  5
C4
330
1F
100
AcDbEntity
  8
1
 62
     4
420
    65535
100
AcDbLine
 10
139.6696772828
 20
21.9529880749
 30
0.0
 11
138.2671218226
 21
22.1169260591
 31
0.0
  0
LINE
  5
C5
330
1F
100
AcDbEntity
  8
1
 62
     4
420
    65535
100
AcDbLine
 10
138.2671218226
 20
22.1169260591
 30
0.0
 11
137.8641071345
 21
21.6091629587
 31
0.0
  0
LINE
  5
C6
330
1F
100
AcDbEntity
  8
1
 62
     4
420
    65535
100
AcDbLine
 10
133.5973228623
 20
17.5836564639
 30
0.0
 11
133.1556841515
 21
16.3201239589
 31
0.0
  0
LINE
  5
C7
330
1F
100
AcDbEntity
  8
1
 62
     4
420
    65535
100
AcDbLine
 10
135.7076594212
 20
20.1490343771
 30
0.0
 11
133.5973228623
 21
17.5836564639
 31
0.0
  0
LINE
  5
C8
330
1F
100
AcDbEntity
  8
1
 62
     4
420
    65535
100
AcDbLine
 10
132.3959822607
 20
15.0518920584
 30
0.0
 11
132.2456338651
 21
14.6217438845
 31
0.0
  0
ELLIPSE
  5
C9
330
1F
100
AcDbEntity
  8
1
 62
     4
420
    65535
100
AcDbEllipse
 10
132.6400054628
 20
16.3004200593
 30
0.0
 11
0.5443695524393206
 21
1.345043186428196
 31
0.0
210
0.0
220
0.0
230
1.0
 40
0.3278454607
 41
3.675767624304378
 42
4.858827436523169
  0
LINE
  5
CA
330
1F
100
AcDbEntity
  8
1
 62
     4
420
    65535
100
AcDbLine
 10
142.8111360854
 20
12.6744166492
 30
0.0
 11
143.0731542455
 21
10.7337777973
 31
0.0
  0
ELLIPSE
  5
CB
330
1F
100
AcDbEntity
  8
1
 62
     4
420
    65535
100
AcDbEllipse
 10
140.6988271609
 20
11.7689341295
 30
0.0
 11
-1.257682075534149
 21
2.355955566751364
 31
0.0
210
0.0
220
0.0
230
1.0
 40
0.9269182706
 41
2.991023035015477
 42
3.848128309609101
  0
ELLIPSE
  5
CC
330
1F
100
AcDbEntity
  8
1
 62
     4
420
    65535
100
AcDbEllipse
 10
141.1292274866
 20
8.5811719013
 30
0.0
 11
2.679944231271918
 21
-1.563429523797931
 31
0.0
210
0.0
220
0.0
230
1.0
 40
0.2692353309
 41
1.546661183740999
 42
2.193314737737363
  0
LINE
  5
CD
330
1F
100
AcDbEntity
  8
1
 62
     4
420
    65535
100
AcDbLine
 10
136.8013946603
 20
22.2326311133
 30
0.0
 11
137.2044093484
 21
22.7403942137
 31
0.0
  0
ARC
  5
CE
330
1F
100
AcDbEntity
  8
1
 62
     4
420
    65535
100
AcDbCircle
 10
136.5989257313
 20
20.4908965389
 30
0.0
 40
2.329560087135736
100
AcDbArc
 50
44.2666456677
 51
74.9350830962
  0
ELLIPSE
  5
CF
330
1F
100
AcDbEntity
  8
1
 62
     4
420
    65535
100
AcDbEllipse
 10
139.8991250784
 20
19.5755983816
 30
0.0
 11
-0.06213331581665216
 21
4.894387705622272
 31
0.0
210
0.0
220
0.0
230
1.0
 40
0.7720910938
 41
4.614606133854348
 42
4.691497277952615
  0
ARC
  5
D0
330
1F
100
AcDbEntity
  8
1
 62
     4
420
    65535
100
AcDbCircle
 10
137.7775664457
 20
22.0245715978
 30
0.0
 40
0.9170120368198292
100
AcDbArc
 50
54.0117406647
 51
128.6841544017
  0
ARC
  5
D1
330
1F
100
AcDbEntity
  8
1
 62
     4
420
    65535
100
AcDbCircle
 10
128.6020123154
 20
23.1770691154
 30
0.0
 40
9.723077963555511
100
AcDbArc
 50
353.740385032
 51
357.580250528
  0
ARC
  5
D2
330
1F
100
AcDbEntity
  8
1
 62
     4
420
    65535
100
AcDbCircle
 10
131.3719072796
 20
22.8533093713
 30
0.0
 40
9.723077963542936
100
AcDbArc
 50
353.740385032
 51
357.580250528
  0
LINE
  5
D3
330
1F
100
AcDbEntity
  8
1
 62
     4
420
    65535
100
AcDbLine
 10
141.0370167868
 20
21.793166315
 30
0.0
 11
140.880300302
 21
21.8114841536
 31
0.0
  0
LINE
  5
D4
330
1F
100
AcDbEntity
  8
1
 62
     4
420
    65535
100
AcDbLine
 10
138.3164205651
 20
22.7665603536
 30
0.0
 11
141.0863155293
 21
22.4428006094
 31
0.0
  0
LINE
  5
D5
330
1F
100
AcDbEntity
  8
1
 62
     4
420
    65535
100
AcDbLine
 10
143.6807514535
 20
20.172989897
 30
0.0
 11
142.4891802188
 21
20.9405557346
 31
0.0
  0
LINE
  5
D6
330
1F
100
AcDbEntity
  8
1
 62
     4
420
    65535
100
AcDbLine
 10
143.6785115638
 20
19.5213158391
 30
0.0
 11
143.6807514535
 21
20.172989897
 31
0.0
  0
LINE
  5
D7
330
1F
100
AcDbEntity
  8
1
 62
     4
420
    65535
100
AcDbLine
 10
141.460669328
 20
21.603084168
 30
0.0
 11
141.3275274591
 21
21.6888492043
 31
0.0
  0
ELLIPSE
  5
D8
330
1F
100
AcDbEntity
  8
1
 62
     4
420
    65535
100
AcDbEllipse
 10
140.482747539
 20
19.7396613463
 30
0.0
 11
0.6975794767458582
 21
2.020931507770779
 31
0.0
210
0.0
220
0.0
230
1.0
 40
0.5601342667
 41
6.147024807960149
 42
6.405486879161414
  0
ELLIPSE
  5
D9
330
1F
100
AcDbEntity
  8
1
 62
     4
420
    65535
100
AcDbEllipse
 10
140.3579930775
 20
19.6149068848
 30
0.0
 11
1.099887599076681
 21
2.718814734287115
 31
0.0
210
0.0
220
0.0
230
1.0
 40
0.8164581254
 41
6.186354774079834
 42
6.444816845281063
  0
ARC
  5
DA
330
1F
100
AcDbEntity
  8
1
 62
     4
420
    65535
100
AcDbCircle
 10
118.3979170994
 20
36.3557593095
 30
0.0
 40
27.21920798407654
100
AcDbArc
 50
327.3950124668
 51
328.7475483146
  0
LINE
  5
DB
330
1F
100
AcDbEntity
  8
1
 62
     4
420
    65535
100
AcDbLine
 10
141.6673368739
 20
22.2341663881
 30
0.0
 11
144.0205608683
 21
20.7183070808
 31
0.0
  0
ARC
  5
DC
330
1F
100
AcDbEntity
  8
1
 62
     4
420
    65535
100
AcDbCircle
 10
120.7511410937
 20
34.8399000023
 30
0.0
 40
27.21920798424254
100
AcDbArc
 50
327.3950124668
 51
328.7475483146
  0
ELLIPSE
  5
DD
330
1F
100
AcDbEntity
  8
1
 62
     4
420
    65535
100
AcDbEllipse
 10
153.7908915893
 20
42.1518356437
 30
0.0
 11
12.35461940641952
 21
15.13283951250735
 31
0.0
210
0.0
220
0.0
230
1.0
 40
0.0563076572
 41
2.887981030113598
 42
3.143571455381537
  0
SPLINE
  5
DE
330
1F
100
AcDbEntity
  8
1
 62
     4
420
    65535
100
AcDbSpline
210
0.0
220
0.0
230
1.0
 70
     8
 71
     3
 72
     8
 73
     4
 74
     0
 42
0.000000001
 43
0.00000001
 40
0.0
 40
0.0
 40
0.0
 40
0.0
 40
0.0001435130838948
 40
0.0001435130838948
 40
0.0001435130838948
 40
0.0001435130838948
 10
141.4379824965586
 20
27.01764918694624
 30
0.0
 10
141.4713988658669
 20
26.99227017843917
 30
0.0
 10
141.5047364388028
 20
26.9650035170804
 30
0.0
 10
141.5376655585678
 20
26.9360739297027
 30
0.0
  0
SPLINE
  5
DF
330
1F
100
AcDbEntity
  8
1
 62
     4
420
    65535
100
AcDbSpline
210
0.0
220
0.0
230
1.0
 70
     8
 71
     3
 72
     8
 73
     4
 74
     0
 42
0.000000001
 43
0.00000001
 40
0.0
 40
0.0
 40
0.0
 40
0.0
 40
1.0
 40
1.0
 40
1.0
 40
1.0
 10
141.5528601699798
 20
26.93600317606788
 30
0.0
 10
141.5477984171065
 20
26.93604096130398
 30
0.0
 10
141.5427334802178
 20
26.93606458007994
 30
0.0
 10
141.5376655585684
 20
26.9360739297026
 30
0.0
  0
LINE
  5
E0
330
1F
100
AcDbEntity
  8
1
 62
     4
420
    65535
100
AcDbLine
 10
141.552862154
 20
26.9359998602
 30
0.0
 11
138.3164205651
 21
22.7665603536
 31
0.0
  0
LINE
  5
E1
330
1F
100
AcDbEntity
  8
1
 62
     4
420
    65535
100
AcDbLine
 10
137.2044093484
 20
22.7403942137
 30
0.0
 11
141.0737082935
 21
27.7251305179
 31
0.0
  0
SPLINE
  5
E2
330
1F
100
AcDbEntity
  8
1
 62
     4
420
    65535
100
AcDbSpline
210
0.0
220
0.0
230
1.0
 70
     8
 71
     3
 72
     8
 73
     4
 74
     0
 42
0.000000001
 43
0.00000001
 40
0.0
 40
0.0
 40
0.0
 40
0.0
 40
1.0
 40
1.0
 40
1.0
 40
1.0
 10
141.0737082935072
 20
27.72513051792951
 30
0.0
 10
141.1316318829874
 20
27.79825540050027
 30
0.0
 10
141.1911590048065
 20
27.86975189372325
 30
0.0
 10
141.2524494424908
 20
27.93980976744927
 30
0.0
  0
SPLINE
  5
E3
330
1F
100
AcDbEntity
  8
1
 62
     4
420
    65535
100
AcDbSpline
210
0.0
220
0.0
230
1.0
 70
     8
 71
     3
 72
     8
 73
     4
 74
     0
 42
0.000000001
 43
0.00000001
 40
0.0
 40
0.0
 40
0.0
 40
0.0
 40
1.0
 40
1.0
 40
1.0
 40
1.0
 10
141.6558352339852
 20
28.16493291830776
 30
0.0
 10
141.4983750185442
 20
28.1198520976857
 30
0.0
 10
141.3624231901679
 20
28.0443036317718
 30
0.0
 10
141.2524494424967
 20
27.93980976745216
 30
0.0
  0
SPLINE
  5
E4
330
1F
100
AcDbEntity
  8
1
 62
     4
420
    65535
100
AcDbSpline
210
0.0
220
0.0
230
1.0
 70
     8
 71
     3
 72
    10
 73
     6
 74
     0
 42
0.000000001
 43
0.00000001
 40
0.0
 40
0.0
 40
0.0
 40
0.0
 40
0.5
 40
0.5
 40
1.0
 40
1.0
 40
1.0
 40
1.0
 10
141.6558352339852
 20
28.16493291830775
 30
0.0
 10
141.6672323321444
 20
28.1021890969182
 30
0.0
 10
141.6784182257015
 20
28.02951194884942
 30
0.0
 10
141.6782748709024
 20
27.8649142365026
 30
0.0
 10
141.6653328218141
 20
27.77125057303723
 30
0.0
 10
141.6176726441179
 20
27.67759889135883
 30
0.0
  0
LINE
  5
E5
330
1F
100
AcDbEntity
  8
1
 62
     4
420
    65535
100
AcDbLine
 10
142.5749681708
 20
27.4508999777
 30
0.0
 11
141.5621909111
 21
26.9359466207
 31
0.0
  0
LINE
  5
E6
330
1F
100
AcDbEntity
  8
1
 62
     4
420
    65535
100
AcDbLine
 10
141.0863155293
 20
22.4428006094
 30
0.0
 11
142.5749681708
 21
27.4508999777
 31
0.0
  0
LINE
  5
E7
330
1F
100
AcDbEntity
  8
1
 62
     4
420
    65535
100
AcDbLine
 10
141.5621909111
 20
26.9359466207
 30
0.0
 11
141.55286017
 21
26.9360031761
 31
0.0
  0
LINE
  5
E8
330
1F
100
AcDbEntity
  8
1
 62
     4
420
    65535
100
AcDbLine
 10
143.9709342546
 20
13.8586808574
 30
0.0
 11
144.3402505627
 21
17.0492275493
 31
0.0
  0
LINE
  5
E9
330
1F
100
AcDbEntity
  8
1
 62
     4
420
    65535
100
AcDbLine
 10
143.5292955438
 20
12.5951483525
 30
0.0
 11
143.9709342546
 21
13.8586808574
 31
0.0
  0
ELLIPSE
  5
EA
330
1F
100
AcDbEntity
  8
1
 62
     4
420
    65535
100
AcDbEllipse
 10
143.7434842841
 20
12.3133623037
 30
0.0
 11
0.4394362743169609
 21
1.38281131362387
 31
0.0
210
0.0
220
0.0
230
1.0
 40
0.2014990522
 41
1.429952734140237
 42
2.613012546359098
  0
LINE
  5
EB
330
1F
100
AcDbEntity
  8
1
 62
     4
420
    65535
100
AcDbLine
 10
143.2235026412
 20
11.1639259712
 30
0.0
 11
143.0731542455
 21
10.7337777973
 31
0.0
  0
ELLIPSE
  5
EC
330
1F
100
AcDbEntity
  8
1
 62
     4
420
    65535
100
AcDbEllipse
 10
138.7571302978
 20
16.7416229443
 30
0.0
 11
3.881346551339704
 21
4.942277290342012
 31
0.0
210
0.0
220
0.0
230
1.0
 40
0.7955300447
 41
1.564741786965507
 42
1.98422188734049
  0
LINE
  5
ED
330
1F
100
AcDbEntity
  8
1
 62
     4
420
    65535
100
AcDbLine
 10
134.8489719112
 20
19.8592171777
 30
0.0
 11
136.8013946603
 21
22.2326311133
 31
0.0
  0
ELLIPSE
  5
EE
330
1F
100
AcDbEntity
  8
1
 62
     4
420
    65535
100
AcDbEllipse
 10
145.31116478
 20
36.2782811215
 30
0.0
 11
3.04599006404095
 21
8.800480698198612
 31
0.0
210
0.0
220
0.0
230
1.0
 40
0.2541314696
 41
3.269357295743744
 42
3.375904163696286
  0
SPLINE
  5
EF
330
1F
100
AcDbEntity
  8
1
 62
     4
420
    65535
100
AcDbSpline
210
0.0
220
0.0
230
1.0
 70
     8
 71
     3
 72
    11
 73
     7
 74
     0
 42
0.000000001
 43
0.00000001
 40
0.0001056703344966
 40
0.0001056703344966
 40
0.0001056703344966
 40
0.0001056703344966
 40
0.0001059843296431
 40
0.0001059843296431
 40
0.0001059843296431
 40
0.0001213593000254
 40
0.0001213593000254
 40
0.0001213593000254
 40
0.0001213593000254
 10
142.8809436309915
 20
27.54243369254414
 30
0.0
 10
142.8808485886463
 20
27.54241819733183
 30
0.0
 10
142.8807536412189
 20
27.5424024951334
 30
0.0
 10
142.8806587907303
 20
27.54238658572769
 30
0.0
 10
142.8760498731809
 20
27.54161352551185
 30
0.0
 10
142.8716307576581
 20
27.54033529183586
 30
0.0
 10
142.8676590333352
 20
27.5385574488618
 30
0.0
  0
SPLINE
  5
F0
330
1F
100
AcDbEntity
  8
1
 62
     4
420
    65535
100
AcDbSpline
210
0.0
220
0.0
230
1.0
 70
     8
 71
     3
 72
    26
 73
    22
 74
     0
 42
0.000000001
 43
0.00000001
 40
0.0
 40
0.0
 40
0.0
 40
0.0
 40
0.0000131166836659
 40
0.0000131166836659
 40
0.0000131166836659
 40
0.0000288717944625
 40
0.0000288717944625
 40
0.0000288717944625
 40
0.0000422230698026
 40
0.0000422230698026
 40
0.0000422230698026
 40
0.0000558800272185
 40
0.0000558800272185
 40
0.0000558800272185
 40
0.0000682156502904
 40
0.0000682156502904
 40
0.0000682156502904
 40
0.0000842605598735
 40
0.0000842605598735
 40
0.0000842605598735
 40
0.0000903966321232
 40
0.0000903966321232
 40
0.0000903966321232
 40
0.0000903966321232
 10
142.9613199537236
 20
27.51357201359843
 30
0.0
 10
142.9585125115659
 20
27.51662462942735
 30
0.0
 10
142.9553402186956
 20
27.51949380299548
 30
0.0
 10
142.9519506613395
 20
27.52212252615708
 30
0.0
 10
142.9478824571343
 20
27.52527756426291
 30
0.0
 10
142.943454178955
 20
27.5281254635776
 30
0.0
 10
142.9388479923549
 20
27.53061859411967
 30
0.0
 10
142.9349370271169
 20
27.53273543126292
 30
0.0
 10
142.9308655814182
 20
27.53461485521349
 30
0.0
 10
142.9267181623054
 20
27.53623285453321
 30
0.0
 10
142.9224761094276
 20
27.5378877725639
 30
0.0
 10
142.9181257440466
 20
27.53928050559067
 30
0.0
 10
142.9137509394608
 20
27.54037813344189
 30
0.0
 10
142.909797811364
 20
27.54136996368557
 30
0.0
 10
142.9058005915
 20
27.5421267430396
 30
0.0
 10
142.9018302678262
 20
27.54261516544775
 30
0.0
 10
142.8966821376386
 20
27.54324847959296
 30
0.0
 10
142.8915216961128
 20
27.5434353709473
 30
0.0
 10
142.8865689255802
 20
27.54308388239017
 30
0.0
 10
142.8846638920156
 20
27.54294868583816
 30
0.0
 10
142.8827830606427
 20
27.54273358363913
 30
0.0
 10
142.8809436309914
 20
27.54243369254425
 30
0.0
  0
SPLINE
  5
F1
330
1F
100
AcDbEntity
  8
1
 62
     4
420
    65535
100
AcDbSpline
210
0.0
220
0.0
230
1.0
 70
     8
 71
     3
 72
     8
 73
     4
 74
     0
 42
0.000000001
 43
0.00000001
 40
0.0
 40
0.0
 40
0.0
 40
0.0
 40
0.0000157723411456
 40
0.0000157723411456
 40
0.0000157723411456
 40
0.0000157723411456
 10
142.9699224672848
 20
27.50183650545203
 30
0.0
 10
142.9676380412472
 20
27.50592622124873
 30
0.0
 10
142.964698583579
 20
27.50989832830155
 30
0.0
 10
142.9613199537237
 20
27.51357201359844
 30
0.0
  0
ELLIPSE
  5
F2
330
1F
100
AcDbEntity
  8
1
 62
     4
420
    65535
100
AcDbEllipse
 10
145.31116478
 20
36.2782811215
 30
0.0
 11
1.815752074091222
 21
9.235840708576511
 31
0.0
210
0.0
220
0.0
230
1.0
 40
0.2378194795
 41
2.868272421420375
 42
2.974819289372951
  0
LINE
  5
F3
330
1F
100
AcDbEntity
  8
1
 62
     4
420
    65535
100
AcDbLine
 10
143.1559895154
 20
27.2422657564
 30
0.0
 11
141.6673368739
 21
22.2341663881
 31
0.0
  0
LINE
  5
F4
330
1F
100
AcDbEntity
  8
1
 62
     4
420
    65535
100
AcDbLine
 10
143.6799123698
 20
26.1755112741
 30
0.0
 11
143.1559895154
 21
27.2422657564
 31
0.0
  0
LINE
  5
F5
330
1F
100
AcDbEntity
  8
1
 62
     4
420
    65535
100
AcDbLine
 10
143.6872900768
 20
26.1695681289
 30
0.0
 11
143.6799123698
 21
26.1755112741
 31
0.0
  0
LINE
  5
F6
330
1F
100
AcDbEntity
  8
1
 62
     4
420
    65535
100
AcDbLine
 10
144.0205608683
 20
20.7183070808
 30
0.0
 11
143.6872867526
 21
26.1695667191
 31
0.0
  0
SPLINE
  5
F7
330
1F
100
AcDbEntity
  8
1
 62
     4
420
    65535
100
AcDbSpline
210
0.0
220
0.0
230
1.0
 70
     8
 71
     3
 72
     8
 73
     4
 74
     0
 42
0.000000001
 43
0.00000001
 40
0.0
 40
0.0
 40
0.0
 40
0.0
 40
1.0
 40
1.0
 40
1.0
 40
1.0
 10
143.6992824933972
 20
26.15987651414683
 30
0.0
 10
143.6952936606968
 20
26.16311928066251
 30
0.0
 10
143.6912961180654
 20
26.16634983382966
 30
0.0
 10
143.6872900767818
 20
26.16956812892626
 30
0.0
  0
SPLINE
  5
F8
330
1F
100
AcDbEntity
  8
1
 62
     4
420
    65535
100
AcDbSpline
210
0.0
220
0.0
230
1.0
 70
     8
 71
     3
 72
     8
 73
     4
 74
     0
 42
0.000000001
 43
0.00000001
 40
0.0
 40
0.0
 40
0.0
 40
0.0
 40
0.000143513083895
 40
0.000143513083895
 40
0.000143513083895
 40
0.000143513083895
 10
143.6992824933972
 20
26.15987651414681
 30
0.0
 10
143.7405081173048
 20
26.16217847871927
 30
0.0
 10
143.7807562222462
 20
26.16302185847339
 30
0.0
 10
143.8196519419986
 20
26.16243490800881
 30
0.0
  0
ELLIPSE
  5
F9
330
1F
100
AcDbEntity
  8
1
 62
     4
420
    65535
100
AcDbEllipse
 10
141.9445827487
 20
46.4056301795
 30
0.0
 11
-1.88054746423046
 21
20.2429836200544
 31
0.0
210
0.0
220
0.0
230
1.0
 40
0.0499005206
 41
3.136196429197336
 42
3.391786854465326
  0
SPLINE
  5
FA
330
1F
100
AcDbEntity
  8
1
 62
     4
420
    65535
100
AcDbSpline
210
0.0
220
0.0
230
1.0
 70
     8
 71
     3
 72
    10
 73
     6
 74
     0
 42
0.000000001
 43
0.00000001
 40
0.0
 40
0.0
 40
0.0
 40
0.0
 40
0.5
 40
0.5
 40
1.0
 40
1.0
 40
1.0
 40
1.0
 10
144.0166797278206
 20
26.81615898113894
 30
0.0
 10
144.0274445940863
 20
26.92322367707467
 30
0.0
 10
144.0621373685699
 20
27.00605538376332
 30
0.0
 10
144.1386698512714
 20
27.14476192053777
 30
0.0
 10
144.1792735720452
 20
27.19988499020131
 30
0.0
 10
144.2126193755557
 20
27.24683812970558
 30
0.0
  0
SPLINE
  5
FB
330
1F
100
AcDbEntity
  8
1
 62
     4
420
    65535
100
AcDbSpline
210
0.0
220
0.0
230
1.0
 70
     8
 71
     3
 72
     8
 73
     4
 74
     0
 42
0.000000001
 43
0.00000001
 40
0.0
 40
0.0
 40
0.0
 40
0.0
 40
1.0
 40
1.0
 40
1.0
 40
1.0
 10
144.3433617083673
 20
26.82991926192917
 30
0.0
 10
144.3381889762336
 20
26.97576013765179
 30
0.0
 10
144.2940732631756
 20
27.1159675901244
 30
0.0
 10
144.2126193755561
 20
27.24683812970878
 30
0.0
  0
ELLIPSE
  5
FC
330
1F
100
AcDbEntity
  8
1
 62
     4
420
    65535
100
AcDbEllipse
 10
136.6111947737
 20
12.0842914794
 30
0.0
 11
-0.08242325025270247
 21
0.2154505535243416
 31
0.0
210
0.0
220
0.0
230
1.0
 40
0.644816191
 41
2.240218858163943
 42
2.635392937165812
  0
ELLIPSE
  5
FD
330
1F
100
AcDbEntity
  8
1
 62
     4
420
    65535
100
AcDbEllipse
 10
138.4897481031
 20
11.4097370679
 30
0.0
 11
0.2246909947747895
 21
0.08595829432277036
 31
0.0
210
0.0
220
0.0
230
1.0
 40
0.6803318499
 41
3.811015184958764
 42
4.206189263960707
  0
ARC
  5
FE
330
1F
100
AcDbEntity
  8
1
 62
     4
420
    65535
100
AcDbCircle
 10
138.2101968964
 20
10.8997249287
 30
0.0
 40
0.1985981167996632
100
AcDbArc
 50
164.2641404612
 51
252.0830323317
  0
ELLIPSE
  5
FF
330
1F
100
AcDbEntity
  8
1
 62
     4
420
    65535
100
AcDbEllipse
 10
139.4326897801
 20
16.4990417932
 30
0.0
 11
-0.1247414149148369
 21
6.322302778712384
 31
0.0
210
0.0
220
0.0
230
1.0
 40
0.786314691
 41
4.266099746166165
 42
4.541379217734815
  0
SPLINE
  5
100
330
1F
100
AcDbEntity
  8
1
 62
     4
420
    65535
100
AcDbSpline
210
0.0
220
0.0
230
1.0
 70
     8
 71
     3
 72
     8
 73
     4
 74
     0
 42
0.000000001
 43
0.00000001
 40
0.0
 40
0.0
 40
0.0
 40
0.0
 40
1.0
 40
1.0
 40
1.0
 40
1.0
 10
140.881336232916
 20
27.48243411852454
 30
0.0
 10
140.9459795773019
 20
27.56387905328488
 30
0.0
 10
141.0098391420057
 20
27.64449973787338
 30
0.0
 10
141.0737082935073
 20
27.72513051792954
 30
0.0
  0
LINE
  5
101
330
1F
100
AcDbEntity
  8
1
 62
     4
420
    65535
100
AcDbLine
 10
138.7357484525
 20
24.7562141494
 30
0.0
 11
134.8489719112
 21
19.8592171777
 31
0.0
  0
ELLIPSE
  5
102
330
1F
100
AcDbEntity
  8
1
 62
     4
420
    65535
100
AcDbEllipse
 10
138.5850034783
 20
24.6054691752
 30
0.0
 11
0.9549412613557424
 21
1.197723625533438
 31
0.0
210
0.0
220
0.0
230
1.0
 40
0.0157485689
 41
4.851128843364332
 42
5.995308486775998
  0
LINE
  5
103
330
1F
100
AcDbEntity
  8
1
 62
     4
420
    65535
100
AcDbLine
 10
139.5060031686
 20
25.7496352711
 30
0.0
 11
140.8813361891
 21
27.482434035
 31
0.0
  0
LINE
  5
104
330
1F
100
AcDbEntity
  8
1
 62
     4
420
    65535
100
AcDbLine
 10
137.8398455836
 20
10.774389099
 30
0.0
 11
138.0190418005
 21
10.9535853159
 31
0.0
  0
LINE
  5
105
330
1F
100
AcDbEntity
  8
1
 62
     4
420
    65535
100
AcDbLine
 10
137.8398455836
 20
10.774389099
 30
0.0
 11
138.0436326698
 21
11.3574258691
 31
0.0
  0
ARC
  5
106
330
1F
100
AcDbEntity
  8
1
 62
     4
420
    65535
100
AcDbCircle
 10
134.4586719171
 20
12.0426847492
 30
0.0
 40
0.0583182778108958
100
AcDbArc
 50
320.1905107735
 51
333.9839182902
  0
ELLIPSE
  5
107
330
1F
100
AcDbEntity
  8
1
 62
     4
420
    65535
100
AcDbEllipse
 10
131.4928854546
 20
11.8307915925
 30
0.0
 11
3.74679796797426
 21
-0.3507100861126684
 31
0.0
210
0.0
220
0.0
230
1.0
 40
0.1978536304
 41
0.6563789199075426
 42
1.289752414933443
  0
SPLINE
  5
108
330
1F
100
AcDbEntity
  8
1
 62
     4
420
    65535
100
AcDbSpline
210
0.0
220
0.0
230
1.0
 70
     8
 71
     3
 72
     8
 73
     4
 74
     0
 42
0.000000001
 43
0.00000001
 40
0.0
 40
0.0
 40
0.0
 40
0.0
 40
1.0
 40
1.0
 40
1.0
 40
1.0
 10
132.4664044568356
 20
12.54975798402788
 30
0.0
 10
132.4969971046308
 20
12.50093462864558
 30
0.0
 10
132.5447016971223
 20
12.46516331367608
 30
0.0
 10
132.598759548945
 20
12.44575212004636
 30
0.0
  0
ARC
  5
109
330
1F
100
AcDbEntity
  8
1
 62
     4
420
    65535
100
AcDbCircle
 10
136.2181382146
 20
11.4108923299
 30
0.0
 40
0.0583182778122308
100
AcDbArc
 50
320.1905107736
 51
333.98391829
  0
LINE
  5
10A
330
1F
100
AcDbEntity
  8
1
 62
     4
420
    65535
100
AcDbLine
 10
136.2629370034
 20
11.3735548146
 30
0.0
 11
134.5034707059
 21
12.0053472339
 31
0.0
  0
LINE
  5
10B
330
1F
100
AcDbEntity
  8
1
 62
     4
420
    65535
100
AcDbLine
 10
136.0837407866
 20
11.1943585978
 30
0.0
 11
136.2629370034
 21
11.3735548146
 31
0.0
  0
LINE
  5
10C
330
1F
100
AcDbEntity
  8
1
 62
     4
420
    65535
100
AcDbLine
 10
132.5987595489
 20
12.44575212
 30
0.0
 11
136.0837407866
 21
11.1943585978
 31
0.0
  0
ARC
  5
10D
330
1F
100
AcDbEntity
  8
1
 62
     4
420
    65535
100
AcDbCircle
 10
136.1511397173
 20
11.3801803592
 30
0.0
 40
0.1976672529981028
100
AcDbArc
 50
250.0639162893
 51
314.8597198946
  0
ARC
  5
10E
330
1F
100
AcDbEntity
  8
1
 62
     4
420
    65535
100
AcDbCircle
 10
138.096691544
 20
10.7363379184
 30
0.0
 40
0.0583182778170677
100
AcDbArc
 50
320.1905107744
 51
333.9839182896
  0
ARC
  5
10F
330
1F
100
AcDbEntity
  8
1
 62
     4
420
    65535
100
AcDbCircle
 10
138.2090168143
 20
10.8882185248
 30
0.0
 40
0.2009062548928209
100
AcDbArc
 50
161.0126336071
 51
250.3599856881
  0
ARC
  5
110
330
1F
100
AcDbEntity
  8
1
 62
     4
420
    65535
100
AcDbCircle
 10
139.8561578415
 20
10.1045454991
 30
0.0
 40
0.0583182778133689
100
AcDbArc
 50
320.1905107739
 51
333.98391829
  0
LINE
  5
111
330
1F
100
AcDbEntity
  8
1
 62
     4
420
    65535
100
AcDbLine
 10
139.9009566303
 20
10.0672079838
 30
0.0
 11
138.1414903328
 21
10.6990004031
 31
0.0
  0
LINE
  5
112
330
1F
100
AcDbEntity
  8
1
 62
     4
420
    65535
100
AcDbLine
 10
138.1414903328
 20
10.6990004031
 30
0.0
 11
137.962294116
 21
10.5198041863
 31
0.0
  0
ARC
  5
113
330
1F
100
AcDbEntity
  8
1
 62
     4
420
    65535
100
AcDbCircle
 10
138.0298205974
 20
10.7090223079
 30
0.0
 40
0.2009062548928521
100
AcDbArc
 50
161.0126336071
 51
250.3599856881
  0
ELLIPSE
  5
114
330
1F
100
AcDbEntity
  8
1
 62
     4
420
    65535
100
AcDbEllipse
 10
141.063820686
 20
8.3940424297
 30
0.0
 11
2.459632142619625
 21
-1.685428224043446
 31
0.0
210
0.0
220
0.0
230
1.0
 40
0.315158402
 41
1.630505602826044
 42
2.263879097851974
  0
LINE
  5
115
330
1F
100
AcDbEntity
  8
1
 62
     4
420
    65535
100
AcDbLine
 10
137.962294116
 20
10.5198041863
 30
0.0
 11
141.4472753536
 21
9.268410664
 31
0.0
  0
SPLINE
  5
116
330
1F
100
AcDbEntity
  8
1
 62
     4
420
    65535
100
AcDbSpline
210
0.0
220
0.0
230
1.0
 70
     8
 71
     3
 72
     8
 73
     4
 74
     0
 42
0.000000001
 43
0.00000001
 40
0.0
 40
0.0
 40
0.0
 40
0.0
 40
1.0
 40
1.0
 40
1.0
 40
1.0
 10
141.4472753536054
 20
9.268410664020001
 30
0.0
 10
141.5014523158124
 20
9.248956700012712
 30
0.0
 10
141.5604780326973
 20
9.24630657896101
 30
0.0
 10
141.6147099187231
 20
9.264767502218694
 30
0.0
  0
LINE
  5
117
330
1F
100
AcDbEntity
  8
1
 62
     4
420
    65535
100
AcDbLine
 10
144.737615007
 20
20.3855518067
 30
0.0
 11
147.2644946745
 21
25.4538181936
 31
0.0
  0
LINE
  5
118
330
1F
100
AcDbEntity
  8
1
 62
     4
420
    65535
100
AcDbLine
 10
147.2644946745
 20
25.4538181936
 30
0.0
 11
148.1927086782
 21
24.9734022451
 31
0.0
  0
LINE
  5
119
330
1F
100
AcDbEntity
  8
1
 62
     4
420
    65535
100
AcDbLine
 10
148.1927086782
 20
15.9980059343
 30
0.0
 11
148.1927086782
 21
24.9734022451
 31
0.0
  0
LINE
  5
11A
330
1F
100
AcDbEntity
  8
1
 62
     4
420
    65535
100
AcDbLine
 10
140.7317861477
 20
-0.0019940657
 30
0.0
 11
148.1927086782
 21
15.9980059343
 31
0.0
  0
LINE
  5
11B
330
1F
100
AcDbEntity
  8
1
 62
     4
420
    65535
100
AcDbLine
 10
140.7317861477
 20
-0.0019940657
 30
0.0
 11
138.5220631224
 21
-0.0019940657
 31
0.0
  0
LINE
  5
11C
330
1F
100
AcDbEntity
  8
1
 62
     4
420
    65535
100
AcDbLine
 10
130.5727086782
 20
7.9473603785
 30
0.0
 11
138.5220631224
 21
-0.0019940657
 31
0.0
  0
LINE
  5
11D
330
1F
100
AcDbEntity
  8
1
 62
     4
420
    65535
100
AcDbLine
 10
128.6949979594
 20
27.6902952155
 30
0.0
 11
130.5727086782
 21
7.9473603785
 31
0.0
  0
LINE
  5
11E
330
1F
100
AcDbEntity
  8
1
 62
     4
420
    65535
100
AcDbLine
 10
131.6944324155
 20
30.6897296716
 30
0.0
 11
128.6949979594
 21
27.6902952155
 31
0.0
  0
LINE
  5
11F
330
1F
100
AcDbEntity
  8
1
 62
     4
420
    65535
100
AcDbLine
 10
131.6944324155
 20
30.6897296716
 30
0.0
 11
134.9069262651
 21
30.8580893402
 31
0.0
  0
ARC
  5
120
330
1F
100
AcDbEntity
  8
1
 62
     4
420
    65535
100
AcDbCircle
 10
135.5919993486
 20
30.4524233359
 30
0.0
 40
0.7961721150504304
100
AcDbArc
 50
149.368105056
 51
213.6108490123
  0
SPLINE
  5
121
330
1F
100
AcDbEntity
  8
1
 62
     4
420
    65535
100
AcDbSpline
210
0.0
220
0.0
230
1.0
 70
     8
 71
     3
 72
     9
 73
     5
 74
     0
 42
0.000000001
 43
0.00000001
 40
0.0
 40
0.0
 40
0.0
 40
0.0
 40
0.4886283051473794
 40
1.0
 40
1.0
 40
1.0
 40
1.0
 10
132.4683628729425
 20
15.15138155147165
 30
0.0
 10
132.4527534483922
 20
15.13799652145274
 30
0.0
 10
132.4208080527084
 20
15.11060345011832
 30
0.0
 10
132.4043820523457
 20
15.07175702214385
 30
0.0
 10
132.3959822607006
 20
15.05189205843157
 30
0.0
  0
LINE
  5
122
330
1F
100
AcDbEntity
  8
1
 62
     4
420
    65535
100
AcDbLine
 10
130.5727086782
 20
7.9473603785
 30
0.0
 11
130.5727086782
 21
-0.0019940657
 31
0.0
  0
LINE
  5
123
330
1F
100
AcDbEntity
  8
1
 62
     4
420
    65535
100
AcDbLine
 10
126.0027086782
 20
-0.0019940657
 30
0.0
 11
130.5727086782
 21
-0.0019940657
 31
0.0
  0
LINE
  5
124
330
1F
100
AcDbEntity
  8
1
 62
     4
420
    65535
100
AcDbLine
 10
126.0027086782
 20
-0.0019940657
 30
0.0
 11
126.0027086782
 21
24.9980059343
 31
0.0
  0
LINE
  5
125
330
1F
100
AcDbEntity
  8
1
 62
     4
420
    65535
100
AcDbLine
 10
128.6949979594
 20
27.6902952155
 30
0.0
 11
126.0027086782
 21
24.9980059343
 31
0.0
  0
LINE
  5
126
330
1F
100
AcDbEntity
  8
1
 62
     4
420
    65535
100
AcDbLine
 10
130.5727086782
 20
-0.0019940657
 30
0.0
 11
138.5220631224
 21
-0.0019940657
 31
0.0
  0
LWPOLYLINE
  5
127
330
1F
100
AcDbEntity
  8
1
 62
     4
420
    65535
100
AcDbPolyline
 90
        3
 70
   128
 43
0.0
 10
133.5973228623
 20
17.5836564639
 10
133.5863212639
 20
17.5812176726
 10
133.5845962082
 20
17.5791085599
  0
LINE
  5
128
330
1F
100
AcDbEntity
  8
1
 62
     4
420
    65535
100
AcDbLine
 10
143.5292955438
 20
12.5951483525
 30
0.0
 11
143.5312592544
 21
12.5889333129
 31
0.0
  0
LINE
  5
129
330
1F
100
AcDbEntity
  8
1
 62
     4
420
    65535
100
AcDbLine
 10
143.9709342546
 20
13.8586808574
 30
0.0
 11
143.9728979651
 21
13.8524658178
 31
0.0
  0
ARC
  5
12A
330
1F
100
AcDbEntity
  8
1
 62
     4
420
    65535
100
AcDbCircle
 10
141.2883741983
 20
26.2479086437
 30
0.0
 40
1.761394958546529
100
AcDbArc
 50
43.0766760667
 51
47.5027404274
  0
LINE
  5
12B
330
1F
100
AcDbEntity
  8
1
 62
     4
420
    65535
100
AcDbLine
 10
141.4379824966
 20
27.0176491869
 30
0.0
 11
142.4782932695
 21
27.5466021425
 31
0.0
  0
ELLIPSE
  5
12C
330
1F
100
AcDbEntity
  8
1
 62
     4
420
    65535
100
AcDbEllipse
 10
145.4030475163
 20
37.2129044384
 30
0.0
 11
3.049822892959611
 21
9.685152167286482
 31
0.0
210
0.0
220
0.0
230
1.0
 40
0.1071373669
 41
3.246237114640135
 42
3.352783982592697
  0
LINE
  5
12D
330
1F
100
AcDbEntity
  8
1
 62
     4
420
    65535
100
AcDbLine
 10
141.6176726441
 20
27.6775988914
 30
0.0
 11
142.6377981019
 21
27.6807514769
 31
0.0
  0
ARC
  5
12E
330
1F
100
AcDbEntity
  8
1
 62
     4
420
    65535
100
AcDbCircle
 10
143.4313473424
 20
25.5747237607
 30
0.0
 40
1.690123735165599
100
AcDbArc
 50
95.0870442772
 51
99.3765228404
  0
LINE
  5
12F
330
1F
100
AcDbEntity
  8
1
 62
     4
420
    65535
100
AcDbLine
 10
143.281485643
 20
27.2581903363
 30
0.0
 11
143.819651942
 21
26.162434908
 31
0.0
  0
ELLIPSE
  5
130
330
1F
100
AcDbEntity
  8
1
 62
     4
420
    65535
100
AcDbEllipse
 10
145.9399384402
 20
37.0201166504
 30
0.0
 11
2.557498035348004
 21
9.861566385822776
 31
0.0
210
0.0
220
0.0
230
1.0
 40
0.1021454964
 41
2.916828397544672
 42
3.023375265497283
  0
LINE
  5
131
330
1F
100
AcDbEntity
  8
1
 62
     4
420
    65535
100
AcDbLine
 10
144.0166797278
 20
26.8161589811
 30
0.0
 11
143.2260267267
 21
27.469529252
 31
0.0
  0
ARC
  5
132
330
1F
100
AcDbEntity
  8
1
 62
     4
420
    65535
100
AcDbCircle
 10
141.8242965458
 20
26.0402013746
 30
0.0
 40
1.825835755375189
100
AcDbArc
 50
55.1490335215
 51
63.5167931784
  0
ARC
  5
133
330
1F
100
AcDbEntity
  8
1
 62
     4
420
    65535
100
AcDbCircle
 10
142.8464671465
 20
25.7814071416
 30
0.0
 40
1.724853156716748
100
AcDbArc
 50
77.4159640765
 51
85.8955797398
  0
SPLINE
  5
134
330
1F
100
AcDbEntity
  8
1
 62
     4
420
    65535
100
AcDbSpline
210
0.0
220
0.0
230
1.0
 70
     8
 71
     3
 72
     8
 73
     4
 74
     0
 42
0.000000001
 43
0.00000001
 40
0.0
 40
0.0
 40
0.0
 40
0.0
 40
1.0
 40
1.0
 40
1.0
 40
1.0
 10
141.7872080716608
 20
28.34602458895644
 30
0.0
 10
141.6903203168682
 20
28.30700306512671
 30
0.0
 10
141.6408985806306
 20
28.24716285939925
 30
0.0
 10
141.6558352339852
 20
28.16493291830776
 30
0.0
  0
SPLINE
  5
135
330
1F
100
AcDbEntity
  8
1
 62
     4
420
    65535
100
AcDbSpline
210
0.0
220
0.0
230
1.0
 70
     8
 71
     3
 72
    10
 73
     6
 74
     0
 42
0.000000001
 43
0.00000001
 40
0.0
 40
0.0
 40
0.0
 40
0.0
 40
0.6133593702068234
 40
0.9364964194819475
 40
1.0
 40
1.0
 40
1.0
 40
1.0
 10
141.7872080716608
 20
28.34602458895644
 30
0.0
 10
141.8878539394909
 20
28.37791854260267
 30
0.0
 10
142.0415232228455
 20
28.42661523632524
 30
0.0
 10
142.2100062615053
 20
28.43913374854718
 30
0.0
 10
142.2905212621909
 20
28.43880970734442
 30
0.0
 10
142.3037454048053
 20
28.43875648537284
 30
0.0
  0
SPLINE
  5
136
330
1F
100
AcDbEntity
  8
1
 62
     4
420
    65535
100
AcDbSpline
210
0.0
220
0.0
230
1.0
 70
     8
 71
     3
 72
     8
 73
     4
 74
     0
 42
0.000000001
 43
0.00000001
 40
0.0
 40
0.0
 40
0.0
 40
0.0
 40
1.0
 40
1.0
 40
1.0
 40
1.0
 10
142.6377981018798
 20
27.68075147688334
 30
0.0
 10
142.6684824362704
 20
27.68084630344384
 30
0.0
 10
142.6991884789998
 20
27.67938850645346
 30
0.0
 10
142.7297595306877
 20
27.67638552535619
 30
0.0
  0
ARC
  5
137
330
1F
100
AcDbEntity
  8
1
 62
     4
420
    65535
100
AcDbCircle
 10
141.6351165196
 20
26.2886293616
 30
0.0
 40
1.767515344122377
100
AcDbArc
 50
45.1828507412
 51
51.7341081925
  0
SPLINE
  5
138
330
1F
100
AcDbEntity
  8
1
 62
     4
420
    65535
100
AcDbSpline
210
0.0
220
0.0
230
1.0
 70
     8
 71
     3
 72
    26
 73
    22
 74
     0
 42
0.000000001
 43
0.00000001
 40
0.0
 40
0.0
 40
0.0
 40
0.0
 40
0.0000338991286566
 40
0.0000338991286566
 40
0.0000338991286566
 40
0.0001175649816269
 40
0.0001175649816269
 40
0.0001175649816269
 40
0.0001788655598166
 40
0.0001788655598166
 40
0.0001788655598166
 40
0.0002454313631441
 40
0.0002454313631441
 40
0.0002454313631441
 40
0.0003108760118277
 40
0.0003108760118277
 40
0.0003108760118277
 40
0.0003908769576982
 40
0.0003908769576982
 40
0.0003908769576982
 40
0.0004618748507329
 40
0.0004618748507329
 40
0.0004618748507329
 40
0.0004618748507329
 10
142.7297595306877
 20
27.67638552535626
 30
0.0
 10
142.7407948514796
 20
27.67661552425081
 30
0.0
 10
142.7518614438316
 20
27.67656246754483
 30
0.0
 10
142.7629365919217
 20
27.67621816250195
 30
0.0
 10
142.7902154677301
 20
27.67537011474417
 30
0.0
 10
142.817641141872
 20
27.67274109683361
 30
0.0
 10
142.8448183521283
 20
27.66827956000959
 30
0.0
 10
142.8647522718529
 20
27.66500711533776
 30
0.0
 10
142.8846150973193
 20
27.66074136827886
 30
0.0
 10
142.9042360425071
 20
27.65550016460685
 30
0.0
 10
142.9255361349523
 20
27.64981042225909
 30
0.0
 10
142.9466198023917
 20
27.64295176227156
 30
0.0
 10
142.9672685760702
 20
27.63498971514961
 30
0.0
 10
142.9875709156964
 20
27.62716125098475
 30
0.0
 10
143.0075199901065
 20
27.61824045662648
 30
0.0
 10
143.0269234840198
 20
27.60832707857807
 30
0.0
 10
143.0506254920336
 20
27.59621756020998
 30
0.0
 10
143.0736130766576
 20
27.58257247933559
 30
0.0
 10
143.0955962512978
 20
27.56763178184527
 30
0.0
 10
143.1151175177324
 20
27.55436430154722
 30
0.0
 10
143.1339204821495
 20
27.54002831715311
 30
0.0
 10
143.1518633827407
 20
27.52481569178353
 30
0.0
  0
ARC
  5
139
330
1F
100
AcDbEntity
  8
1
 62
     4
420
    65535
100
AcDbCircle
 10
143.1561724194
 20
25.8316270724
 30
0.0
 40
1.693194102471344
100
AcDbArc
 50
90.1458131003
 51
96.6082287305
  0
SPLINE
  5
13A
330
1F
100
AcDbEntity
  8
1
 62
     4
420
    65535
100
AcDbSpline
210
0.0
220
0.0
230
1.0
 70
     8
 71
     3
 72
     8
 73
     4
 74
     0
 42
0.000000001
 43
0.00000001
 40
0.0
 40
0.0
 40
0.0
 40
0.0
 40
1.0
 40
1.0
 40
1.0
 40
1.0
 10
143.1518633827407
 20
27.52481569178351
 30
0.0
 10
143.1774814513183
 20
27.50764217942826
 30
0.0
 10
143.2022446899588
 20
27.48918196405105
 30
0.0
 10
143.2260267266581
 20
27.46952925200526
 30
0.0
  0
SPLINE
  5
13B
330
1F
100
AcDbEntity
  8
1
 62
     4
420
    65535
100
AcDbSpline
210
0.0
220
0.0
230
1.0
 70
     8
 71
     3
 72
     9
 73
     5
 74
     0
 42
0.000000001
 43
0.00000001
 40
0.0
 40
0.0
 40
0.0
 40
0.0
 40
0.1858480603584981
 40
1.0
 40
1.0
 40
1.0
 40
1.0
 10
143.8247818289833
 20
27.85337887195881
 30
0.0
 10
143.8512374039693
 20
27.83264871531426
 30
0.0
 10
143.9935879613814
 20
27.72110514254544
 30
0.0
 10
144.0893868662033
 20
27.59445768946423
 30
0.0
 10
144.1673817303796
 20
27.4913474198875
 30
0.0
  0
SPLINE
  5
13C
330
1F
100
AcDbEntity
  8
1
 62
     4
420
    65535
100
AcDbSpline
210
0.0
220
0.0
230
1.0
 70
     8
 71
     3
 72
     8
 73
     4
 74
     0
 42
0.000000001
 43
0.00000001
 40
0.0
 40
0.0
 40
0.0
 40
0.0
 40
1.0
 40
1.0
 40
1.0
 40
1.0
 10
144.2126193755556
 20
27.2468381297056
 30
0.0
 10
144.2560166509525
 20
27.30794441929178
 30
0.0
 10
144.2351357319538
 20
27.39333927545984
 30
0.0
 10
144.1673817303796
 20
27.4913474198875
 30
0.0
  0
SPLINE
  5
13D
330
1F
100
AcDbEntity
  8
1
 62
     4
420
    65535
100
AcDbSpline
210
0.0
220
0.0
230
1.0
 70
     8
 71
     3
 72
    11
 73
     7
 74
     0
 42
0.000000001
 43
0.00000001
 40
0.0000000000000028
 40
0.0000000000000028
 40
0.0000000000000028
 40
0.0000000000000028
 40
0.0001156042773932
 40
0.0001156042773932
 40
0.0001156042773932
 40
0.0002023518951447
 40
0.0002023518951447
 40
0.0002023518951447
 40
0.0002023518951447
 10
141.6130796763332
 20
28.2500663023434
 30
0.0
 10
141.6451957006019
 20
28.27028249293234
 30
0.0
 10
141.6779695201969
 20
28.2894248610474
 30
0.0
 10
141.711283078917
 20
28.30742414413175
 30
0.0
 10
141.7362870036373
 20
28.32093374012067
 30
0.0
 10
141.761613057616
 20
28.33380953708106
 30
0.0
 10
141.7872080716624
 20
28.3460245889578
 30
0.0
  0
SPLINE
  5
13E
330
1F
100
AcDbEntity
  8
1
 62
     4
420
    65535
100
AcDbSpline
210
0.0
220
0.0
230
1.0
 70
     8
 71
     3
 72
    12
 73
     8
 74
     0
 42
0.000000001
 43
0.00000001
 40
0.0
 40
0.0
 40
0.0
 40
0.0
 40
0.4999999999999937
 40
0.4999999999999937
 40
0.7499999999999968
 40
0.7499999999999968
 40
1.0
 40
1.0
 40
1.0
 40
1.0
 10
141.2524494424967
 20
27.93980976745217
 30
0.0
 10
141.3073631529523
 20
28.00257873990284
 30
0.0
 10
141.3659340917212
 20
28.06052163253478
 30
0.0
 10
141.4578335054983
 20
28.13945841710417
 30
0.0
 10
141.4891439915915
 20
28.1644428682879
 30
0.0
 10
141.5524275503406
 20
28.2111165538703
 30
0.0
 10
141.5845307415811
 20
28.23292087231403
 30
0.0
 10
141.6130796763309
 20
28.25006630234192
 30
0.0
  0
SPLINE
  5
13F
330
1F
100
AcDbEntity
  8
1
 62
     4
420
    65535
100
AcDbSpline
210
0.0
220
0.0
230
1.0
 70
     8
 71
     3
 72
    12
 73
     8
 74
     0
 42
0.000000001
 43
0.00000001
 40
0.0
 40
0.0
 40
0.0
 40
0.0
 40
0.1641156947118725
 40
0.4327549943558777
 40
0.7027875329767939
 40
0.9393715054631756
 40
1.0
 40
1.0
 40
1.0
 40
1.0
 10
141.1244225132018
 20
27.80608142194463
 30
0.0
 10
141.1107916512668
 20
27.78925902817943
 30
0.0
 10
141.0748485710509
 20
27.74490023037101
 30
0.0
 10
141.024504173498
 20
27.68361396815872
 30
0.0
 10
140.9899540015479
 20
27.64297668798517
 30
0.0
 10
140.9789298826497
 20
27.63141308060646
 30
0.0
 10
140.9850380020013
 20
27.6401867727505
 30
0.0
 10
140.9862839998036
 20
27.64197652185339
 30
0.0
  0
SPLINE
  5
140
330
1F
100
AcDbEntity
  8
1
 62
     4
420
    65535
100
AcDbSpline
210
0.0
220
0.0
230
1.0
 70
     8
 71
     3
 72
     8
 73
     4
 74
     0
 42
0.000000001
 43
0.00000001
 40
0.0
 40
0.0
 40
0.0
 40
0.0
 40
1.0
 40
1.0
 40
1.0
 40
1.0
 10
140.9950499307157
 20
27.6548195863677
 30
0.0
 10
140.998931246884
 20
27.66012792946728
 30
0.0
 10
141.003646862359
 20
27.66646477239371
 30
0.0
 10
141.0091356985146
 20
27.67375481872338
 30
0.0
  0
LINE
  5
141
330
1F
100
AcDbEntity
  8
1
 62
     4
420
    65535
100
AcDbLine
 10
141.1244225132
 20
27.8060814219
 30
0.0
 11
141.0670999977
 21
27.7487589064
 31
0.0
  0
SPLINE
  5
142
330
1F
100
AcDbEntity
  8
1
 62
     4
420
    65535
100
AcDbSpline
210
0.0
220
0.0
230
1.0
 70
     8
 71
     3
 72
     8
 73
     4
 74
     0
 42
0.000000001
 43
0.00000001
 40
0.0
 40
0.0
 40
0.0
 40
0.0
 40
1.0
 40
1.0
 40
1.0
 40
1.0
 10
141.0091356398801
 20
27.67375473175174
 30
0.0
 10
141.0227039052518
 20
27.6917755435074
 30
0.0
 10
141.0442918516857
 20
27.71957135529
 30
0.0
 10
141.0670999976943
 20
27.74875890643716
 30
0.0
  0
LINE
  5
143
330
1F
100
AcDbEntity
  8
1
 62
     4
420
    65535
100
AcDbLine
 10
1.0027086782
 20
24.9980059343
 30
0.0
 11
1.0027086782
 21
-0.0019940657
 31
0.0
  0
LINE
  5
144
330
1F
100
AcDbEntity
  8
1
 62
     4
420
    65535
100
AcDbLine
 10
126.0027086782
 20
24.9980059343
 30
0.0
 11
1.0027086782
 21
24.9980059343
 31
0.0
  0
LINE
  5
145
330
1F
100
AcDbEntity
  8
1
 62
     4
420
    65535
100
AcDbLine
 10
126.0027086782
 20
-0.0019940657
 30
0.0
 11
1.0027086782
 21
-0.0019940657
 31
0.0
  0
LINE
  5
146
330
1F
100
AcDbEntity
  8
1
 62
     4
420
    65535
100
AcDbLine
 10
0.0027086782
 20
0.9980059343
 30
0.0
 11
0.0027086782
 21
23.9980059343
 31
0.0
  0
LINE
  5
147
330
1F
100
AcDbEntity
  8
1
 62
     4
420
    65535
100
AcDbLine
 10
0.0027086782
 20
23.9980059343
 30
0.0
 11
1.0027086782
 21
24.9980059343
 31
0.0
  0
LINE
  5
148
330
1F
100
AcDbEntity
  8
1
 62
     4
420
    65535
100
AcDbLine
 10
0.0027086782
 20
0.9980059343
 30
0.0
 11
1.0027086782
 21
-0.0019940657
 31
0.0
  0
ARC
  5
149
330
1F
100
AcDbEntity
  8
1
 62
     4
420
    65535
100
AcDbCircle
 10
143.9384136703
 20
17.1407055284
 30
0.0
 40
2.394755636099101
100
AcDbArc
 50
70.0946500894
 51
96.2305660515
  0
ELLIPSE
  5
14A
330
1F
100
AcDbEntity
  8
1
 62
     4
420
    65535
100
AcDbEllipse
 10
139.774370617
 20
19.4508439202
 30
0.0
 11
-0.4829188729229089
 21
5.721689217523541
 31
0.0
210
0.0
220
0.0
230
1.0
 40
0.8650816318
 41
4.207573792832042
 42
4.487984087650104
  0
ARC
  5
14B
330
1F
100
AcDbEntity
  8
1
 62
     4
420
    65535
100
AcDbCircle
 10
143.9405596681
 20
17.7907709997
 30
0.0
 40
2.396344546048937
100
AcDbArc
 50
70.1060121634
 51
96.2241602558
  0
ARC
  5
14C
330
1F
100
AcDbEntity
  8
1
 62
     4
420
    65535
100
AcDbCircle
 10
143.9949140527
 20
19.9380251717
 30
0.0
 40
0.7807032835100324
100
AcDbArc
 50
13.5895665598
 51
88.1174426284
  0
ARC
  5
14D
330
1F
100
AcDbEntity
  8
1
 62
     4
420
    65535
100
AcDbCircle
 10
136.3411320262
 20
11.5602203377
 30
0.0
 40
0.1886132321770499
100
AcDbArc
 50
248.0232245241
 51
329.8996157444
  0
LINE
  5
14E
330
1F
100
AcDbEntity
  8
1
 62
     4
420
    65535
100
AcDbLine
 10
138.0190418005
 20
10.9535853159
 30
0.0
 11
138.2057487548
 21
11.2992129248
 31
0.0
  0
ARC
  5
14F
330
1F
100
AcDbEntity
  8
1
 62
     4
420
    65535
100
AcDbCircle
 10
136.3303359342
 20
11.5593765761
 30
0.0
 40
0.1976672529976965
100
AcDbArc
 50
250.0639162892
 51
314.8597198947
  0
LWPOLYLINE
  5
150
330
1F
100
AcDbEntity
  8
1
 62
     4
420
    65535
100
AcDbPolyline
 90
        3
 70
   128
 43
0.0
 10
133.1556841515
 20
16.3201239589
 10
133.1446825532
 20
16.3176851677
 10
133.1428809425
 20
16.315328099
  0
ARC
  5
151
330
1F
100
AcDbEntity
  8
1
 62
     4
420
    65535
100
AcDbCircle
 10
141.4569410409
 20
27.7763699063
 30
0.0
 40
1.184722027574941
100
AcDbArc
 50
355.3706458406
 51
34.0431670006
  0
ARC
  5
152
330
1F
100
AcDbEntity
  8
1
 62
     4
420
    65535
100
AcDbCircle
 10
138.7817776127
 20
31.3018886859
 30
0.0
 40
5.868417931452488
100
AcDbArc
 50
319.2281849921
 51
325.8798475467
  0
DIMENSION
  5
153
330
1F
100
AcDbEntity
  8
2
 62
     7
420
 16777215
100
AcDbDimension
  2
_D
 10
0.0027086782
 20
43.9552149703
 30
0.0
 11
75.0027086782
 21
43.9552149703
 31
0.0
 70
   160
  1
<>
 71
     2
 42
-1.0
  3
SLDDIMSTYLE0
100
AcDbAlignedDimension
 13
150.0027086782
 23
31.9980059343
 33
0.0
 14
0.0027086782
 24
-0.0019940657
 34
0.0
100
AcDbRotatedDimension
  0
DIMENSION
  5
15F
330
1F
100
AcDbEntity
  8
2
 62
     7
420
 16777215
100
AcDbDimension
  2
_D_1
 10
-5.9972913218
 20
-0.0019940657
 30
0.0
 11
-5.9972913218
 21
12.4980059343
 31
0.0
 70
   160
  1
<>
 71
     2
 42
-1.0
  3
SLDDIMSTYLE0
100
AcDbAlignedDimension
 13
1.0027086782
 23
24.9980059343
 33
0.0
 14
1.0027086782
 24
-0.0019940657
 34
0.0
 50
90.0
100
AcDbRotatedDimension
  0
DIMENSION
  5
169
330
1F
100
AcDbEntity
  8
2
 62
     7
420
 16777215
100
AcDbDimension
  2
_D_2
 10
156.0119173109
 20
-0.0019940657
 30
0.0
 11
156.0119173109
 21
15.9980059343
 31
0.0
 70
   160
  1
<>
 71
     2
 42
-1.0
  3
SLDDIMSTYLE0
100
AcDbAlignedDimension
 13
150.0027086782
 23
31.9980059343
 33
0.0
 14
150.0027086782
 24
-0.0019940657
 34
0.0
 50
90.0
100
AcDbRotatedDimension
  0
DIMENSION
  5
173
330
1F
100
AcDbEntity
  8
2
 62
     7
420
 16777215
100
AcDbDimension
  2
_D_3
 10
150.0027086782
 20
37.9552149703
 30
0.0
 11
138.0027086782
 21
37.9552149703
 31
0.0
 70
   160
  1
<>
 71
     2
 42
-1.0
  3
SLDDIMSTYLE0
100
AcDbAlignedDimension
 13
126.0027086782
 23
-0.0019940657
 33
0.0
 14
150.0027086782
 24
31.9980059343
 34
0.0
100
AcDbRotatedDimension
  0
INSERT
  5
188
330
1F
100
AcDbEntity
  8
0
  6
SLD-Punktstrich
 62
     2
420
 16776960
370
    15
100
AcDbBlockReference
  2
SW_CENTERMARKSYMBOL_0
 10
139.8836073308
 20
6.6862783167
 30
0.0
  0
INSERT
  5
194
330
1F
100
AcDbEntity
  8
0
  6
SLD-Punktstrich
 62
     2
420
 16776960
370
    15
100
AcDbBlockReference
  2
SW_CENTERMARKSYMBOL_1
 10
139.8836073308
 20
-11.6637216833
 30
0.0
  0
ENDSEC
  0
SECTION
  2
OBJECTS
  0
DICTIONARY
  5
C
330
0
100
AcDbDictionary
281
     1
  3
ACAD_DETAILVIEWSTYLE
350
199
  3
ACAD_GROUP
350
D
  3
ACAD_LAYOUT
350
1A
  3
ACAD_MATERIAL
350
43
  3
ACAD_MLEADERSTYLE
350
198
  3
ACAD_MLINESTYLE
350
17
  3
ACAD_PLOTSETTINGS
350
19
  3
ACAD_PLOTSTYLENAME
350
E
  3
ACAD_SCALELIST
350
47
  3
ACAD_SECTIONVIEWSTYLE
350
19A
  3
ACAD_TABLESTYLE
350
197
  3
AcDbVariableDictionary
350
195
  0
DICTIONARY
  5
199
102
{ACAD_REACTORS
330
C
102
}
330
C
100
AcDbDictionary
281
     1
  0
DICTIONARY
  5
D
102
{ACAD_REACTORS
330
C
102
}
330
C
100
AcDbDictionary
281
     1
  0
DICTIONARY
  5
1A
102
{ACAD_REACTORS
330
C
102
}
330
C
100
AcDbDictionary
281
     1
  3
Layout1
350
1E
  3
Layout2
350
26
  3
Model
350
22
  0
DICTIONARY
  5
43
102
{ACAD_REACTORS
330
C
102
}
330
C
100
AcDbDictionary
281
     1
  3
ByBlock
350
45
  3
ByLayer
350
44
  3
Global
350
46
  0
DICTIONARY
  5
198
102
{ACAD_REACTORS
330
C
102
}
330
C
100
AcDbDictionary
281
     1
  0
DICTIONARY
  5
17
102
{ACAD_REACTORS
330
C
102
}
330
C
100
AcDbDictionary
281
     1
  3
Standard
350
18
  0
DICTIONARY
  5
19
102
{ACAD_REACTORS
330
C
102
}
330
C
100
AcDbDictionary
281
     1
  0
ACDBDICTIONARYWDFLT
  5
E
102
{ACAD_REACTORS
330
C
102
}
330
C
100
AcDbDictionary
281
     1
  3
Normal
350
F
100
AcDbDictionaryWithDefault
340
F
  0
DICTIONARY
  5
47
102
{ACAD_REACTORS
330
C
102
}
330
C
100
AcDbDictionary
281
     1
  3
A0
350
48
  3
A1
350
49
  3
A2
350
4A
  3
A3
350
4B
  3
A4
350
4C
  3
A5
350
4D
  3
A6
350
4E
  3
A7
350
4F
  3
A8
350
50
  3
A9
350
51
  3
B0
350
52
  3
B1
350
53
  3
B2
350
54
  3
B3
350
55
  3
B4
350
56
  3
B5
350
57
  3
B6
350
58
  3
B7
350
59
  3
B8
350
5A
  3
B9
350
5B
  3
C0
350
5C
  3
C1
350
5D
  3
C2
350
5E
  3
C3
350
5F
  3
C4
350
60
  3
C5
350
61
  3
C6
350
62
  3
C7
350
63
  3
C8
350
64
  3
C9
350
65
  3
D0
350
66
  3
D1
350
67
  3
D2
350
68
  0
DICTIONARY
  5
19A
102
{ACAD_REACTORS
330
C
102
}
330
C
100
AcDbDictionary
281
     1
  0
DICTIONARY
  5
197
102
{ACAD_REACTORS
330
C
102
}
330
C
100
AcDbDictionary
281
     1
  0
DICTIONARY
  5
195
102
{ACAD_REACTORS
330
C
102
}
330
C
100
AcDbDictionary
281
     1
  3
CANNOSCALE
350
196
  0
LAYOUT
  5
1E
102
{ACAD_REACTORS
330
1A
102
}
330
1A
100
AcDbPlotSettings
  1

  2
none_device
  4

  6

 40
0.0
 41
0.0
 42
0.0
 43
0.0
 44
0.0
 45
0.0
 46
0.0
 47
0.0
 48
0.0
 49
0.0
140
0.0
141
0.0
142
1.0
143
1.0
 70
   688
 72
     1
 73
     0
 74
     5
  7

 75
    16
 76
     0
 77
     2
 78
   300
147
1.0
148
0.0
149
0.0
100
AcDbLayout
  1
Layout1
 70
     1
 71
     1
 10
0.0
 20
0.0
 11
420.0
 21
297.0
 12
0.0
 22
0.0
 32
0.0
 14
1.0000000000E+20
 24
1.0000000000E+20
 34
1.0000000000E+20
 15
-1.0000000000E+20
 25
-1.0000000000E+20
 35
-1.0000000000E+20
146
0.0
 13
0.0
 23
0.0
 33
0.0
 16
1.0
 26
0.0
 36
0.0
 17
0.0
 27
1.0
 37
0.0
 76
     0
330
1B
  0
LAYOUT
  5
26
102
{ACAD_REACTORS
330
1A
102
}
330
1A
100
AcDbPlotSettings
  1

  2
none_device
  4

  6

 40
0.0
 41
0.0
 42
0.0
 43
0.0
 44
0.0
 45
0.0
 46
0.0
 47
0.0
 48
0.0
 49
0.0
140
0.0
141
0.0
142
1.0
143
1.0
 70
   688
 72
     1
 73
     0
 74
     5
  7

 75
    16
 76
     0
 77
     2
 78
   300
147
1.0
148
0.0
149
0.0
100
AcDbLayout
  1
Layout2
 70
     1
 71
     2
 10
0.0
 20
0.0
 11
0.0
 21
0.0
 12
0.0
 22
0.0
 32
0.0
 14
0.0
 24
0.0
 34
0.0
 15
0.0
 25
0.0
 35
0.0
146
0.0
 13
0.0
 23
0.0
 33
0.0
 16
1.0
 26
0.0
 36
0.0
 17
0.0
 27
1.0
 37
0.0
 76
     0
330
23
  0
LAYOUT
  5
22
102
{ACAD_REACTORS
330
1A
102
}
330
1A
100
AcDbPlotSettings
  1

  2
none_device
  4
Letter_(8.50_x_11.00_Inches)
  6

 40
6.35
 41
6.35
 42
6.35000508
 43
6.35000508
 44
215.9
 45
279.4
 46
0.0
 47
0.0
 48
0.0
 49
0.0
140
0.0
141
0.0
142
1.0
143
1.0
 70
  1712
 72
     1
 73
     0
 74
     0
  7

 75
     0
 76
     0
 77
     2
 78
   300
147
1.0
148
0.0
149
0.0
100
AcDbLayout
  1
Model
 70
     1
 71
     0
 10
0.0
 20
0.0
 11
297.0
 21
210.0
 12
0.0
 22
0.0
 32
0.0
 14
0.0
 24
0.0
 34
0.0
 15
297.0
 25
210.0
 35
0.0
146
0.0
 13
0.0
 23
0.0
 33
0.0
 16
1.0
 26
0.0
 36
0.0
 17
0.0
 27
1.0
 37
0.0
 76
     0
330
1F
331
29
  0
MATERIAL
  5
45
102
{ACAD_REACTORS
330
43
102
}
330
43
100
AcDbMaterial
  1
ByBlock
  0
MATERIAL
  5
44
102
{ACAD_REACTORS
330
43
102
}
330
43
100
AcDbMaterial
  1
ByLayer
  0
MATERIAL
  5
46
102
{ACAD_REACTORS
330
43
102
}
330
43
100
AcDbMaterial
  1
Global
  0
MLINESTYLE
  5
18
102
{ACAD_REACTORS
330
17
102
}
330
17
100
AcDbMlineStyle
  2
Standard
 70
     0
  3

 62
   256
 51
90.0
 52
90.0
 71
     2
 49
0.5
 62
   256
  6
BYLAYER
 49
-0.5
 62
   256
  6
BYLAYER
  0
ACDBPLACEHOLDER
  5
F
102
{ACAD_REACTORS
330
E
102
}
330
E
  0
SCALE
  5
48
102
{ACAD_REACTORS
330
47
102
}
330
47
100
AcDbScale
 70
     0
300
1:1
140
1.0
141
1.0
290
     1
  0
SCALE
  5
49
102
{ACAD_REACTORS
330
47
102
}
330
47
100
AcDbScale
 70
     0
300
1:2
140
1.0
141
2.0
290
     0
  0
SCALE
  5
4A
102
{ACAD_REACTORS
330
47
102
}
330
47
100
AcDbScale
 70
     0
300
1:4
140
1.0
141
4.0
290
     0
  0
SCALE
  5
4B
102
{ACAD_REACTORS
330
47
102
}
330
47
100
AcDbScale
 70
     0
300
1:5
140
1.0
141
5.0
290
     0
  0
SCALE
  5
4C
102
{ACAD_REACTORS
330
47
102
}
330
47
100
AcDbScale
 70
     0
300
1:8
140
1.0
141
8.0
290
     0
  0
SCALE
  5
4D
102
{ACAD_REACTORS
330
47
102
}
330
47
100
AcDbScale
 70
     0
300
1:10
140
1.0
141
10.0
290
     0
  0
SCALE
  5
4E
102
{ACAD_REACTORS
330
47
102
}
330
47
100
AcDbScale
 70
     0
300
1:16
140
1.0
141
16.0
290
     0
  0
SCALE
  5
4F
102
{ACAD_REACTORS
330
47
102
}
330
47
100
AcDbScale
 70
     0
300
1:20
140
1.0
141
20.0
290
     0
  0
SCALE
  5
50
102
{ACAD_REACTORS
330
47
102
}
330
47
100
AcDbScale
 70
     0
300
1:30
140
1.0
141
30.0
290
     0
  0
SCALE
  5
51
102
{ACAD_REACTORS
330
47
102
}
330
47
100
AcDbScale
 70
     0
300
1:40
140
1.0
141
40.0
290
     0
  0
SCALE
  5
52
102
{ACAD_REACTORS
330
47
102
}
330
47
100
AcDbScale
 70
     0
300
1:50
140
1.0
141
50.0
290
     0
  0
SCALE
  5
53
102
{ACAD_REACTORS
330
47
102
}
330
47
100
AcDbScale
 70
     0
300
1:100
140
1.0
141
100.0
290
     0
  0
SCALE
  5
54
102
{ACAD_REACTORS
330
47
102
}
330
47
100
AcDbScale
 70
     0
300
2:1
140
2.0
141
1.0
290
     0
  0
SCALE
  5
55
102
{ACAD_REACTORS
330
47
102
}
330
47
100
AcDbScale
 70
     0
300
4:1
140
4.0
141
1.0
290
     0
  0
SCALE
  5
56
102
{ACAD_REACTORS
330
47
102
}
330
47
100
AcDbScale
 70
     0
300
8:1
140
8.0
141
1.0
290
     0
  0
SCALE
  5
57
102
{ACAD_REACTORS
330
47
102
}
330
47
100
AcDbScale
 70
     0
300
10:1
140
10.0
141
1.0
290
     0
  0
SCALE
  5
58
102
{ACAD_REACTORS
330
47
102
}
330
47
100
AcDbScale
 70
     0
300
100:1
140
100.0
141
1.0
290
     0
  0
SCALE
  5
59
102
{ACAD_REACTORS
330
47
102
}
330
47
100
AcDbScale
 70
     0
300
1/128" = 1'-0"
140
0.0078125
141
12.0
290
     0
  0
SCALE
  5
5A
102
{ACAD_REACTORS
330
47
102
}
330
47
100
AcDbScale
 70
     0
300
1/64" = 1'-0"
140
0.015625
141
12.0
290
     0
  0
SCALE
  5
5B
102
{ACAD_REACTORS
330
47
102
}
330
47
100
AcDbScale
 70
     0
300
1/32" = 1'-0"
140
0.03125
141
12.0
290
     0
  0
SCALE
  5
5C
102
{ACAD_REACTORS
330
47
102
}
330
47
100
AcDbScale
 70
     0
300
1/16" = 1'-0"
140
0.0625
141
12.0
290
     0
  0
SCALE
  5
5D
102
{ACAD_REACTORS
330
47
102
}
330
47
100
AcDbScale
 70
     0
300
3/32" = 1'-0"
140
0.09375
141
12.0
290
     0
  0
SCALE
  5
5E
102
{ACAD_REACTORS
330
47
102
}
330
47
100
AcDbScale
 70
     0
300
1/8" = 1'-0"
140
0.125
141
12.0
290
     0
  0
SCALE
  5
5F
102
{ACAD_REACTORS
330
47
102
}
330
47
100
AcDbScale
 70
     0
300
3/16" = 1'-0"
140
0.1875
141
12.0
290
     0
  0
SCALE
  5
60
102
{ACAD_REACTORS
330
47
102
}
330
47
100
AcDbScale
 70
     0
300
1/4" = 1'-0"
140
0.25
141
12.0
290
     0
  0
SCALE
  5
61
102
{ACAD_REACTORS
330
47
102
}
330
47
100
AcDbScale
 70
     0
300
3/8" = 1'-0"
140
0.375
141
12.0
290
     0
  0
SCALE
  5
62
102
{ACAD_REACTORS
330
47
102
}
330
47
100
AcDbScale
 70
     0
300
1/2" = 1'-0"
140
0.5
141
12.0
290
     0
  0
SCALE
  5
63
102
{ACAD_REACTORS
330
47
102
}
330
47
100
AcDbScale
 70
     0
300
3/4" = 1'-0"
140
0.75
141
12.0
290
     0
  0
SCALE
  5
64
102
{ACAD_REACTORS
330
47
102
}
330
47
100
AcDbScale
 70
     0
300
1" = 1'-0"
140
1.0
141
12.0
290
     0
  0
SCALE
  5
65
102
{ACAD_REACTORS
330
47
102
}
330
47
100
AcDbScale
 70
     0
300
1-1/2" = 1'-0"
140
1.5
141
12.0
290
     0
  0
SCALE
  5
66
102
{ACAD_REACTORS
330
47
102
}
330
47
100
AcDbScale
 70
     0
300
3" = 1'-0"
140
3.0
141
12.0
290
     0
  0
SCALE
  5
67
102
{ACAD_REACTORS
330
47
102
}
330
47
100
AcDbScale
 70
     0
300
6" = 1'-0"
140
6.0
141
12.0
290
     0
  0
SCALE
  5
68
102
{ACAD_REACTORS
330
47
102
}
330
47
100
AcDbScale
 70
     0
300
1'-0" = 1'-0"
140
12.0
141
12.0
290
     0
  0
DICTIONARYVAR
  5
196
102
{ACAD_REACTORS
330
195
102
}
330
195
100
DictionaryVariables
280
     0
  1
1:1
  0
ENDSEC
  0
EOF
