999
DXF file: 7059202501.dxf
999
Pro/ENGINEER 2021164 by Parametric Technology Corporation
  0
SECTION
  2
HEADER
  9
$ACADVER
  1
AC1021
  9
$DWGCODEPAGE
  3
ANSI_1252
  9
$EXTMAX
 10
420.0
 20
297.0
 30
0.0
  9
$EXTMIN
 10
0.0
 20
0.0
 30
0.0
  9
$LIMMIN
 10
0.0
 20
0.0
  9
$LIMMAX
 10
420.0
 20
297.0
  9
$VIEWCTR
 10
210.0
 20
148.5
  9
$VIEWSIZE
 40
297.0
  9
$CLAYER
  8
0
  9
$LTSCALE
 40
23.1
  9
$CELTYPE
  6
BYLAYER
  9
$DIMSCALE
 40
1.0
  9
$DIMASZ
 40
3.5
  9
$DIMEXO
 40
0.0
  9
$DIMDLI
 40
15.96
  9
$DIMEXE
 40
1.5
  9
$DIMCEN
 40
3.78
  9
$DIMLFAC
 40
1.0
  9
$DIMBLK
  1
_FILLED
  9
$DIMALT
 70
0
  9
$DIMALTF
 40
0.0393700787
  9
$DIMTXT
 40
3.5
  9
$DIMTOL
 70
1
  9
$DIMLIM
 70
0
  9
$DIMTFAC
 40
1.0
  9
$DIMTP
 40
0.05
  9
$DIMTM
 40
0.05
  9
$DIMGAP
 40
0.625
  9
$DIMDSEP
 70
46
  9
$AUNITS
 70
0
  9
$PDMODE
 70
3
  9
$PDSIZE
 40
0.3125
  9
$HANDSEED
  5
25E
  9
$TILEMODE
 70
1
  9
$MEASUREMENT
 70
1
  9
$INSUNITS
 70
4
  0
ENDSEC
  0
SECTION
  2
CLASSES
  0
CLASS
  1
ACDBDICTIONARYWDFLT
  2
AcDbDictionaryWithDefault
  3
AutoCAD 2000
 90
0
 91
1
280
0
281
0
  0
CLASS
  1
ACDBPLACEHOLDER
  2
AcDbPlaceHolder
  3
AutoCAD 2000
 90
0
 91
1
280
0
281
0
  0
CLASS
  1
LAYOUT
  2
AcDbLayout
  3
AutoCAD 2000
 90
0
 91
0
280
0
281
0
  0
ENDSEC
  0
SECTION
  2
TABLES
  0
TABLE
  2
VPORT
  5
8
100
AcDbSymbolTable
 70
2
  0
VPORT
  5
1F4
100
AcDbSymbolTableRecord
100
AcDbViewportTableRecord
  2
*ACTIVE
 70
0
 10
0.0
 20
0.0
 11
1.0
 21
1.0
 12
210.0
 22
148.5
 13
0.0
 23
0.0
 14
1.0
 24
1.0
 15
0.0
 25
0.0
 16
0.0
 26
0.0
 36
1.0
 17
0.0
 27
0.0
 37
0.0
 40
297.0
 41
1.4141414141
 42
50.0
 43
0.0
 44
0.0
 50
0.0
 51
0.0
 71
0
 72
100
 73
1
 74
1
 75
0
 76
0
 77
0
 78
0
  0
ENDTAB
  0
TABLE
  2
LTYPE
  5
5
100
AcDbSymbolTable
 70
6
  0
LTYPE
  5
14
100
AcDbSymbolTableRecord
100
AcDbLinetypeTableRecord
  2
BYBLOCK
 70
0
  3

 72
65
 73
0
 40
0.0
  0
LTYPE
  5
15
100
AcDbSymbolTableRecord
100
AcDbLinetypeTableRecord
  2
BYLAYER
 70
0
  3

 72
65
 73
0
 40
0.0
  0
LTYPE
  5
16
100
AcDbSymbolTableRecord
100
AcDbLinetypeTableRecord
  2
CONTINUOUS
 70
64
  3
Solid line
 72
65
 73
0
 40
0.0
  0
LTYPE
  5
1F5
100
AcDbSymbolTableRecord
100
AcDbLinetypeTableRecord
  2
CENTER
 70
64
  3
____ _ ____ _ ____ _ ____ _ ____ _ ____ _ ____
 72
65
 73
4
 40
0.6
 49
0.375
 74
0
 49
-0.075
 74
0
 49
0.075
 74
0
 49
-0.075
 74
0
  0
LTYPE
  5
1F6
100
AcDbSymbolTableRecord
100
AcDbLinetypeTableRecord
  2
HIDDEN
 70
64
  3
- - - - - - - - - - - - - - - - - - - -
 72
65
 73
2
 40
0.2
 49
0.1
 74
0
 49
-0.1
 74
0
  0
LTYPE
  5
1F7
100
AcDbSymbolTableRecord
100
AcDbLinetypeTableRecord
  2
PHANTOM
 70
64
  3
_____ _ _ _____ _ _ _____ _ _ _____
 72
65
 73
6
 40
0.8
 49
0.45
 74
0
 49
-0.05
 74
0
 49
0.1
 74
0
 49
-0.05
 74
0
 49
0.1
 74
0
 49
-0.05
 74
0
  0
LTYPE
  5
1F8
100
AcDbSymbolTableRecord
100
AcDbLinetypeTableRecord
  2
DOT
 70
64
  3
. . . . . . . . . . . . . . . . . . . .
 72
65
 73
2
 40
0.2
 49
0.1
 74
0
 49
-0.1
 74
0
  0
LTYPE
  5
1F9
100
AcDbSymbolTableRecord
100
AcDbLinetypeTableRecord
  2
DASHED
 70
64
  3
- - - - - - - - - - - - - - - - - - - -
 72
65
 73
2
 40
0.2
 49
0.1
 74
0
 49
-0.1
 74
0
  0
ENDTAB
  0
TABLE
  2
LAYER
  5
2
100
AcDbSymbolTable
 70
36
  0
LAYER
  5
10
100
AcDbSymbolTableRecord
100
AcDbLayerTableRecord
  2
0
 70
0
 62
7
  6
CONTINUOUS
370
-3
390
F
  0
LAYER
  5
1FA
100
AcDbSymbolTableRecord
100
AcDbLayerTableRecord
  2
DEFAULT_1
 70
0
 62
7
  6
CENTER
370
-3
390
F
  0
LAYER
  5
1FB
100
AcDbSymbolTableRecord
100
AcDbLayerTableRecord
  2
DEFAULT_2
 70
0
 62
1
  6
HIDDEN
370
-3
390
F
  0
LAYER
  5
1FC
100
AcDbSymbolTableRecord
100
AcDbLayerTableRecord
  2
DEFAULT_3
 70
0
 62
7
  6
PHANTOM
370
-3
390
F
  0
LAYER
  5
1FD
100
AcDbSymbolTableRecord
100
AcDbLayerTableRecord
  2
1
 70
0
 62
7
  6
CONTINUOUS
370
-3
390
F
  0
LAYER
  5
1FE
100
AcDbSymbolTableRecord
100
AcDbLayerTableRecord
  2
2
 70
0
 62
7
  6
CONTINUOUS
370
-3
390
F
  0
LAYER
  5
1FF
100
AcDbSymbolTableRecord
100
AcDbLayerTableRecord
  2
K_CUT
 70
0
 62
7
  6
CONTINUOUS
370
-3
390
F
  0
LAYER
  5
200
100
AcDbSymbolTableRecord
100
AcDbLayerTableRecord
  2
_21_KURVEN
 70
0
 62
7
  6
CONTINUOUS
370
-3
390
F
  0
ENDTAB
  0
TABLE
  2
STYLE
  5
3
100
AcDbSymbolTable
 70
1
  0
STYLE
  5
11
100
AcDbSymbolTableRecord
100
AcDbTextStyleTableRecord
  2
STANDARD
 70
0
 40
0.0
 41
0.7
 50
0.0
 71
0
 42
0.2
  3
SIMPLEX.SHX
  4

  0
STYLE
  5
201
100
AcDbSymbolTableRecord
100
AcDbTextStyleTableRecord
  2
TEXTSTYLE_1
 70
0
 40
0.0
 41
0.8
 50
0.0
 71
0
 42
0.2
  3
gdt
  4

  0
ENDTAB
  0
TABLE
  2
VIEW
  5
6
100
AcDbSymbolTable
 70
0
  0
ENDTAB
  0
TABLE
  2
UCS
  5
7
100
AcDbSymbolTable
 70
0
  0
ENDTAB
  0
TABLE
  2
APPID
  5
9
100
AcDbSymbolTable
 70
1
  0
APPID
  5
202
100
AcDbSymbolTableRecord
100
AcDbRegAppTableRecord
  2
ACAD
 70
0
  0
ENDTAB
  0
TABLE
  2
BLOCK_RECORD
  5
1
100
AcDbSymbolTable
 70
0
  0
BLOCK_RECORD
  5
203
100
AcDbSymbolTableRecord
100
AcDbBlockTableRecord
  2
*Model_Space
  0
BLOCK_RECORD
  5
204
100
AcDbSymbolTableRecord
100
AcDbBlockTableRecord
  2
*Paper_Space
  0
BLOCK_RECORD
  5
205
100
AcDbSymbolTableRecord
100
AcDbBlockTableRecord
  2
_FILLED
  0
BLOCK_RECORD
  5
206
100
AcDbSymbolTableRecord
100
AcDbBlockTableRecord
  2
*D0
  0
BLOCK_RECORD
  5
207
100
AcDbSymbolTableRecord
100
AcDbBlockTableRecord
  2
*D1
  0
BLOCK_RECORD
  5
208
100
AcDbSymbolTableRecord
100
AcDbBlockTableRecord
  2
*D2
  0
ENDTAB
  0
TABLE
  2
DIMSTYLE
  5
A
100
AcDbSymbolTable
 70
1
100
AcDbDimStyleTable
 71
0
  0
DIMSTYLE
105
209
100
AcDbSymbolTableRecord
100
AcDbDimStyleTableRecord
  2
STANDARD
 70
0
  3

  4

 40
1.0
 41
3.5
 42
0.0
 43
0.38
 44
1.5
 45
0.0
 46
0.0
 47
0.05
 48
0.05
140
3.5
141
0.09
142
0.0
143
25.4
144
1.0
145
0.0
146
1.0
147
0.625
 71
1
 72
0
 73
0
 74
0
 75
0
 76
0
 77
1
 78
8
 79
2
170
0
171
1
172
0
173
0
174
0
175
0
176
0
177
0
178
7
270
2
179
2
271
2
272
2
273
2
274
2
275
0
280
0
281
0
282
0
283
1
284
8
285
0
286
0
287
3
288
0
340
11
278
46
341
205
342
205
343
205
344
205
  0
DIMSTYLE
105
20A
100
AcDbSymbolTableRecord
100
AcDbDimStyleTableRecord
  2
DIMSTYLE_1
 70
0
  3

  4

 40
1.0
 41
3.5
 42
0.0
 43
0.38
 44
1.5
 45
0.0
 46
0.0
 47
0.2
 48
0.2
140
3.5
141
0.09
142
0.0
143
25.4
144
1.0
145
0.0
146
1.0
147
0.875
 71
0
 72
0
 73
0
 74
0
 75
0
 76
0
 77
1
 78
8
 79
2
170
0
171
1
172
0
173
0
174
0
175
0
176
0
177
0
178
7
270
2
179
2
271
2
272
2
273
2
274
2
275
0
280
0
281
0
282
0
283
1
284
8
285
0
286
0
287
3
288
0
340
11
278
46
341
205
342
205
343
205
344
205
  0
DIMSTYLE
105
20B
100
AcDbSymbolTableRecord
100
AcDbDimStyleTableRecord
  2
DIMSTYLE_2
 70
0
  3

  4

 40
1.0
 41
3.5
 42
0.0
 43
0.38
 44
1.5
 45
0.0
 46
0.0
 47
0.5
 48
0.5
140
3.5
141
0.09
142
0.0
143
25.4
144
1.0
145
0.0
146
1.0
147
0.875
 71
0
 72
0
 73
0
 74
0
 75
0
 76
0
 77
1
 78
8
 79
2
170
0
171
1
172
0
173
0
174
0
175
0
176
0
177
0
178
7
270
2
179
2
271
2
272
2
273
2
274
2
275
0
280
0
281
0
282
0
283
1
284
8
285
0
286
0
287
3
288
0
340
11
278
46
341
205
342
205
343
205
344
205
  0
DIMSTYLE
105
20C
100
AcDbSymbolTableRecord
100
AcDbDimStyleTableRecord
  2
DIMSTYLE_3
 70
0
  3

  4

 40
1.0
 41
3.5
 42
0.0
 43
0.38
 44
1.5
 45
0.0
 46
0.0
 47
0.3
 48
0.3
140
3.5
141
0.09
142
0.0
143
25.4
144
1.0
145
0.0
146
1.0
147
0.875
 71
0
 72
0
 73
0
 74
0
 75
0
 76
0
 77
1
 78
8
 79
2
170
0
171
1
172
0
173
0
174
0
175
0
176
0
177
0
178
7
270
2
179
2
271
2
272
2
273
2
274
2
275
0
280
0
281
0
282
0
283
1
284
8
285
0
286
0
287
3
288
0
340
11
278
46
341
205
342
205
343
205
344
205
  0
ENDTAB
  0
ENDSEC
  0
SECTION
  2
BLOCKS
  0
BLOCK
  5
20
100
AcDbEntity
  8
0
100
AcDbBlockBegin
  2
*Model_Space
 70
0
 10
0.0
 20
0.0
 30
0.0
  3
*Model_Space
  1

  0
ENDBLK
  5
21
100
AcDbEntity
  8
0
100
AcDbBlockEnd
  0
BLOCK
  5
1C
100
AcDbEntity
  8
0
100
AcDbBlockBegin
  2
*Paper_Space
 70
0
 10
0.0
 20
0.0
 30
0.0
  3
*Paper_Space
  1

  0
ENDBLK
  5
1D
100
AcDbEntity
  8
0
100
AcDbBlockEnd
  0
BLOCK
  5
20D
100
AcDbEntity
  8
0
100
AcDbBlockBegin
  2
_FILLED
 70
64
 10
0.0
 20
0.0
  3
_FILLED
  1

  0
SOLID
  5
20E
100
AcDbEntity
  8
0
  6
BYBLOCK
 62
0
100
AcDbTrace
 10
0.0
 20
0.0
 11
-1.0
 21
0.125
 12
-1.0
 22
-0.125
 13
-1.0
 23
-0.125
  0
ENDBLK
  5
20F
100
AcDbEntity
  8
0
  6
BYBLOCK
 62
0
100
AcDbBlockEnd
  0
BLOCK
  5
210
100
AcDbEntity
  8
2
100
AcDbBlockBegin
 62
7
  6
CONTINUOUS
  2
*D0
 70
65
 10
0.0
 20
0.0
  3
*D0
  1

  0
TEXT
  5
211
100
AcDbEntity
  8
2
100
AcDbText
 62
7
  6
CONTINUOUS
 10
-9.875
 20
9.875
  7
STANDARD
 40
3.5
  1
25
 50
90.0
 41
0.75
 72
1
 11
-9.875
 21
12.5
100
AcDbText
  0
LINE
  5
212
100
AcDbEntity
  8
2
100
AcDbLine
 62
7
  6
CONTINUOUS
 10
0.0
 20
25.0
 11
-10.5
 21
25.0
  0
LINE
  5
213
100
AcDbEntity
  8
2
100
AcDbLine
 62
7
  6
CONTINUOUS
 10
-0.0
 20
-0.0
 11
-10.5
 21
0.0
  0
LINE
  5
214
100
AcDbEntity
  8
2
100
AcDbLine
 62
7
  6
CONTINUOUS
 10
-9.0
 20
25.0
 11
-9.0
 21
31.0
  0
LINE
  5
215
100
AcDbEntity
  8
2
100
AcDbLine
 62
7
  6
CONTINUOUS
 10
-9.0
 20
31.0
 11
-9.0
 21
12.5
  0
LINE
  5
216
100
AcDbEntity
  8
2
100
AcDbLine
 62
7
  6
CONTINUOUS
 10
-9.0
 20
0.0
 11
-9.0
 21
-6.0
  0
LINE
  5
217
100
AcDbEntity
  8
2
100
AcDbLine
 62
7
  6
CONTINUOUS
 10
-9.0
 20
-6.0
 11
-9.0
 21
12.5
  0
INSERT
  5
218
100
AcDbEntity
  8
2
100
AcDbBlockReference
 62
7
  6
CONTINUOUS
  2
_FILLED
 10
-9.0
 20
25.0
 41
3.5
 42
3.5
 43
3.5
 50
270.0
  0
INSERT
  5
219
100
AcDbEntity
  8
2
100
AcDbBlockReference
 62
7
  6
CONTINUOUS
  2
_FILLED
 10
-9.0
 20
0.0
 41
3.5
 42
3.5
 43
3.5
 50
90.0
  0
ENDBLK
  5
21A
100
AcDbEntity
  8
0
  6
BYBLOCK
 62
0
100
AcDbBlockEnd
  0
BLOCK
  5
21B
100
AcDbEntity
  8
2
100
AcDbBlockBegin
 62
7
  6
CONTINUOUS
  2
*D1
 70
65
 10
0.0
 20
0.0
  3
*D1
  1

  0
TEXT
  5
21C
100
AcDbEntity
  8
2
100
AcDbText
 62
7
  6
CONTINUOUS
 10
58.25
 20
59.875
  7
STANDARD
 40
3.5
  1
124
 41
0.7142857143
 72
1
 11
62.0
 21
59.875
100
AcDbText
  0
LINE
  5
21D
100
AcDbEntity
  8
2
100
AcDbLine
 62
7
  6
CONTINUOUS
 10
124.0
 20
0.0
 11
124.0
 21
60.5
  0
LINE
  5
21E
100
AcDbEntity
  8
2
100
AcDbLine
 62
7
  6
CONTINUOUS
 10
0.0
 20
0.0
 11
0.0
 21
60.5
  0
LINE
  5
21F
100
AcDbEntity
  8
2
100
AcDbLine
 62
7
  6
CONTINUOUS
 10
124.0
 20
59.0
 11
62.0
 21
59.0
  0
LINE
  5
220
100
AcDbEntity
  8
2
100
AcDbLine
 62
7
  6
CONTINUOUS
 10
0.0
 20
59.0
 11
62.0
 21
59.0
  0
INSERT
  5
221
100
AcDbEntity
  8
2
100
AcDbBlockReference
 62
7
  6
CONTINUOUS
  2
_FILLED
 10
124.0
 20
59.0
 41
3.5
 42
3.5
 43
3.5
  0
INSERT
  5
222
100
AcDbEntity
  8
2
100
AcDbBlockReference
 62
7
  6
CONTINUOUS
  2
_FILLED
 10
0.0
 20
59.0
 41
3.5
 42
3.5
 43
3.5
 50
180.0
  0
ENDBLK
  5
223
100
AcDbEntity
  8
0
  6
BYBLOCK
 62
0
100
AcDbBlockEnd
  0
BLOCK
  5
224
100
AcDbEntity
  8
2
100
AcDbBlockBegin
 62
7
  6
CONTINUOUS
  2
*D2
 70
65
 10
0.0
 20
0.0
  3
*D2
  1

  0
TEXT
  5
225
100
AcDbEntity
  8
2
100
AcDbText
 62
7
  6
CONTINUOUS
 10
132.2043605395
 20
13.375
  7
STANDARD
 40
3.5
  1
32
 50
90.0
 41
0.75
 72
1
 11
132.2043605395
 21
16.0
100
AcDbText
  0
LINE
  5
226
100
AcDbEntity
  8
2
100
AcDbLine
 62
7
  6
CONTINUOUS
 10
109.8525290038
 20
0.0
 11
134.5793605395
 21
0.0
  0
LINE
  5
227
100
AcDbEntity
  8
2
100
AcDbLine
 62
7
  6
CONTINUOUS
 10
124.0
 20
32.0
 11
134.5793605395
 21
32.0
  0
LINE
  5
228
100
AcDbEntity
  8
2
100
AcDbLine
 62
7
  6
CONTINUOUS
 10
133.0793605395
 20
0.0
 11
133.0793605395
 21
16.0
  0
LINE
  5
229
100
AcDbEntity
  8
2
100
AcDbLine
 62
7
  6
CONTINUOUS
 10
133.0793605395
 20
32.0
 11
133.0793605395
 21
16.0
  0
INSERT
  5
22A
100
AcDbEntity
  8
2
100
AcDbBlockReference
 62
7
  6
CONTINUOUS
  2
_FILLED
 10
133.0793605395
 20
0.0
 41
3.5
 42
3.5
 43
3.5
 50
270.0
  0
INSERT
  5
22B
100
AcDbEntity
  8
2
100
AcDbBlockReference
 62
7
  6
CONTINUOUS
  2
_FILLED
 10
133.0793605395
 20
32.0
 41
3.5
 42
3.5
 43
3.5
 50
90.0
  0
ENDBLK
  5
22C
100
AcDbEntity
  8
0
  6
BYBLOCK
 62
0
100
AcDbBlockEnd
  0
ENDSEC
  0
SECTION
  2
ENTITIES
  0
DIMENSION
  5
22D
100
AcDbEntity
  8
2
100
AcDbDimension
 62
7
  6
CONTINUOUS
  2
*D0
 10
-9.0
 20
0.0
 11
-9.0
 21
11.9999997234
 70
160
 71
2
 72
2
 41
0.9
 42
25.0
  3
DIMSTYLE_1
100
AcDbAlignedDimension
 13
0.0
 23
25.0
 14
-0.0
 24
-0.0
 50
270.0
100
AcDbRotatedDimension
  0
DIMENSION
  5
22E
100
AcDbEntity
  8
2
100
AcDbDimension
 62
7
  6
CONTINUOUS
  2
*D1
 10
0.0
 20
59.0
 11
61.5000009155
 21
59.0
 70
160
 71
2
 72
2
 41
0.9
 42
124.0
  3
DIMSTYLE_2
100
AcDbAlignedDimension
 13
124.0
 23
0.0
 14
0.0
 24
0.0
 50
180.0
100
AcDbRotatedDimension
  0
DIMENSION
  5
22F
100
AcDbEntity
  8
2
100
AcDbDimension
 62
7
  6
CONTINUOUS
  2
*D2
 10
133.0793605395
 20
32.0
 11
133.0793605395
 21
15.4999964552
 70
160
 71
2
 72
2
 41
0.9
 42
32.0
  3
DIMSTYLE_3
100
AcDbAlignedDimension
 13
109.8525290038
 23
0.0
 14
124.0
 24
32.0
 50
90.0
100
AcDbRotatedDimension
  0
LINE
  5
230
100
AcDbEntity
  8
1
100
AcDbLine
 62
4
  6
CONTINUOUS
 10
-0.0
 20
0.5
 11
0.0
 21
24.5
  0
LINE
  5
231
100
AcDbEntity
  8
1
100
AcDbLine
 62
4
  6
CONTINUOUS
 10
0.5
 20
-0.0
 11
0.5
 21
25.0
  0
LINE
  5
232
100
AcDbEntity
  8
1
100
AcDbLine
 62
4
  6
CONTINUOUS
 10
0.5
 20
-0.0
 11
-0.0
 21
0.5
  0
LINE
  5
233
100
AcDbEntity
  8
1
100
AcDbLine
 62
4
  6
CONTINUOUS
 10
0.5
 20
25.0
 11
0.0
 21
24.5
  0
LINE
  5
234
100
AcDbEntity
  8
1
100
AcDbLine
 62
4
  6
CONTINUOUS
 10
0.5
 20
-0.0
 11
109.8525290038
 21
0.0
  0
LINE
  5
235
100
AcDbEntity
  8
1
100
AcDbLine
 62
4
  6
CONTINUOUS
 10
122.4356124014
 20
19.2437412577
 11
110.3362975158
 21
18.1845221637
  0
LINE
  5
236
100
AcDbEntity
  8
1
100
AcDbLine
 62
4
  6
CONTINUOUS
 10
0.5
 20
25.0
 11
84.0
 21
25.0
  0
LINE
  5
237
100
AcDbEntity
  8
1
100
AcDbLine
 62
4
  6
CONTINUOUS
 10
84.7623226964
 20
27.8450270348
 11
111.2533128776
 21
30.1626883612
  0
LINE
  5
238
100
AcDbEntity
  8
1
100
AcDbLine
 62
4
  6
CONTINUOUS
 10
111.9794269785
 20
31.0203974287
 11
123.1356834194
 21
31.9964433947
  0
LINE
  5
239
100
AcDbEntity
  8
1
100
AcDbLine
 62
4
  6
CONTINUOUS
 10
84.0
 20
25.0
 11
84.0
 21
0.0
  0
LINE
  5
23A
100
AcDbEntity
  8
1
100
AcDbLine
 62
4
  6
CONTINUOUS
 10
84.0
 20
25.0
 11
84.7623226964
 21
27.8450270348
  0
LINE
  5
23B
100
AcDbEntity
  8
1
100
AcDbLine
 62
4
  6
CONTINUOUS
 10
85.8234175552
 20
0.0
 11
85.8234175552
 21
27.9378608059
  0
LINE
  5
23C
100
AcDbEntity
  8
1
100
AcDbLine
 62
4
  6
CONTINUOUS
 10
87.140943624
 20
28.0531294008
 11
91.1801345814
 21
0.0
  0
LINE
  5
23D
100
AcDbEntity
  8
1
100
AcDbLine
 62
4
  6
CONTINUOUS
 10
111.4916749446
 20
30.7934394815
 11
110.996815581
 21
30.2985801178
  0
LINE
  5
23E
100
AcDbEntity
  8
1
100
AcDbLine
 62
7
  6
CONTINUOUS
 10
111.2640180703
 20
30.2971706595
 11
111.1176684197
 21
30.1508210089
  0
LINE
  5
23F
100
AcDbEntity
  8
1
100
AcDbLine
 62
4
  6
CONTINUOUS
 10
108.5691615106
 20
0.0
 11
94.859777009
 21
28.7284398176
  0
LINE
  5
240
100
AcDbEntity
  8
1
100
AcDbLine
 62
4
  6
CONTINUOUS
 10
96.0917111092
 20
28.8362200856
 11
109.8525290038
 21
0.0
  0
LINE
  5
241
100
AcDbEntity
  8
1
100
AcDbLine
 62
4
  6
CONTINUOUS
 10
110.3362975158
 20
18.1845221637
 11
111.2640180703
 21
30.2971706595
  0
LINE
  5
242
100
AcDbEntity
  8
1
100
AcDbLine
 62
7
  6
CONTINUOUS
 10
122.4356124014
 20
19.2437412577
 11
122.028154081
 21
18.8362829373
  0
LINE
  5
243
100
AcDbEntity
  8
1
100
AcDbLine
 62
4
  6
CONTINUOUS
 10
122.9233644353
 20
19.470699205
 11
122.4285050717
 21
18.9758398413
  0
LINE
  5
244
100
AcDbEntity
  8
1
100
AcDbLine
 62
4
  6
CONTINUOUS
 10
121.4414303496
 20
12.13
 11
109.6777290554
 21
0.3662987057
  0
LINE
  5
245
100
AcDbEntity
  8
1
100
AcDbLine
 62
4
  6
CONTINUOUS
 10
124.0069591096
 20
31.1343834195
 11
123.1510213096
 21
19.966968027
  0
LINE
  5
246
100
AcDbEntity
  8
1
100
AcDbLine
 62
4
  6
CONTINUOUS
 10
122.0609673843
 20
19.2113407093
 11
121.4414303496
 21
12.13
  0
ARC
  5
247
100
AcDbEntity
  8
1
100
AcDbCircle
 62
4
  6
CONTINUOUS
 10
116.7282433673
 20
24.6092117172
 40
2.550520014
100
AcDbArc
 50
327.9741535866
 51
5.6570938275
  0
ARC
  5
248
100
AcDbEntity
  8
1
100
AcDbCircle
 62
4
  6
CONTINUOUS
 10
116.6866935503
 20
24.6602477619
 40
2.5452244595
100
AcDbArc
 50
125.1919148977
 51
130.6600567803
  0
ARC
  5
249
100
AcDbEntity
  8
1
100
AcDbCircle
 62
4
  6
CONTINUOUS
 10
116.7544369753
 20
24.5960964279
 40
2.5213593003
100
AcDbArc
 50
320.5968585722
 51
327.9111790812
  0
ARC
  5
24A
100
AcDbEntity
  8
1
100
AcDbCircle
 62
4
  6
CONTINUOUS
 10
116.7726202421
 20
24.5818432987
 40
2.4982616685
100
AcDbArc
 50
320.347587758
 51
320.5847293497
  0
ARC
  5
24B
100
AcDbEntity
  8
1
100
AcDbCircle
 62
4
  6
CONTINUOUS
 10
111.5494295362
 20
29.746236206
 40
0.7813942695
100
AcDbArc
 50
135.0139752469
 51
150.5939078302
  0
SPLINE
  5
24C
100
AcDbEntity
  8
1
100
AcDbSpline
 62
4
  6
CONTINUOUS
 70
0
 71
3
 72
11
 73
7
 74
0
 42
0.0000001
 43
0.0000001
 44
0.0000000001
 40
0.0
 40
0.0
 40
0.0
 40
0.0
 40
0.2495747754
 40
0.5000202719
 40
0.7504534586
 40
1.0
 40
1.0
 40
1.0
 40
1.0
 10
124.0069591096
 20
31.1343834195
 30
0.0
 10
124.0157459169
 20
31.2490248418
 30
0.0
 10
123.9821041047
 20
31.4856534683
 30
0.0
 10
123.7878800495
 20
31.7843256165
 30
0.0
 10
123.4871709727
 20
31.9753602625
 30
0.0
 10
123.2502106029
 20
32.0064632249
 30
0.0
 10
123.1356834194
 20
31.9964433947
 30
0.0
  0
SPLINE
  5
24D
100
AcDbEntity
  8
1
100
AcDbSpline
 62
4
  6
CONTINUOUS
 70
0
 71
3
 72
9
 73
5
 74
0
 42
0.0000001
 43
0.0000001
 44
0.0000000001
 40
0.0
 40
0.0
 40
0.0
 40
0.0
 40
0.5001619427
 40
1.0
 40
1.0
 40
1.0
 40
1.0
 10
111.9794269785
 20
31.0203974287
 30
0.0
 10
111.8887062601
 20
31.0124603943
 30
0.0
 10
111.7088081847
 20
30.9643721549
 30
0.0
 10
111.5559775626
 20
30.8578425188
 30
0.0
 10
111.4916249599
 20
30.7934899703
 30
0.0
  0
SPLINE
  5
24E
100
AcDbEntity
  8
1
100
AcDbSpline
 62
4
  6
CONTINUOUS
 70
0
 71
3
 72
9
 73
5
 74
0
 42
0.0000001
 43
0.0000001
 44
0.0000000001
 40
0.0
 40
0.0
 40
0.0
 40
0.0
 40
0.5039203812
 40
1.0
 40
1.0
 40
1.0
 40
1.0
 10
114.4851442522
 20
24.7563383676
 30
0.0
 10
114.4491093989
 20
25.1228409318
 30
0.0
 10
114.5370437432
 20
25.8756844576
 30
0.0
 10
114.9430090423
 20
26.5162296865
 30
0.0
 10
115.199363315
 20
26.7725839591
 30
0.0
  0
SPLINE
  5
24F
100
AcDbEntity
  8
1
100
AcDbSpline
 62
4
  6
CONTINUOUS
 70
0
 71
3
 72
15
 73
11
 74
0
 42
0.0000001
 43
0.0000001
 44
0.0000000001
 40
0.0
 40
0.0
 40
0.0
 40
0.0
 40
0.1242176075
 40
0.248711289
 40
0.3735526833
 40
0.4987186754
 40
0.6241148191
 40
0.7495391777
 40
0.875049942
 40
1.0
 40
1.0
 40
1.0
 40
1.0
 10
115.219837421
 20
26.7402719552
 30
0.0
 10
115.4014194307
 20
26.8683138467
 30
0.0
 10
115.8011947281
 20
27.0770932024
 30
0.0
 10
116.4607881531
 20
27.2230807063
 30
0.0
 10
117.1377627549
 20
27.192713722
 30
0.0
 10
117.7853636547
 20
26.9884844699
 30
0.0
 10
118.3599810248
 20
26.6247914505
 30
0.0
 10
118.8228233775
 20
26.1254644483
 30
0.0
 10
119.1411475272
 20
25.5250965512
 30
0.0
 10
119.2444725841
 20
25.0830520574
 30
0.0
 10
119.2663414994
 20
24.8606281325
 30
0.0
  0
SPLINE
  5
250
100
AcDbEntity
  8
1
100
AcDbSpline
 62
4
  6
CONTINUOUS
 70
0
 71
3
 72
15
 73
11
 74
0
 42
0.0000001
 43
0.0000001
 44
0.0000000001
 40
0.0
 40
0.0
 40
0.0
 40
0.0
 40
0.1213651724
 40
0.2439232135
 40
0.3677590742
 40
0.4933095603
 40
0.6201243972
 40
0.7473738766
 40
0.8743776261
 40
1.0
 40
1.0
 40
1.0
 40
1.0
 10
118.8480343059
 20
23.1239129682
 30
0.0
 10
118.6825821254
 20
22.9584607877
 30
0.0
 10
118.2997856354
 20
22.6725195951
 30
0.0
 10
117.6268318405
 20
22.4213885569
 30
0.0
 10
116.9018069433
 20
22.3696646839
 30
0.0
 10
116.1830526158
 20
22.5228903303
 30
0.0
 10
115.5293794588
 20
22.8729543649
 30
0.0
 10
114.9951507309
 20
23.3913548954
 30
0.0
 10
114.6265952997
 20
24.0348874499
 30
0.0
 10
114.5088425457
 20
24.5153082393
 30
0.0
 10
114.4851442522
 20
24.7563383676
 30
0.0
  0
SPLINE
  5
251
100
AcDbEntity
  8
1
100
AcDbSpline
 62
4
  6
CONTINUOUS
 70
0
 71
3
 72
9
 73
5
 74
0
 42
0.0000001
 43
0.0000001
 44
0.0000000001
 40
0.0
 40
0.0
 40
0.0
 40
0.0
 40
0.4993164824
 40
1.0
 40
1.0
 40
1.0
 40
1.0
 10
122.4285550564
 20
18.9757893525
 30
0.0
 10
122.3738487442
 20
18.9210830863
 30
0.0
 10
122.247094253
 20
18.8274747029
 30
0.0
 10
122.0985086629
 20
18.7753387713
 30
0.0
 10
122.0223756858
 20
18.7604342255
 30
0.0
  0
SPLINE
  5
252
100
AcDbEntity
  8
1
100
AcDbSpline
 62
4
  6
CONTINUOUS
 70
0
 71
3
 72
9
 73
5
 74
0
 42
0.0000001
 43
0.0000001
 44
0.0000000001
 40
0.0
 40
0.0
 40
0.0
 40
0.0
 40
0.4997864686
 40
1.0
 40
1.0
 40
1.0
 40
1.0
 10
122.92341442
 20
19.4706487162
 30
0.0
 10
122.9887518944
 20
19.5359861356
 30
0.0
 10
123.096605969
 20
19.6915590639
 30
0.0
 10
123.1439538113
 20
19.8747584186
 30
0.0
 10
123.1510213096
 20
19.966968027
 30
0.0
  0
SPLINE
  5
253
100
AcDbEntity
  8
1
100
AcDbSpline
 62
4
  6
CONTINUOUS
 70
0
 71
3
 72
11
 73
7
 74
0
 42
0.0000001
 43
0.0000001
 44
0.0000000001
 40
0.0
 40
0.0
 40
0.0
 40
0.0
 40
0.2495747754
 40
0.5000202719
 40
0.7504534586
 40
1.0
 40
1.0
 40
1.0
 40
1.0
 10
110.4080802703
 20
19.1297552669
 30
0.0
 10
110.3992934631
 20
19.0151138446
 30
0.0
 10
110.4329352753
 20
18.7784852181
 30
0.0
 10
110.6271593305
 20
18.47981307
 30
0.0
 10
110.9278684072
 20
18.288778424
 30
0.0
 10
111.164828777
 20
18.2576754615
 30
0.0
 10
111.2793559606
 20
18.2676952918
 30
0.0
  0
SPLINE
  5
254
100
AcDbEntity
  8
1
100
AcDbSpline
 62
4
  6
CONTINUOUS
 70
0
 71
3
 72
9
 73
5
 74
0
 42
0.0000001
 43
0.0000001
 44
0.0000000001
 40
0.0
 40
0.0
 40
0.0
 40
0.0
 40
0.5001619427
 40
1.0
 40
1.0
 40
1.0
 40
1.0
 10
122.4356124014
 20
19.2437412577
 30
0.0
 10
122.5263331199
 20
19.2516782921
 30
0.0
 10
122.7062311953
 20
19.2997665315
 30
0.0
 10
122.8590618173
 20
19.4062961676
 30
0.0
 10
122.92341442
 20
19.4706487162
 30
0.0
  0
SPLINE
  5
255
100
AcDbEntity
  8
1
100
AcDbSpline
 62
4
  6
CONTINUOUS
 70
0
 71
3
 72
15
 73
11
 74
0
 42
0.0000001
 43
0.0000001
 44
0.0000000001
 40
0.0
 40
0.0
 40
0.0
 40
0.0
 40
0.1248756992
 40
0.2492860577
 40
0.3736206368
 40
0.4982460504
 40
0.6233855713
 40
0.7489609306
 40
0.8746110098
 40
1.0
 40
1.0
 40
1.0
 40
1.0
 10
120.216508359
 20
25.3953217404
 30
0.0
 10
120.2549472928
 20
25.0043678022
 30
0.0
 10
120.177037324
 20
24.1998127562
 30
0.0
 10
119.6057195735
 20
23.1384488563
 30
0.0
 10
118.66845963
 20
22.3793597908
 30
0.0
 10
117.5087691072
 20
22.0415626727
 30
0.0
 10
116.3047379455
 20
22.1742088739
 30
0.0
 10
115.2391518251
 20
22.7566735596
 30
0.0
 10
114.4723478647
 20
23.6973915828
 30
0.0
 10
114.2371279548
 20
24.4762560246
 30
0.0
 10
114.198531021
 20
24.868816946
 30
0.0
  0
SPLINE
  5
256
100
AcDbEntity
  8
1
100
AcDbSpline
 62
4
  6
CONTINUOUS
 70
0
 71
3
 72
9
 73
5
 74
0
 42
0.0000001
 43
0.0000001
 44
0.0000000001
 40
0.0
 40
0.0
 40
0.0
 40
0.0
 40
0.4997864686
 40
1.0
 40
1.0
 40
1.0
 40
1.0
 10
111.4916249599
 20
30.7934899703
 30
0.0
 10
111.4262874855
 20
30.7281525508
 30
0.0
 10
111.318433411
 20
30.5725796226
 30
0.0
 10
111.2710855686
 20
30.3893802678
 30
0.0
 10
111.2640180703
 20
30.2971706595
 30
0.0
  0
SPLINE
  5
257
100
AcDbEntity
  8
1
100
AcDbSpline
 62
4
  6
CONTINUOUS
 70
0
 71
3
 72
15
 73
11
 74
0
 42
0.0000001
 43
0.0000001
 44
0.0000000001
 40
0.0
 40
0.0
 40
0.0
 40
0.0
 40
0.1248756992
 40
0.2492860577
 40
0.3736206368
 40
0.4982460504
 40
0.6233855713
 40
0.7489609306
 40
0.8746110098
 40
1.0
 40
1.0
 40
1.0
 40
1.0
 10
114.198531021
 20
24.868816946
 30
0.0
 10
114.1600920871
 20
25.2597708842
 30
0.0
 10
114.2380020559
 20
26.0643259303
 30
0.0
 10
114.8093198064
 20
27.1256898301
 30
0.0
 10
115.7465797499
 20
27.8847788956
 30
0.0
 10
116.9062702728
 20
28.2225760138
 30
0.0
 10
118.1103014344
 20
28.0899298125
 30
0.0
 10
119.1758875549
 20
27.5074651268
 30
0.0
 10
119.9426915152
 20
26.5667471037
 30
0.0
 10
120.1779114252
 20
25.7878826619
 30
0.0
 10
120.216508359
 20
25.3953217404
 30
0.0
  0
SPLINE
  5
258
100
AcDbEntity
  8
1
100
AcDbSpline
 62
7
  6
CONTINUOUS
 70
0
 71
3
 72
9
 73
5
 74
0
 42
0.0000001
 43
0.0000001
 44
0.0000000001
 40
0.0
 40
0.0
 40
0.0
 40
0.0
 40
0.5008713097
 40
1.0
 40
1.0
 40
1.0
 40
1.0
 10
119.5773799835
 20
25.1716666166
 30
0.0
 10
119.6137768681
 20
24.8014819116
 30
0.0
 10
119.5229599937
 20
24.0367404589
 30
0.0
 10
119.1102096839
 20
23.3859519495
 30
0.0
 10
118.8480462122
 20
23.1239010569
 30
0.0
  0
SPLINE
  5
259
100
AcDbEntity
  8
1
100
AcDbSpline
 62
4
  6
CONTINUOUS
 70
0
 71
3
 72
15
 73
11
 74
0
 42
0.0000001
 43
0.0000001
 44
0.0000000001
 40
0.0
 40
0.0
 40
0.0
 40
0.0
 40
0.1248602241
 40
0.2492878741
 40
0.3736187553
 40
0.4982460414
 40
0.6233875245
 40
0.7489591227
 40
0.8746265343
 40
1.0
 40
1.0
 40
1.0
 40
1.0
 10
120.1273914619
 20
25.3571677261
 30
0.0
 10
120.1651129894
 20
24.9735103697
 30
0.0
 10
120.0885721671
 20
24.1839044883
 30
0.0
 10
119.5280887431
 20
23.142082347
 30
0.0
 10
118.6080797495
 20
22.3971293215
 30
0.0
 10
117.4699254201
 20
22.0654931909
 30
0.0
 10
116.2882335723
 20
22.1957864517
 30
0.0
 10
115.2422917092
 20
22.7673682961
 30
0.0
 10
114.4899146077
 20
23.6908222751
 30
0.0
 10
114.2589887883
 20
24.4552008564
 30
0.0
 10
114.2211122053
 20
24.8404352476
 30
0.0
  0
SPLINE
  5
25A
100
AcDbEntity
  8
1
100
AcDbSpline
 62
7
  6
CONTINUOUS
 70
0
 71
3
 72
15
 73
11
 74
0
 42
0.0000001
 43
0.0000001
 44
0.0000000001
 40
0.0
 40
0.0
 40
0.0
 40
0.0
 40
0.1249653362
 40
0.2506359248
 40
0.3761412957
 40
0.5015341069
 40
0.6266580085
 40
0.7514190489
 40
0.8758138456
 40
1.0
 40
1.0
 40
1.0
 40
1.0
 10
119.5773799835
 20
25.1716666166
 30
0.0
 10
119.5537580667
 20
25.4119199343
 30
0.0
 10
119.4364234816
 20
25.8894073022
 30
0.0
 10
119.0719293871
 20
26.5284683826
 30
0.0
 10
118.5430082035
 20
27.0421331546
 30
0.0
 10
117.8937542489
 20
27.388495454
 30
0.0
 10
117.1755471319
 20
27.5425938254
 30
0.0
 10
116.4444555158
 20
27.4895312226
 30
0.0
 10
115.7599872714
 20
27.2341768627
 30
0.0
 10
115.3690273786
 20
26.9421989776
 30
0.0
 10
115.1993514086
 20
26.7725958705
 30
0.0
  0
SPLINE
  5
25B
100
AcDbEntity
  8
1
100
AcDbSpline
 62
4
  6
CONTINUOUS
 70
0
 71
3
 72
15
 73
11
 74
0
 42
0.0000001
 43
0.0000001
 44
0.0000000001
 40
0.0
 40
0.0
 40
0.0
 40
0.0
 40
0.1253734657
 40
0.2510408773
 40
0.3766124755
 40
0.5017539586
 40
0.6263812447
 40
0.7507121259
 40
0.8751397759
 40
1.0
 40
1.0
 40
1.0
 40
1.0
 10
120.1273914619
 20
25.3571677261
 30
0.0
 10
120.0895148789
 20
25.7424021173
 30
0.0
 10
119.8585890595
 20
26.5067806986
 30
0.0
 10
119.106211958
 20
27.4302346776
 30
0.0
 10
118.0602700949
 20
28.001816522
 30
0.0
 10
116.8785782471
 20
28.1321097828
 30
0.0
 10
115.7404239177
 20
27.8004736522
 30
0.0
 10
114.8204149241
 20
27.0555206266
 30
0.0
 10
114.2599315001
 20
26.0136984854
 30
0.0
 10
114.1833906778
 20
25.224092604
 30
0.0
 10
114.2211122053
 20
24.8404352476
 30
0.0
  0
ENDSEC
  0
SECTION
  2
OBJECTS
  0
DICTIONARY
  5
C
100
AcDbDictionary
280
0
281
1
  3
ACAD_GROUP
350
D
  3
ACAD_MLINESTYLE
350
17
  3
ACAD_LAYOUT
350
1A
  3
ACAD_PLOTSETTINGS
350
19
  3
ACAD_PLOTSTYLENAME
350
E
  0
DICTIONARY
  5
D
102
{ACAD_REACTORS
330
C
102
}
100
AcDbDictionary
280
0
281
1
  0
ACDBDICTIONARYWDFLT
  5
E
102
{ACAD_REACTORS
330
C
102
}
100
AcDbDictionary
281
1
  3
Normal
350
F
100
AcDbDictionaryWithDefault
340
F
  0
DICTIONARY
  5
17
102
{ACAD_REACTORS
330
C
102
}
100
AcDbDictionary
280
0
281
1
  3
Standard
350
18
  0
DICTIONARY
  5
19
102
{ACAD_REACTORS
330
C
102
}
100
AcDbDictionary
281
1
  0
DICTIONARY
  5
1A
102
{ACAD_REACTORS
330
C
102
}
100
AcDbDictionary
281
1
  3
Model
350
25C
  3
Layout1
350
25D
  0
ACDBPLACEHOLDER
  5
F
102
{ACAD_REACTORS
330
E
102
}
  0
MLINESTYLE
  5
18
102
{ACAD_REACTORS
330
17
102
}
100
AcDbMlineStyle
  2
STANDARD
 70
0
  3

 62
256
 51
90.0
 52
90.0
 71
2
 49
0.5
 62
256
  6
BYLAYER
 49
-0.5
 62
256
  6
BYLAYER
  0
LAYOUT
  5
25C
102
{ACAD_REACTORS
330
1A
102
}
100
AcDbPlotSettings
  1

  2
none_device
  4
ISO_A3_(420.00_x_297.00_MM)
  6

 40
0.0
 41
0.0
 42
0.0
 43
0.0
 44
420.0
 45
297.0
 46
0.0
 47
0.0
 48
0.0
 49
0.0
140
0.0
141
0.0
142
1.0
143
1.0
 70
1024
 72
1
 73
0
 74
0
  7

 75
0
147
1.0
148
0.0
149
0.0
100
AcDbLayout
  1
Model
 70
0
 71
0
 10
0.0
 20
0.0
 11
420.0
 21
297.0
 12
0.0
 22
0.0
 32
0.0
 14
0.0
 24
0.0
 34
0.0
 15
0.0
 25
0.0
 35
0.0
146
0.0
 13
0.0
 23
0.0
 33
0.0
 16
1.0
 26
0.0
 36
0.0
 17
0.0
 27
1.0
 37
0.0
 76
0
330
203
345
0
346
0
  0
LAYOUT
  5
25D
102
{ACAD_REACTORS
330
1A
102
}
100
AcDbPlotSettings
  1

  2
none_device
  4
ISO_A3_(420.00_x_297.00_MM)
  6

 40
0.0
 41
0.0
 42
0.0
 43
0.0
 44
420.0
 45
297.0
 46
0.0
 47
0.0
 48
0.0
 49
0.0
140
0.0
141
0.0
142
1.0
143
1.0
 70
0
 72
1
 73
0
 74
0
  7

 75
0
147
1.0
148
0.0
149
0.0
100
AcDbLayout
  1
Layout1
 70
0
 71
1
 10
0.0
 20
0.0
 11
420.0
 21
297.0
 12
0.0
 22
0.0
 32
0.0
 14
0.0
 24
0.0
 34
0.0
 15
0.0
 25
0.0
 35
0.0
146
0.0
 13
0.0
 23
0.0
 33
0.0
 16
1.0
 26
0.0
 36
0.0
 17
0.0
 27
1.0
 37
0.0
 76
0
330
204
345
0
346
0
  0
ENDSEC
  0
EOF
