999
DXF file: 70698025.dxf
999
Pro/ENGINEER 2017380 by Parametric Technology Corporation
  0
SECTION
  2
HEADER
  9
$ACADVER
  1
AC1027
  9
$DWGCODEPAGE
  3
ANSI_1252
  9
$EXTMAX
 10
420.0
 20
297.0
 30
0.0
  9
$EXTMIN
 10
0.0
 20
0.0
 30
0.0
  9
$LIMMIN
 10
0.0
 20
0.0
  9
$LIMMAX
 10
420.0
 20
297.0
  9
$VIEWCTR
 10
210.0
 20
148.5
  9
$VIEWSIZE
 40
297.0
  9
$CLAYER
  8
0
  9
$LTSCALE
 40
23.1
  9
$CELTYPE
  6
BYLAYER
  9
$DIMSCALE
 40
1.0
  9
$DIMASZ
 40
3.5
  9
$DIMEXO
 40
0.0
  9
$DIMDLI
 40
15.96
  9
$DIMEXE
 40
1.5
  9
$DIMCEN
 40
3.78
  9
$DIMLFAC
 40
1.0
  9
$DIMBLK
  1
_FILLED
  9
$DIMALT
 70
0
  9
$DIMALTF
 40
25.4
  9
$DIMTXT
 40
3.5
  9
$DIMTOL
 70
1
  9
$DIMLIM
 70
0
  9
$DIMTFAC
 40
1.0
  9
$DIMTP
 40
0.05
  9
$DIMTM
 40
0.05
  9
$DIMGAP
 40
0.625
  9
$DIMDSEP
 70
46
  9
$AUNITS
 70
0
  9
$PDMODE
 70
3
  9
$PDSIZE
 40
0.3125
  9
$HANDSEED
  5
281
  9
$TILEMODE
 70
1
  9
$MEASUREMENT
 70
1
  9
$INSUNITS
 70
4
  0
ENDSEC
  0
SECTION
  2
CLASSES
  0
CLASS
  1
ACDBDICTIONARYWDFLT
  2
AcDbDictionaryWithDefault
  3
AutoCAD 2000
 90
0
 91
1
280
0
281
0
  0
CLASS
  1
ACDBPLACEHOLDER
  2
AcDbPlaceHolder
  3
AutoCAD 2000
 90
0
 91
1
280
0
281
0
  0
CLASS
  1
LAYOUT
  2
AcDbLayout
  3
AutoCAD 2000
 90
0
 91
0
280
0
281
0
  0
ENDSEC
  0
SECTION
  2
TABLES
  0
TABLE
  2
VPORT
  5
8
100
AcDbSymbolTable
 70
2
  0
VPORT
  5
1F4
100
AcDbSymbolTableRecord
100
AcDbViewportTableRecord
  2
*ACTIVE
 70
0
 10
0.0
 20
0.0
 11
1.0
 21
1.0
 12
210.0
 22
148.5
 13
0.0
 23
0.0
 14
1.0
 24
1.0
 15
0.0
 25
0.0
 16
0.0
 26
0.0
 36
1.0
 17
0.0
 27
0.0
 37
0.0
 40
297.0
 41
1.4141414141
 42
50.0
 43
0.0
 44
0.0
 50
0.0
 51
0.0
 71
0
 72
100
 73
1
 74
1
 75
0
 76
0
 77
0
 78
0
  0
ENDTAB
  0
TABLE
  2
LTYPE
  5
5
100
AcDbSymbolTable
 70
6
  0
LTYPE
  5
14
100
AcDbSymbolTableRecord
100
AcDbLinetypeTableRecord
  2
BYBLOCK
 70
0
  3

 72
65
 73
0
 40
0.0
  0
LTYPE
  5
15
100
AcDbSymbolTableRecord
100
AcDbLinetypeTableRecord
  2
BYLAYER
 70
0
  3

 72
65
 73
0
 40
0.0
  0
LTYPE
  5
16
100
AcDbSymbolTableRecord
100
AcDbLinetypeTableRecord
  2
CONTINUOUS
 70
64
  3
Solid line
 72
65
 73
0
 40
0.0
  0
LTYPE
  5
1F5
100
AcDbSymbolTableRecord
100
AcDbLinetypeTableRecord
  2
CENTER
 70
64
  3
____ _ ____ _ ____ _ ____ _ ____ _ ____ _ ____
 72
65
 73
4
 40
0.6
 49
0.375
 74
0
 49
-0.075
 74
0
 49
0.075
 74
0
 49
-0.075
 74
0
  0
LTYPE
  5
1F6
100
AcDbSymbolTableRecord
100
AcDbLinetypeTableRecord
  2
HIDDEN
 70
64
  3
- - - - - - - - - - - - - - - - - - - -
 72
65
 73
2
 40
0.2
 49
0.1
 74
0
 49
-0.1
 74
0
  0
LTYPE
  5
1F7
100
AcDbSymbolTableRecord
100
AcDbLinetypeTableRecord
  2
PHANTOM
 70
64
  3
_____ _ _ _____ _ _ _____ _ _ _____
 72
65
 73
6
 40
0.8
 49
0.45
 74
0
 49
-0.05
 74
0
 49
0.1
 74
0
 49
-0.05
 74
0
 49
0.1
 74
0
 49
-0.05
 74
0
  0
LTYPE
  5
1F8
100
AcDbSymbolTableRecord
100
AcDbLinetypeTableRecord
  2
DOT
 70
64
  3
. . . . . . . . . . . . . . . . . . . .
 72
65
 73
2
 40
0.2
 49
0.1
 74
0
 49
-0.1
 74
0
  0
LTYPE
  5
1F9
100
AcDbSymbolTableRecord
100
AcDbLinetypeTableRecord
  2
DASHED
 70
64
  3
- - - - - - - - - - - - - - - - - - - -
 72
65
 73
2
 40
0.2
 49
0.1
 74
0
 49
-0.1
 74
0
  0
ENDTAB
  0
TABLE
  2
LAYER
  5
2
100
AcDbSymbolTable
 70
36
  0
LAYER
  5
10
100
AcDbSymbolTableRecord
100
AcDbLayerTableRecord
  2
0
 70
0
 62
7
  6
CONTINUOUS
370
-3
390
F
  0
LAYER
  5
1FA
100
AcDbSymbolTableRecord
100
AcDbLayerTableRecord
  2
DEFAULT_1
 70
0
 62
7
  6
CENTER
370
-3
390
F
  0
LAYER
  5
1FB
100
AcDbSymbolTableRecord
100
AcDbLayerTableRecord
  2
DEFAULT_2
 70
0
 62
1
  6
HIDDEN
370
-3
390
F
  0
LAYER
  5
1FC
100
AcDbSymbolTableRecord
100
AcDbLayerTableRecord
  2
DEFAULT_3
 70
0
 62
7
  6
PHANTOM
370
-3
390
F
  0
LAYER
  5
1FD
100
AcDbSymbolTableRecord
100
AcDbLayerTableRecord
  2
BG_STARTBEZUEGE
 70
0
 62
7
  6
CONTINUOUS
370
-3
390
F
  0
LAYER
  5
1FE
100
AcDbSymbolTableRecord
100
AcDbLayerTableRecord
  2
HILFEN
 70
0
 62
7
  6
CONTINUOUS
370
-3
390
F
  0
LAYER
  5
1FF
100
AcDbSymbolTableRecord
100
AcDbLayerTableRecord
  2
PLATZIERUNG
 70
0
 62
7
  6
CONTINUOUS
370
-3
390
F
  0
LAYER
  5
200
100
AcDbSymbolTableRecord
100
AcDbLayerTableRecord
  2
T_STARTBEZUEGE
 70
0
 62
7
  6
CONTINUOUS
370
-3
390
F
  0
LAYER
  5
201
100
AcDbSymbolTableRecord
100
AcDbLayerTableRecord
  2
_03_2D_ZEICHNUNG_BEMASSUNGEN
 70
0
 62
7
  6
CONTINUOUS
370
-3
390
F
  0
LAYER
  5
202
100
AcDbSymbolTableRecord
100
AcDbLayerTableRecord
  2
_04_NOTIZEN
 70
0
 62
7
  6
CONTINUOUS
370
-3
390
F
  0
LAYER
  5
203
100
AcDbSymbolTableRecord
100
AcDbLayerTableRecord
  2
_05_2D_ELEMENTE
 70
0
 62
7
  6
CONTINUOUS
370
-3
390
F
  0
LAYER
  5
204
100
AcDbSymbolTableRecord
100
AcDbLayerTableRecord
  2
_07_EINRASTLINIEN
 70
0
 62
7
  6
CONTINUOUS
370
-3
390
F
  0
LAYER
  5
205
100
AcDbSymbolTableRecord
100
AcDbLayerTableRecord
  2
_21_KURVEN
 70
0
 62
7
  6
CONTINUOUS
370
-3
390
F
  0
LAYER
  5
206
100
AcDbSymbolTableRecord
100
AcDbLayerTableRecord
  2
_24_IMPORT
 70
0
 62
7
  6
CONTINUOUS
370
-3
390
F
  0
LAYER
  5
207
100
AcDbSymbolTableRecord
100
AcDbLayerTableRecord
  2
_26_BEZUGSACHSEN
 70
0
 62
7
  6
CONTINUOUS
370
-3
390
F
  0
LAYER
  5
208
100
AcDbSymbolTableRecord
100
AcDbLayerTableRecord
  2
_27_BEZUGSEBENEN
 70
0
 62
7
  6
CONTINUOUS
370
-3
390
F
  0
LAYER
  5
209
100
AcDbSymbolTableRecord
100
AcDbLayerTableRecord
  2
_28_BEZUGSPUNKTE
 70
0
 62
7
  6
CONTINUOUS
370
-3
390
F
  0
LAYER
  5
20A
100
AcDbSymbolTableRecord
100
AcDbLayerTableRecord
  2
_29_KOORDINATENSYSTEME
 70
0
 62
7
  6
CONTINUOUS
370
-3
390
F
  0
LAYER
  5
20B
100
AcDbSymbolTableRecord
100
AcDbLayerTableRecord
  2
_30_VOLUMEN
 70
0
 62
7
  6
CONTINUOUS
370
-3
390
F
  0
ENDTAB
  0
TABLE
  2
STYLE
  5
3
100
AcDbSymbolTable
 70
1
  0
STYLE
  5
11
100
AcDbSymbolTableRecord
100
AcDbTextStyleTableRecord
  2
STANDARD
 70
0
 40
0.0
 41
0.7
 50
0.0
 71
0
 42
0.2
  3
SIMPLEX.SHX
  4

  0
STYLE
  5
20C
100
AcDbSymbolTableRecord
100
AcDbTextStyleTableRecord
  2
TEXTSTYLE_1
 70
0
 40
0.0
 41
0.8
 50
0.0
 71
0
 42
0.2
  3
gdt
  4

  0
ENDTAB
  0
TABLE
  2
VIEW
  5
6
100
AcDbSymbolTable
 70
0
  0
ENDTAB
  0
TABLE
  2
UCS
  5
7
100
AcDbSymbolTable
 70
0
  0
ENDTAB
  0
TABLE
  2
APPID
  5
9
100
AcDbSymbolTable
 70
1
  0
APPID
  5
20D
100
AcDbSymbolTableRecord
100
AcDbRegAppTableRecord
  2
ACAD
 70
0
  0
ENDTAB
  0
TABLE
  2
BLOCK_RECORD
  5
1
100
AcDbSymbolTable
 70
0
  0
BLOCK_RECORD
  5
20E
100
AcDbSymbolTableRecord
100
AcDbBlockTableRecord
  2
*Model_Space
  0
BLOCK_RECORD
  5
20F
100
AcDbSymbolTableRecord
100
AcDbBlockTableRecord
  2
*Paper_Space
  0
BLOCK_RECORD
  5
210
100
AcDbSymbolTableRecord
100
AcDbBlockTableRecord
  2
_FILLED
  0
BLOCK_RECORD
  5
211
100
AcDbSymbolTableRecord
100
AcDbBlockTableRecord
  2
*D0
  0
BLOCK_RECORD
  5
212
100
AcDbSymbolTableRecord
100
AcDbBlockTableRecord
  2
*D1
  0
BLOCK_RECORD
  5
213
100
AcDbSymbolTableRecord
100
AcDbBlockTableRecord
  2
*D2
  0
ENDTAB
  0
TABLE
  2
DIMSTYLE
  5
A
100
AcDbSymbolTable
 70
1
100
AcDbDimStyleTable
 71
0
  0
DIMSTYLE
105
214
100
AcDbSymbolTableRecord
100
AcDbDimStyleTableRecord
  2
STANDARD
 70
0
  3

  4

 40
1.0
 41
3.5
 42
0.0
 43
0.38
 44
1.5
 45
0.0
 46
0.0
 47
0.05
 48
0.05
140
3.5
141
0.09
142
0.0
143
25.4
144
1.0
145
0.0
146
1.0
147
0.625
 71
1.0
 72
0.0
 73
0
 74
0
 75
0
 76
0
 77
1
 78
8
 79
2
170
0
171
1
172
0
173
0
174
0
175
0
176
0
177
0
178
2
270
2
179
2
271
2
272
2
273
2
274
2
275
0
280
0
281
0
282
0
283
1
284
8
285
0
286
0
287
3
288
0
340
11
278
46
341
210
342
210
343
210
344
210
  0
DIMSTYLE
105
215
100
AcDbSymbolTableRecord
100
AcDbDimStyleTableRecord
  2
DIMSTYLE_1
 70
0
  3

  4

 40
1.0
 41
3.5
 42
0.0
 43
0.38
 44
1.5
 45
0.0
 46
0.0
 47
0.2
 48
0.2
140
3.5
141
0.09
142
0.0
143
25.4
144
1.0
145
0.0
146
1.0
147
0.875
 71
0.0
 72
0.0
 73
0
 74
0
 75
0
 76
0
 77
1
 78
8
 79
2
170
0
171
1
172
0
173
0
174
0
175
0
176
0
177
0
178
2
270
2
179
2
271
2
272
2
273
2
274
2
275
0
280
0
281
0
282
0
283
1
284
8
285
0
286
0
287
3
288
0
340
11
278
46
341
210
342
210
343
210
344
210
  0
DIMSTYLE
105
216
100
AcDbSymbolTableRecord
100
AcDbDimStyleTableRecord
  2
DIMSTYLE_2
 70
0
  3

  4

 40
1.0
 41
3.5
 42
0.0
 43
0.38
 44
1.5
 45
0.0
 46
0.0
 47
0.5
 48
0.5
140
3.5
141
0.09
142
0.0
143
25.4
144
1.0
145
0.0
146
1.0
147
0.875
 71
0.0
 72
0.0
 73
0
 74
0
 75
0
 76
0
 77
1
 78
8
 79
2
170
0
171
1
172
0
173
0
174
0
175
0
176
0
177
0
178
2
270
2
179
2
271
2
272
2
273
2
274
2
275
0
280
0
281
0
282
0
283
1
284
8
285
0
286
0
287
3
288
0
340
11
278
46
341
210
342
210
343
210
344
210
  0
ENDTAB
  0
ENDSEC
  0
SECTION
  2
BLOCKS
  0
BLOCK
  5
20
100
AcDbEntity
  8
0
100
AcDbBlockBegin
  2
*Model_Space
 70
0
 10
0.0
 20
0.0
 30
0.0
  3
*Model_Space
  1

  0
ENDBLK
  5
21
100
AcDbEntity
  8
0
100
AcDbBlockEnd
  0
BLOCK
  5
1C
100
AcDbEntity
  8
0
100
AcDbBlockBegin
  2
*Paper_Space
 70
0
 10
0.0
 20
0.0
 30
0.0
  3
*Paper_Space
  1

  0
ENDBLK
  5
1D
100
AcDbEntity
  8
0
100
AcDbBlockEnd
  0
BLOCK
  5
217
100
AcDbEntity
  8
0
100
AcDbBlockBegin
  2
_FILLED
 70
64
 10
0.0
 20
0.0
  3
_FILLED
  1

  0
SOLID
  5
218
100
AcDbEntity
  8
0
  6
BYBLOCK
 62
0
100
AcDbTrace
 10
0.0
 20
0.0
 11
-1.0
 21
0.125
 12
-1.0
 22
-0.125
 13
-1.0
 23
-0.125
  0
ENDBLK
  5
219
100
AcDbEntity
  8
0
  6
BYBLOCK
 62
0
100
AcDbBlockEnd
  0
BLOCK
  5
21A
100
AcDbEntity
  8
_03_2D_ZEICHNUNG_BEMASSUNGEN
100
AcDbBlockBegin
 62
7
  6
CONTINUOUS
  2
*D0
 70
65
 10
0.0
 20
0.0
  3
*D0
  1

  0
TEXT
  5
21B
100
AcDbEntity
  8
_03_2D_ZEICHNUNG_BEMASSUNGEN
100
AcDbText
 62
2
  6
CONTINUOUS
 10
-9.875
 20
9.875
  7
STANDARD
 40
3.5
  1
25
 50
90.0
 41
0.75
 72
1
 11
-9.875
 21
12.5
100
AcDbText
  0
LINE
  5
21C
100
AcDbEntity
  8
_03_2D_ZEICHNUNG_BEMASSUNGEN
100
AcDbLine
 62
7
  6
CONTINUOUS
 10
0.0
 20
25.0
 11
-10.5
 21
25.0
  0
LINE
  5
21D
100
AcDbEntity
  8
_03_2D_ZEICHNUNG_BEMASSUNGEN
100
AcDbLine
 62
7
  6
CONTINUOUS
 10
-0.0
 20
-0.0
 11
-10.5
 21
0.0
  0
LINE
  5
21E
100
AcDbEntity
  8
_03_2D_ZEICHNUNG_BEMASSUNGEN
100
AcDbLine
 62
7
  6
CONTINUOUS
 10
-9.0
 20
25.0
 11
-9.0
 21
31.0
  0
LINE
  5
21F
100
AcDbEntity
  8
_03_2D_ZEICHNUNG_BEMASSUNGEN
100
AcDbLine
 62
7
  6
CONTINUOUS
 10
-9.0
 20
31.0
 11
-9.0
 21
12.5
  0
LINE
  5
220
100
AcDbEntity
  8
_03_2D_ZEICHNUNG_BEMASSUNGEN
100
AcDbLine
 62
7
  6
CONTINUOUS
 10
-9.0
 20
0.0
 11
-9.0
 21
-6.0
  0
LINE
  5
221
100
AcDbEntity
  8
_03_2D_ZEICHNUNG_BEMASSUNGEN
100
AcDbLine
 62
7
  6
CONTINUOUS
 10
-9.0
 20
-6.0
 11
-9.0
 21
12.5
  0
INSERT
  5
222
100
AcDbEntity
  8
_03_2D_ZEICHNUNG_BEMASSUNGEN
100
AcDbBlockReference
 62
7
  6
CONTINUOUS
  2
_FILLED
 10
-9.0
 20
25.0
 41
3.5
 42
3.5
 43
3.5
 50
270.0
  0
INSERT
  5
223
100
AcDbEntity
  8
_03_2D_ZEICHNUNG_BEMASSUNGEN
100
AcDbBlockReference
 62
7
  6
CONTINUOUS
  2
_FILLED
 10
-9.0
 20
0.0
 41
3.5
 42
3.5
 43
3.5
 50
90.0
  0
ENDBLK
  5
224
100
AcDbEntity
  8
0
  6
BYBLOCK
 62
0
100
AcDbBlockEnd
  0
BLOCK
  5
225
100
AcDbEntity
  8
_03_2D_ZEICHNUNG_BEMASSUNGEN
100
AcDbBlockBegin
 62
7
  6
CONTINUOUS
  2
*D1
 70
65
 10
0.0
 20
0.0
  3
*D1
  1

  0
TEXT
  5
226
100
AcDbEntity
  8
_03_2D_ZEICHNUNG_BEMASSUNGEN
100
AcDbText
 62
2
  6
CONTINUOUS
 10
71.375
 20
34.875
  7
STANDARD
 40
3.5
  1
150
 41
0.6904761905
 72
1
 11
75.0
 21
34.875
100
AcDbText
  0
LINE
  5
227
100
AcDbEntity
  8
_03_2D_ZEICHNUNG_BEMASSUNGEN
100
AcDbLine
 62
7
  6
CONTINUOUS
 10
150.0
 20
0.0
 11
150.0
 21
35.5
  0
LINE
  5
228
100
AcDbEntity
  8
_03_2D_ZEICHNUNG_BEMASSUNGEN
100
AcDbLine
 62
7
  6
CONTINUOUS
 10
0.0
 20
0.0
 11
0.0
 21
35.5
  0
LINE
  5
229
100
AcDbEntity
  8
_03_2D_ZEICHNUNG_BEMASSUNGEN
100
AcDbLine
 62
7
  6
CONTINUOUS
 10
150.0
 20
34.0
 11
75.0
 21
34.0
  0
LINE
  5
22A
100
AcDbEntity
  8
_03_2D_ZEICHNUNG_BEMASSUNGEN
100
AcDbLine
 62
7
  6
CONTINUOUS
 10
0.0
 20
34.0
 11
75.0
 21
34.0
  0
INSERT
  5
22B
100
AcDbEntity
  8
_03_2D_ZEICHNUNG_BEMASSUNGEN
100
AcDbBlockReference
 62
7
  6
CONTINUOUS
  2
_FILLED
 10
150.0
 20
34.0
 41
3.5
 42
3.5
 43
3.5
  0
INSERT
  5
22C
100
AcDbEntity
  8
_03_2D_ZEICHNUNG_BEMASSUNGEN
100
AcDbBlockReference
 62
7
  6
CONTINUOUS
  2
_FILLED
 10
0.0
 20
34.0
 41
3.5
 42
3.5
 43
3.5
 50
180.0
  0
ENDBLK
  5
22D
100
AcDbEntity
  8
0
  6
BYBLOCK
 62
0
100
AcDbBlockEnd
  0
BLOCK
  5
22E
100
AcDbEntity
  8
_03_2D_ZEICHNUNG_BEMASSUNGEN
100
AcDbBlockBegin
 62
7
  6
CONTINUOUS
  2
*D2
 70
65
 10
0.0
 20
0.0
  3
*D2
  1

  0
TEXT
  5
22F
100
AcDbEntity
  8
_03_2D_ZEICHNUNG_BEMASSUNGEN
100
AcDbText
 62
2
  6
CONTINUOUS
 10
158.1260105879
 20
9.875
  7
STANDARD
 40
3.5
  1
25
 50
90.0
 41
0.75
 72
1
 11
158.1260105879
 21
12.5
100
AcDbText
  0
LINE
  5
230
100
AcDbEntity
  8
_03_2D_ZEICHNUNG_BEMASSUNGEN
100
AcDbLine
 62
7
  6
CONTINUOUS
 10
150.0
 20
25.0
 11
160.5010105879
 21
25.0
  0
LINE
  5
231
100
AcDbEntity
  8
_03_2D_ZEICHNUNG_BEMASSUNGEN
100
AcDbLine
 62
7
  6
CONTINUOUS
 10
0.0
 20
0.0
 11
160.5010105879
 21
0.0
  0
LINE
  5
232
100
AcDbEntity
  8
_03_2D_ZEICHNUNG_BEMASSUNGEN
100
AcDbLine
 62
7
  6
CONTINUOUS
 10
159.0010105879
 20
25.0
 11
159.0010105879
 21
12.5
  0
LINE
  5
233
100
AcDbEntity
  8
_03_2D_ZEICHNUNG_BEMASSUNGEN
100
AcDbLine
 62
7
  6
CONTINUOUS
 10
159.0010105879
 20
0.0
 11
159.0010105879
 21
12.5
  0
INSERT
  5
234
100
AcDbEntity
  8
_03_2D_ZEICHNUNG_BEMASSUNGEN
100
AcDbBlockReference
 62
7
  6
CONTINUOUS
  2
_FILLED
 10
159.0010105879
 20
25.0
 41
3.5
 42
3.5
 43
3.5
 50
90.0
  0
INSERT
  5
235
100
AcDbEntity
  8
_03_2D_ZEICHNUNG_BEMASSUNGEN
100
AcDbBlockReference
 62
7
  6
CONTINUOUS
  2
_FILLED
 10
159.0010105879
 20
0.0
 41
3.5
 42
3.5
 43
3.5
 50
270.0
  0
ENDBLK
  5
236
100
AcDbEntity
  8
0
  6
BYBLOCK
 62
0
100
AcDbBlockEnd
  0
ENDSEC
  0
SECTION
  2
ENTITIES
  0
DIMENSION
  5
237
100
AcDbEntity
  8
_03_2D_ZEICHNUNG_BEMASSUNGEN
100
AcDbDimension
 62
7
  6
CONTINUOUS
  2
*D0
 10
-9.0
 20
0.0
 11
-9.0
 21
11.9999997234
 70
160
 71
2
 42
25.0
  3
DIMSTYLE_1
100
AcDbAlignedDimension
 13
0.0
 23
25.0
 14
-0.0
 24
-0.0
 50
270.0
100
AcDbRotatedDimension
  0
DIMENSION
  5
238
100
AcDbEntity
  8
_03_2D_ZEICHNUNG_BEMASSUNGEN
100
AcDbDimension
 62
7
  6
CONTINUOUS
  2
*D1
 10
0.0
 20
34.0
 11
74.4999993896
 21
34.0
 70
160
 71
2
 42
150.0
  3
DIMSTYLE_2
100
AcDbAlignedDimension
 13
150.0
 23
0.0
 14
0.0
 24
0.0
 50
180.0
100
AcDbRotatedDimension
  0
DIMENSION
  5
239
100
AcDbEntity
  8
_03_2D_ZEICHNUNG_BEMASSUNGEN
100
AcDbDimension
 62
7
  6
CONTINUOUS
  2
*D2
 10
159.0010105879
 20
0.0
 11
159.0010105879
 21
12.0000035113
 70
160
 71
2
 42
25.0
  3
DIMSTYLE_1
100
AcDbAlignedDimension
 13
150.0
 23
25.0
 14
0.0
 24
0.0
 50
270.0
100
AcDbRotatedDimension
  0
LINE
  5
23A
100
AcDbEntity
  8
_30_VOLUMEN
100
AcDbLine
 62
4
  6
CONTINUOUS
 10
-0.0
 20
0.5
 11
0.0
 21
24.5
  0
LINE
  5
23B
100
AcDbEntity
  8
_30_VOLUMEN
100
AcDbLine
 62
4
  6
CONTINUOUS
 10
0.5
 20
-0.0
 11
0.5
 21
25.0
  0
LINE
  5
23C
100
AcDbEntity
  8
_30_VOLUMEN
100
AcDbLine
 62
4
  6
CONTINUOUS
 10
0.5
 20
25.0
 11
0.0
 21
24.5
  0
LINE
  5
23D
100
AcDbEntity
  8
_30_VOLUMEN
100
AcDbLine
 62
4
  6
CONTINUOUS
 10
0.5
 20
-0.0
 11
-0.0
 21
0.5
  0
LINE
  5
23E
100
AcDbEntity
  8
_30_VOLUMEN
100
AcDbLine
 62
4
  6
CONTINUOUS
 10
0.5
 20
-0.0
 11
128.7
 21
0.0
  0
LINE
  5
23F
100
AcDbEntity
  8
_30_VOLUMEN
100
AcDbLine
 62
4
  6
CONTINUOUS
 10
128.7643309268
 20
0.0
 11
134.6214273903
 21
0.0
  0
LINE
  5
240
100
AcDbEntity
  8
0
100
AcDbLine
 62
4
  6
CONTINUOUS
 10
128.7
 20
0.0
 11
128.7643309268
 21
0.0
  0
LINE
  5
241
100
AcDbEntity
  8
_26_BEZUGSACHSEN
100
AcDbLine
 62
4
  6
CONTINUOUS
 10
143.9089226547
 20
15.1558148164
 11
132.3821850169
 21
14.5494950725
  0
LINE
  5
242
100
AcDbEntity
  8
_21_KURVEN
100
AcDbLine
 62
7
  6
CONTINUOUS
 10
143.515900694
 20
15.1347453323
 11
133.9074468838
 21
14.6311876057
  0
LINE
  5
243
100
AcDbEntity
  8
_30_VOLUMEN
100
AcDbLine
 62
4
  6
CONTINUOUS
 10
143.8881448836
 20
15.1542538236
 11
132.5338016745
 21
14.5591979108
  0
LINE
  5
244
100
AcDbEntity
  8
_26_BEZUGSACHSEN
100
AcDbLine
 62
4
  6
CONTINUOUS
 10
138.4213646545
 20
24.343196361
 11
138.3101211874
 21
24.337366338
  0
LINE
  5
245
100
AcDbEntity
  8
_21_KURVEN
100
AcDbLine
 62
7
  6
CONTINUOUS
 10
138.8662843229
 20
24.4147497402
 11
148.4747381331
 21
24.9183074667
  0
LINE
  5
246
100
AcDbEntity
  8
_30_VOLUMEN
100
AcDbLine
 62
4
  6
CONTINUOUS
 10
138.4940401332
 20
24.3952412489
 11
149.8483833424
 21
24.9902971617
  0
LINE
  5
247
100
AcDbEntity
  8
_30_VOLUMEN
100
AcDbLine
 62
4
  6
CONTINUOUS
 10
135.25
 20
25.0
 11
128.7378799709
 21
25.0
  0
LINE
  5
248
100
AcDbEntity
  8
_30_VOLUMEN
100
AcDbLine
 62
4
  6
CONTINUOUS
 10
0.5
 20
25.0
 11
128.7
 21
25.0
  0
LINE
  5
249
100
AcDbEntity
  8
0
100
AcDbLine
 62
4
  6
CONTINUOUS
 10
128.7
 20
25.0
 11
128.7378799709
 21
25.0
  0
LINE
  5
24A
100
AcDbEntity
  8
_30_VOLUMEN
100
AcDbLine
 62
4
  6
CONTINUOUS
 10
138.426340839
 20
24.3655461299
 11
138.4128448521
 21
24.3575168614
  0
LINE
  5
24B
100
AcDbEntity
  8
_30_VOLUMEN
100
AcDbLine
 62
7
  6
CONTINUOUS
 10
132.5338016745
 20
14.5591979108
 11
132.5306161482
 21
14.5573027218
  0
LINE
  5
24C
100
AcDbEntity
  8
_28_BEZUGSPUNKTE
100
AcDbLine
 62
1
  6
CONTINUOUS
 10
150.15625
 20
25.15625
 11
149.84375
 21
24.84375
  0
LINE
  5
24D
100
AcDbEntity
  8
_26_BEZUGSACHSEN
100
AcDbLine
 62
4
  6
CONTINUOUS
 10
132.3821850169
 20
14.5494950725
 11
138.4213646545
 21
24.3431963611
  0
LINE
  5
24E
100
AcDbEntity
  8
_21_KURVEN
100
AcDbLine
 62
7
  6
CONTINUOUS
 10
133.1836082412
 20
15.8519395856
 11
138.2352280855
 21
24.0405858921
  0
LINE
  5
24F
100
AcDbEntity
  8
_30_VOLUMEN
100
AcDbLine
 62
4
  6
CONTINUOUS
 10
132.4614178102
 20
14.6812731088
 11
138.4309345095
 21
24.3578248641
  0
LINE
  5
250
100
AcDbEntity
  8
0
100
AcDbLine
 62
4
  6
CONTINUOUS
 10
128.7378799709
 20
25.0
 11
128.7643309268
 21
0.0
  0
LINE
  5
251
100
AcDbEntity
  8
0
100
AcDbLine
 62
4
  6
CONTINUOUS
 10
128.7
 20
25.0
 11
128.7
 21
0.0
  0
LINE
  5
252
100
AcDbEntity
  8
_26_BEZUGSACHSEN
100
AcDbLine
 62
4
  6
CONTINUOUS
 10
143.9089226547
 20
15.1558148164
 11
134.6214273903
 21
0.0
  0
LINE
  5
253
100
AcDbEntity
  8
_21_KURVEN
100
AcDbLine
 62
7
  6
CONTINUOUS
 10
149.1985767756
 20
23.6975554868
 11
144.1469569313
 21
15.5089091803
  0
LINE
  5
254
100
AcDbEntity
  8
_30_VOLUMEN
100
AcDbLine
 62
4
  6
CONTINUOUS
 10
149.9207672066
 20
24.8682219637
 11
143.9512505074
 21
15.1916702084
  0
LINE
  5
255
100
AcDbEntity
  8
_28_BEZUGSPUNKTE
100
AcDbLine
 62
1
  6
CONTINUOUS
 10
150.15625
 20
24.84375
 11
149.84375
 21
25.15625
  0
ARC
  5
256
100
AcDbEntity
  8
_30_VOLUMEN
100
AcDbCircle
 62
4
  6
CONTINUOUS
 10
138.0001892006
 20
30.3033824234
 40
5.9740610784
100
AcDbArc
 50
242.5899792446
 51
272.9738179848
  0
ARC
  5
257
100
AcDbEntity
  8
_30_VOLUMEN
100
AcDbCircle
 62
4
  6
CONTINUOUS
 10
140.7126715927
 20
19.4774646507
 40
1.8940624717
100
AcDbArc
 50
306.9611622646
 51
307.3495944881
  0
ARC
  5
258
100
AcDbEntity
  8
_30_VOLUMEN
100
AcDbCircle
 62
4
  6
CONTINUOUS
 10
140.6855130676
 20
19.5309241597
 40
1.855937087
100
AcDbArc
 50
114.5665907488
 51
115.6351159632
  0
ARC
  5
259
100
AcDbEntity
  8
_30_VOLUMEN
100
AcDbCircle
 62
4
  6
CONTINUOUS
 10
143.88385238
 20
15.2332932851
 40
0.0792148223
100
AcDbArc
 50
318.9830858247
 51
328.3017570513
  0
ARC
  5
25A
100
AcDbEntity
  8
_30_VOLUMEN
100
AcDbCircle
 62
4
  6
CONTINUOUS
 10
143.8841321807
 20
15.2329511317
 40
0.0787805422
100
AcDbArc
 50
273.0677684877
 51
300.7483536241
  0
SPLINE
  5
25B
100
AcDbEntity
  8
_30_VOLUMEN
100
AcDbSpline
 62
4
  6
CONTINUOUS
 70
0
 71
3
 72
11
 73
7
 74
0
 42
0.0000001
 43
0.0000001
 44
0.0000000001
 40
0.0
 40
0.0
 40
0.0
 40
0.0
 40
0.2491825162
 40
0.4999960579
 40
0.7508123145
 40
1.0
 40
1.0
 40
1.0
 40
1.0
 10
149.9207672066
 20
24.8682219637
 30
0.0
 10
149.9282646049
 20
24.8803752025
 30
0.0
 10
149.9365002241
 20
24.9095458445
 30
0.0
 10
149.9248990405
 20
24.9531685097
 30
0.0
 10
149.8921895634
 20
24.9842753065
 30
0.0
 10
149.862643851
 20
24.9910445233
 30
0.0
 10
149.8483833424
 20
24.9902971617
 30
0.0
  0
SPLINE
  5
25C
100
AcDbEntity
  8
_30_VOLUMEN
100
AcDbSpline
 62
4
  6
CONTINUOUS
 70
0
 71
3
 72
8
 73
4
 74
0
 42
0.0000001
 43
0.0000001
 44
0.0000000001
 40
0.0
 40
0.0
 40
0.0
 40
0.0
 40
1.0
 40
1.0
 40
1.0
 40
1.0
 10
138.4940401332
 20
24.3952412489
 30
0.0
 10
138.4814259661
 20
24.3945801684
 30
0.0
 10
138.4686304041
 20
24.390707996
 30
0.0
 10
138.4577748351
 20
24.3842496012
 30
0.0
  0
SPLINE
  5
25D
100
AcDbEntity
  8
_30_VOLUMEN
100
AcDbSpline
 62
4
  6
CONTINUOUS
 70
0
 71
3
 72
11
 73
7
 74
0
 42
0.0000001
 43
0.0000001
 44
0.0000000001
 40
0.0
 40
0.0
 40
0.0
 40
0.0
 40
0.2502698387
 40
0.5008230485
 40
0.750552797
 40
1.0
 40
1.0
 40
1.0
 40
1.0
 10
142.6006160267
 20
19.586877194
 30
0.0
 10
142.6095508459
 20
19.4332889727
 30
0.0
 10
142.5895481901
 20
19.1225105746
 30
0.0
 10
142.449444057
 20
18.6782801961
 30
0.0
 10
142.2057533778
 20
18.2817617136
 30
0.0
 10
141.9836543794
 20
18.064811386
 30
0.0
 10
141.8617552095
 20
17.9717822511
 30
0.0
  0
SPLINE
  5
25E
100
AcDbEntity
  8
_30_VOLUMEN
100
AcDbSpline
 62
4
  6
CONTINUOUS
 70
0
 71
3
 72
8
 73
4
 74
0
 42
0.0000001
 43
0.0000001
 44
0.0000000001
 40
0.0
 40
0.0
 40
0.0
 40
0.0
 40
1.0
 40
1.0
 40
1.0
 40
1.0
 10
143.9244101818
 20
15.1652454713
 30
0.0
 10
143.9315833821
 20
15.1695130836
 30
0.0
 10
143.9381447699
 20
15.175007166
 30
0.0
 10
143.9436212209
 20
15.1813060391
 30
0.0
  0
SPLINE
  5
25F
100
AcDbEntity
  8
_30_VOLUMEN
100
AcDbSpline
 62
4
  6
CONTINUOUS
 70
0
 71
3
 72
11
 73
7
 74
0
 42
0.0000001
 43
0.0000001
 44
0.0000000001
 40
0.0
 40
0.0
 40
0.0
 40
0.0
 40
0.253692833
 40
0.5047463942
 40
0.7533368335
 40
1.0
 40
1.0
 40
1.0
 40
1.0
 10
139.1343446677
 20
19.5858494282
 30
0.0
 10
139.1243447919
 20
19.7577458158
 30
0.0
 10
139.1513543685
 20
20.1042234552
 30
0.0
 10
139.3279796118
 20
20.5906618908
 30
0.0
 10
139.62764354
 20
21.0066851244
 30
0.0
 10
139.8939918003
 20
21.2196999585
 30
0.0
 10
140.0378700256
 20
21.3052985075
 30
0.0
  0
SPLINE
  5
260
100
AcDbEntity
  8
_30_VOLUMEN
100
AcDbSpline
 62
4
  6
CONTINUOUS
 70
0
 71
3
 72
15
 73
11
 74
0
 42
0.0000001
 43
0.0000001
 44
0.0000000001
 40
0.0
 40
0.0
 40
0.0
 40
0.0
 40
0.1244961227
 40
0.2491138135
 40
0.3739427922
 40
0.4989798029
 40
0.6241613998
 40
0.7494465411
 40
0.8749476046
 40
1.0
 40
1.0
 40
1.0
 40
1.0
 10
139.9139062128
 20
21.2188593873
 30
0.0
 10
140.0530583367
 20
21.2824709696
 30
0.0
 10
140.3484180018
 20
21.3758857234
 30
0.0
 10
140.8114514341
 20
21.4045186594
 30
0.0
 10
141.26869854
 20
21.3206375404
 30
0.0
 10
141.6926090172
 20
21.1284257853
 30
0.0
 10
142.0589045628
 20
20.8404390617
 30
0.0
 10
142.3459093864
 20
20.4724354699
 30
0.0
 10
142.5358112994
 20
20.0466999033
 30
0.0
 10
142.5916906043
 20
19.7403038857
 30
0.0
 10
142.6006160267
 20
19.586877194
 30
0.0
  0
SPLINE
  5
261
100
AcDbEntity
  8
_30_VOLUMEN
100
AcDbSpline
 62
4
  6
CONTINUOUS
 70
0
 71
3
 72
11
 73
7
 74
0
 42
0.0000001
 43
0.0000001
 44
0.0000000001
 40
0.0
 40
0.0
 40
0.0
 40
0.0
 40
0.2444819235
 40
0.493177395
 40
0.7463705531
 40
1.0
 40
1.0
 40
1.0
 40
1.0
 10
141.9858966835
 20
18.0309600796
 30
0.0
 10
141.7163875454
 20
17.8706189918
 30
0.0
 10
141.0761483719
 20
17.6865906194
 30
0.0
 10
140.1060121668
 20
17.9247756296
 30
0.0
 10
139.3635956073
 20
18.610356688
 30
0.0
 10
139.1532385871
 20
19.2610657482
 30
0.0
 10
139.1343446677
 20
19.5858494282
 30
0.0
  0
SPLINE
  5
262
100
AcDbEntity
  8
_30_VOLUMEN
100
AcDbSpline
 62
4
  6
CONTINUOUS
 70
0
 71
3
 72
15
 73
11
 74
0
 42
0.0000001
 43
0.0000001
 44
0.0000000001
 40
0.0
 40
0.0
 40
0.0
 40
0.0
 40
0.1250938133
 40
0.2498577087
 40
0.3744297651
 40
0.49906116
 40
0.6239680432
 40
0.7492044675
 40
0.8746317147
 40
1.0
 40
1.0
 40
1.0
 40
1.0
 10
143.539913396
 20
19.8978440229
 30
0.0
 10
143.5577281139
 20
19.5916116576
 30
0.0
 10
143.4719525804
 20
18.966109093
 30
0.0
 10
142.9952452703
 20
18.1544178673
 30
0.0
 10
142.2431831317
 20
17.5880947525
 30
0.0
 10
141.3307231341
 20
17.3558136378
 30
0.0
 10
140.397625797
 20
17.4920605403
 30
0.0
 10
139.5859640332
 20
17.9758452847
 30
0.0
 10
139.0186483593
 20
18.7313358117
 30
0.0
 10
138.8601254265
 20
19.3447467708
 30
0.0
 10
138.8422716208
 20
19.6516510496
 30
0.0
  0
SPLINE
  5
263
100
AcDbEntity
  8
_30_VOLUMEN
100
AcDbSpline
 62
7
  6
CONTINUOUS
 70
0
 71
3
 72
11
 73
7
 74
0
 42
0.0000001
 43
0.0000001
 44
0.0000000001
 40
0.0
 40
0.0
 40
0.0
 40
0.0
 40
0.2501987407
 40
0.5008641071
 40
0.7505797782
 40
1.0
 40
1.0
 40
1.0
 40
1.0
 10
142.9038511308
 20
19.7672831232
 30
0.0
 10
142.9138223757
 20
19.5958788989
 30
0.0
 10
142.8862585234
 20
19.2483261663
 30
0.0
 10
142.70866084
 20
18.7582845402
 30
0.0
 10
142.4047271344
 20
18.3352380715
 30
0.0
 10
142.1328727106
 20
18.1186743479
 30
0.0
 10
141.9857527464
 20
18.0312021661
 30
0.0
  0
SPLINE
  5
264
100
AcDbEntity
  8
_30_VOLUMEN
100
AcDbSpline
 62
4
  6
CONTINUOUS
 70
0
 71
3
 72
15
 73
11
 74
0
 42
0.0000001
 43
0.0000001
 44
0.0000000001
 40
0.0
 40
0.0
 40
0.0
 40
0.0
 40
0.1250587146
 40
0.2498871937
 40
0.3744343751
 40
0.4990610949
 40
0.623963437
 40
0.749174658
 40
0.8746667172
 40
1.0
 40
1.0
 40
1.0
 40
1.0
 10
143.4514415392
 20
19.8756114201
 30
0.0
 10
143.4688252413
 20
19.5767881515
 30
0.0
 10
143.3848092192
 20
18.9662807864
 30
0.0
 10
142.9199381881
 20
18.1736698584
 30
0.0
 10
142.1853890257
 20
17.6213854804
 30
0.0
 10
141.2949530254
 20
17.3943164391
 30
0.0
 10
140.3843348208
 20
17.5276665837
 30
0.0
 10
139.591669624
 20
17.9993404087
 30
0.0
 10
139.0383160038
 20
18.7371395205
 30
0.0
 10
138.8832988911
 20
19.3358128275
 30
0.0
 10
138.8658770228
 20
19.6352921671
 30
0.0
  0
SPLINE
  5
265
100
AcDbEntity
  8
_30_VOLUMEN
100
AcDbSpline
 62
7
  6
CONTINUOUS
 70
0
 71
3
 72
15
 73
11
 74
0
 42
0.0000001
 43
0.0000001
 44
0.0000000001
 40
0.0
 40
0.0
 40
0.0
 40
0.0
 40
0.1249948854
 40
0.2506096509
 40
0.3759449061
 40
0.5010908823
 40
0.6261199677
 40
0.7508994868
 40
0.8755010195
 40
1.0
 40
1.0
 40
1.0
 40
1.0
 10
142.9038511308
 20
19.7672831232
 30
0.0
 10
142.8944439411
 20
19.9289913234
 30
0.0
 10
142.8329818533
 20
20.2520760709
 30
0.0
 10
142.6240326931
 20
20.6977225497
 30
0.0
 10
142.3080377482
 20
21.0759629584
 30
0.0
 10
141.9076670575
 20
21.3616455754
 30
0.0
 10
141.448873798
 20
21.5372910226
 30
0.0
 10
140.9610991122
 20
21.5899072396
 30
0.0
 10
140.4767493267
 20
21.5177030288
 30
0.0
 10
140.1766924653
 20
21.3875096166
 30
0.0
 10
140.0380139627
 20
21.305056421
 30
0.0
  0
SPLINE
  5
266
100
AcDbEntity
  8
_30_VOLUMEN
100
AcDbSpline
 62
4
  6
CONTINUOUS
 70
0
 71
3
 72
15
 73
11
 74
0
 42
0.0000001
 43
0.0000001
 44
0.0000000001
 40
0.0
 40
0.0
 40
0.0
 40
0.0
 40
0.1253332828
 40
0.250825342
 40
0.376036563
 40
0.5009389051
 40
0.6255656249
 40
0.7501128063
 40
0.8749412854
 40
1.0
 40
1.0
 40
1.0
 40
1.0
 10
143.4514415392
 20
19.8756114201
 30
0.0
 10
143.434019671
 20
20.1750907596
 30
0.0
 10
143.2790025582
 20
20.7737640666
 30
0.0
 10
142.725648938
 20
21.5115631785
 30
0.0
 10
141.9329837412
 20
21.9832370034
 30
0.0
 10
141.0223655366
 20
22.116587148
 30
0.0
 10
140.1319295363
 20
21.8895181068
 30
0.0
 10
139.3973803739
 20
21.3372337288
 30
0.0
 10
138.9325093428
 20
20.5446228008
 30
0.0
 10
138.8484933207
 20
19.9341154357
 30
0.0
 10
138.8658770228
 20
19.6352921671
 30
0.0
  0
SPLINE
  5
267
100
AcDbEntity
  8
_30_VOLUMEN
100
AcDbSpline
 62
4
  6
CONTINUOUS
 70
0
 71
3
 72
15
 73
11
 74
0
 42
0.0000001
 43
0.0000001
 44
0.0000000001
 40
0.0
 40
0.0
 40
0.0
 40
0.0
 40
0.1250938133
 40
0.2498577087
 40
0.3744297651
 40
0.49906116
 40
0.6239680432
 40
0.7492044675
 40
0.8746317147
 40
1.0
 40
1.0
 40
1.0
 40
1.0
 10
138.8422716208
 20
19.6516510496
 30
0.0
 10
138.824456903
 20
19.9578834148
 30
0.0
 10
138.9102324365
 20
20.5833859794
 30
0.0
 10
139.3869397466
 20
21.3950772052
 30
0.0
 10
140.1390018852
 20
21.96140032
 30
0.0
 10
141.0514618828
 20
22.1936814346
 30
0.0
 10
141.9845592199
 20
22.0574345321
 30
0.0
 10
142.7962209837
 20
21.5736497878
 30
0.0
 10
143.3635366576
 20
20.8181592608
 30
0.0
 10
143.5220595904
 20
20.2047483017
 30
0.0
 10
143.539913396
 20
19.8978440229
 30
0.0
  0
SPLINE
  5
268
100
AcDbEntity
  8
_30_VOLUMEN
100
AcDbSpline
 62
4
  6
CONTINUOUS
 70
0
 71
3
 72
8
 73
4
 74
0
 42
0.0000001
 43
0.0000001
 44
0.0000000001
 40
0.0
 40
0.0
 40
0.0
 40
0.0
 40
1.0
 40
1.0
 40
1.0
 40
1.0
 10
138.4577748351
 20
24.3842496012
 30
0.0
 10
138.4469849251
 20
24.3778302694
 30
0.0
 10
138.4375263758
 20
24.3685102409
 30
0.0
 10
138.4309345095
 20
24.3578248641
 30
0.0
  0
SPLINE
  5
269
100
AcDbEntity
  8
_30_VOLUMEN
100
AcDbSpline
 62
4
  6
CONTINUOUS
 70
0
 71
3
 72
9
 73
5
 74
0
 42
0.0000001
 43
0.0000001
 44
0.0000000001
 40
0.0
 40
0.0
 40
0.0
 40
0.0
 40
0.499223624
 40
1.0
 40
1.0
 40
1.0
 40
1.0
 10
132.4614178102
 20
14.6812731088
 30
0.0
 10
132.4493070992
 20
14.6616417169
 30
0.0
 10
132.4429765937
 20
14.6083194834
 30
0.0
 10
132.4817194347
 20
14.5712351466
 30
0.0
 10
132.5035752254
 20
14.5636390819
 30
0.0
  0
SPLINE
  5
26A
100
AcDbEntity
  8
_30_VOLUMEN
100
AcDbSpline
 62
4
  6
CONTINUOUS
 70
0
 71
3
 72
8
 73
4
 74
0
 42
0.0000001
 43
0.0000001
 44
0.0000000001
 40
0.0
 40
0.0
 40
0.0
 40
0.0
 40
1.0
 40
1.0
 40
1.0
 40
1.0
 10
132.5035752254
 20
14.5636390819
 30
0.0
 10
132.5131944711
 20
14.5602958758
 30
0.0
 10
132.5236319717
 20
14.5586649393
 30
0.0
 10
132.5338016745
 20
14.5591979108
 30
0.0
  0
SPLINE
  5
26B
100
AcDbEntity
  8
_21_KURVEN
100
AcDbSpline
 62
7
  6
CONTINUOUS
 70
0
 71
3
 72
10
 73
6
 74
0
 42
0.0000001
 43
0.0000001
 44
0.0000000001
 40
0.0
 40
0.0
 40
0.0
 40
0.0
 40
0.5
 40
0.75
 40
1.0
 40
1.0
 40
1.0
 40
1.0
 10
133.1836082412
 20
15.8519395856
 30
0.0
 10
133.1807085339
 20
15.8472021007
 30
0.0
 10
133.1730201453
 20
15.8343741824
 30
0.0
 10
133.1680236853
 20
15.8255801884
 30
0.0
 10
133.163029227
 20
15.8165384637
 30
0.0
 10
133.1607018826
 20
15.8122894007
 30
0.0
  0
SPLINE
  5
26C
100
AcDbEntity
  8
_21_KURVEN
100
AcDbSpline
 62
7
  6
CONTINUOUS
 70
0
 71
3
 72
33
 73
29
 74
0
 42
0.0000001
 43
0.0000001
 44
0.0000000001
 40
0.0
 40
0.0
 40
0.0
 40
0.0
 40
0.0625
 40
0.09375
 40
0.125
 40
0.15625
 40
0.1875
 40
0.25
 40
0.3125
 40
0.34375
 40
0.375
 40
0.40625
 40
0.4375
 40
0.46875
 40
0.5
 40
0.53125
 40
0.5625
 40
0.59375
 40
0.625
 40
0.65625
 40
0.6875
 40
0.75
 40
0.8125
 40
0.84375
 40
0.875
 40
0.90625
 40
0.9375
 40
1.0
 40
1.0
 40
1.0
 40
1.0
 10
133.1607018831
 20
15.8122894016
 30
0.0
 10
133.1475146156
 20
15.7802072092
 30
0.0
 10
133.1290292124
 20
15.7315775146
 30
0.0
 10
133.0992000164
 20
15.6687635455
 30
0.0
 10
133.0897830985
 20
15.6165890095
 30
0.0
 10
133.0808905801
 20
15.5644351109
 30
0.0
 10
133.0655482263
 20
15.4951309959
 30
0.0
 10
133.0712017546
 20
15.4066911355
 30
0.0
 10
133.0715208391
 20
15.3181012357
 30
0.0
 10
133.0915069544
 20
15.2497819304
 30
0.0
 10
133.1038974836
 20
15.1982111498
 30
0.0
 10
133.1168188182
 20
15.1466892686
 30
0.0
 10
133.1428643295
 20
15.0999040183
 30
0.0
 10
133.1664756935
 20
15.0525270526
 30
0.0
 10
133.1866994698
 20
15.0027803176
 30
0.0
 10
133.2229077443
 20
14.9631043751
 30
0.0
 10
133.2554514864
 20
14.921439575
 30
0.0
 10
133.2866688598
 20
14.877659413
 30
0.0
 10
133.3268562404
 20
14.8443295559
 30
0.0
 10
133.3673738905
 20
14.8114059221
 30
0.0
 10
133.4193039535
 20
14.7647715067
 30
0.0
 10
133.4990918865
 20
14.7259847066
 30
0.0
 10
133.5762877428
 20
14.6826035913
 30
0.0
 10
133.6453753518
 20
14.6664051057
 30
0.0
 10
133.696218925
 20
14.6518275529
 30
0.0
 10
133.7472855704
 20
14.6377115513
 30
0.0
 10
133.818990764
 20
14.6375001185
 30
0.0
 10
133.8719559843
 20
14.6331543158
 30
0.0
 10
133.9074469478
 20
14.6311876091
 30
0.0
  0
SPLINE
  5
26D
100
AcDbEntity
  8
_21_KURVEN
100
AcDbSpline
 62
7
  6
CONTINUOUS
 70
0
 71
3
 72
9
 73
5
 74
0
 42
0.0000001
 43
0.0000001
 44
0.0000000001
 40
0.0
 40
0.0
 40
0.0
 40
0.0
 40
0.5
 40
1.0
 40
1.0
 40
1.0
 40
1.0
 10
138.8662843229
 20
24.4147497402
 30
0.0
 10
138.8358183605
 20
24.4125635016
 30
0.0
 10
138.7720840858
 20
24.4067445166
 30
0.0
 10
138.7101554434
 20
24.3907864985
 30
0.0
 10
138.6787659065
 20
24.3819991489
 30
0.0
  0
SPLINE
  5
26E
100
AcDbEntity
  8
_21_KURVEN
100
AcDbSpline
 62
7
  6
CONTINUOUS
 70
0
 71
3
 72
9
 73
5
 74
0
 42
0.0000001
 43
0.0000001
 44
0.0000000001
 40
0.0
 40
0.0
 40
0.0
 40
0.0
 40
0.5
 40
1.0
 40
1.0
 40
1.0
 40
1.0
 10
138.678765904
 20
24.3819991482
 30
0.0
 10
138.6497355143
 20
24.3726066597
 30
0.0
 10
138.5892994678
 20
24.3517461918
 30
0.0
 10
138.5330165778
 20
24.3214530406
 30
0.0
 10
138.5046542187
 20
24.3054186994
 30
0.0
  0
LINE
  5
26F
100
AcDbEntity
  8
_21_KURVEN
100
AcDbLine
 62
7
  6
CONTINUOUS
 10
138.5046542164
 20
24.3054186981
 11
138.486580512
 21
24.2943718777
  0
SPLINE
  5
270
100
AcDbEntity
  8
_21_KURVEN
100
AcDbSpline
 62
7
  6
CONTINUOUS
 70
0
 71
3
 72
8
 73
4
 74
0
 42
0.0000001
 43
0.0000001
 44
0.0000000001
 40
0.0
 40
0.0
 40
0.0
 40
0.0
 40
1.0
 40
1.0
 40
1.0
 40
1.0
 10
138.486580512
 20
24.2943718778
 30
0.0
 10
138.4632468809
 20
24.2793882536
 30
0.0
 10
138.4417893413
 20
24.2643394512
 30
0.0
 10
138.4174403023
 20
24.2454544191
 30
0.0
  0
LINE
  5
271
100
AcDbEntity
  8
_21_KURVEN
100
AcDbLine
 62
7
  6
CONTINUOUS
 10
138.4174403024
 20
24.2454544192
 11
138.4010053518
 21
24.2320859867
  0
SPLINE
  5
272
100
AcDbEntity
  8
_21_KURVEN
100
AcDbSpline
 62
7
  6
CONTINUOUS
 70
0
 71
3
 72
8
 73
4
 74
0
 42
0.0000001
 43
0.0000001
 44
0.0000000001
 40
0.0
 40
0.0
 40
0.0
 40
0.0
 40
1.0
 40
1.0
 40
1.0
 40
1.0
 10
138.4010053519
 20
24.2320859867
 30
0.0
 10
138.3882941427
 20
24.2213455414
 30
0.0
 10
138.3695300253
 20
24.2045234957
 30
0.0
 10
138.3539286232
 20
24.1893976663
 30
0.0
  0
SPLINE
  5
273
100
AcDbEntity
  8
_21_KURVEN
100
AcDbSpline
 62
7
  6
CONTINUOUS
 70
0
 71
3
 72
8
 73
4
 74
0
 42
0.0000001
 43
0.0000001
 44
0.0000000001
 40
0.0
 40
0.0
 40
0.0
 40
0.0
 40
1.0
 40
1.0
 40
1.0
 40
1.0
 10
138.3539286212
 20
24.1893976643
 30
0.0
 10
138.3460423258
 20
24.1815911669
 30
0.0
 10
138.3368580247
 20
24.1722450775
 30
0.0
 10
138.3245117802
 20
24.1588881685
 30
0.0
  0
SPLINE
  5
274
100
AcDbEntity
  8
_21_KURVEN
100
AcDbSpline
 62
7
  6
CONTINUOUS
 70
0
 71
3
 72
9
 73
5
 74
0
 42
0.0000001
 43
0.0000001
 44
0.0000000001
 40
0.0
 40
0.0
 40
0.0
 40
0.0
 40
0.5
 40
1.0
 40
1.0
 40
1.0
 40
1.0
 10
138.3245117803
 20
24.1588881686
 30
0.0
 10
138.3097700735
 20
24.1422923022
 30
0.0
 10
138.2770853329
 20
24.1044344109
 30
0.0
 10
138.2494074806
 20
24.0627390336
 30
0.0
 10
138.2352280838
 20
24.0405858894
 30
0.0
  0
SPLINE
  5
275
100
AcDbEntity
  8
_21_KURVEN
100
AcDbSpline
 62
7
  6
CONTINUOUS
 70
0
 71
3
 72
36
 73
32
 74
0
 42
0.0000001
 43
0.0000001
 44
0.0000000001
 40
0.0
 40
0.0
 40
0.0
 40
0.0
 40
0.0625
 40
0.09375
 40
0.125
 40
0.1875
 40
0.21875
 40
0.25
 40
0.28125
 40
0.3125
 40
0.375
 40
0.40625
 40
0.4375
 40
0.453125
 40
0.46875
 40
0.5
 40
0.53125
 40
0.546875
 40
0.5625
 40
0.59375
 40
0.625
 40
0.6875
 40
0.71875
 40
0.75
 40
0.78125
 40
0.8125
 40
0.84375
 40
0.875
 40
0.90625
 40
0.9375
 40
1.0
 40
1.0
 40
1.0
 40
1.0
 10
149.1985767756
 20
23.6975554868
 30
0.0
 10
149.2142136902
 20
23.7295430401
 30
0.0
 10
149.2366944322
 20
23.7779724621
 30
0.0
 10
149.2705672743
 20
23.8407526561
 30
0.0
 10
149.284454905
 20
23.9128963202
 30
0.0
 10
149.3095030873
 20
23.9814851447
 30
0.0
 10
149.3102437889
 20
24.0546819146
 30
0.0
 10
149.314413861
 20
24.1089707889
 30
0.0
 10
149.3162794897
 20
24.1633905028
 30
0.0
 10
149.3027049552
 20
24.2352437232
 30
0.0
 10
149.2959795053
 20
24.3077928873
 30
0.0
 10
149.2693140687
 20
24.3760479503
 30
0.0
 10
149.2538933334
 20
24.4186024065
 30
0.0
 10
149.2435533518
 20
24.4539713962
 30
0.0
 10
149.2242308137
 20
24.4841226537
 30
0.0
 10
149.2021896939
 20
24.5230455235
 30
0.0
 10
149.1787444677
 20
24.5611392056
 30
0.0
 10
149.1616684998
 20
24.5926171633
 30
0.0
 10
149.1356860352
 20
24.6187485731
 30
0.0
 10
149.1058639829
 20
24.6527984871
 30
0.0
 10
149.0589631103
 20
24.7091032734
 30
0.0
 10
148.9986764802
 20
24.7500244311
 30
0.0
 10
148.9422994899
 20
24.7965957511
 30
0.0
 10
148.8937542909
 20
24.8212613761
 30
0.0
 10
148.8441429203
 20
24.8437309837
 30
0.0
 10
148.7959982513
 20
24.8700891271
 30
0.0
 10
148.7430529473
 20
24.883089145
 30
0.0
 10
148.6901901693
 20
24.8956091127
 30
0.0
 10
148.6378749642
 20
24.9122909584
 30
0.0
 10
148.5650909338
 20
24.9129768035
 30
0.0
 10
148.5109371297
 20
24.9165881255
 30
0.0
 10
148.4747381006
 20
24.918307465
 30
0.0
  0
SPLINE
  5
276
100
AcDbEntity
  8
_21_KURVEN
100
AcDbSpline
 62
1
  6
CENTER
 70
0
 71
3
 72
131
 73
127
 74
0
 42
0.0000001
 43
0.0000001
 44
0.0000000001
 40
0.0
 40
0.0
 40
0.0
 40
0.0
 40
0.015625
 40
0.03125
 40
0.046875
 40
0.0546875
 40
0.05859375
 40
0.0625
 40
0.06640625
 40
0.0703125
 40
0.078125
 40
0.09375
 40
0.109375
 40
0.1171875
 40
0.12109375
 40
0.125
 40
0.12890625
 40
0.1328125
 40
0.140625
 40
0.15625
 40
0.171875
 40
0.1796875
 40
0.18359375
 40
0.1875
 40
0.19140625
 40
0.1953125
 40
0.203125
 40
0.21875
 40
0.234375
 40
0.2421875
 40
0.24609375
 40
0.25
 40
0.25390625
 40
0.2578125
 40
0.265625
 40
0.28125
 40
0.296875
 40
0.3046875
 40
0.30859375
 40
0.3125
 40
0.31640625
 40
0.3203125
 40
0.328125
 40
0.34375
 40
0.359375
 40
0.3671875
 40
0.37109375
 40
0.375
 40
0.37890625
 40
0.3828125
 40
0.390625
 40
0.40625
 40
0.421875
 40
0.4296875
 40
0.43359375
 40
0.4375
 40
0.44140625
 40
0.4453125
 40
0.453125
 40
0.46875
 40
0.484375
 40
0.4921875
 40
0.49609375
 40
0.5
 40
0.50390625
 40
0.5078125
 40
0.515625
 40
0.53125
 40
0.546875
 40
0.5546875
 40
0.55859375
 40
0.5625
 40
0.56640625
 40
0.5703125
 40
0.578125
 40
0.59375
 40
0.609375
 40
0.6171875
 40
0.62109375
 40
0.625
 40
0.62890625
 40
0.6328125
 40
0.640625
 40
0.65625
 40
0.671875
 40
0.6796875
 40
0.68359375
 40
0.6875
 40
0.69140625
 40
0.6953125
 40
0.703125
 40
0.71875
 40
0.734375
 40
0.7421875
 40
0.74609375
 40
0.75
 40
0.75390625
 40
0.7578125
 40
0.765625
 40
0.78125
 40
0.796875
 40
0.8046875
 40
0.80859375
 40
0.8125
 40
0.81640625
 40
0.8203125
 40
0.828125
 40
0.84375
 40
0.859375
 40
0.8671875
 40
0.87109375
 40
0.875
 40
0.87890625
 40
0.8828125
 40
0.890625
 40
0.90625
 40
0.921875
 40
0.9296875
 40
0.93359375
 40
0.9375
 40
0.94140625
 40
0.9453125
 40
0.953125
 40
0.96875
 40
0.984375
 40
1.0
 40
1.0
 40
1.0
 40
1.0
 10
145.9210119491
 20
20.0226321103
 30
0.0
 10
145.9090350498
 20
20.0990805067
 30
0.0
 10
145.8850483898
 20
20.25196895
 30
0.0
 10
145.8492655673
 20
20.4813517122
 30
0.0
 10
145.8188714771
 20
20.6723578969
 30
0.0
 10
145.7987170031
 20
20.8063471546
 30
0.0
 10
145.7854503009
 20
20.8824678311
 30
0.0
 10
145.7804294571
 20
20.9408107713
 30
0.0
 10
145.7565668119
 20
20.9943662871
 30
0.0
 10
145.7313239127
 20
21.0674443639
 30
0.0
 10
145.6840685523
 20
21.1945443984
 30
0.0
 10
145.618310999
 20
21.3765929517
 30
0.0
 10
145.5514202411
 20
21.5582314889
 30
0.0
 10
145.5057513671
 20
21.685905546
 30
0.0
 10
145.4780154179
 20
21.7580815873
 30
0.0
 10
145.4618019035
 20
21.814404712
 30
0.0
 10
145.4280543239
 20
21.8623537431
 30
0.0
 10
145.389175294
 20
21.929207785
 30
0.0
 10
145.3182699202
 20
22.0448306826
 30
0.0
 10
145.2186098908
 20
22.2108059696
 30
0.0
 10
145.1178775029
 20
22.3761950959
 30
0.0
 10
145.048473431
 20
22.4926386185
 30
0.0
 10
145.0072352124
 20
22.5582031068
 30
0.0
 10
144.9807260526
 20
22.6101087228
 30
0.0
 10
144.9373282504
 20
22.6515726733
 30
0.0
 10
144.885356643
 20
22.7105016663
 30
0.0
 10
144.7916492259
 20
22.8119141141
 30
0.0
 10
144.6593183251
 20
22.9578104112
 30
0.0
 10
144.5260916993
 20
23.1028846312
 30
0.0
 10
144.4336382971
 20
23.2054479868
 30
0.0
 10
144.3796960948
 20
23.2625684103
 30
0.0
 10
144.3423444361
 20
23.309581381
 30
0.0
 10
144.2931286484
 20
23.3406473434
 30
0.0
 10
144.2316469158
 20
23.3876327711
 30
0.0
 10
144.1221154985
 20
23.4672482813
 30
0.0
 10
143.9667343348
 20
23.5824819395
 30
0.0
 10
143.8106761756
 20
23.6966962389
 30
0.0
 10
143.702092552
 20
23.7777388512
 30
0.0
 10
143.6391214294
 20
23.8224816899
 30
0.0
 10
143.5944753612
 20
23.8604283232
 30
0.0
 10
143.5399618666
 20
23.8816005519
 30
0.0
 10
143.4707197172
 20
23.9156830976
 30
0.0
 10
143.3479355935
 20
23.972582441
 30
0.0
 10
143.173423394
 20
24.0554483418
 30
0.0
 10
142.9984037851
 20
24.1372185286
 30
0.0
 10
142.8763300345
 20
24.1956518715
 30
0.0
 10
142.8059715845
 20
24.2273238465
 30
0.0
 10
142.754883103
 20
24.2558921443
 30
0.0
 10
142.697374208
 20
24.2660624292
 30
0.0
 10
142.6229356424
 20
24.2860421506
 30
0.0
 10
142.4916200081
 20
24.3179966226
 30
0.0
 10
142.3046104868
 20
24.3653736843
 30
0.0
 10
142.1172604636
 20
24.4115728925
 30
0.0
 10
141.9864215318
 20
24.4451763594
 30
0.0
 10
141.9112338623
 20
24.462564803
 30
0.0
 10
141.8560233545
 20
24.4806855994
 30
0.0
 10
141.7963031518
 20
24.4793953099
 30
0.0
 10
141.7182489807
 20
24.484447673
 30
0.0
 10
141.5809240731
 20
24.4901142438
 30
0.0
 10
141.3851058309
 20
24.5000263752
 30
0.0
 10
141.1892374817
 20
24.5087181275
 30
0.0
 10
141.051982724
 20
24.516093229
 30
0.0
 10
140.9738183173
 20
24.5184607581
 30
0.0
 10
140.9144363372
 20
24.5254080275
 30
0.0
 10
140.8579556157
 20
24.5125922139
 30
0.0
 10
140.7816355194
 20
24.5023999137
 30
0.0
 10
140.6485518551
 20
24.4813319417
 30
0.0
 10
140.4581447673
 20
24.4530750107
 30
0.0
 10
140.267980322
 20
24.4236125286
 30
0.0
 10
140.134556958
 20
24.4042323281
 30
0.0
 10
140.0587706755
 20
24.3913878155
 30
0.0
 10
140.0006521166
 20
24.3867094717
 30
0.0
 10
139.9474211257
 20
24.3630960215
 30
0.0
 10
139.8747408096
 20
24.3382179389
 30
0.0
 10
139.7483532148
 20
24.2915857301
 30
0.0
 10
139.5673132387
 20
24.226727256
 30
0.0
 10
139.386688895
 20
24.1607292265
 30
0.0
 10
139.2597194149
 20
24.1156923953
 30
0.0
 10
139.1879534899
 20
24.0883072906
 30
0.0
 10
139.1319169809
 20
24.0723858402
 30
0.0
 10
139.0843347012
 20
24.0388197639
 30
0.0
 10
139.0179417022
 20
24.000221315
 30
0.0
 10
138.903138725
 20
23.9297888651
 30
0.0
 10
138.738327353
 20
23.8308148613
 30
0.0
 10
138.5741067972
 20
23.7307612817
 30
0.0
 10
138.4584766773
 20
23.6618402378
 30
0.0
 10
138.3933834739
 20
23.6208667223
 30
0.0
 10
138.3418131849
 20
23.5945877823
 30
0.0
 10
138.3007538664
 20
23.5512990868
 30
0.0
 10
138.2423402064
 20
23.4995152142
 30
0.0
 10
138.1418408768
 20
23.4061165077
 30
0.0
 10
137.9972429637
 20
23.2742380813
 30
0.0
 10
137.8534699136
 20
23.1414558554
 30
0.0
 10
137.7518157759
 20
23.0493224683
 30
0.0
 10
137.6952168142
 20
22.9955502365
 30
0.0
 10
137.6485896713
 20
22.9583621883
 30
0.0
 10
137.6179296567
 20
22.9091719287
 30
0.0
 10
137.571478474
 20
22.8477724117
 30
0.0
 10
137.4928011682
 20
22.7383622898
 30
0.0
 10
137.378906046
 20
22.5831672966
 30
0.0
 10
137.2660310676
 20
22.4272867554
 30
0.0
 10
137.1859255604
 20
22.3188364007
 30
0.0
 10
137.1417186943
 20
22.2559286781
 30
0.0
 10
137.1041727083
 20
22.2113658676
 30
0.0
 10
137.0834062136
 20
22.1567991772
 30
0.0
 10
137.0498628743
 20
22.0875337098
 30
0.0
 10
136.9939079473
 20
21.9646864642
 30
0.0
 10
136.9123909574
 20
21.7900968299
 30
0.0
 10
136.8319691696
 20
21.6149913345
 30
0.0
 10
136.7744809595
 20
21.4928662943
 30
0.0
 10
136.7433470651
 20
21.4224659328
 30
0.0
 10
136.7151879556
 20
21.3713813038
 30
0.0
 10
136.7054053453
 20
21.3137414185
 30
0.0
 10
136.6859500312
 20
21.2391752472
 30
0.0
 10
136.6549097378
 20
21.1076142493
 30
0.0
 10
136.6088407845
 20
20.9202668097
 30
0.0
 10
136.5639478605
 20
20.73257047
 30
0.0
 10
136.5312611261
 20
20.6014979323
 30
0.0
 10
136.5143930764
 20
20.5261641805
 30
0.0
 10
136.4966722687
 20
20.4708793719
 30
0.0
 10
136.4983255007
 20
20.4109501218
 30
0.0
 10
136.4937719152
 20
20.3326644913
 30
0.0
 10
136.4889518973
 20
20.1949098024
 30
0.0
 10
136.4804189204
 20
19.9985122734
 30
0.0
 10
136.4708889272
 20
19.7626651347
 30
0.0
 10
136.4644004405
 20
19.6054661097
 30
0.0
 10
136.4611730919
 20
19.5268625471
 30
0.0
  0
SPLINE
  5
277
100
AcDbEntity
  8
_21_KURVEN
100
AcDbSpline
 62
1
  6
CENTER
 70
0
 71
3
 72
131
 73
127
 74
0
 42
0.0000001
 43
0.0000001
 44
0.0000000001
 40
0.0
 40
0.0
 40
0.0
 40
0.0
 40
0.015625
 40
0.03125
 40
0.046875
 40
0.0546875
 40
0.05859375
 40
0.0625
 40
0.06640625
 40
0.0703125
 40
0.078125
 40
0.09375
 40
0.109375
 40
0.1171875
 40
0.12109375
 40
0.125
 40
0.12890625
 40
0.1328125
 40
0.140625
 40
0.15625
 40
0.171875
 40
0.1796875
 40
0.18359375
 40
0.1875
 40
0.19140625
 40
0.1953125
 40
0.203125
 40
0.21875
 40
0.234375
 40
0.2421875
 40
0.24609375
 40
0.25
 40
0.25390625
 40
0.2578125
 40
0.265625
 40
0.28125
 40
0.296875
 40
0.3046875
 40
0.30859375
 40
0.3125
 40
0.31640625
 40
0.3203125
 40
0.328125
 40
0.34375
 40
0.359375
 40
0.3671875
 40
0.37109375
 40
0.375
 40
0.37890625
 40
0.3828125
 40
0.390625
 40
0.40625
 40
0.421875
 40
0.4296875
 40
0.43359375
 40
0.4375
 40
0.44140625
 40
0.4453125
 40
0.453125
 40
0.46875
 40
0.484375
 40
0.4921875
 40
0.49609375
 40
0.5
 40
0.50390625
 40
0.5078125
 40
0.515625
 40
0.53125
 40
0.546875
 40
0.5546875
 40
0.55859375
 40
0.5625
 40
0.56640625
 40
0.5703125
 40
0.578125
 40
0.59375
 40
0.609375
 40
0.6171875
 40
0.62109375
 40
0.625
 40
0.62890625
 40
0.6328125
 40
0.640625
 40
0.65625
 40
0.671875
 40
0.6796875
 40
0.68359375
 40
0.6875
 40
0.69140625
 40
0.6953125
 40
0.703125
 40
0.71875
 40
0.734375
 40
0.7421875
 40
0.74609375
 40
0.75
 40
0.75390625
 40
0.7578125
 40
0.765625
 40
0.78125
 40
0.796875
 40
0.8046875
 40
0.80859375
 40
0.8125
 40
0.81640625
 40
0.8203125
 40
0.828125
 40
0.84375
 40
0.859375
 40
0.8671875
 40
0.87109375
 40
0.875
 40
0.87890625
 40
0.8828125
 40
0.890625
 40
0.90625
 40
0.921875
 40
0.9296875
 40
0.93359375
 40
0.9375
 40
0.94140625
 40
0.9453125
 40
0.953125
 40
0.96875
 40
0.984375
 40
1.0
 40
1.0
 40
1.0
 40
1.0
 10
136.4611730678
 20
19.5268629622
 30
0.0
 10
136.4731499671
 20
19.4504145657
 30
0.0
 10
136.497136627
 20
19.2975261225
 30
0.0
 10
136.5329194496
 20
19.0681433603
 30
0.0
 10
136.5633135397
 20
18.8771371756
 30
0.0
 10
136.5834680137
 20
18.7431479178
 30
0.0
 10
136.5967347159
 20
18.6670272414
 30
0.0
 10
136.6017555597
 20
18.6086843012
 30
0.0
 10
136.625618205
 20
18.5551287854
 30
0.0
 10
136.6508611041
 20
18.4820507086
 30
0.0
 10
136.6981164645
 20
18.3549506741
 30
0.0
 10
136.7638740179
 20
18.1729021208
 30
0.0
 10
136.8307647758
 20
17.9912635836
 30
0.0
 10
136.8764336498
 20
17.8635895265
 30
0.0
 10
136.904169599
 20
17.7914134852
 30
0.0
 10
136.9203831134
 20
17.7350903605
 30
0.0
 10
136.954130693
 20
17.6871413293
 30
0.0
 10
136.9930097229
 20
17.6202872875
 30
0.0
 10
137.0639150967
 20
17.5046643899
 30
0.0
 10
137.1635751261
 20
17.3386891029
 30
0.0
 10
137.264307514
 20
17.1732999765
 30
0.0
 10
137.3337115859
 20
17.056856454
 30
0.0
 10
137.3749498045
 20
16.9912919657
 30
0.0
 10
137.4014589642
 20
16.9393863497
 30
0.0
 10
137.4448567664
 20
16.8979223991
 30
0.0
 10
137.4968283739
 20
16.8389934061
 30
0.0
 10
137.590535791
 20
16.7375809583
 30
0.0
 10
137.7228666918
 20
16.5916846613
 30
0.0
 10
137.8560933176
 20
16.4466104413
 30
0.0
 10
137.9485467197
 20
16.3440470856
 30
0.0
 10
138.0024889221
 20
16.2869266621
 30
0.0
 10
138.0398405807
 20
16.2399136914
 30
0.0
 10
138.0890563685
 20
16.208847729
 30
0.0
 10
138.1505381011
 20
16.1618623013
 30
0.0
 10
138.2600695183
 20
16.0822467912
 30
0.0
 10
138.4154506821
 20
15.967013133
 30
0.0
 10
138.5715088413
 20
15.8527988335
 30
0.0
 10
138.6800924649
 20
15.7717562212
 30
0.0
 10
138.7430635875
 20
15.7270133826
 30
0.0
 10
138.7877096557
 20
15.6890667492
 30
0.0
 10
138.8422231502
 20
15.6678945205
 30
0.0
 10
138.9114652997
 20
15.6338119749
 30
0.0
 10
139.0342494234
 20
15.5769126315
 30
0.0
 10
139.2087616229
 20
15.4940467307
 30
0.0
 10
139.3837812318
 20
15.4122765439
 30
0.0
 10
139.5058549824
 20
15.353843201
 30
0.0
 10
139.5762134324
 20
15.322171226
 30
0.0
 10
139.6273019139
 20
15.2936029282
 30
0.0
 10
139.6848108089
 20
15.2834326432
 30
0.0
 10
139.7592493745
 20
15.2634529218
 30
0.0
 10
139.8905650088
 20
15.2314984498
 30
0.0
 10
140.0775745301
 20
15.1841213881
 30
0.0
 10
140.2649245533
 20
15.13792218
 30
0.0
 10
140.395763485
 20
15.104318713
 30
0.0
 10
140.4709511546
 20
15.0869302694
 30
0.0
 10
140.5261616623
 20
15.0688094731
 30
0.0
 10
140.585881865
 20
15.0700997626
 30
0.0
 10
140.6639360362
 20
15.0650473995
 30
0.0
 10
140.8012609438
 20
15.0593808287
 30
0.0
 10
140.997079186
 20
15.0494686973
 30
0.0
 10
141.1929475352
 20
15.0407769449
 30
0.0
 10
141.3302022929
 20
15.0334018434
 30
0.0
 10
141.4083666996
 20
15.0310343144
 30
0.0
 10
141.4677486797
 20
15.024087045
 30
0.0
 10
141.5242294012
 20
15.0369028585
 30
0.0
 10
141.6005494974
 20
15.0470951588
 30
0.0
 10
141.7336331618
 20
15.0681631308
 30
0.0
 10
141.9240402496
 20
15.0964200618
 30
0.0
 10
142.1142046949
 20
15.1258825438
 30
0.0
 10
142.2476280588
 20
15.1452627443
 30
0.0
 10
142.3234143414
 20
15.1581072569
 30
0.0
 10
142.3815329003
 20
15.1627856007
 30
0.0
 10
142.4347638912
 20
15.186399051
 30
0.0
 10
142.5074442073
 20
15.2112771335
 30
0.0
 10
142.6338318021
 20
15.2579093424
 30
0.0
 10
142.8148717782
 20
15.3227678164
 30
0.0
 10
142.9954961219
 20
15.388765846
 30
0.0
 10
143.1224656019
 20
15.4338026771
 30
0.0
 10
143.1942315269
 20
15.4611877818
 30
0.0
 10
143.2502680359
 20
15.4771092323
 30
0.0
 10
143.2978503157
 20
15.5106753086
 30
0.0
 10
143.3642433147
 20
15.5492737575
 30
0.0
 10
143.4790462919
 20
15.6197062074
 30
0.0
 10
143.6438576639
 20
15.7186802112
 30
0.0
 10
143.8080782197
 20
15.8187337908
 30
0.0
 10
143.9237083396
 20
15.8876548346
 30
0.0
 10
143.988801543
 20
15.9286283501
 30
0.0
 10
144.040371832
 20
15.9549072902
 30
0.0
 10
144.0814311504
 20
15.9981959856
 30
0.0
 10
144.1398448105
 20
16.0499798583
 30
0.0
 10
144.2403441401
 20
16.1433785648
 30
0.0
 10
144.3849420531
 20
16.2752569911
 30
0.0
 10
144.5287151033
 20
16.4080392171
 30
0.0
 10
144.630369241
 20
16.5001726042
 30
0.0
 10
144.6869682026
 20
16.5539448359
 30
0.0
 10
144.7335953456
 20
16.5911328841
 30
0.0
 10
144.7642553602
 20
16.6403231438
 30
0.0
 10
144.8107065429
 20
16.7017226607
 30
0.0
 10
144.8893838486
 20
16.8111327826
 30
0.0
 10
145.0032789709
 20
16.9663277758
 30
0.0
 10
145.1161539492
 20
17.1222083171
 30
0.0
 10
145.1962594565
 20
17.2306586717
 30
0.0
 10
145.2404663225
 20
17.2935663943
 30
0.0
 10
145.2780123086
 20
17.3381292049
 30
0.0
 10
145.2987788033
 20
17.3926958952
 30
0.0
 10
145.3323221425
 20
17.4619613626
 30
0.0
 10
145.3882770696
 20
17.5848086082
 30
0.0
 10
145.4697940595
 20
17.7593982426
 30
0.0
 10
145.5502158473
 20
17.9345037379
 30
0.0
 10
145.6077040573
 20
18.0566287782
 30
0.0
 10
145.6388379518
 20
18.1270291397
 30
0.0
 10
145.6669970613
 20
18.1781137687
 30
0.0
 10
145.6767796716
 20
18.235753654
 30
0.0
 10
145.6962349857
 20
18.3103198253
 30
0.0
 10
145.7272752791
 20
18.4418808232
 30
0.0
 10
145.7733442324
 20
18.6292282627
 30
0.0
 10
145.8182371564
 20
18.8169246025
 30
0.0
 10
145.8509238907
 20
18.9479971401
 30
0.0
 10
145.8677919404
 20
19.0233308919
 30
0.0
 10
145.8855127482
 20
19.0786157006
 30
0.0
 10
145.8838595162
 20
19.1385449506
 30
0.0
 10
145.8884131017
 20
19.2168305811
 30
0.0
 10
145.8932331196
 20
19.3545852701
 30
0.0
 10
145.9017660964
 20
19.5509827991
 30
0.0
 10
145.9112960896
 20
19.7868299377
 30
0.0
 10
145.9177845764
 20
19.9440289627
 30
0.0
 10
145.921011925
 20
20.0226325253
 30
0.0
  0
LINE
  5
278
100
AcDbEntity
  8
_21_KURVEN
100
AcDbLine
 62
7
  6
CONTINUOUS
 10
143.515900694
 20
15.1347453323
 11
143.5399525697
 21
15.1363730766
  0
SPLINE
  5
279
100
AcDbEntity
  8
_21_KURVEN
100
AcDbSpline
 62
7
  6
CONTINUOUS
 70
0
 71
3
 72
9
 73
5
 74
0
 42
0.0000001
 43
0.0000001
 44
0.0000000001
 40
0.0
 40
0.0
 40
0.0
 40
0.0
 40
0.5
 40
1.0
 40
1.0
 40
1.0
 40
1.0
 10
143.5399525693
 20
15.1363730766
 30
0.0
 10
143.5703328428
 20
15.1394849068
 30
0.0
 10
143.6297436468
 20
15.1465203003
 30
0.0
 10
143.6925915903
 20
15.1643067129
 30
0.0
 10
143.723618265
 20
15.1738996808
 30
0.0
  0
LINE
  5
27A
100
AcDbEntity
  8
_21_KURVEN
100
AcDbLine
 62
7
  6
CONTINUOUS
 10
143.7236182649
 20
15.1738996808
 11
143.7436367542
 21
15.1808425661
  0
SPLINE
  5
27B
100
AcDbEntity
  8
_21_KURVEN
100
AcDbSpline
 62
7
  6
CONTINUOUS
 70
0
 71
3
 72
9
 73
5
 74
0
 42
0.0000001
 43
0.0000001
 44
0.0000000001
 40
0.0
 40
0.0
 40
0.0
 40
0.0
 40
0.5
 40
1.0
 40
1.0
 40
1.0
 40
1.0
 10
143.7436367541
 20
15.1808425661
 30
0.0
 10
143.7643924002
 20
15.1886862407
 30
0.0
 10
143.8108998469
 20
15.2070160786
 30
0.0
 10
143.8547179768
 20
15.2310586087
 30
0.0
 10
143.877621729
 20
15.2441302957
 30
0.0
  0
SPLINE
  5
27C
100
AcDbEntity
  8
_21_KURVEN
100
AcDbSpline
 62
7
  6
CONTINUOUS
 70
0
 71
3
 72
8
 73
4
 74
0
 42
0.0000001
 43
0.0000001
 44
0.0000000001
 40
0.0
 40
0.0
 40
0.0
 40
0.0
 40
1.0
 40
1.0
 40
1.0
 40
1.0
 10
143.8776217325
 20
15.2441302978
 30
0.0
 10
143.9013471366
 20
15.2584851108
 30
0.0
 10
143.9232831597
 20
15.2730183704
 30
0.0
 10
143.9479576694
 20
15.2911188245
 30
0.0
  0
SPLINE
  5
27D
100
AcDbEntity
  8
_21_KURVEN
100
AcDbSpline
 62
7
  6
CONTINUOUS
 70
0
 71
3
 72
9
 73
5
 74
0
 42
0.0000001
 43
0.0000001
 44
0.0000000001
 40
0.0
 40
0.0
 40
0.0
 40
0.0
 40
0.5
 40
1.0
 40
1.0
 40
1.0
 40
1.0
 10
143.9479576681
 20
15.2911188236
 30
0.0
 10
143.9655296611
 20
15.304662632
 30
0.0
 10
144.0046860587
 20
15.3357339564
 30
0.0
 10
144.0396265805
 20
15.3715039926
 30
0.0
 10
144.0576732388
 20
15.3906069063
 30
0.0
  0
SPLINE
  5
27E
100
AcDbEntity
  8
_21_KURVEN
100
AcDbSpline
 62
7
  6
CONTINUOUS
 70
0
 71
3
 72
9
 73
5
 74
0
 42
0.0000001
 43
0.0000001
 44
0.0000000001
 40
0.0
 40
0.0
 40
0.0
 40
0.0
 40
0.5
 40
1.0
 40
1.0
 40
1.0
 40
1.0
 10
144.0576732366
 20
15.3906069039
 30
0.0
 10
144.0724149434
 20
15.4072027702
 30
0.0
 10
144.105099684
 20
15.4450606615
 30
0.0
 10
144.1327775363
 20
15.4867560389
 30
0.0
 10
144.1469569331
 20
15.5089091831
 30
0.0
  0
ENDSEC
  0
SECTION
  2
OBJECTS
  0
DICTIONARY
  5
C
100
AcDbDictionary
280
0
281
1
  3
ACAD_GROUP
350
D
  3
ACAD_MLINESTYLE
350
17
  3
ACAD_LAYOUT
350
1A
  3
ACAD_PLOTSETTINGS
350
19
  3
ACAD_PLOTSTYLENAME
350
E
  0
DICTIONARY
  5
D
102
{ACAD_REACTORS
330
C
102
}
100
AcDbDictionary
280
0
281
1
  0
ACDBDICTIONARYWDFLT
  5
E
102
{ACAD_REACTORS
330
C
102
}
100
AcDbDictionary
281
1
  3
Normal
350
F
100
AcDbDictionaryWithDefault
340
F
  0
DICTIONARY
  5
17
102
{ACAD_REACTORS
330
C
102
}
100
AcDbDictionary
280
0
281
1
  3
Standard
350
18
  0
DICTIONARY
  5
19
102
{ACAD_REACTORS
330
C
102
}
100
AcDbDictionary
281
1
  0
DICTIONARY
  5
1A
102
{ACAD_REACTORS
330
C
102
}
100
AcDbDictionary
281
1
  3
Model
350
27F
  3
Layout1
350
280
  0
ACDBPLACEHOLDER
  5
F
102
{ACAD_REACTORS
330
E
102
}
  0
MLINESTYLE
  5
18
102
{ACAD_REACTORS
330
17
102
}
100
AcDbMlineStyle
  2
STANDARD
 70
0
  3

 62
256
 51
90.0
 52
90.0
 71
2
 49
0.5
 62
256
  6
BYLAYER
 49
-0.5
 62
256
  6
BYLAYER
  0
LAYOUT
  5
27F
102
{ACAD_REACTORS
330
1A
102
}
100
AcDbPlotSettings
  1

  2
none_device
  4
ISO_A3_(420.00_x_297.00_MM)
  6

 40
0.0
 41
0.0
 42
0.0
 43
0.0
 44
420.0
 45
297.0
 46
0.0
 47
0.0
 48
0.0
 49
0.0
140
0.0
141
0.0
142
1.0
143
1.0
 70
1024
 72
1
 73
0
 74
0
  7

 75
0
147
1.0
148
0.0
149
0.0
100
AcDbLayout
  1
Model
 70
0
 71
0
 10
0.0
 20
0.0
 11
420.0
 21
297.0
 12
0.0
 22
0.0
 32
0.0
 14
0.0
 24
0.0
 34
0.0
 15
0.0
 25
0.0
 35
0.0
146
0.0
 13
0.0
 23
0.0
 33
0.0
 16
1.0
 26
0.0
 36
0.0
 17
0.0
 27
1.0
 37
0.0
 76
0
330
20E
345
0
346
0
  0
LAYOUT
  5
280
102
{ACAD_REACTORS
330
1A
102
}
100
AcDbPlotSettings
  1

  2
none_device
  4
ISO_A3_(420.00_x_297.00_MM)
  6

 40
0.0
 41
0.0
 42
0.0
 43
0.0
 44
420.0
 45
297.0
 46
0.0
 47
0.0
 48
0.0
 49
0.0
140
0.0
141
0.0
142
1.0
143
1.0
 70
0
 72
1
 73
0
 74
0
  7

 75
0
147
1.0
148
0.0
149
0.0
100
AcDbLayout
  1
Layout1
 70
0
 71
1
 10
0.0
 20
0.0
 11
420.0
 21
297.0
 12
0.0
 22
0.0
 32
0.0
 14
0.0
 24
0.0
 34
0.0
 15
0.0
 25
0.0
 35
0.0
146
0.0
 13
0.0
 23
0.0
 33
0.0
 16
1.0
 26
0.0
 36
0.0
 17
0.0
 27
1.0
 37
0.0
 76
0
330
20F
345
0
346
0
  0
ENDSEC
  0
EOF
