999
DXF file: 70699020.dxf
999
Pro/ENGINEER 2017380 by Parametric Technology Corporation
  0
SECTION
  2
HEADER
  9
$ACADVER
  1
AC1027
  9
$DWGCODEPAGE
  3
ANSI_1252
  9
$EXTMAX
 10
420.0
 20
297.0
 30
0.0
  9
$EXTMIN
 10
0.0
 20
0.0
 30
0.0
  9
$LIMMIN
 10
0.0
 20
0.0
  9
$LIMMAX
 10
420.0
 20
297.0
  9
$VIEWCTR
 10
210.0
 20
148.5
  9
$VIEWSIZE
 40
297.0
  9
$CLAYER
  8
0
  9
$LTSCALE
 40
23.1
  9
$CELTYPE
  6
BYLAYER
  9
$DIMSCALE
 40
1.0
  9
$DIMASZ
 40
3.5
  9
$DIMEXO
 40
0.0
  9
$DIMDLI
 40
15.96
  9
$DIMEXE
 40
1.5
  9
$DIMCEN
 40
3.78
  9
$DIMLFAC
 40
1.0
  9
$DIMBLK
  1
_FILLED
  9
$DIMALT
 70
0
  9
$DIMALTF
 40
25.4
  9
$DIMTXT
 40
3.5
  9
$DIMTOL
 70
1
  9
$DIMLIM
 70
0
  9
$DIMTFAC
 40
1.0
  9
$DIMTP
 40
0.05
  9
$DIMTM
 40
0.05
  9
$DIMGAP
 40
0.625
  9
$DIMDSEP
 70
46
  9
$AUNITS
 70
0
  9
$PDMODE
 70
3
  9
$PDSIZE
 40
0.3125
  9
$HANDSEED
  5
27B
  9
$TILEMODE
 70
1
  9
$MEASUREMENT
 70
1
  9
$INSUNITS
 70
4
  0
ENDSEC
  0
SECTION
  2
CLASSES
  0
CLASS
  1
ACDBDICTIONARYWDFLT
  2
AcDbDictionaryWithDefault
  3
AutoCAD 2000
 90
0
 91
1
280
0
281
0
  0
CLASS
  1
ACDBPLACEHOLDER
  2
AcDbPlaceHolder
  3
AutoCAD 2000
 90
0
 91
1
280
0
281
0
  0
CLASS
  1
LAYOUT
  2
AcDbLayout
  3
AutoCAD 2000
 90
0
 91
0
280
0
281
0
  0
ENDSEC
  0
SECTION
  2
TABLES
  0
TABLE
  2
VPORT
  5
8
100
AcDbSymbolTable
 70
2
  0
VPORT
  5
1F4
100
AcDbSymbolTableRecord
100
AcDbViewportTableRecord
  2
*ACTIVE
 70
0
 10
0.0
 20
0.0
 11
1.0
 21
1.0
 12
210.0
 22
148.5
 13
0.0
 23
0.0
 14
1.0
 24
1.0
 15
0.0
 25
0.0
 16
0.0
 26
0.0
 36
1.0
 17
0.0
 27
0.0
 37
0.0
 40
297.0
 41
1.4141414141
 42
50.0
 43
0.0
 44
0.0
 50
0.0
 51
0.0
 71
0
 72
100
 73
1
 74
1
 75
0
 76
0
 77
0
 78
0
  0
ENDTAB
  0
TABLE
  2
LTYPE
  5
5
100
AcDbSymbolTable
 70
6
  0
LTYPE
  5
14
100
AcDbSymbolTableRecord
100
AcDbLinetypeTableRecord
  2
BYBLOCK
 70
0
  3

 72
65
 73
0
 40
0.0
  0
LTYPE
  5
15
100
AcDbSymbolTableRecord
100
AcDbLinetypeTableRecord
  2
BYLAYER
 70
0
  3

 72
65
 73
0
 40
0.0
  0
LTYPE
  5
16
100
AcDbSymbolTableRecord
100
AcDbLinetypeTableRecord
  2
CONTINUOUS
 70
64
  3
Solid line
 72
65
 73
0
 40
0.0
  0
LTYPE
  5
1F5
100
AcDbSymbolTableRecord
100
AcDbLinetypeTableRecord
  2
CENTER
 70
64
  3
____ _ ____ _ ____ _ ____ _ ____ _ ____ _ ____
 72
65
 73
4
 40
0.6
 49
0.375
 74
0
 49
-0.075
 74
0
 49
0.075
 74
0
 49
-0.075
 74
0
  0
LTYPE
  5
1F6
100
AcDbSymbolTableRecord
100
AcDbLinetypeTableRecord
  2
HIDDEN
 70
64
  3
- - - - - - - - - - - - - - - - - - - -
 72
65
 73
2
 40
0.2
 49
0.1
 74
0
 49
-0.1
 74
0
  0
LTYPE
  5
1F7
100
AcDbSymbolTableRecord
100
AcDbLinetypeTableRecord
  2
PHANTOM
 70
64
  3
_____ _ _ _____ _ _ _____ _ _ _____
 72
65
 73
6
 40
0.8
 49
0.45
 74
0
 49
-0.05
 74
0
 49
0.1
 74
0
 49
-0.05
 74
0
 49
0.1
 74
0
 49
-0.05
 74
0
  0
LTYPE
  5
1F8
100
AcDbSymbolTableRecord
100
AcDbLinetypeTableRecord
  2
DOT
 70
64
  3
. . . . . . . . . . . . . . . . . . . .
 72
65
 73
2
 40
0.2
 49
0.1
 74
0
 49
-0.1
 74
0
  0
LTYPE
  5
1F9
100
AcDbSymbolTableRecord
100
AcDbLinetypeTableRecord
  2
DASHED
 70
64
  3
- - - - - - - - - - - - - - - - - - - -
 72
65
 73
2
 40
0.2
 49
0.1
 74
0
 49
-0.1
 74
0
  0
ENDTAB
  0
TABLE
  2
LAYER
  5
2
100
AcDbSymbolTable
 70
36
  0
LAYER
  5
10
100
AcDbSymbolTableRecord
100
AcDbLayerTableRecord
  2
0
 70
0
 62
7
  6
CONTINUOUS
370
-3
390
F
  0
LAYER
  5
1FA
100
AcDbSymbolTableRecord
100
AcDbLayerTableRecord
  2
DEFAULT_1
 70
0
 62
7
  6
CENTER
370
-3
390
F
  0
LAYER
  5
1FB
100
AcDbSymbolTableRecord
100
AcDbLayerTableRecord
  2
DEFAULT_2
 70
0
 62
1
  6
HIDDEN
370
-3
390
F
  0
LAYER
  5
1FC
100
AcDbSymbolTableRecord
100
AcDbLayerTableRecord
  2
DEFAULT_3
 70
0
 62
7
  6
PHANTOM
370
-3
390
F
  0
LAYER
  5
1FD
100
AcDbSymbolTableRecord
100
AcDbLayerTableRecord
  2
BG_STARTBEZUEGE
 70
0
 62
7
  6
CONTINUOUS
370
-3
390
F
  0
LAYER
  5
1FE
100
AcDbSymbolTableRecord
100
AcDbLayerTableRecord
  2
HILFEN
 70
0
 62
7
  6
CONTINUOUS
370
-3
390
F
  0
LAYER
  5
1FF
100
AcDbSymbolTableRecord
100
AcDbLayerTableRecord
  2
PLATZIERUNG
 70
0
 62
7
  6
CONTINUOUS
370
-3
390
F
  0
LAYER
  5
200
100
AcDbSymbolTableRecord
100
AcDbLayerTableRecord
  2
T_STARTBEZUEGE
 70
0
 62
7
  6
CONTINUOUS
370
-3
390
F
  0
LAYER
  5
201
100
AcDbSymbolTableRecord
100
AcDbLayerTableRecord
  2
_03_2D_ZEICHNUNG_BEMASSUNGEN
 70
0
 62
7
  6
CONTINUOUS
370
-3
390
F
  0
LAYER
  5
202
100
AcDbSymbolTableRecord
100
AcDbLayerTableRecord
  2
_04_NOTIZEN
 70
0
 62
7
  6
CONTINUOUS
370
-3
390
F
  0
LAYER
  5
203
100
AcDbSymbolTableRecord
100
AcDbLayerTableRecord
  2
_05_2D_ELEMENTE
 70
0
 62
7
  6
CONTINUOUS
370
-3
390
F
  0
LAYER
  5
204
100
AcDbSymbolTableRecord
100
AcDbLayerTableRecord
  2
_07_EINRASTLINIEN
 70
0
 62
7
  6
CONTINUOUS
370
-3
390
F
  0
LAYER
  5
205
100
AcDbSymbolTableRecord
100
AcDbLayerTableRecord
  2
_21_KURVEN
 70
0
 62
7
  6
CONTINUOUS
370
-3
390
F
  0
LAYER
  5
206
100
AcDbSymbolTableRecord
100
AcDbLayerTableRecord
  2
_24_IMPORT
 70
0
 62
7
  6
CONTINUOUS
370
-3
390
F
  0
LAYER
  5
207
100
AcDbSymbolTableRecord
100
AcDbLayerTableRecord
  2
_26_BEZUGSACHSEN
 70
0
 62
7
  6
CONTINUOUS
370
-3
390
F
  0
LAYER
  5
208
100
AcDbSymbolTableRecord
100
AcDbLayerTableRecord
  2
_27_BEZUGSEBENEN
 70
0
 62
7
  6
CONTINUOUS
370
-3
390
F
  0
LAYER
  5
209
100
AcDbSymbolTableRecord
100
AcDbLayerTableRecord
  2
_28_BEZUGSPUNKTE
 70
0
 62
7
  6
CONTINUOUS
370
-3
390
F
  0
LAYER
  5
20A
100
AcDbSymbolTableRecord
100
AcDbLayerTableRecord
  2
_29_KOORDINATENSYSTEME
 70
0
 62
7
  6
CONTINUOUS
370
-3
390
F
  0
LAYER
  5
20B
100
AcDbSymbolTableRecord
100
AcDbLayerTableRecord
  2
_30_VOLUMEN
 70
0
 62
7
  6
CONTINUOUS
370
-3
390
F
  0
ENDTAB
  0
TABLE
  2
STYLE
  5
3
100
AcDbSymbolTable
 70
1
  0
STYLE
  5
11
100
AcDbSymbolTableRecord
100
AcDbTextStyleTableRecord
  2
STANDARD
 70
0
 40
0.0
 41
0.7
 50
0.0
 71
0
 42
0.2
  3
SIMPLEX.SHX
  4

  0
STYLE
  5
20C
100
AcDbSymbolTableRecord
100
AcDbTextStyleTableRecord
  2
TEXTSTYLE_1
 70
0
 40
0.0
 41
0.8
 50
0.0
 71
0
 42
0.2
  3
gdt
  4

  0
ENDTAB
  0
TABLE
  2
VIEW
  5
6
100
AcDbSymbolTable
 70
0
  0
ENDTAB
  0
TABLE
  2
UCS
  5
7
100
AcDbSymbolTable
 70
0
  0
ENDTAB
  0
TABLE
  2
APPID
  5
9
100
AcDbSymbolTable
 70
1
  0
APPID
  5
20D
100
AcDbSymbolTableRecord
100
AcDbRegAppTableRecord
  2
ACAD
 70
0
  0
ENDTAB
  0
TABLE
  2
BLOCK_RECORD
  5
1
100
AcDbSymbolTable
 70
0
  0
BLOCK_RECORD
  5
20E
100
AcDbSymbolTableRecord
100
AcDbBlockTableRecord
  2
*Model_Space
  0
BLOCK_RECORD
  5
20F
100
AcDbSymbolTableRecord
100
AcDbBlockTableRecord
  2
*Paper_Space
  0
BLOCK_RECORD
  5
210
100
AcDbSymbolTableRecord
100
AcDbBlockTableRecord
  2
_FILLED
  0
BLOCK_RECORD
  5
211
100
AcDbSymbolTableRecord
100
AcDbBlockTableRecord
  2
*D0
  0
BLOCK_RECORD
  5
212
100
AcDbSymbolTableRecord
100
AcDbBlockTableRecord
  2
*D1
  0
BLOCK_RECORD
  5
213
100
AcDbSymbolTableRecord
100
AcDbBlockTableRecord
  2
*D2
  0
ENDTAB
  0
TABLE
  2
DIMSTYLE
  5
A
100
AcDbSymbolTable
 70
1
100
AcDbDimStyleTable
 71
0
  0
DIMSTYLE
105
214
100
AcDbSymbolTableRecord
100
AcDbDimStyleTableRecord
  2
STANDARD
 70
0
  3

  4

 40
1.0
 41
3.5
 42
0.0
 43
0.38
 44
1.5
 45
0.0
 46
0.0
 47
0.05
 48
0.05
140
3.5
141
0.09
142
0.0
143
25.4
144
1.0
145
0.0
146
1.0
147
0.625
 71
1.0
 72
0.0
 73
0
 74
0
 75
0
 76
0
 77
1
 78
8
 79
2
170
0
171
1
172
0
173
0
174
0
175
0
176
0
177
0
178
2
270
2
179
2
271
2
272
2
273
2
274
2
275
0
280
0
281
0
282
0
283
1
284
8
285
0
286
0
287
3
288
0
340
11
278
46
341
210
342
210
343
210
344
210
  0
DIMSTYLE
105
215
100
AcDbSymbolTableRecord
100
AcDbDimStyleTableRecord
  2
DIMSTYLE_1
 70
0
  3

  4

 40
1.0
 41
3.5
 42
0.0
 43
0.38
 44
1.5
 45
0.0
 46
0.0
 47
0.2
 48
0.2
140
3.5
141
0.09
142
0.0
143
25.4
144
1.0
145
0.0
146
1.0
147
0.875
 71
0.0
 72
0.0
 73
0
 74
0
 75
0
 76
0
 77
1
 78
8
 79
2
170
0
171
1
172
0
173
0
174
0
175
0
176
0
177
0
178
2
270
2
179
2
271
2
272
2
273
2
274
2
275
0
280
0
281
0
282
0
283
1
284
8
285
0
286
0
287
3
288
0
340
11
278
46
341
210
342
210
343
210
344
210
  0
DIMSTYLE
105
216
100
AcDbSymbolTableRecord
100
AcDbDimStyleTableRecord
  2
DIMSTYLE_2
 70
0
  3

  4

 40
1.0
 41
3.5
 42
0.0
 43
0.38
 44
1.5
 45
0.0
 46
0.0
 47
0.5
 48
0.5
140
3.5
141
0.09
142
0.0
143
25.4
144
1.0
145
0.0
146
1.0
147
0.875
 71
0.0
 72
0.0
 73
0
 74
0
 75
0
 76
0
 77
1
 78
8
 79
2
170
0
171
1
172
0
173
0
174
0
175
0
176
0
177
0
178
2
270
2
179
2
271
2
272
2
273
2
274
2
275
0
280
0
281
0
282
0
283
1
284
8
285
0
286
0
287
3
288
0
340
11
278
46
341
210
342
210
343
210
344
210
  0
ENDTAB
  0
ENDSEC
  0
SECTION
  2
BLOCKS
  0
BLOCK
  5
20
100
AcDbEntity
  8
0
100
AcDbBlockBegin
  2
*Model_Space
 70
0
 10
0.0
 20
0.0
 30
0.0
  3
*Model_Space
  1

  0
ENDBLK
  5
21
100
AcDbEntity
  8
0
100
AcDbBlockEnd
  0
BLOCK
  5
1C
100
AcDbEntity
  8
0
100
AcDbBlockBegin
  2
*Paper_Space
 70
0
 10
0.0
 20
0.0
 30
0.0
  3
*Paper_Space
  1

  0
ENDBLK
  5
1D
100
AcDbEntity
  8
0
100
AcDbBlockEnd
  0
BLOCK
  5
217
100
AcDbEntity
  8
0
100
AcDbBlockBegin
  2
_FILLED
 70
64
 10
0.0
 20
0.0
  3
_FILLED
  1

  0
SOLID
  5
218
100
AcDbEntity
  8
0
  6
BYBLOCK
 62
0
100
AcDbTrace
 10
0.0
 20
0.0
 11
-1.0
 21
0.125
 12
-1.0
 22
-0.125
 13
-1.0
 23
-0.125
  0
ENDBLK
  5
219
100
AcDbEntity
  8
0
  6
BYBLOCK
 62
0
100
AcDbBlockEnd
  0
BLOCK
  5
21A
100
AcDbEntity
  8
_03_2D_ZEICHNUNG_BEMASSUNGEN
100
AcDbBlockBegin
 62
7
  6
CONTINUOUS
  2
*D0
 70
65
 10
0.0
 20
0.0
  3
*D0
  1

  0
TEXT
  5
21B
100
AcDbEntity
  8
_03_2D_ZEICHNUNG_BEMASSUNGEN
100
AcDbText
 62
2
  6
CONTINUOUS
 10
-9.875
 20
-12.75
  7
STANDARD
 40
3.5
  1
20
 50
90.0
 41
0.7857142857
 72
1
 11
-9.875
 21
-10.0
100
AcDbText
  0
LINE
  5
21C
100
AcDbEntity
  8
_03_2D_ZEICHNUNG_BEMASSUNGEN
100
AcDbLine
 62
7
  6
CONTINUOUS
 10
-0.0
 20
-0.0
 11
-10.5
 21
0.0
  0
LINE
  5
21D
100
AcDbEntity
  8
_03_2D_ZEICHNUNG_BEMASSUNGEN
100
AcDbLine
 62
7
  6
CONTINUOUS
 10
-0.0
 20
-20.0
 11
-10.5
 21
-20.0
  0
LINE
  5
21E
100
AcDbEntity
  8
_03_2D_ZEICHNUNG_BEMASSUNGEN
100
AcDbLine
 62
7
  6
CONTINUOUS
 10
-9.0
 20
0.0
 11
-9.0
 21
6.0
  0
LINE
  5
21F
100
AcDbEntity
  8
_03_2D_ZEICHNUNG_BEMASSUNGEN
100
AcDbLine
 62
7
  6
CONTINUOUS
 10
-9.0
 20
6.0
 11
-9.0
 21
-10.0
  0
LINE
  5
220
100
AcDbEntity
  8
_03_2D_ZEICHNUNG_BEMASSUNGEN
100
AcDbLine
 62
7
  6
CONTINUOUS
 10
-9.0
 20
-20.0
 11
-9.0
 21
-26.0
  0
LINE
  5
221
100
AcDbEntity
  8
_03_2D_ZEICHNUNG_BEMASSUNGEN
100
AcDbLine
 62
7
  6
CONTINUOUS
 10
-9.0
 20
-26.0
 11
-9.0
 21
-10.0
  0
INSERT
  5
222
100
AcDbEntity
  8
_03_2D_ZEICHNUNG_BEMASSUNGEN
100
AcDbBlockReference
 62
7
  6
CONTINUOUS
  2
_FILLED
 10
-9.0
 20
0.0
 41
3.5
 42
3.5
 43
3.5
 50
270.0
  0
INSERT
  5
223
100
AcDbEntity
  8
_03_2D_ZEICHNUNG_BEMASSUNGEN
100
AcDbBlockReference
 62
7
  6
CONTINUOUS
  2
_FILLED
 10
-9.0
 20
-20.0
 41
3.5
 42
3.5
 43
3.5
 50
90.0
  0
ENDBLK
  5
224
100
AcDbEntity
  8
0
  6
BYBLOCK
 62
0
100
AcDbBlockEnd
  0
BLOCK
  5
225
100
AcDbEntity
  8
_03_2D_ZEICHNUNG_BEMASSUNGEN
100
AcDbBlockBegin
 62
7
  6
CONTINUOUS
  2
*D1
 70
65
 10
0.0
 20
0.0
  3
*D1
  1

  0
TEXT
  5
226
100
AcDbEntity
  8
_03_2D_ZEICHNUNG_BEMASSUNGEN
100
AcDbText
 62
2
  6
CONTINUOUS
 10
58.875
 20
9.875
  7
STANDARD
 40
3.5
  1
125
 41
0.6904761905
 72
1
 11
62.5
 21
9.875
100
AcDbText
  0
LINE
  5
227
100
AcDbEntity
  8
_03_2D_ZEICHNUNG_BEMASSUNGEN
100
AcDbLine
 62
7
  6
CONTINUOUS
 10
125.0
 20
0.0
 11
125.0
 21
10.5
  0
LINE
  5
228
100
AcDbEntity
  8
_03_2D_ZEICHNUNG_BEMASSUNGEN
100
AcDbLine
 62
7
  6
CONTINUOUS
 10
0.0
 20
0.0
 11
0.0
 21
10.5
  0
LINE
  5
229
100
AcDbEntity
  8
_03_2D_ZEICHNUNG_BEMASSUNGEN
100
AcDbLine
 62
7
  6
CONTINUOUS
 10
125.0
 20
9.0
 11
62.5
 21
9.0
  0
LINE
  5
22A
100
AcDbEntity
  8
_03_2D_ZEICHNUNG_BEMASSUNGEN
100
AcDbLine
 62
7
  6
CONTINUOUS
 10
0.0
 20
9.0
 11
62.5
 21
9.0
  0
INSERT
  5
22B
100
AcDbEntity
  8
_03_2D_ZEICHNUNG_BEMASSUNGEN
100
AcDbBlockReference
 62
7
  6
CONTINUOUS
  2
_FILLED
 10
125.0
 20
9.0
 41
3.5
 42
3.5
 43
3.5
  0
INSERT
  5
22C
100
AcDbEntity
  8
_03_2D_ZEICHNUNG_BEMASSUNGEN
100
AcDbBlockReference
 62
7
  6
CONTINUOUS
  2
_FILLED
 10
0.0
 20
9.0
 41
3.5
 42
3.5
 43
3.5
 50
180.0
  0
ENDBLK
  5
22D
100
AcDbEntity
  8
0
  6
BYBLOCK
 62
0
100
AcDbBlockEnd
  0
BLOCK
  5
22E
100
AcDbEntity
  8
_03_2D_ZEICHNUNG_BEMASSUNGEN
100
AcDbBlockBegin
 62
7
  6
CONTINUOUS
  2
*D2
 70
65
 10
0.0
 20
0.0
  3
*D2
  1

  0
TEXT
  5
22F
100
AcDbEntity
  8
_03_2D_ZEICHNUNG_BEMASSUNGEN
100
AcDbText
 62
2
  6
CONTINUOUS
 10
133.125
 20
-12.75
  7
STANDARD
 40
3.5
  1
20
 50
90.0
 41
0.7857142857
 72
1
 11
133.125
 21
-10.0
100
AcDbText
  0
LINE
  5
230
100
AcDbEntity
  8
_03_2D_ZEICHNUNG_BEMASSUNGEN
100
AcDbLine
 62
7
  6
CONTINUOUS
 10
125.0
 20
-20.0
 11
135.5
 21
-20.0
  0
LINE
  5
231
100
AcDbEntity
  8
_03_2D_ZEICHNUNG_BEMASSUNGEN
100
AcDbLine
 62
7
  6
CONTINUOUS
 10
0.0
 20
0.0
 11
135.5
 21
0.0
  0
LINE
  5
232
100
AcDbEntity
  8
_03_2D_ZEICHNUNG_BEMASSUNGEN
100
AcDbLine
 62
7
  6
CONTINUOUS
 10
134.0
 20
-20.0
 11
134.0
 21
-10.0
  0
LINE
  5
233
100
AcDbEntity
  8
_03_2D_ZEICHNUNG_BEMASSUNGEN
100
AcDbLine
 62
7
  6
CONTINUOUS
 10
134.0
 20
0.0
 11
134.0
 21
-10.0
  0
INSERT
  5
234
100
AcDbEntity
  8
_03_2D_ZEICHNUNG_BEMASSUNGEN
100
AcDbBlockReference
 62
7
  6
CONTINUOUS
  2
_FILLED
 10
134.0
 20
-20.0
 41
3.5
 42
3.5
 43
3.5
 50
270.0
  0
INSERT
  5
235
100
AcDbEntity
  8
_03_2D_ZEICHNUNG_BEMASSUNGEN
100
AcDbBlockReference
 62
7
  6
CONTINUOUS
  2
_FILLED
 10
134.0
 20
0.0
 41
3.5
 42
3.5
 43
3.5
 50
90.0
  0
ENDBLK
  5
236
100
AcDbEntity
  8
0
  6
BYBLOCK
 62
0
100
AcDbBlockEnd
  0
ENDSEC
  0
SECTION
  2
ENTITIES
  0
DIMENSION
  5
237
100
AcDbEntity
  8
_03_2D_ZEICHNUNG_BEMASSUNGEN
100
AcDbDimension
 62
7
  6
CONTINUOUS
  2
*D0
 10
-9.0
 20
-20.0
 11
-9.0
 21
-10.5000001526
 70
160
 71
2
 42
20.0
  3
DIMSTYLE_1
100
AcDbAlignedDimension
 13
-0.0
 23
-0.0
 14
-0.0
 24
-20.0
 50
270.0
100
AcDbRotatedDimension
  0
DIMENSION
  5
238
100
AcDbEntity
  8
_03_2D_ZEICHNUNG_BEMASSUNGEN
100
AcDbDimension
 62
7
  6
CONTINUOUS
  2
*D1
 10
0.0
 20
9.0
 11
62.0000006104
 21
9.0
 70
160
 71
2
 42
125.0
  3
DIMSTYLE_2
100
AcDbAlignedDimension
 13
125.0
 23
0.0
 14
0.0
 24
0.0
 50
180.0
100
AcDbRotatedDimension
  0
DIMENSION
  5
239
100
AcDbEntity
  8
_03_2D_ZEICHNUNG_BEMASSUNGEN
100
AcDbDimension
 62
7
  6
CONTINUOUS
  2
*D2
 10
134.0
 20
0.0
 11
134.0
 21
-10.5000009155
 70
160
 71
2
 42
20.0
  3
DIMSTYLE_1
100
AcDbAlignedDimension
 13
125.0
 23
-20.0
 14
0.0
 24
0.0
 50
90.0
100
AcDbRotatedDimension
  0
LINE
  5
23A
100
AcDbEntity
  8
_30_VOLUMEN
100
AcDbLine
 62
4
  6
CONTINUOUS
 10
-0.0
 20
-19.5
 11
-0.0
 21
-0.5
  0
LINE
  5
23B
100
AcDbEntity
  8
_30_VOLUMEN
100
AcDbLine
 62
4
  6
CONTINUOUS
 10
0.5
 20
-20.0
 11
0.5
 21
-0.0
  0
LINE
  5
23C
100
AcDbEntity
  8
_30_VOLUMEN
100
AcDbLine
 62
4
  6
CONTINUOUS
 10
-0.0
 20
-0.5
 11
0.5
 21
-0.0
  0
LINE
  5
23D
100
AcDbEntity
  8
_30_VOLUMEN
100
AcDbLine
 62
4
  6
CONTINUOUS
 10
-0.0
 20
-19.5
 11
0.5
 21
-20.0
  0
LINE
  5
23E
100
AcDbEntity
  8
0
100
AcDbLine
 62
4
  6
CONTINUOUS
 10
103.7378799708
 20
-20.0
 11
103.7
 21
-20.0
  0
LINE
  5
23F
100
AcDbEntity
  8
_30_VOLUMEN
100
AcDbLine
 62
4
  6
CONTINUOUS
 10
0.5
 20
-20.0
 11
103.7
 21
-20.0
  0
LINE
  5
240
100
AcDbEntity
  8
_30_VOLUMEN
100
AcDbLine
 62
4
  6
CONTINUOUS
 10
103.7378799708
 20
-20.0
 11
110.25
 21
-20.0
  0
LINE
  5
241
100
AcDbEntity
  8
_26_BEZUGSACHSEN
100
AcDbLine
 62
4
  6
CONTINUOUS
 10
113.3101211874
 20
-19.337366338
 11
113.4439054849
 21
-19.3443776759
  0
LINE
  5
242
100
AcDbEntity
  8
_21_KURVEN
100
AcDbLine
 62
7
  6
CONTINUOUS
 10
123.4739986402
 20
-19.9154671727
 11
113.8672514743
 21
-19.3833015267
  0
LINE
  5
243
100
AcDbEntity
  8
_30_VOLUMEN
100
AcDbLine
 62
4
  6
CONTINUOUS
 10
124.847399864
 20
-19.9915467173
 11
113.4950734024
 21
-19.3626847268
  0
LINE
  5
244
100
AcDbEntity
  8
_26_BEZUGSACHSEN
100
AcDbLine
 62
4
  6
CONTINUOUS
 10
107.4114532356
 20
-9.5003102955
 11
118.8971225602
 21
-10.1365588123
  0
LINE
  5
245
100
AcDbEntity
  8
_21_KURVEN
100
AcDbLine
 62
7
  6
CONTINUOUS
 10
108.9374545954
 20
-9.5848431228
 11
118.5442017613
 21
-10.1170087688
  0
LINE
  5
246
100
AcDbEntity
  8
_30_VOLUMEN
100
AcDbLine
 62
4
  6
CONTINUOUS
 10
107.5640533716
 20
-9.5087635782
 11
118.9163798333
 21
-10.1376255687
  0
LINE
  5
247
100
AcDbEntity
  8
_30_VOLUMEN
100
AcDbLine
 62
4
  6
CONTINUOUS
 10
112.685431331
 20
0.0
 11
103.7590407356
 21
0.0
  0
LINE
  5
248
100
AcDbEntity
  8
0
100
AcDbLine
 62
4
  6
CONTINUOUS
 10
103.7590407356
 20
0.0
 11
103.7
 21
0.0
  0
LINE
  5
249
100
AcDbEntity
  8
_30_VOLUMEN
100
AcDbLine
 62
4
  6
CONTINUOUS
 10
0.5
 20
-0.0
 11
103.7
 21
0.0
  0
LINE
  5
24A
100
AcDbEntity
  8
_30_VOLUMEN
100
AcDbLine
 62
4
  6
CONTINUOUS
 10
118.9209735037
 20
-10.1299043028
 11
118.906281737
 21
-10.1211636201
  0
LINE
  5
24B
100
AcDbEntity
  8
_28_BEZUGSPUNKTE
100
AcDbLine
 62
1
  6
CONTINUOUS
 10
125.15625
 20
-20.15625
 11
124.84375
 21
-19.84375
  0
LINE
  5
24C
100
AcDbEntity
  8
0
100
AcDbLine
 62
4
  6
CONTINUOUS
 10
103.7
 20
0.0
 11
103.7
 21
-20.0
  0
LINE
  5
24D
100
AcDbEntity
  8
0
100
AcDbLine
 62
4
  6
CONTINUOUS
 10
103.7590407356
 20
0.0
 11
103.7378799708
 21
-20.0
  0
LINE
  5
24E
100
AcDbEntity
  8
_21_KURVEN
100
AcDbLine
 62
7
  6
CONTINUOUS
 10
113.2373158699
 20
-19.0072540641
 11
108.2100228145
 21
-10.80345741
  0
LINE
  5
24F
100
AcDbEntity
  8
_30_VOLUMEN
100
AcDbLine
 62
4
  6
CONTINUOUS
 10
113.4320798419
 20
-19.3250799805
 11
107.4913101935
 21
-9.6306250069
  0
LINE
  5
250
100
AcDbEntity
  8
_26_BEZUGSACHSEN
100
AcDbLine
 62
4
  6
CONTINUOUS
 10
113.4439054849
 20
-19.3443776759
 11
107.4114532356
 21
-9.5003102955
  0
LINE
  5
251
100
AcDbEntity
  8
_26_BEZUGSACHSEN
100
AcDbLine
 62
4
  6
CONTINUOUS
 10
112.685431331
 20
0.0
 11
118.8971225602
 21
-10.1365588123
  0
LINE
  5
252
100
AcDbEntity
  8
_21_KURVEN
100
AcDbLine
 62
7
  6
CONTINUOUS
 10
119.1741373658
 20
-10.4930562313
 11
124.2014304211
 21
-18.6968528854
  0
LINE
  5
253
100
AcDbEntity
  8
_30_VOLUMEN
100
AcDbLine
 62
4
  6
CONTINUOUS
 10
118.9793733937
 20
-10.175230315
 11
124.9201430421
 21
-19.8696852885
  0
LINE
  5
254
100
AcDbEntity
  8
_28_BEZUGSPUNKTE
100
AcDbLine
 62
1
  6
CONTINUOUS
 10
125.15625
 20
-19.84375
 11
124.84375
 21
-20.15625
  0
ARC
  5
255
100
AcDbEntity
  8
_30_VOLUMEN
100
AcDbCircle
 62
4
  6
CONTINUOUS
 10
113.0001892006
 20
-25.3033824234
 40
5.9740610784
100
AcDbArc
 50
87.0261820152
 51
117.4100207554
  0
ARC
  5
256
100
AcDbEntity
  8
_30_VOLUMEN
100
AcDbCircle
 62
4
  6
CONTINUOUS
 10
115.7159446677
 20
-14.4721103026
 40
1.8934629882
100
AcDbArc
 50
245.4611622645
 51
249.8302113616
  0
ARC
  5
257
100
AcDbEntity
  8
_30_VOLUMEN
100
AcDbCircle
 62
4
  6
CONTINUOUS
 10
115.7502088025
 20
-14.4221857438
 40
1.8559370876
100
AcDbArc
 50
53.066590749
 51
54.135115963
  0
ARC
  5
258
100
AcDbEntity
  8
_30_VOLUMEN
100
AcDbCircle
 62
4
  6
CONTINUOUS
 10
113.4994928675
 20
-19.2835932834
 40
0.0792148223
100
AcDbArc
 50
257.4830858247
 51
266.8017570514
  0
ARC
  5
259
100
AcDbEntity
  8
_30_VOLUMEN
100
AcDbCircle
 62
4
  6
CONTINUOUS
 10
113.4993256866
 20
-19.2840024385
 40
0.0787805422
100
AcDbArc
 50
211.5677684878
 51
239.2483536238
  0
SPLINE
  5
25A
100
AcDbEntity
  8
_30_VOLUMEN
100
AcDbSpline
 62
4
  6
CONTINUOUS
 70
0
 71
3
 72
11
 73
7
 74
0
 42
0.0000001
 43
0.0000001
 44
0.0000000001
 40
0.0
 40
0.0
 40
0.0
 40
0.0
 40
0.2491825162
 40
0.4999960579
 40
0.7508123145
 40
1.0
 40
1.0
 40
1.0
 40
1.0
 10
124.847399864
 20
-19.9915467173
 30
0.0
 10
124.8616577875
 20
-19.9923365348
 30
0.0
 10
124.8912231448
 20
-19.9856551105
 30
0.0
 10
124.9240238831
 20
-19.9546448549
 30
0.0
 10
124.9357534549
 20
-19.9110563262
 30
0.0
 10
124.9276043629
 20
-19.8818610574
 30
0.0
 10
124.9201430421
 20
-19.8696852885
 30
0.0
  0
SPLINE
  5
25B
100
AcDbEntity
  8
_30_VOLUMEN
100
AcDbSpline
 62
4
  6
CONTINUOUS
 70
0
 71
3
 72
8
 73
4
 74
0
 42
0.0000001
 43
0.0000001
 44
0.0000000001
 40
0.0
 40
0.0
 40
0.0
 40
0.0
 40
1.0
 40
1.0
 40
1.0
 40
1.0
 10
118.9793733937
 20
-10.175230315
 30
0.0
 10
118.9727734645
 20
-10.1644602093
 30
0.0
 10
118.9632650187
 20
-10.1550628914
 30
0.0
 10
118.952409441
 20
-10.1486045113
 30
0.0
  0
SPLINE
  5
25C
100
AcDbEntity
  8
_30_VOLUMEN
100
AcDbSpline
 62
4
  6
CONTINUOUS
 70
0
 71
3
 72
9
 73
5
 74
0
 42
0.0000001
 43
0.0000001
 44
0.0000000001
 40
0.0
 40
0.0
 40
0.0
 40
0.0
 40
0.5008228839
 40
1.0
 40
1.0
 40
1.0
 40
1.0
 10
116.7131894406
 20
-16.0785125158
 30
0.0
 10
116.4716992173
 20
-16.2284141953
 30
0.0
 10
115.9144013041
 20
-16.4212874014
 30
0.0
 10
115.3289996917
 20
-16.347132725
 30
0.0
 10
115.0630723901
 20
-16.2494566045
 30
0.0
  0
SPLINE
  5
25D
100
AcDbEntity
  8
_30_VOLUMEN
100
AcDbSpline
 62
4
  6
CONTINUOUS
 70
0
 71
3
 72
8
 73
4
 74
0
 42
0.0000001
 43
0.0000001
 44
0.0000000001
 40
0.0
 40
0.0
 40
0.0
 40
0.0
 40
1.0
 40
1.0
 40
1.0
 40
1.0
 10
113.4590437947
 20
-19.3517057841
 30
0.0
 10
113.4662170008
 20
-19.3559733867
 30
0.0
 10
113.4741761181
 20
-19.359118097
 30
0.0
 10
113.4823248122
 20
-19.3609253334
 30
0.0
  0
SPLINE
  5
25E
100
AcDbEntity
  8
_30_VOLUMEN
100
AcDbSpline
 62
4
  6
CONTINUOUS
 70
0
 71
3
 72
11
 73
7
 74
0
 42
0.0000001
 43
0.0000001
 44
0.0000000001
 40
0.0
 40
0.0
 40
0.0
 40
0.0
 40
0.253692833
 40
0.5047463942
 40
0.7533368335
 40
1.0
 40
1.0
 40
1.0
 40
1.0
 10
115.058324478
 20
-13.0327843359
 30
0.0
 10
115.2046184368
 20
-12.9419744067
 30
0.0
 10
115.5219967715
 20
-12.8003860439
 30
0.0
 10
116.0337654751
 20
-12.7234989695
 30
0.0
 10
116.5423610806
 20
-12.7883396272
 30
0.0
 10
116.8566525676
 20
-12.9207691421
 30
0.0
 10
117.0005307929
 20
-13.0063676911
 30
0.0
  0
SPLINE
  5
25F
100
AcDbEntity
  8
_30_VOLUMEN
100
AcDbSpline
 62
4
  6
CONTINUOUS
 70
0
 71
3
 72
15
 73
11
 74
0
 42
0.0000001
 43
0.0000001
 44
0.0000000001
 40
0.0
 40
0.0
 40
0.0
 40
0.0
 40
0.1244961227
 40
0.2491138135
 40
0.3739427922
 40
0.4989798029
 40
0.6241613998
 40
0.7494465411
 40
0.8749476046
 40
1.0
 40
1.0
 40
1.0
 40
1.0
 10
116.8654161957
 20
-12.9386713546
 30
0.0
 10
116.9877167978
 20
-13.0306077985
 30
0.0
 10
117.2107447335
 20
-13.2456012585
 30
0.0
 10
117.4568483062
 20
-13.6388605063
 30
0.0
 10
117.6013116056
 20
-14.0807216985
 30
0.0
 10
117.6346652237
 20
-14.5449770028
 30
0.0
 10
117.5563586912
 20
-15.0042991846
 30
0.0
 10
117.369897703
 20
-15.4321200726
 30
0.0
 10
117.0863673631
 20
-15.8021525786
 30
0.0
 10
116.8437645993
 20
-15.9974598119
 30
0.0
 10
116.7131894406
 20
-16.0785125158
 30
0.0
  0
SPLINE
  5
260
100
AcDbEntity
  8
_30_VOLUMEN
100
AcDbSpline
 62
4
  6
CONTINUOUS
 70
0
 71
3
 72
11
 73
7
 74
0
 42
0.0000001
 43
0.0000001
 44
0.0000000001
 40
0.0
 40
0.0
 40
0.0
 40
0.0
 40
0.2444819235
 40
0.493177395
 40
0.7463705531
 40
1.0
 40
1.0
 40
1.0
 40
1.0
 10
115.052504135
 20
-16.280706119
 30
0.0
 10
114.7829949968
 20
-16.1203650311
 30
0.0
 10
114.3157719837
 20
-15.6455226392
 30
0.0
 10
114.0621840577
 20
-14.6792982763
 30
0.0
 10
114.3104338588
 20
-13.6997188913
 30
0.0
 10
114.7819144214
 20
-13.2043620136
 30
0.0
 10
115.058324478
 20
-13.0327843359
 30
0.0
  0
SPLINE
  5
261
100
AcDbEntity
  8
_30_VOLUMEN
100
AcDbSpline
 62
4
  6
CONTINUOUS
 70
0
 71
3
 72
15
 73
11
 74
0
 42
0.0000001
 43
0.0000001
 44
0.0000000001
 40
0.0
 40
0.0
 40
0.0
 40
0.0
 40
0.1250938133
 40
0.2498577087
 40
0.3744297651
 40
0.49906116
 40
0.6239680432
 40
0.7492044675
 40
0.8746317147
 40
1.0
 40
1.0
 40
1.0
 40
1.0
 10
117.4346663796
 20
-16.7556025714
 30
0.0
 10
117.1740445852
 20
-16.917379906
 30
0.0
 10
116.5834136802
 20
-17.1404629276
 30
0.0
 10
115.6426204718
 20
-17.1088299648
 30
0.0
 10
114.7860729894
 20
-16.7181309229
 30
0.0
 10
114.1465520897
 20
-16.0270804311
 30
0.0
 10
113.8210526306
 20
-15.1420471204
 30
0.0
 10
113.8589194218
 20
-14.1979027438
 30
0.0
 10
114.2521577818
 20
-13.3388470981
 30
0.0
 10
114.7155932236
 20
-12.9068400192
 30
0.0
 10
114.976786856
 20
-12.7447077241
 30
0.0
  0
SPLINE
  5
262
100
AcDbEntity
  8
_30_VOLUMEN
100
AcDbSpline
 62
7
  6
CONTINUOUS
 70
0
 71
3
 72
11
 73
7
 74
0
 42
0.0000001
 43
0.0000001
 44
0.0000000001
 40
0.0
 40
0.0
 40
0.0
 40
0.0
 40
0.2501987407
 40
0.5008641071
 40
0.7505797782
 40
1.0
 40
1.0
 40
1.0
 40
1.0
 10
117.0164245448
 20
-16.258918445
 30
0.0
 10
116.8705494461
 20
-16.3494683728
 30
0.0
 10
116.5519618236
 20
-16.4910826187
 30
0.0
 10
116.0365625662
 20
-16.5688343902
 30
0.0
 10
115.5197574599
 20
-16.5035925771
 30
0.0
 10
115.1997198338
 20
-16.3680175352
 30
0.0
 10
115.0526482039
 20
-16.2804641109
 30
0.0
  0
SPLINE
  5
263
100
AcDbEntity
  8
_30_VOLUMEN
100
AcDbSpline
 62
4
  6
CONTINUOUS
 70
0
 71
3
 72
15
 73
11
 74
0
 42
0.0000001
 43
0.0000001
 44
0.0000000001
 40
0.0
 40
0.0
 40
0.0
 40
0.0
 40
0.1250587146
 40
0.2498871937
 40
0.3744343751
 40
0.4990610949
 40
0.623963437
 40
0.749174658
 40
0.8746667172
 40
1.0
 40
1.0
 40
1.0
 40
1.0
 10
117.3729128663
 20
-16.6884604708
 30
0.0
 10
117.1185966499
 20
-16.846323706
 30
0.0
 10
116.5419833491
 20
-17.0637979255
 30
0.0
 10
115.623606017
 20
-17.033462556
 30
0.0
 10
114.7877524869
 20
-16.6514555111
 30
0.0
 10
114.1633209897
 20
-15.9772730986
 30
0.0
 10
113.8460019252
 20
-15.1133770476
 30
0.0
 10
113.8822898115
 20
-14.1917060105
 30
0.0
 10
114.2666427693
 20
-13.3533620701
 30
0.0
 10
114.7187993431
 20
-12.9314681657
 30
0.0
 10
114.9736739145
 20
-12.7732583394
 30
0.0
  0
SPLINE
  5
264
100
AcDbEntity
  8
_30_VOLUMEN
100
AcDbSpline
 62
7
  6
CONTINUOUS
 70
0
 71
3
 72
15
 73
11
 74
0
 42
0.0000001
 43
0.0000001
 44
0.0000000001
 40
0.0
 40
0.0
 40
0.0
 40
0.0
 40
0.1249948854
 40
0.2506096509
 40
0.3759449061
 40
0.5010908823
 40
0.6261199677
 40
0.7508994868
 40
0.8755010195
 40
1.0
 40
1.0
 40
1.0
 40
1.0
 10
117.0164245448
 20
-16.258918445
 30
0.0
 10
117.1540477554
 20
-16.1734907614
 30
0.0
 10
117.4086529867
 20
-15.9653141092
 30
0.0
 10
117.7005928163
 20
-15.5690418902
 30
0.0
 10
117.8822172039
 20
-15.1108594006
 30
0.0
 10
117.9422395942
 20
-14.6226908229
 30
0.0
 10
117.877682596
 20
-14.1356846914
 30
0.0
 10
117.6911766635
 20
-13.6819136616
 30
0.0
 10
117.3966106243
 20
-13.2907116533
 30
0.0
 10
117.1390196657
 20
-13.0891394759
 30
0.0
 10
117.000386724
 20
-13.0066096992
 30
0.0
  0
SPLINE
  5
265
100
AcDbEntity
  8
_30_VOLUMEN
100
AcDbSpline
 62
4
  6
CONTINUOUS
 70
0
 71
3
 72
15
 73
11
 74
0
 42
0.0000001
 43
0.0000001
 44
0.0000000001
 40
0.0
 40
0.0
 40
0.0
 40
0.0
 40
0.1253332828
 40
0.250825342
 40
0.376036563
 40
0.5009389051
 40
0.6255656249
 40
0.7501128063
 40
0.8749412854
 40
1.0
 40
1.0
 40
1.0
 40
1.0
 10
117.3729128663
 20
-16.6884604708
 30
0.0
 10
117.6277874377
 20
-16.5302506445
 30
0.0
 10
118.0799440114
 20
-16.10835674
 30
0.0
 10
118.4642969692
 20
-15.2700127997
 30
0.0
 10
118.5005848556
 20
-14.3483417626
 30
0.0
 10
118.1832657911
 20
-13.4844457116
 30
0.0
 10
117.5588342939
 20
-12.8102632991
 30
0.0
 10
116.7229807638
 20
-12.4282562542
 30
0.0
 10
115.8046034316
 20
-12.3979208846
 30
0.0
 10
115.2279901308
 20
-12.6153951041
 30
0.0
 10
114.9736739145
 20
-12.7732583394
 30
0.0
  0
SPLINE
  5
266
100
AcDbEntity
  8
_30_VOLUMEN
100
AcDbSpline
 62
4
  6
CONTINUOUS
 70
0
 71
3
 72
15
 73
11
 74
0
 42
0.0000001
 43
0.0000001
 44
0.0000000001
 40
0.0
 40
0.0
 40
0.0
 40
0.0
 40
0.1250938133
 40
0.2498577087
 40
0.3744297651
 40
0.49906116
 40
0.6239680432
 40
0.7492044675
 40
0.8746317147
 40
1.0
 40
1.0
 40
1.0
 40
1.0
 10
114.976786856
 20
-12.7447077241
 30
0.0
 10
115.2374086504
 20
-12.5829303895
 30
0.0
 10
115.8280395554
 20
-12.3598473678
 30
0.0
 10
116.7688327639
 20
-12.3914803307
 30
0.0
 10
117.6253802462
 20
-12.7821793725
 30
0.0
 10
118.2649011459
 20
-13.4732298644
 30
0.0
 10
118.590400605
 20
-14.3582631751
 30
0.0
 10
118.5525338138
 20
-15.3024075516
 30
0.0
 10
118.1592954538
 20
-16.1614631974
 30
0.0
 10
117.695860012
 20
-16.5934702763
 30
0.0
 10
117.4346663796
 20
-16.7556025714
 30
0.0
  0
SPLINE
  5
267
100
AcDbEntity
  8
_30_VOLUMEN
100
AcDbSpline
 62
4
  6
CONTINUOUS
 70
0
 71
3
 72
8
 73
4
 74
0
 42
0.0000001
 43
0.0000001
 44
0.0000000001
 40
0.0
 40
0.0
 40
0.0
 40
0.0
 40
1.0
 40
1.0
 40
1.0
 40
1.0
 10
118.952409441
 20
-10.1486045113
 30
0.0
 10
118.9416195222
 20
-10.1421851942
 30
0.0
 10
118.928915692
 20
-10.1383199924
 30
0.0
 10
118.9163798333
 20
-10.1376255687
 30
0.0
  0
SPLINE
  5
268
100
AcDbEntity
  8
_30_VOLUMEN
100
AcDbSpline
 62
4
  6
CONTINUOUS
 70
0
 71
3
 72
9
 73
5
 74
0
 42
0.0000001
 43
0.0000001
 44
0.0000000001
 40
0.0
 40
0.0
 40
0.0
 40
0.0
 40
0.499223624
 40
1.0
 40
1.0
 40
1.0
 40
1.0
 10
107.5640533716
 20
-9.5087635782
 30
0.0
 10
107.5410222366
 20
-9.5074877687
 30
0.0
 10
107.4911410891
 20
-9.5273675829
 30
0.0
 10
107.4770372254
 20
-9.5791105708
 30
0.0
 10
107.4807903557
 20
-9.6019423425
 30
0.0
  0
SPLINE
  5
269
100
AcDbEntity
  8
_30_VOLUMEN
100
AcDbSpline
 62
4
  6
CONTINUOUS
 70
0
 71
3
 72
8
 73
4
 74
0
 42
0.0000001
 43
0.0000001
 44
0.0000000001
 40
0.0
 40
0.0
 40
0.0
 40
0.0
 40
1.0
 40
1.0
 40
1.0
 40
1.0
 10
107.4807903557
 20
-9.6019423425
 30
0.0
 10
107.4824421963
 20
-9.6119911403
 30
0.0
 10
107.4859892462
 20
-9.6219420101
 30
0.0
 10
107.4913101935
 20
-9.6306250069
 30
0.0
  0
SPLINE
  5
26A
100
AcDbEntity
  8
_21_KURVEN
100
AcDbSpline
 62
7
  6
CONTINUOUS
 70
0
 71
3
 72
36
 73
32
 74
0
 42
0.0000001
 43
0.0000001
 44
0.0000000001
 40
0.0
 40
0.0
 40
0.0
 40
0.0
 40
0.0625
 40
0.09375
 40
0.125
 40
0.1875
 40
0.21875
 40
0.25
 40
0.28125
 40
0.3125
 40
0.375
 40
0.40625
 40
0.4375
 40
0.453125
 40
0.46875
 40
0.5
 40
0.53125
 40
0.546875
 40
0.5625
 40
0.59375
 40
0.625
 40
0.6875
 40
0.71875
 40
0.75
 40
0.78125
 40
0.8125
 40
0.84375
 40
0.875
 40
0.90625
 40
0.9375
 40
1.0
 40
1.0
 40
1.0
 40
1.0
 10
108.9374545954
 20
-9.5848431228
 30
0.0
 10
108.9018820954
 20
-9.5863642759
 30
0.0
 10
108.8485946076
 20
-9.5897163381
 30
0.0
 10
108.7772595755
 20
-9.5899044243
 30
0.0
 10
108.7072318843
 20
-9.6121237182
 30
0.0
 10
108.6350028919
 20
-9.6228387054
 30
0.0
 10
108.5703228857
 20
-9.6571142441
 30
0.0
 10
108.5206231074
 20
-9.6793539254
 30
0.0
 10
108.4719079305
 20
-9.7036812221
 30
0.0
 10
108.4152392989
 20
-9.749896149
 30
0.0
 10
108.3546909594
 20
-9.7904240586
 30
0.0
 10
108.3074308887
 20
-9.8464266018
 30
0.0
 10
108.2773914432
 20
-9.8802838395
 30
0.0
 10
108.2512423826
 20
-9.9062474156
 30
0.0
 10
108.2339648599
 20
-9.9376153293
 30
0.0
 10
108.2102758893
 20
-9.9755578309
 30
0.0
 10
108.1879856045
 20
-10.014338631
 30
0.0
 10
108.1684701843
 20
-10.0443652671
 30
0.0
 10
108.1579032149
 20
-10.0796679327
 30
0.0
 10
108.1422094212
 20
-10.1221232774
 30
0.0
 10
108.1151069737
 20
-10.1902068888
 30
0.0
 10
108.1079110538
 20
-10.2627136999
 30
0.0
 10
108.0938841556
 20
-10.3344806771
 30
0.0
 10
108.0953713492
 20
-10.3889124477
 30
0.0
 10
108.0992971736
 20
-10.4432333394
 30
0.0
 10
108.0991058368
 20
-10.4981207174
 30
0.0
 10
108.1129445142
 20
-10.5508530289
 30
0.0
 10
108.1271656899
 20
-10.6032837551
 30
0.0
 10
108.1374680568
 20
-10.6572191414
 30
0.0
 10
108.1715948622
 20
-10.7215102499
 30
0.0
 10
108.1942611326
 20
-10.7708247136
 30
0.0
 10
108.2100228315
 20
-10.8034574377
 30
0.0
  0
SPLINE
  5
26B
100
AcDbEntity
  8
_21_KURVEN
100
AcDbSpline
 62
7
  6
CONTINUOUS
 70
0
 71
3
 72
9
 73
5
 74
0
 42
0.0000001
 43
0.0000001
 44
0.0000000001
 40
0.0
 40
0.0
 40
0.0
 40
0.0
 40
0.5
 40
1.0
 40
1.0
 40
1.0
 40
1.0
 10
119.1741373658
 20
-10.4930562313
 30
0.0
 10
119.1622654804
 20
-10.4742791292
 30
0.0
 10
119.134926763
 20
-10.4323579408
 30
0.0
 10
119.1025505696
 20
-10.3942335835
 30
0.0
 10
119.08520549
 20
-10.3744865473
 30
0.0
  0
SPLINE
  5
26C
100
AcDbEntity
  8
_21_KURVEN
100
AcDbSpline
 62
7
  6
CONTINUOUS
 70
0
 71
3
 72
9
 73
5
 74
0
 42
0.0000001
 43
0.0000001
 44
0.0000000001
 40
0.0
 40
0.0
 40
0.0
 40
0.0
 40
0.5
 40
1.0
 40
1.0
 40
1.0
 40
1.0
 10
119.0852054922
 20
-10.3744865498
 30
0.0
 10
119.0544530915
 20
-10.3424821261
 30
0.0
 10
118.9888827905
 20
-10.2780211382
 30
0.0
 10
118.9103183231
 20
-10.2303172247
 30
0.0
 10
118.8685575855
 20
-10.2066889075
 30
0.0
  0
SPLINE
  5
26D
100
AcDbEntity
  8
_21_KURVEN
100
AcDbSpline
 62
7
  6
CONTINUOUS
 70
0
 71
3
 72
10
 73
6
 74
0
 42
0.0000001
 43
0.0000001
 44
0.0000000001
 40
0.0
 40
0.0
 40
0.0
 40
0.0
 40
0.25
 40
0.5
 40
1.0
 40
1.0
 40
1.0
 40
1.0
 10
118.8685575834
 20
-10.2066889063
 30
0.0
 10
118.8611553344
 20
-10.2028921103
 30
0.0
 10
118.8472486967
 20
-10.195757022
 30
0.0
 10
118.8116238902
 20
-10.1790737346
 30
0.0
 10
118.7904509694
 20
-10.1708677234
 30
0.0
 10
118.7717963627
 20
-10.1637845314
 30
0.0
  0
SPLINE
  5
26E
100
AcDbEntity
  8
_21_KURVEN
100
AcDbSpline
 62
7
  6
CONTINUOUS
 70
0
 71
3
 72
8
 73
4
 74
0
 42
0.0000001
 43
0.0000001
 44
0.0000000001
 40
0.0
 40
0.0
 40
0.0
 40
0.0
 40
1.0
 40
1.0
 40
1.0
 40
1.0
 10
118.7717963601
 20
-10.1637845304
 30
0.0
 10
118.7561345161
 20
-10.1581564979
 30
0.0
 10
118.7321771943
 20
-10.15033245
 30
0.0
 10
118.7112714309
 20
-10.1443972141
 30
0.0
  0
SPLINE
  5
26F
100
AcDbEntity
  8
_21_KURVEN
100
AcDbSpline
 62
7
  6
CONTINUOUS
 70
0
 71
3
 72
9
 73
5
 74
0
 42
0.0000001
 43
0.0000001
 44
0.0000000001
 40
0.0
 40
0.0
 40
0.0
 40
0.0
 40
0.5
 40
1.0
 40
1.0
 40
1.0
 40
1.0
 10
118.7112714282
 20
-10.1443972133
 30
0.0
 10
118.6844048424
 20
-10.1374743321
 30
0.0
 10
118.6303418426
 20
-10.1245561252
 30
0.0
 10
118.5749677135
 20
-10.1193147099
 30
0.0
 10
118.544201761
 20
-10.1170087688
 30
0.0
  0
SPLINE
  5
270
100
AcDbEntity
  8
_21_KURVEN
100
AcDbSpline
 62
7
  6
CONTINUOUS
 70
0
 71
3
 72
36
 73
32
 74
0
 42
0.0000001
 43
0.0000001
 44
0.0000000001
 40
0.0
 40
0.0
 40
0.0
 40
0.0
 40
0.0625
 40
0.09375
 40
0.125
 40
0.1875
 40
0.21875
 40
0.25
 40
0.28125
 40
0.3125
 40
0.375
 40
0.40625
 40
0.4375
 40
0.453125
 40
0.46875
 40
0.5
 40
0.53125
 40
0.546875
 40
0.5625
 40
0.59375
 40
0.625
 40
0.6875
 40
0.71875
 40
0.75
 40
0.78125
 40
0.8125
 40
0.84375
 40
0.875
 40
0.90625
 40
0.9375
 40
1.0
 40
1.0
 40
1.0
 40
1.0
 10
123.4739986402
 20
-19.9154671727
 30
0.0
 10
123.5095711402
 20
-19.9139460195
 30
0.0
 10
123.562858628
 20
-19.9105939573
 30
0.0
 10
123.6341936602
 20
-19.9104058711
 30
0.0
 10
123.7042213513
 20
-19.8881865773
 30
0.0
 10
123.7764503437
 20
-19.87747159
 30
0.0
 10
123.8411303499
 20
-19.8431960513
 30
0.0
 10
123.8908301282
 20
-19.8209563701
 30
0.0
 10
123.9395453051
 20
-19.7966290733
 30
0.0
 10
123.9962139367
 20
-19.7504141465
 30
0.0
 10
124.0567622762
 20
-19.7098862369
 30
0.0
 10
124.104022347
 20
-19.6538836937
 30
0.0
 10
124.1340617924
 20
-19.620026456
 30
0.0
 10
124.160210853
 20
-19.5940628799
 30
0.0
 10
124.1774883757
 20
-19.5626949661
 30
0.0
 10
124.2011773464
 20
-19.5247524646
 30
0.0
 10
124.2234676311
 20
-19.4859716644
 30
0.0
 10
124.2429830513
 20
-19.4559450284
 30
0.0
 10
124.2535500207
 20
-19.4206423628
 30
0.0
 10
124.2692438144
 20
-19.3781870181
 30
0.0
 10
124.2963462619
 20
-19.3101034066
 30
0.0
 10
124.3035421819
 20
-19.2375965955
 30
0.0
 10
124.31756908
 20
-19.1658296184
 30
0.0
 10
124.3160818864
 20
-19.1113978477
 30
0.0
 10
124.312156062
 20
-19.0570769561
 30
0.0
 10
124.3123473989
 20
-19.0021895781
 30
0.0
 10
124.2985087214
 20
-18.9494572665
 30
0.0
 10
124.2842875457
 20
-18.8970265403
 30
0.0
 10
124.2739851788
 20
-18.843091154
 30
0.0
 10
124.2398583734
 20
-18.7788000456
 30
0.0
 10
124.217192103
 20
-18.7294855819
 30
0.0
 10
124.2014304042
 20
-18.6968528577
 30
0.0
  0
SPLINE
  5
271
100
AcDbEntity
  8
_21_KURVEN
100
AcDbSpline
 62
1
  6
CENTER
 70
0
 71
3
 72
131
 73
127
 74
0
 42
0.0000001
 43
0.0000001
 44
0.0000000001
 40
0.0
 40
0.0
 40
0.0
 40
0.0
 40
0.015625
 40
0.03125
 40
0.046875
 40
0.0546875
 40
0.05859375
 40
0.0625
 40
0.06640625
 40
0.0703125
 40
0.078125
 40
0.09375
 40
0.109375
 40
0.1171875
 40
0.12109375
 40
0.125
 40
0.12890625
 40
0.1328125
 40
0.140625
 40
0.15625
 40
0.171875
 40
0.1796875
 40
0.18359375
 40
0.1875
 40
0.19140625
 40
0.1953125
 40
0.203125
 40
0.21875
 40
0.234375
 40
0.2421875
 40
0.24609375
 40
0.25
 40
0.25390625
 40
0.2578125
 40
0.265625
 40
0.28125
 40
0.296875
 40
0.3046875
 40
0.30859375
 40
0.3125
 40
0.31640625
 40
0.3203125
 40
0.328125
 40
0.34375
 40
0.359375
 40
0.3671875
 40
0.37109375
 40
0.375
 40
0.37890625
 40
0.3828125
 40
0.390625
 40
0.40625
 40
0.421875
 40
0.4296875
 40
0.43359375
 40
0.4375
 40
0.44140625
 40
0.4453125
 40
0.453125
 40
0.46875
 40
0.484375
 40
0.4921875
 40
0.49609375
 40
0.5
 40
0.50390625
 40
0.5078125
 40
0.515625
 40
0.53125
 40
0.546875
 40
0.5546875
 40
0.55859375
 40
0.5625
 40
0.56640625
 40
0.5703125
 40
0.578125
 40
0.59375
 40
0.609375
 40
0.6171875
 40
0.62109375
 40
0.625
 40
0.62890625
 40
0.6328125
 40
0.640625
 40
0.65625
 40
0.671875
 40
0.6796875
 40
0.68359375
 40
0.6875
 40
0.69140625
 40
0.6953125
 40
0.703125
 40
0.71875
 40
0.734375
 40
0.7421875
 40
0.74609375
 40
0.75
 40
0.75390625
 40
0.7578125
 40
0.765625
 40
0.78125
 40
0.796875
 40
0.8046875
 40
0.80859375
 40
0.8125
 40
0.81640625
 40
0.8203125
 40
0.828125
 40
0.84375
 40
0.859375
 40
0.8671875
 40
0.87109375
 40
0.875
 40
0.87890625
 40
0.8828125
 40
0.890625
 40
0.90625
 40
0.921875
 40
0.9296875
 40
0.93359375
 40
0.9375
 40
0.94140625
 40
0.9453125
 40
0.953125
 40
0.96875
 40
0.984375
 40
1.0
 40
1.0
 40
1.0
 40
1.0
 10
118.6804943199
 20
-18.7886089977
 30
0.0
 10
118.7419635965
 20
-18.7416054715
 30
0.0
 10
118.8648791318
 20
-18.6475735242
 30
0.0
 10
119.0493905414
 20
-18.506674973
 30
0.0
 10
119.2027472387
 20
-18.3888238522
 30
0.0
 10
119.3108824075
 20
-18.3071776074
 30
0.0
 10
119.3714482375
 20
-18.2591969549
 30
0.0
 10
119.4203252721
 20
-18.2269457064
 30
0.0
 10
119.4560045056
 20
-18.1804203219
 30
0.0
 10
119.5081818996
 20
-18.1233665856
 30
0.0
 10
119.5973312758
 20
-18.0211908713
 30
0.0
 10
119.7259418671
 20
-17.8765359462
 30
0.0
 10
119.8536514108
 20
-17.7310807842
 30
0.0
 10
119.9440622537
 20
-17.6300254014
 30
0.0
 10
119.9942573428
 20
-17.5712111442
 30
0.0
 10
120.0360186482
 20
-17.530087358
 30
0.0
 10
120.0620541241
 20
-17.4775501073
 30
0.0
 10
120.1022551304
 20
-17.4114825587
 30
0.0
 10
120.1700333911
 20
-17.2939992244
 30
0.0
 10
120.2683416576
 20
-17.1272197229
 30
0.0
 10
120.3656231107
 20
-16.9597775061
 30
0.0
 10
120.4348389101
 20
-16.8432219732
 30
0.0
 10
120.4727809271
 20
-16.775696451
 30
0.0
 10
120.5057473929
 20
-16.7276325284
 30
0.0
 10
120.5214789807
 20
-16.66970891
 30
0.0
 10
120.5484680804
 20
-16.5959168867
 30
0.0
 10
120.59287776
 20
-16.4651753671
 30
0.0
 10
120.657951074
 20
-16.2792650107
 30
0.0
 10
120.7218745295
 20
-16.0929597372
 30
0.0
 10
120.7678940109
 20
-15.9627711016
 30
0.0
 10
120.7923534221
 20
-15.8881102606
 30
0.0
 10
120.8158465541
 20
-15.832852333
 30
0.0
 10
120.8196641092
 20
-15.7747772604
 30
0.0
 10
120.8316191599
 20
-15.6983265533
 30
0.0
 10
120.8493227573
 20
-15.5640792313
 30
0.0
 10
120.8764505846
 20
-15.3725428561
 30
0.0
 10
120.9023595477
 20
-15.1808979217
 30
0.0
 10
120.9217695551
 20
-15.0468025827
 30
0.0
 10
120.9310431045
 20
-14.9701130451
 30
0.0
 10
120.9430879928
 20
-14.9127707479
 30
0.0
 10
120.9356829182
 20
-14.8547608416
 30
0.0
 10
120.9325957443
 20
-14.7776468705
 30
0.0
 10
120.9240123408
 20
-14.6425920613
 30
0.0
 10
120.9135662877
 20
-14.4496875635
 30
0.0
 10
120.9019151875
 20
-14.2568599752
 30
0.0
 10
120.8950188498
 20
-14.1216974927
 30
0.0
 10
120.8892805726
 20
-14.0447527225
 30
0.0
 10
120.8900095651
 20
-13.9862236771
 30
0.0
 10
120.8715065125
 20
-13.9308310355
 30
0.0
 10
120.8535460199
 20
-13.8558796511
 30
0.0
 10
120.8189697515
 20
-13.7252298683
 30
0.0
 10
120.7713722926
 20
-13.5382763207
 30
0.0
 10
120.7225772426
 20
-13.3515855574
 30
0.0
 10
120.6896776019
 20
-13.2205678765
 30
0.0
 10
120.6690824085
 20
-13.1461946177
 30
0.0
 10
120.658663097
 20
-13.0890281819
 30
0.0
 10
120.6290331507
 20
-13.0371607188
 30
0.0
 10
120.5962290222
 20
-12.9661545981
 30
0.0
 10
120.535683119
 20
-12.8427672655
 30
0.0
 10
120.45095768
 20
-12.6659491829
 30
0.0
 10
120.365135842
 20
-12.4896693801
 30
0.0
 10
120.3061248974
 20
-12.3655284559
 30
0.0
 10
120.2709086911
 20
-12.2957065504
 30
0.0
 10
120.2486794383
 20
-12.2402056997
 30
0.0
 10
120.210466411
 20
-12.1966846528
 30
0.0
 10
120.1650924406
 20
-12.1344765915
 30
0.0
 10
120.08307551
 20
-12.0275731573
 30
0.0
 10
119.9673884255
 20
-11.8737231923
 30
0.0
 10
119.8507576611
 20
-11.720661705
 30
0.0
 10
119.7700618823
 20
-11.612654402
 30
0.0
 10
119.7226118162
 20
-11.5521809916
 30
0.0
 10
119.6907686281
 20
-11.5033377202
 30
0.0
 10
119.6446170903
 20
-11.4678247792
 30
0.0
 10
119.5880737561
 20
-11.4158228687
 30
0.0
 10
119.4867856249
 20
-11.3270022545
 30
0.0
 10
119.3434020775
 20
-11.1988490145
 30
0.0
 10
119.1992153918
 20
-11.0716047882
 30
0.0
 10
119.0990516542
 20
-10.9815115549
 30
0.0
 10
119.0407414158
 20
-10.9315094745
 30
0.0
 10
119.0000110615
 20
-10.889860691
 30
0.0
 10
118.9478083176
 20
-10.8640609167
 30
0.0
 10
118.8822073391
 20
-10.824131201
 30
0.0
 10
118.7655308506
 20
-10.7568478405
 30
0.0
 10
118.5999096124
 20
-10.6592350994
 30
0.0
 10
118.4336215376
 20
-10.5626567067
 30
0.0
 10
118.3178786202
 20
-10.4939252585
 30
0.0
 10
118.2508106014
 20
-10.4562711093
 30
0.0
 10
118.203109004
 20
-10.4234894832
 30
0.0
 10
118.1454743442
 20
-10.4080614318
 30
0.0
 10
118.0720932012
 20
-10.3814356362
 30
0.0
 10
117.942058684
 20
-10.3376811165
 30
0.0
 10
117.7571655052
 20
-10.2735329425
 30
0.0
 10
117.5718716424
 20
-10.2105409281
 30
0.0
 10
117.4423980829
 20
-10.1651677851
 30
0.0
 10
117.3681354351
 20
-10.1410855404
 30
0.0
 10
117.3132053922
 20
-10.1178534122
 30
0.0
 10
117.2553464557
 20
-10.11438043
 30
0.0
 10
117.1792229208
 20
-10.1028556532
 30
0.0
 10
117.0455298676
 20
-10.0859186886
 30
0.0
 10
116.8547957965
 20
-10.0598783567
 30
0.0
 10
116.6639460246
 20
-10.0350616599
 30
0.0
 10
116.5304149525
 20
-10.0164116061
 30
0.0
 10
116.454036876
 20
-10.0075788267
 30
0.0
 10
116.3969589193
 20
-9.9958463071
 30
0.0
 10
116.3390958632
 20
-10.0036333305
 30
0.0
 10
116.2622186869
 20
-10.0072054945
 30
0.0
 10
116.1275590417
 20
-10.0166489865
 30
0.0
 10
115.9352301374
 20
-10.0283174342
 30
0.0
 10
115.7429704711
 20
-10.041194512
 30
0.0
 10
115.6082138927
 20
-10.048945922
 30
0.0
 10
115.5314890399
 20
-10.055177072
 30
0.0
 10
115.4731586279
 20
-10.0548058429
 30
0.0
 10
115.4178358521
 20
-10.0737120938
 30
0.0
 10
115.3430225512
 20
-10.0921943327
 30
0.0
 10
115.212593347
 20
-10.1276910743
 30
0.0
 10
115.0259670065
 20
-10.1765993618
 30
0.0
 10
114.8395951991
 20
-10.2267076448
 30
0.0
 10
114.7088096484
 20
-10.2605243928
 30
0.0
 10
114.6345563205
 20
-10.2816466217
 30
0.0
 10
114.5775154459
 20
-10.2924529033
 30
0.0
 10
114.5256374496
 20
-10.3225015586
 30
0.0
 10
114.4546659146
 20
-10.3558544641
 30
0.0
 10
114.3313048228
 20
-10.4173494065
 30
0.0
 10
114.1546357288
 20
-10.5035632819
 30
0.0
 10
113.9428219076
 20
-10.607724689
 30
0.0
 10
113.8015766761
 20
-10.6770313878
 30
0.0
 10
113.7309585625
 20
-10.7117015171
 30
0.0
  0
SPLINE
  5
272
100
AcDbEntity
  8
_21_KURVEN
100
AcDbSpline
 62
1
  6
CENTER
 70
0
 71
3
 72
131
 73
127
 74
0
 42
0.0000001
 43
0.0000001
 44
0.0000000001
 40
0.0
 40
0.0
 40
0.0
 40
0.0
 40
0.015625
 40
0.03125
 40
0.046875
 40
0.0546875
 40
0.05859375
 40
0.0625
 40
0.06640625
 40
0.0703125
 40
0.078125
 40
0.09375
 40
0.109375
 40
0.1171875
 40
0.12109375
 40
0.125
 40
0.12890625
 40
0.1328125
 40
0.140625
 40
0.15625
 40
0.171875
 40
0.1796875
 40
0.18359375
 40
0.1875
 40
0.19140625
 40
0.1953125
 40
0.203125
 40
0.21875
 40
0.234375
 40
0.2421875
 40
0.24609375
 40
0.25
 40
0.25390625
 40
0.2578125
 40
0.265625
 40
0.28125
 40
0.296875
 40
0.3046875
 40
0.30859375
 40
0.3125
 40
0.31640625
 40
0.3203125
 40
0.328125
 40
0.34375
 40
0.359375
 40
0.3671875
 40
0.37109375
 40
0.375
 40
0.37890625
 40
0.3828125
 40
0.390625
 40
0.40625
 40
0.421875
 40
0.4296875
 40
0.43359375
 40
0.4375
 40
0.44140625
 40
0.4453125
 40
0.453125
 40
0.46875
 40
0.484375
 40
0.4921875
 40
0.49609375
 40
0.5
 40
0.50390625
 40
0.5078125
 40
0.515625
 40
0.53125
 40
0.546875
 40
0.5546875
 40
0.55859375
 40
0.5625
 40
0.56640625
 40
0.5703125
 40
0.578125
 40
0.59375
 40
0.609375
 40
0.6171875
 40
0.62109375
 40
0.625
 40
0.62890625
 40
0.6328125
 40
0.640625
 40
0.65625
 40
0.671875
 40
0.6796875
 40
0.68359375
 40
0.6875
 40
0.69140625
 40
0.6953125
 40
0.703125
 40
0.71875
 40
0.734375
 40
0.7421875
 40
0.74609375
 40
0.75
 40
0.75390625
 40
0.7578125
 40
0.765625
 40
0.78125
 40
0.796875
 40
0.8046875
 40
0.80859375
 40
0.8125
 40
0.81640625
 40
0.8203125
 40
0.828125
 40
0.84375
 40
0.859375
 40
0.8671875
 40
0.87109375
 40
0.875
 40
0.87890625
 40
0.8828125
 40
0.890625
 40
0.90625
 40
0.921875
 40
0.9296875
 40
0.93359375
 40
0.9375
 40
0.94140625
 40
0.9453125
 40
0.953125
 40
0.96875
 40
0.984375
 40
1.0
 40
1.0
 40
1.0
 40
1.0
 10
113.7309589157
 20
-10.7117012978
 30
0.0
 10
113.6694896392
 20
-10.758704824
 30
0.0
 10
113.5465741038
 20
-10.8527367712
 30
0.0
 10
113.3620626943
 20
-10.9936353225
 30
0.0
 10
113.2087059969
 20
-11.1114864433
 30
0.0
 10
113.1005708281
 20
-11.1931326881
 30
0.0
 10
113.0400049982
 20
-11.2411133406
 30
0.0
 10
112.9911279635
 20
-11.2733645891
 30
0.0
 10
112.95544873
 20
-11.3198899736
 30
0.0
 10
112.903271336
 20
-11.3769437098
 30
0.0
 10
112.8141219599
 20
-11.4791194241
 30
0.0
 10
112.6855113685
 20
-11.6237743493
 30
0.0
 10
112.5578018248
 20
-11.7692295112
 30
0.0
 10
112.4673909819
 20
-11.870284894
 30
0.0
 10
112.4171958928
 20
-11.9290991512
 30
0.0
 10
112.3754345874
 20
-11.9702229375
 30
0.0
 10
112.3493991115
 20
-12.0227601882
 30
0.0
 10
112.3091981052
 20
-12.0888277368
 30
0.0
 10
112.2414198445
 20
-12.2063110711
 30
0.0
 10
112.143111578
 20
-12.3730905726
 30
0.0
 10
112.0458301249
 20
-12.5405327893
 30
0.0
 10
111.9766143255
 20
-12.6570883222
 30
0.0
 10
111.9386723085
 20
-12.7246138444
 30
0.0
 10
111.9057058427
 20
-12.772677767
 30
0.0
 10
111.8899742549
 20
-12.8306013855
 30
0.0
 10
111.8629851552
 20
-12.9043934087
 30
0.0
 10
111.8185754756
 20
-13.0351349284
 30
0.0
 10
111.7535021617
 20
-13.2210452847
 30
0.0
 10
111.6895787061
 20
-13.4073505583
 30
0.0
 10
111.6435592248
 20
-13.5375391939
 30
0.0
 10
111.6190998136
 20
-13.6122000348
 30
0.0
 10
111.5956066815
 20
-13.6674579625
 30
0.0
 10
111.5917891264
 20
-13.7255330351
 30
0.0
 10
111.5798340758
 20
-13.8019837422
 30
0.0
 10
111.5621304783
 20
-13.9362310642
 30
0.0
 10
111.535002651
 20
-14.1277674393
 30
0.0
 10
111.5090936879
 20
-14.3194123738
 30
0.0
 10
111.4896836805
 20
-14.4535077127
 30
0.0
 10
111.4804101311
 20
-14.5301972503
 30
0.0
 10
111.4683652429
 20
-14.5875395476
 30
0.0
 10
111.4757703175
 20
-14.6455494539
 30
0.0
 10
111.4788574913
 20
-14.722663425
 30
0.0
 10
111.4874408948
 20
-14.8577182342
 30
0.0
 10
111.497886948
 20
-15.050622732
 30
0.0
 10
111.5095380481
 20
-15.2434503203
 30
0.0
 10
111.5164343859
 20
-15.3786128027
 30
0.0
 10
111.522172663
 20
-15.455557573
 30
0.0
 10
111.5214436705
 20
-15.5140866183
 30
0.0
 10
111.5399467231
 20
-15.56947926
 30
0.0
 10
111.5579072157
 20
-15.6444306443
 30
0.0
 10
111.5924834842
 20
-15.7750804271
 30
0.0
 10
111.640080943
 20
-15.9620339748
 30
0.0
 10
111.6888759931
 20
-16.1487247381
 30
0.0
 10
111.7217756337
 20
-16.2797424189
 30
0.0
 10
111.7423708271
 20
-16.3541156778
 30
0.0
 10
111.7527901386
 20
-16.4112821135
 30
0.0
 10
111.782420085
 20
-16.4631495767
 30
0.0
 10
111.8152242134
 20
-16.5341556973
 30
0.0
 10
111.8757701167
 20
-16.65754303
 30
0.0
 10
111.9604955556
 20
-16.8343611125
 30
0.0
 10
112.0463173936
 20
-17.0106409154
 30
0.0
 10
112.1053283382
 20
-17.1347818396
 30
0.0
 10
112.1405445445
 20
-17.204603745
 30
0.0
 10
112.1627737974
 20
-17.2601045957
 30
0.0
 10
112.2009868246
 20
-17.3036256427
 30
0.0
 10
112.246360795
 20
-17.3658337039
 30
0.0
 10
112.3283777256
 20
-17.4727371382
 30
0.0
 10
112.4440648101
 20
-17.6265871032
 30
0.0
 10
112.5606955745
 20
-17.7796485905
 30
0.0
 10
112.6413913533
 20
-17.8876558935
 30
0.0
 10
112.6888414194
 20
-17.9481293038
 30
0.0
 10
112.7206846075
 20
-17.9969725752
 30
0.0
 10
112.7668361453
 20
-18.0324855163
 30
0.0
 10
112.8233794795
 20
-18.0844874268
 30
0.0
 10
112.9246676107
 20
-18.173308041
 30
0.0
 10
113.0680511581
 20
-18.3014612809
 30
0.0
 10
113.2122378438
 20
-18.4287055072
 30
0.0
 10
113.3124015814
 20
-18.5187987406
 30
0.0
 10
113.3707118198
 20
-18.5688008209
 30
0.0
 10
113.4114421742
 20
-18.6104496044
 30
0.0
 10
113.463644918
 20
-18.6362493788
 30
0.0
 10
113.5292458965
 20
-18.6761790944
 30
0.0
 10
113.645922385
 20
-18.7434624549
 30
0.0
 10
113.8115436232
 20
-18.841075196
 30
0.0
 10
113.977831698
 20
-18.9376535887
 30
0.0
 10
114.0935746154
 20
-19.006385037
 30
0.0
 10
114.1606426342
 20
-19.0440391862
 30
0.0
 10
114.2083442316
 20
-19.0768208122
 30
0.0
 10
114.2659788914
 20
-19.0922488636
 30
0.0
 10
114.3393600345
 20
-19.1188746592
 30
0.0
 10
114.4693945516
 20
-19.1626291789
 30
0.0
 10
114.6542877304
 20
-19.2267773529
 30
0.0
 10
114.8395815932
 20
-19.2897693674
 30
0.0
 10
114.9690551527
 20
-19.3351425104
 30
0.0
 10
115.0433178005
 20
-19.359224755
 30
0.0
 10
115.0982478434
 20
-19.3824568832
 30
0.0
 10
115.1561067799
 20
-19.3859298654
 30
0.0
 10
115.2322303149
 20
-19.3974546422
 30
0.0
 10
115.365923368
 20
-19.4143916068
 30
0.0
 10
115.5566574391
 20
-19.4404319388
 30
0.0
 10
115.747507211
 20
-19.4652486355
 30
0.0
 10
115.8810382831
 20
-19.4838986893
 30
0.0
 10
115.9574163596
 20
-19.4927314688
 30
0.0
 10
116.0144943163
 20
-19.5044639884
 30
0.0
 10
116.0723573724
 20
-19.496676965
 30
0.0
 10
116.1492345487
 20
-19.493104801
 30
0.0
 10
116.283894194
 20
-19.483661309
 30
0.0
 10
116.4762230982
 20
-19.4719928612
 30
0.0
 10
116.6684827645
 20
-19.4591157835
 30
0.0
 10
116.8032393429
 20
-19.4513643734
 30
0.0
 10
116.8799641958
 20
-19.4451332234
 30
0.0
 10
116.9382946077
 20
-19.4455044525
 30
0.0
 10
116.9936173835
 20
-19.4265982017
 30
0.0
 10
117.0684306844
 20
-19.4081159628
 30
0.0
 10
117.1988598887
 20
-19.3726192211
 30
0.0
 10
117.3854862292
 20
-19.3237109336
 30
0.0
 10
117.5718580365
 20
-19.2736026507
 30
0.0
 10
117.7026435872
 20
-19.2397859027
 30
0.0
 10
117.7768969151
 20
-19.2186636738
 30
0.0
 10
117.8339377897
 20
-19.2078573921
 30
0.0
 10
117.8858157861
 20
-19.1778087369
 30
0.0
 10
117.956787321
 20
-19.1444558313
 30
0.0
 10
118.0801484128
 20
-19.082960889
 30
0.0
 10
118.2568175069
 20
-18.9967470136
 30
0.0
 10
118.468631328
 20
-18.8925856064
 30
0.0
 10
118.6098765595
 20
-18.8232789077
 30
0.0
 10
118.6804946731
 20
-18.7886087784
 30
0.0
  0
SPLINE
  5
273
100
AcDbEntity
  8
_21_KURVEN
100
AcDbSpline
 62
7
  6
CONTINUOUS
 70
0
 71
3
 72
9
 73
5
 74
0
 42
0.0000001
 43
0.0000001
 44
0.0000000001
 40
0.0
 40
0.0
 40
0.0
 40
0.0
 40
0.5
 40
1.0
 40
1.0
 40
1.0
 40
1.0
 10
113.2373158699
 20
-19.0072540641
 30
0.0
 10
113.2537742746
 20
-19.0329848903
 30
0.0
 10
113.2892994656
 20
-19.0862190819
 30
0.0
 10
113.3328734393
 20
-19.1330285244
 30
0.0
 10
113.355573705
 20
-19.1564212258
 30
0.0
  0
SPLINE
  5
274
100
AcDbEntity
  8
_21_KURVEN
100
AcDbSpline
 62
7
  6
CONTINUOUS
 70
0
 71
3
 72
9
 73
5
 74
0
 42
0.0000001
 43
0.0000001
 44
0.0000000001
 40
0.0
 40
0.0
 40
0.0
 40
0.0
 40
0.5
 40
1.0
 40
1.0
 40
1.0
 40
1.0
 10
113.3555737068
 20
-19.1564212276
 30
0.0
 10
113.3776800912
 20
-19.1774519228
 30
0.0
 10
113.4248502164
 20
-19.2206103997
 30
0.0
 10
113.4783282301
 20
-19.2556181241
 30
0.0
 10
113.5059528316
 20
-19.2728925243
 30
0.0
  0
SPLINE
  5
275
100
AcDbEntity
  8
_21_KURVEN
100
AcDbSpline
 62
7
  6
CONTINUOUS
 70
0
 71
3
 72
8
 73
4
 74
0
 42
0.0000001
 43
0.0000001
 44
0.0000000001
 40
0.0
 40
0.0
 40
0.0
 40
0.0
 40
1.0
 40
1.0
 40
1.0
 40
1.0
 10
113.5059528339
 20
-19.2728925256
 30
0.0
 10
113.5154969286
 20
-19.2785445752
 30
0.0
 10
113.5268577892
 20
-19.2850620449
 30
0.0
 10
113.5428956523
 20
-19.2936213892
 30
0.0
  0
SPLINE
  5
276
100
AcDbEntity
  8
_21_KURVEN
100
AcDbSpline
 62
7
  6
CONTINUOUS
 70
0
 71
3
 72
8
 73
4
 74
0
 42
0.0000001
 43
0.0000001
 44
0.0000000001
 40
0.0
 40
0.0
 40
0.0
 40
0.0
 40
1.0
 40
1.0
 40
1.0
 40
1.0
 10
113.5428956522
 20
-19.2936213891
 30
0.0
 10
113.5527295881
 20
-19.298753096
 30
0.0
 10
113.5644242806
 20
-19.3046515414
 30
0.0
 10
113.5808993402
 20
-19.3123381454
 30
0.0
  0
SPLINE
  5
277
100
AcDbEntity
  8
_21_KURVEN
100
AcDbSpline
 62
7
  6
CONTINUOUS
 70
0
 71
3
 72
10
 73
6
 74
0
 42
0.0000001
 43
0.0000001
 44
0.0000000001
 40
0.0
 40
0.0
 40
0.0
 40
0.0
 40
0.25
 40
0.5
 40
1.0
 40
1.0
 40
1.0
 40
1.0
 10
113.5808993401
 20
-19.3123381454
 30
0.0
 10
113.5884952079
 20
-19.3157323986
 30
0.0
 10
113.6027657058
 20
-19.3221112244
 30
0.0
 10
113.6392378922
 20
-19.3368599754
 30
0.0
 10
113.660823622
 20
-19.3439192229
 30
0.0
 10
113.6798341393
 20
-19.3499923045
 30
0.0
  0
SPLINE
  5
278
100
AcDbEntity
  8
_21_KURVEN
100
AcDbSpline
 62
7
  6
CONTINUOUS
 70
0
 71
3
 72
9
 73
5
 74
0
 42
0.0000001
 43
0.0000001
 44
0.0000000001
 40
0.0
 40
0.0
 40
0.0
 40
0.0
 40
0.5
 40
1.0
 40
1.0
 40
1.0
 40
1.0
 10
113.679834142
 20
-19.3499923053
 30
0.0
 10
113.7091842494
 20
-19.3583450414
 30
0.0
 10
113.7710209735
 20
-19.3746503717
 30
0.0
 10
113.8347196747
 20
-19.3808265961
 30
0.0
 10
113.8672514717
 20
-19.3833015265
 30
0.0
  0
ENDSEC
  0
SECTION
  2
OBJECTS
  0
DICTIONARY
  5
C
100
AcDbDictionary
280
0
281
1
  3
ACAD_GROUP
350
D
  3
ACAD_MLINESTYLE
350
17
  3
ACAD_LAYOUT
350
1A
  3
ACAD_PLOTSETTINGS
350
19
  3
ACAD_PLOTSTYLENAME
350
E
  0
DICTIONARY
  5
D
102
{ACAD_REACTORS
330
C
102
}
100
AcDbDictionary
280
0
281
1
  0
ACDBDICTIONARYWDFLT
  5
E
102
{ACAD_REACTORS
330
C
102
}
100
AcDbDictionary
281
1
  3
Normal
350
F
100
AcDbDictionaryWithDefault
340
F
  0
DICTIONARY
  5
17
102
{ACAD_REACTORS
330
C
102
}
100
AcDbDictionary
280
0
281
1
  3
Standard
350
18
  0
DICTIONARY
  5
19
102
{ACAD_REACTORS
330
C
102
}
100
AcDbDictionary
281
1
  0
DICTIONARY
  5
1A
102
{ACAD_REACTORS
330
C
102
}
100
AcDbDictionary
281
1
  3
Model
350
279
  3
Layout1
350
27A
  0
ACDBPLACEHOLDER
  5
F
102
{ACAD_REACTORS
330
E
102
}
  0
MLINESTYLE
  5
18
102
{ACAD_REACTORS
330
17
102
}
100
AcDbMlineStyle
  2
STANDARD
 70
0
  3

 62
256
 51
90.0
 52
90.0
 71
2
 49
0.5
 62
256
  6
BYLAYER
 49
-0.5
 62
256
  6
BYLAYER
  0
LAYOUT
  5
279
102
{ACAD_REACTORS
330
1A
102
}
100
AcDbPlotSettings
  1

  2
none_device
  4
ISO_A3_(420.00_x_297.00_MM)
  6

 40
0.0
 41
0.0
 42
0.0
 43
0.0
 44
420.0
 45
297.0
 46
0.0
 47
0.0
 48
0.0
 49
0.0
140
0.0
141
0.0
142
1.0
143
1.0
 70
1024
 72
1
 73
0
 74
0
  7

 75
0
147
1.0
148
0.0
149
0.0
100
AcDbLayout
  1
Model
 70
0
 71
0
 10
0.0
 20
0.0
 11
420.0
 21
297.0
 12
0.0
 22
0.0
 32
0.0
 14
0.0
 24
0.0
 34
0.0
 15
0.0
 25
0.0
 35
0.0
146
0.0
 13
0.0
 23
0.0
 33
0.0
 16
1.0
 26
0.0
 36
0.0
 17
0.0
 27
1.0
 37
0.0
 76
0
330
20E
345
0
346
0
  0
LAYOUT
  5
27A
102
{ACAD_REACTORS
330
1A
102
}
100
AcDbPlotSettings
  1

  2
none_device
  4
ISO_A3_(420.00_x_297.00_MM)
  6

 40
0.0
 41
0.0
 42
0.0
 43
0.0
 44
420.0
 45
297.0
 46
0.0
 47
0.0
 48
0.0
 49
0.0
140
0.0
141
0.0
142
1.0
143
1.0
 70
0
 72
1
 73
0
 74
0
  7

 75
0
147
1.0
148
0.0
149
0.0
100
AcDbLayout
  1
Layout1
 70
0
 71
1
 10
0.0
 20
0.0
 11
420.0
 21
297.0
 12
0.0
 22
0.0
 32
0.0
 14
0.0
 24
0.0
 34
0.0
 15
0.0
 25
0.0
 35
0.0
146
0.0
 13
0.0
 23
0.0
 33
0.0
 16
1.0
 26
0.0
 36
0.0
 17
0.0
 27
1.0
 37
0.0
 76
0
330
20F
345
0
346
0
  0
ENDSEC
  0
EOF
