  0
SECTION
  2
HEADER
  9
$ACADVER
  1
AC1018
  9
$ACADMAINTVER
 70
     0
  9
$DWGCODEPAGE
  3
ANSI_1252
  9
$LASTSAVEDBY
  1
piechottad
  9
$INSBASE
 10
0.0
 20
0.0
 30
0.0
  9
$EXTMIN
 10
0.0
 20
0.0
 30
0.0
  9
$EXTMAX
 10
297.0
 20
210.0
 30
0.0
  9
$LIMMIN
 10
0.0
 20
0.0
  9
$LIMMAX
 10
297.0
 20
210.0
  9
$ORTHOMODE
 70
     0
  9
$REGENMODE
 70
     1
  9
$FILLMODE
 70
     1
  9
$QTEXTMODE
 70
     0
  9
$MIRRTEXT
 70
     1
  9
$LTSCALE
 40
1.0
  9
$ATTMODE
 70
     1
  9
$TEXTSIZE
 40
3.5
  9
$TRACEWID
 40
1.0
  9
$TEXTSTYLE
  7
Standard
  9
$CLAYER
  8
0
  9
$CELTYPE
  6
ByLayer
  9
$CECOLOR
 62
   256
  9
$CELTSCALE
 40
1.0
  9
$DISPSILH
 70
     0
  9
$DIMSCALE
 40
1.0
  9
$DIMASZ
 40
3.302
  9
$DIMEXO
 40
1.0
  9
$DIMDLI
 40
3.75
  9
$DIMRND
 40
0.0
  9
$DIMDLE
 40
0.0
  9
$DIMEXE
 40
1.0
  9
$DIMTP
 40
0.0
  9
$DIMTM
 40
0.0
  9
$DIMTXT
 40
3.5
  9
$DIMCEN
 40
2.5
  9
$DIMTSZ
 40
0.0
  9
$DIMTOL
 70
     0
  9
$DIMLIM
 70
     0
  9
$DIMTIH
 70
     1
  9
$DIMTOH
 70
     1
  9
$DIMSE1
 70
     0
  9
$DIMSE2
 70
     0
  9
$DIMTAD
 70
     1
  9
$DIMZIN
 70
     0
  9
$DIMBLK
  1

  9
$DIMASO
 70
     1
  9
$DIMSHO
 70
     1
  9
$DIMPOST
  1

  9
$DIMAPOST
  1

  9
$DIMALT
 70
     0
  9
$DIMALTD
 70
     3
  9
$DIMALTF
 40
0.0393700787
  9
$DIMLFAC
 40
1.0
  9
$DIMTOFL
 70
     1
  9
$DIMTVP
 40
0.0
  9
$DIMTIX
 70
     0
  9
$DIMSOXD
 70
     0
  9
$DIMSAH
 70
     0
  9
$DIMBLK1
  1

  9
$DIMBLK2
  1

  9
$DIMSTYLE
  2
ISO-25
  9
$DIMCLRD
 70
     0
  9
$DIMCLRE
 70
     0
  9
$DIMCLRT
 70
     0
  9
$DIMTFAC
 40
1.0
  9
$DIMGAP
 40
1.524
  9
$DIMJUST
 70
     0
  9
$DIMSD1
 70
     0
  9
$DIMSD2
 70
     0
  9
$DIMTOLJ
 70
     0
  9
$DIMTZIN
 70
     0
  9
$DIMALTZ
 70
     0
  9
$DIMALTTZ
 70
     0
  9
$DIMUPT
 70
     0
  9
$DIMDEC
 70
     2
  9
$DIMTDEC
 70
     2
  9
$DIMALTU
 70
     2
  9
$DIMALTTD
 70
     3
  9
$DIMTXSTY
  7
Standard
  9
$DIMAUNIT
 70
     0
  9
$DIMADEC
 70
     2
  9
$DIMALTRND
 40
0.0
  9
$DIMAZIN
 70
     0
  9
$DIMDSEP
 70
    44
  9
$DIMATFIT
 70
     3
  9
$DIMFRAC
 70
     0
  9
$DIMLDRBLK
  1

  9
$DIMLUNIT
 70
     2
  9
$DIMLWD
 70
    -2
  9
$DIMLWE
 70
    -2
  9
$DIMTMOVE
 70
     0
  9
$LUNITS
 70
     2
  9
$LUPREC
 70
     2
  9
$SKETCHINC
 40
1.0
  9
$FILLETRAD
 40
10.0
  9
$AUNITS
 70
     0
  9
$AUPREC
 70
     2
  9
$MENU
  1
.
  9
$ELEVATION
 40
0.0
  9
$PELEVATION
 40
0.0
  9
$THICKNESS
 40
0.0
  9
$LIMCHECK
 70
     0
  9
$CHAMFERA
 40
0.0
  9
$CHAMFERB
 40
0.0
  9
$CHAMFERC
 40
0.0
  9
$CHAMFERD
 40
0.0
  9
$SKPOLY
 70
     0
  9
$TDCREATE
 40
2456979.645083553
  9
$TDUCREATE
 40
2456979.603416887
  9
$TDUPDATE
 40
2457031.560522083
  9
$TDUUPDATE
 40
2457031.518855417
  9
$TDINDWG
 40
0.0002539583
  9
$TDUSRTIMER
 40
2457031.518601724
  9
$USRTIMER
 70
     1
  9
$ANGBASE
 50
0.0
  9
$ANGDIR
 70
     0
  9
$PDMODE
 70
     0
  9
$PDSIZE
 40
-1.0
  9
$PLINEWID
 40
0.0
  9
$SPLFRAME
 70
     0
  9
$SPLINETYPE
 70
     6
  9
$SPLINESEGS
 70
     8
  9
$HANDSEED
  5
138
  9
$SURFTAB1
 70
     6
  9
$SURFTAB2
 70
     6
  9
$SURFTYPE
 70
     6
  9
$SURFU
 70
     6
  9
$SURFV
 70
     6
  9
$UCSBASE
  2

  9
$UCSNAME
  2

  9
$UCSORG
 10
0.0
 20
0.0
 30
0.0
  9
$UCSXDIR
 10
1.0
 20
0.0
 30
0.0
  9
$UCSYDIR
 10
0.0
 20
1.0
 30
0.0
  9
$UCSORTHOREF
  2

  9
$UCSORTHOVIEW
 70
     0
  9
$UCSORGTOP
 10
0.0
 20
0.0
 30
0.0
  9
$UCSORGBOTTOM
 10
0.0
 20
0.0
 30
0.0
  9
$UCSORGLEFT
 10
0.0
 20
0.0
 30
0.0
  9
$UCSORGRIGHT
 10
0.0
 20
0.0
 30
0.0
  9
$UCSORGFRONT
 10
0.0
 20
0.0
 30
0.0
  9
$UCSORGBACK
 10
0.0
 20
0.0
 30
0.0
  9
$PUCSBASE
  2

  9
$PUCSNAME
  2

  9
$PUCSORG
 10
0.0
 20
0.0
 30
0.0
  9
$PUCSXDIR
 10
1.0
 20
0.0
 30
0.0
  9
$PUCSYDIR
 10
0.0
 20
1.0
 30
0.0
  9
$PUCSORTHOREF
  2

  9
$PUCSORTHOVIEW
 70
     0
  9
$PUCSORGTOP
 10
0.0
 20
0.0
 30
0.0
  9
$PUCSORGBOTTOM
 10
0.0
 20
0.0
 30
0.0
  9
$PUCSORGLEFT
 10
0.0
 20
0.0
 30
0.0
  9
$PUCSORGRIGHT
 10
0.0
 20
0.0
 30
0.0
  9
$PUCSORGFRONT
 10
0.0
 20
0.0
 30
0.0
  9
$PUCSORGBACK
 10
0.0
 20
0.0
 30
0.0
  9
$USERI1
 70
     0
  9
$USERI2
 70
     0
  9
$USERI3
 70
     0
  9
$USERI4
 70
     0
  9
$USERI5
 70
     0
  9
$USERR1
 40
0.0
  9
$USERR2
 40
0.0
  9
$USERR3
 40
0.0
  9
$USERR4
 40
0.0
  9
$USERR5
 40
0.0
  9
$WORLDVIEW
 70
     1
  9
$SHADEDGE
 70
     3
  9
$SHADEDIF
 70
    70
  9
$TILEMODE
 70
     1
  9
$MAXACTVP
 70
    64
  9
$PINSBASE
 10
0.0
 20
0.0
 30
0.0
  9
$PLIMCHECK
 70
     0
  9
$PEXTMIN
 10
1.000000000000000E+20
 20
1.000000000000000E+20
 30
1.000000000000000E+20
  9
$PEXTMAX
 10
-1.000000000000000E+20
 20
-1.000000000000000E+20
 30
-1.000000000000000E+20
  9
$PLIMMIN
 10
0.0
 20
0.0
  9
$PLIMMAX
 10
0.0
 20
0.0
  9
$UNITMODE
 70
     0
  9
$VISRETAIN
 70
     1
  9
$PLINEGEN
 70
     0
  9
$PSLTSCALE
 70
     1
  9
$TREEDEPTH
 70
  3020
  9
$CMLSTYLE
  2
Standard
  9
$CMLJUST
 70
     0
  9
$CMLSCALE
 40
20.0
  9
$PROXYGRAPHICS
 70
     1
  9
$MEASUREMENT
 70
     1
  9
$CELWEIGHT
370
    -1
  9
$ENDCAPS
280
     0
  9
$JOINSTYLE
280
     0
  9
$LWDISPLAY
290
     1
  9
$INSUNITS
 70
     4
  9
$HYPERLINKBASE
  1

  9
$STYLESHEET
  1

  9
$XEDIT
290
     1
  9
$CEPSNTYPE
380
     0
  9
$PSTYLEMODE
290
     1
  9
$FINGERPRINTGUID
  2
{0A098E9C-5EE7-4991-93B8-ADE95891BA58}
  9
$VERSIONGUID
  2
{FAEB1C32-E019-11D5-929B-00C0DF256EC4}
  9
$EXTNAMES
290
     1
  9
$PSVPSCALE
 40
0.0
  9
$OLESTARTUP
290
     0
  9
$SORTENTS
280
   127
  9
$INDEXCTL
280
     0
  9
$HIDETEXT
280
     1
  9
$XCLIPFRAME
290
     0
  9
$HALOGAP
280
     0
  9
$OBSCOLOR
 70
   257
  9
$OBSLTYPE
280
     0
  9
$INTERSECTIONDISPLAY
280
     0
  9
$INTERSECTIONCOLOR
 70
   257
  9
$DIMASSOC
280
     2
  9
$PROJECTNAME
  1

  0
ENDSEC
  0
SECTION
  2
CLASSES
  0
CLASS
  1
ACDBDICTIONARYWDFLT
  2
AcDbDictionaryWithDefault
  3
ObjectDBX Classes
 90
        0
 91
      101
280
     0
281
     0
  0
CLASS
  1
VISUALSTYLE
  2
AcDbVisualStyle
  3
ObjectDBX Classes
 90
     4095
 91
      101
280
     0
281
     0
  0
CLASS
  1
MATERIAL
  2
AcDbMaterial
  3
ObjectDBX Classes
 90
     1153
 91
      101
280
     0
281
     0
  0
CLASS
  1
SCALE
  2
AcDbScale
  3
ObjectDBX Classes
 90
     1153
 91
      101
280
     0
281
     0
  0
CLASS
  1
SUN
  2
AcDbSun
  3
SCENEOE
 90
     1153
 91
      101
280
     0
281
     0
  0
CLASS
  1
DICTIONARYVAR
  2
AcDbDictionaryVar
  3
ObjectDBX Classes
 90
        0
 91
       52
280
     0
281
     0
  0
CLASS
  1
TABLESTYLE
  2
AcDbTableStyle
  3
ObjectDBX Classes
 90
     4095
 91
      101
280
     0
281
     0
  0
CLASS
  1
RASTERVARIABLES
  2
AcDbRasterVariables
  3
ISM
 90
        0
 91
      101
280
     0
281
     0
  0
CLASS
  1
CELLSTYLEMAP
  2
AcDbCellStyleMap
  3
ObjectDBX Classes
 90
     1152
 91
        4
280
     0
281
     0
  0
ENDSEC
  0
SECTION
  2
TABLES
  0
TABLE
  2
VPORT
  5
8
330
0
100
AcDbSymbolTable
 70
     1
  0
VPORT
  5
29
330
8
100
AcDbSymbolTableRecord
100
AcDbViewportTableRecord
  2
*Active
 70
     0
 10
0.0
 20
0.0
 11
1.0
 21
1.0
 12
114.2889344262295
 22
14.63114754098362
 13
0.0
 23
0.0
 14
10.0
 24
10.0
 15
10.0
 25
10.0
 16
0.0
 26
0.0
 36
1.0
 17
0.0
 27
0.0
 37
0.0
 40
210.0
 41
1.497950819672131
 42
50.0
 43
0.0
 44
0.0
 50
0.0
 51
0.0
 71
    16
 72
  2000
 73
     1
 74
     3
 75
     0
 76
     0
 77
     0
 78
     0
281
     0
 65
     1
110
0.0
120
0.0
130
0.0
111
1.0
121
0.0
131
0.0
112
0.0
122
1.0
132
0.0
 79
     0
146
0.0
  0
ENDTAB
  0
TABLE
  2
LTYPE
  5
5
330
0
100
AcDbSymbolTable
 70
     8
  0
LTYPE
  5
14
330
5
100
AcDbSymbolTableRecord
100
AcDbLinetypeTableRecord
  2
ByBlock
 70
     0
  3

 72
    65
 73
     0
 40
0.0
  0
LTYPE
  5
15
330
5
100
AcDbSymbolTableRecord
100
AcDbLinetypeTableRecord
  2
ByLayer
 70
     0
  3

 72
    65
 73
     0
 40
0.0
  0
LTYPE
  5
16
330
5
100
AcDbSymbolTableRecord
100
AcDbLinetypeTableRecord
  2
Continuous
 70
     0
  3
Solid line
 72
    65
 73
     0
 40
0.0
  0
LTYPE
  5
6A
330
5
100
AcDbSymbolTableRecord
100
AcDbLinetypeTableRecord
  2
SLD-Durchgehend
 70
     0
  3
SolidWorks Line Style
 72
    65
 73
     0
 40
0.0
  0
LTYPE
  5
6B
330
5
100
AcDbSymbolTableRecord
100
AcDbLinetypeTableRecord
  2
SLD-Gestrichelt
 70
     0
  3
SolidWorks Line Style
 72
    65
 73
     2
 40
1.905
 49
1.27
 74
     0
 49
-0.635
 74
     0
  0
LTYPE
  5
6C
330
5
100
AcDbSymbolTableRecord
100
AcDbLinetypeTableRecord
  2
SLD-Phantom
 70
     0
  3
SolidWorks Line Style
 72
    65
 73
     6
 40
12.7
 49
6.35
 74
     0
 49
-1.27
 74
     0
 49
1.27
 74
     0
 49
-1.27
 74
     0
 49
1.27
 74
     0
 49
-1.27
 74
     0
  0
LTYPE
  5
6D
330
5
100
AcDbSymbolTableRecord
100
AcDbLinetypeTableRecord
  2
SLD-Kette
 70
     0
  3
SolidWorks Line Style
 72
    65
 73
     4
 40
10.16
 49
6.35
 74
     0
 49
-1.27
 74
     0
 49
1.27
 74
     0
 49
-1.27
 74
     0
  0
LTYPE
  5
6E
330
5
100
AcDbSymbolTableRecord
100
AcDbLinetypeTableRecord
  2
SLD-Punktstrich
 70
     0
  3
SolidWorks Line Style
 72
    65
 73
     4
 40
19.05
 49
15.24
 74
     0
 49
-1.27
 74
     0
 49
1.27
 74
     0
 49
-1.27
 74
     0
  0
LTYPE
  5
6F
330
5
100
AcDbSymbolTableRecord
100
AcDbLinetypeTableRecord
  2
SLD-Naht
 70
     0
  3
SolidWorks Line Style
 72
    65
 73
     2
 40
0.635
 49
0.0
 74
     0
 49
-0.635
 74
     0
  0
LTYPE
  5
70
330
5
100
AcDbSymbolTableRecord
100
AcDbLinetypeTableRecord
  2
SLD-Dicke-Dünne-Kette
 70
     0
  3
SolidWorks Line Style
 72
    65
 73
     4
 40
10.16
 49
6.35
 74
     0
 49
-1.27
 74
     0
 49
1.27
 74
     0
 49
-1.27
 74
     0
  0
ENDTAB
  0
TABLE
  2
LAYER
  5
2
330
0
100
AcDbSymbolTable
 70
     4
  0
LAYER
  5
10
330
2
100
AcDbSymbolTableRecord
100
AcDbLayerTableRecord
  2
0
 70
     0
 62
     7
  6
Continuous
370
    -3
390
F
  0
LAYER
  5
71
330
2
100
AcDbSymbolTableRecord
100
AcDbLayerTableRecord
  2
1
 70
     0
 62
     4
  6
Continuous
370
    -1
390
F
  0
LAYER
  5
72
330
2
100
AcDbSymbolTableRecord
100
AcDbLayerTableRecord
  2
2
 70
     0
 62
     7
  6
SLD-Durchgehend
370
    -3
390
F
  0
LAYER
  5
129
330
2
100
AcDbSymbolTableRecord
100
AcDbLayerTableRecord
  2
Defpoints
 70
     0
 62
     7
  6
Continuous
290
     0
370
    -3
390
F
  0
ENDTAB
  0
TABLE
  2
STYLE
  5
3
330
0
100
AcDbSymbolTable
 70
     2
  0
STYLE
  5
11
330
3
100
AcDbSymbolTableRecord
100
AcDbTextStyleTableRecord
  2
Standard
 70
     0
 40
0.0
 41
1.0
 50
0.0
 71
     0
 42
3.5
  3
txt
  4

  0
STYLE
  5
BF
330
3
100
AcDbSymbolTableRecord
100
AcDbTextStyleTableRecord
  2
SLDTEXTSTYLE0
 70
     0
 40
0.0
 41
0.75
 50
0.0
 71
     0
 42
3.5
  3
TXT
  4

  0
ENDTAB
  0
TABLE
  2
VIEW
  5
6
330
0
100
AcDbSymbolTable
 70
     0
  0
ENDTAB
  0
TABLE
  2
UCS
  5
7
330
0
100
AcDbSymbolTable
 70
     0
  0
ENDTAB
  0
TABLE
  2
APPID
  5
9
330
0
100
AcDbSymbolTable
 70
     1
  0
APPID
  5
12
330
9
100
AcDbSymbolTableRecord
100
AcDbRegAppTableRecord
  2
ACAD
 70
     0
  0
ENDTAB
  0
TABLE
  2
DIMSTYLE
  5
A
330
0
100
AcDbSymbolTable
 70
     3
100
AcDbDimStyleTable
  0
DIMSTYLE
105
27
330
A
100
AcDbSymbolTableRecord
100
AcDbDimStyleTableRecord
  2
ISO-25
 70
     0
 41
2.5
 42
0.625
 43
3.75
 44
1.25
 73
     0
 74
     0
 77
     1
 78
     8
140
2.5
141
2.5
143
0.0393700787
147
0.625
171
     3
172
     1
178
     0
271
     2
272
     2
274
     3
278
    44
283
     0
284
     8
340
11
  0
DIMSTYLE
105
C0
102
{ACAD_REACTORS
330
BE
330
CA
102
}
330
A
100
AcDbSymbolTableRecord
100
AcDbDimStyleTableRecord
  2
SLDDIMSTYLE0
 70
     0
 41
3.302
 44
0.0
 45
0.000000001
 73
     0
 74
     0
 77
     1
 78
    12
 79
     3
140
3.5
147
0.875
173
     1
178
     0
271
     2
272
     2
276
     2
284
    12
340
BF
  0
DIMSTYLE
105
D5
102
{ACAD_REACTORS
330
D4
330
E1
102
}
330
A
100
AcDbSymbolTableRecord
100
AcDbDimStyleTableRecord
  2
SLDDIMSTYLE1
 70
     0
 41
3.302
 44
0.0
 45
0.000000001
 73
     0
 74
     0
 77
     1
 78
    12
 79
     3
140
3.5
147
0.875
172
     1
173
     1
178
     0
271
     2
272
     2
276
     2
284
    12
289
     0
340
BF
  0
ENDTAB
  0
TABLE
  2
BLOCK_RECORD
  5
1
330
0
100
AcDbSymbolTable
 70
     7
  0
BLOCK_RECORD
  5
1F
330
1
100
AcDbSymbolTableRecord
100
AcDbBlockTableRecord
  2
*Model_Space
340
22
  0
BLOCK_RECORD
  5
1B
330
1
100
AcDbSymbolTableRecord
100
AcDbBlockTableRecord
  2
*Paper_Space
340
1E
  0
BLOCK_RECORD
  5
23
330
1
100
AcDbSymbolTableRecord
100
AcDbBlockTableRecord
  2
*Paper_Space0
340
26
  0
BLOCK_RECORD
  5
C1
330
1
100
AcDbSymbolTableRecord
100
AcDbBlockTableRecord
  2
_D
340
0
  0
BLOCK_RECORD
  5
CB
330
1
100
AcDbSymbolTableRecord
100
AcDbBlockTableRecord
  2
_D_1
340
0
  0
BLOCK_RECORD
  5
D6
330
1
100
AcDbSymbolTableRecord
100
AcDbBlockTableRecord
  2
_D_2
340
0
  0
BLOCK_RECORD
  5
E2
330
1
100
AcDbSymbolTableRecord
100
AcDbBlockTableRecord
  2
_D_3
340
0
  0
BLOCK_RECORD
  5
EE
330
1
100
AcDbSymbolTableRecord
100
AcDbBlockTableRecord
  2
SW_CENTERMARKSYMBOL_0
340
0
102
{BLKREFS
331
0
102
}
  0
BLOCK_RECORD
  5
FA
330
1
100
AcDbSymbolTableRecord
100
AcDbBlockTableRecord
  2
SW_CENTERMARKSYMBOL_1
340
0
102
{BLKREFS
331
0
102
}
  0
ENDTAB
  0
ENDSEC
  0
SECTION
  2
BLOCKS
  0
BLOCK
  5
20
330
1F
100
AcDbEntity
  8
0
100
AcDbBlockBegin
  2
*Model_Space
 70
     0
 10
0.0
 20
0.0
 30
0.0
  3
*Model_Space
  1
*Model_Space
  0
ENDBLK
  5
21
330
1F
100
AcDbEntity
  8
0
100
AcDbBlockEnd
  0
BLOCK
  5
1C
330
1B
100
AcDbEntity
 67
     1
  8
0
100
AcDbBlockBegin
  2
*Paper_Space
 70
     0
 10
0.0
 20
0.0
 30
0.0
  3
*Paper_Space
  1
*Paper_Space
  0
ENDBLK
  5
1D
330
1B
100
AcDbEntity
 67
     1
  8
0
100
AcDbBlockEnd
  0
BLOCK
  5
24
330
23
100
AcDbEntity
  8
0
100
AcDbBlockBegin
  2
*Paper_Space0
 70
     0
 10
0.0
 20
0.0
 30
0.0
  3
*Paper_Space0
  1
*Paper_Space0
  0
ENDBLK
  5
25
330
23
100
AcDbEntity
  8
0
100
AcDbBlockEnd
  0
BLOCK
  5
C2
330
C1
100
AcDbEntity
  8
0
100
AcDbBlockBegin
  2
_D
 70
     0
 10
0.0
 20
0.0
 30
0.0
  3
_D
  1
_D
  0
LINE
  5
C4
330
C1
100
AcDbEntity
  8
2
  6
SLD-Durchgehend
 62
     0
370
    -2
100
AcDbLine
 10
0.0027086782
 20
0.0605059343
 30
0.0
 11
0.0027086782000083
 21
14.7536384861
 31
0.0
  0
LINE
  5
C5
330
C1
100
AcDbEntity
  8
2
  6
SLD-Durchgehend
 62
     0
370
    -2
100
AcDbLine
 10
200.0027086782
 20
0.0605059343
 30
0.0
 11
200.0027086782
 21
14.7536384861
 31
0.0
  0
LINE
  5
C6
330
C1
100
AcDbEntity
  8
2
  6
SLD-Durchgehend
 62
     0
370
    -2
100
AcDbLine
 10
3.304708678200008
 20
14.7536384861
 30
0.0
 11
196.7007086782
 21
14.7536384861
 31
0.0
  0
SOLID
  5
C7
330
C1
100
AcDbEntity
  8
2
 62
     0
100
AcDbTrace
 10
3.304708678200008
 20
15.30397181943333
 30
0.0
 11
3.304708678200008
 21
14.20330515276667
 31
0.0
 12
0.0027086782000083
 22
14.7536384861
 32
0.0
 13
0.0027086782000083
 23
14.7536384861
 33
0.0
  0
SOLID
  5
C8
330
C1
100
AcDbEntity
  8
2
 62
     0
100
AcDbTrace
 10
196.7007086782
 20
14.20330515276667
 30
0.0
 11
196.7007086782
 21
15.30397181943333
 31
0.0
 12
200.0027086782
 22
14.7536384861
 32
0.0
 13
200.0027086782
 23
14.7536384861
 33
0.0
  0
MTEXT
  5
C9
330
C1
100
AcDbEntity
  8
2
 62
     0
370
    15
100
AcDbMText
 10
100.0027086782
 20
19.1286384861
 30
0.0
 40
3.5
 41
0.0
 71
     2
 72
     1
  1
\A1;200
  7
SLDTEXTSTYLE0
 73
     1
 44
1.0
  0
POINT
  5
12A
330
C1
100
AcDbEntity
  8
Defpoints
 62
     0
100
AcDbPoint
 10
0.0027086782
 20
-0.0019940657
 30
0.0
  0
POINT
  5
12B
330
C1
100
AcDbEntity
  8
Defpoints
 62
     0
100
AcDbPoint
 10
200.0027086782
 20
-0.0019940657
 30
0.0
  0
POINT
  5
12C
330
C1
100
AcDbEntity
  8
Defpoints
 62
     0
100
AcDbPoint
 10
200.0027086782
 20
14.7536384861
 30
0.0
  0
ENDBLK
  5
C3
330
C1
100
AcDbEntity
  8
0
100
AcDbBlockEnd
  0
BLOCK
  5
CC
330
CB
100
AcDbEntity
  8
0
100
AcDbBlockBegin
  2
_D_1
 70
     0
 10
0.0
 20
0.0
 30
0.0
  3
_D_1
  1
_D_1
  0
LINE
  5
CE
330
CB
100
AcDbEntity
  8
2
  6
SLD-Durchgehend
 62
     0
370
    -2
100
AcDbLine
 10
200.0027086782
 20
-0.0644940657
 30
0.0
 11
200.0027086782
 21
-16.961789789
 31
0.0
  0
LINE
  5
CF
330
CB
100
AcDbEntity
  8
2
  6
SLD-Durchgehend
 62
     0
370
    -2
100
AcDbLine
 10
174.9027086782
 20
-0.0644940657
 30
0.0
 11
174.9027086782
 21
-16.961789789
 31
0.0
  0
LINE
  5
D0
330
CB
100
AcDbEntity
  8
2
  6
SLD-Durchgehend
 62
     0
370
    -2
100
AcDbLine
 10
196.7007086782
 20
-16.961789789
 30
0.0
 11
178.2047086782
 21
-16.961789789
 31
0.0
  0
SOLID
  5
D1
330
CB
100
AcDbEntity
  8
2
 62
     0
100
AcDbTrace
 10
196.7007086782
 20
-17.51212312233334
 30
0.0
 11
196.7007086782
 21
-16.41145645566667
 31
0.0
 12
200.0027086782
 22
-16.961789789
 32
0.0
 13
200.0027086782
 23
-16.961789789
 33
0.0
  0
SOLID
  5
D2
330
CB
100
AcDbEntity
  8
2
 62
     0
100
AcDbTrace
 10
178.2047086782
 20
-16.41145645566667
 30
0.0
 11
178.2047086782
 21
-17.51212312233334
 31
0.0
 12
174.9027086782
 22
-16.961789789
 32
0.0
 13
174.9027086782
 23
-16.961789789
 33
0.0
  0
MTEXT
  5
D3
330
CB
100
AcDbEntity
  8
2
 62
     0
370
    15
100
AcDbMText
 10
187.4527086782
 20
-12.586789789
 30
0.0
 40
3.5
 41
0.0
 71
     2
 72
     1
  1
\A1;25.1
  7
SLDTEXTSTYLE0
 73
     1
 44
1.0
  0
POINT
  5
12D
330
CB
100
AcDbEntity
  8
Defpoints
 62
     0
100
AcDbPoint
 10
200.0027086782
 20
-0.0019940657
 30
0.0
  0
POINT
  5
12E
330
CB
100
AcDbEntity
  8
Defpoints
 62
     0
100
AcDbPoint
 10
174.9027086782
 20
-0.0019940657
 30
0.0
  0
POINT
  5
12F
330
CB
100
AcDbEntity
  8
Defpoints
 62
     0
100
AcDbPoint
 10
174.9027086782
 20
-16.961789789
 30
0.0
  0
ENDBLK
  5
CD
330
CB
100
AcDbEntity
  8
0
100
AcDbBlockEnd
  0
BLOCK
  5
D7
330
D6
100
AcDbEntity
  8
0
100
AcDbBlockBegin
  2
_D_2
 70
     0
 10
0.0
 20
0.0
 30
0.0
  3
_D_2
  1
_D_2
  0
LINE
  5
D9
330
D6
100
AcDbEntity
  8
2
  6
SLD-Durchgehend
 62
     0
370
    -2
100
AcDbLine
 10
200.0652086782
 20
-11.0019940657
 30
0.0
 11
205.96515018
 21
-11.0019940657
 31
0.0
  0
LINE
  5
DA
330
D6
100
AcDbEntity
  8
2
  6
SLD-Durchgehend
 62
     0
370
    -2
100
AcDbLine
 10
200.0652086782
 20
-0.0019940657
 30
0.0
 11
205.96515018
 21
-0.0019940656999999
 31
0.0
  0
LINE
  5
DB
330
D6
100
AcDbEntity
  8
2
  6
SLD-Durchgehend
 62
     0
370
    -2
100
AcDbLine
 10
205.96515018
 20
-7.6999940657
 30
0.0
 11
205.96515018
 21
-3.3039940657
 31
0.0
  0
SOLID
  5
DC
330
D6
100
AcDbEntity
  8
2
 62
     0
100
AcDbTrace
 10
205.4148168466667
 20
-7.6999940657
 30
0.0
 11
206.5154835133333
 21
-7.6999940657
 31
0.0
 12
205.96515018
 22
-11.0019940657
 32
0.0
 13
205.96515018
 23
-11.0019940657
 33
0.0
  0
SOLID
  5
DD
330
D6
100
AcDbEntity
  8
2
 62
     0
100
AcDbTrace
 10
206.5154835133333
 20
-3.3039940657
 30
0.0
 11
205.4148168466667
 21
-3.3039940657
 31
0.0
 12
205.96515018
 22
-0.0019940656999999
 32
0.0
 13
205.96515018
 23
-0.0019940656999999
 33
0.0
  0
MTEXT
  5
DE
330
D6
100
AcDbEntity
  8
2
 62
     0
370
    15
100
AcDbMText
 10
201.59015018
 20
-5.5019940657
 30
0.0
 40
3.5
 41
0.0
 71
     2
 72
     1
  1
\A1;11
  7
SLDTEXTSTYLE0
 11
0.0
 21
1.0
 31
0.0
 73
     1
 44
1.0
  0
POINT
  5
DF
330
D6
100
AcDbEntity
  8
Defpoints
 62
     0
100
AcDbPoint
 10
200.0027086782
 20
-11.0019940657
 30
0.0
  0
POINT
  5
E0
330
D6
100
AcDbEntity
  8
Defpoints
 62
     0
100
AcDbPoint
 10
200.0027086782
 20
-0.0019940657
 30
0.0
  0
POINT
  5
130
330
D6
100
AcDbEntity
  8
Defpoints
 62
     0
100
AcDbPoint
 10
205.96515018
 20
-0.0019940657000004
 30
0.0
  0
ENDBLK
  5
D8
330
D6
100
AcDbEntity
  8
0
100
AcDbBlockEnd
  0
BLOCK
  5
E3
330
E2
100
AcDbEntity
  8
0
100
AcDbBlockBegin
  2
_D_3
 70
     0
 10
0.0
 20
0.0
 30
0.0
  3
_D_3
  1
_D_3
  0
LINE
  5
E5
330
E2
100
AcDbEntity
  8
2
  6
SLD-Durchgehend
 62
     0
370
    -2
100
AcDbLine
 10
-0.0597913218
 20
7.9980059343
 30
0.0
 11
-5.997291321799999
 21
7.9980059343
 31
0.0
  0
LINE
  5
E6
330
E2
100
AcDbEntity
  8
2
  6
SLD-Durchgehend
 62
     0
370
    -2
100
AcDbLine
 10
-0.0597913218
 20
-8.0019940657
 30
0.0
 11
-5.997291321800001
 21
-8.0019940657
 31
0.0
  0
LINE
  5
E7
330
E2
100
AcDbEntity
  8
2
  6
SLD-Durchgehend
 62
     0
370
    -2
100
AcDbLine
 10
-5.997291321799999
 20
4.6960059343
 30
0.0
 11
-5.997291321800001
 21
-4.6999940657
 31
0.0
  0
SOLID
  5
E8
330
E2
100
AcDbEntity
  8
2
 62
     0
100
AcDbTrace
 10
-5.446957988466665
 20
4.6960059343
 30
0.0
 11
-6.547624655133332
 21
4.6960059343
 31
0.0
 12
-5.997291321799999
 22
7.9980059343
 32
0.0
 13
-5.997291321799999
 23
7.9980059343
 33
0.0
  0
SOLID
  5
E9
330
E2
100
AcDbEntity
  8
2
 62
     0
100
AcDbTrace
 10
-6.547624655133334
 20
-4.6999940657
 30
0.0
 11
-5.446957988466667
 21
-4.6999940657
 31
0.0
 12
-5.997291321800001
 22
-8.0019940657
 32
0.0
 13
-5.997291321800001
 23
-8.0019940657
 33
0.0
  0
MTEXT
  5
EA
330
E2
100
AcDbEntity
  8
2
 62
     0
370
    15
100
AcDbMText
 10
-10.3722913218
 20
-0.0019940656999997
 30
0.0
 40
3.5
 41
0.0
 71
     2
 72
     1
  1
\A1;%%c16
  7
SLDTEXTSTYLE0
 11
5.551115123125783E-17
 21
1.0
 31
0.0
 73
     1
 44
1.0
  0
POINT
  5
EB
330
E2
100
AcDbEntity
  8
Defpoints
 62
     0
100
AcDbPoint
 10
0.0027086782
 20
7.9980059343
 30
0.0
  0
POINT
  5
EC
330
E2
100
AcDbEntity
  8
Defpoints
 62
     0
100
AcDbPoint
 10
0.0027086782
 20
-8.0019940657
 30
0.0
  0
POINT
  5
ED
330
E2
100
AcDbEntity
  8
Defpoints
 62
     0
100
AcDbPoint
 10
-5.9972913218
 20
-8.0019940657
 30
0.0
  0
ENDBLK
  5
E4
330
E2
100
AcDbEntity
  8
0
100
AcDbBlockEnd
  0
BLOCK
  5
EF
330
EE
100
AcDbEntity
  8
0
100
AcDbBlockBegin
  2
SW_CENTERMARKSYMBOL_0
 70
     0
 10
0.0
 20
0.0
 30
0.0
  3
SW_CENTERMARKSYMBOL_0
  1
SW_CENTERMARKSYMBOL_0
  0
LINE
  5
F1
330
EE
100
AcDbEntity
  8
0
  6
SLD-Punktstrich
 62
     0
370
    15
100
AcDbLine
 10
0.0
 20
0.0
 30
0.0
 11
0.0
 21
2.5
 31
0.0
  0
LINE
  5
F2
330
EE
100
AcDbEntity
  8
0
  6
SLD-Punktstrich
 62
     0
370
    15
100
AcDbLine
 10
0.0
 20
0.0
 30
0.0
 11
-2.5
 21
0.0
 31
0.0
  0
LINE
  5
F3
330
EE
100
AcDbEntity
  8
0
  6
SLD-Punktstrich
 62
     0
370
    15
100
AcDbLine
 10
0.0
 20
0.0
 30
0.0
 11
0.0
 21
-2.5
 31
0.0
  0
LINE
  5
F4
330
EE
100
AcDbEntity
  8
0
  6
SLD-Punktstrich
 62
     0
370
    15
100
AcDbLine
 10
0.0
 20
0.0
 30
0.0
 11
2.5
 21
0.0
 31
0.0
  0
LINE
  5
F5
330
EE
100
AcDbEntity
  8
0
  6
SLD-Punktstrich
 62
     0
370
    15
100
AcDbLine
 10
0.0
 20
2.5
 30
0.0
 11
0.0
 21
4.7
 31
0.0
  0
LINE
  5
F6
330
EE
100
AcDbEntity
  8
0
  6
SLD-Punktstrich
 62
     0
370
    15
100
AcDbLine
 10
-2.5
 20
0.0
 30
0.0
 11
-4.7
 21
0.0
 31
0.0
  0
LINE
  5
F7
330
EE
100
AcDbEntity
  8
0
  6
SLD-Punktstrich
 62
     0
370
    15
100
AcDbLine
 10
0.0
 20
-2.5
 30
0.0
 11
0.0
 21
-4.7
 31
0.0
  0
LINE
  5
F8
330
EE
100
AcDbEntity
  8
0
  6
SLD-Punktstrich
 62
     0
370
    15
100
AcDbLine
 10
2.5
 20
0.0
 30
0.0
 11
4.7
 21
0.0
 31
0.0
  0
ENDBLK
  5
F0
330
EE
100
AcDbEntity
  8
0
100
AcDbBlockEnd
  0
BLOCK
  5
FB
330
FA
100
AcDbEntity
  8
0
100
AcDbBlockBegin
  2
SW_CENTERMARKSYMBOL_1
 70
     0
 10
0.0
 20
0.0
 30
0.0
  3
SW_CENTERMARKSYMBOL_1
  1
SW_CENTERMARKSYMBOL_1
  0
LINE
  5
FD
330
FA
100
AcDbEntity
  8
0
  6
SLD-Punktstrich
 62
     0
370
    15
100
AcDbLine
 10
0.0
 20
0.0
 30
0.0
 11
0.0
 21
2.5
 31
0.0
  0
LINE
  5
FE
330
FA
100
AcDbEntity
  8
0
  6
SLD-Punktstrich
 62
     0
370
    15
100
AcDbLine
 10
0.0
 20
0.0
 30
0.0
 11
-2.5
 21
0.0
 31
0.0
  0
LINE
  5
FF
330
FA
100
AcDbEntity
  8
0
  6
SLD-Punktstrich
 62
     0
370
    15
100
AcDbLine
 10
0.0
 20
0.0
 30
0.0
 11
0.0
 21
-2.5
 31
0.0
  0
LINE
  5
100
330
FA
100
AcDbEntity
  8
0
  6
SLD-Punktstrich
 62
     0
370
    15
100
AcDbLine
 10
0.0
 20
0.0
 30
0.0
 11
2.5
 21
0.0
 31
0.0
  0
LINE
  5
101
330
FA
100
AcDbEntity
  8
0
  6
SLD-Punktstrich
 62
     0
370
    15
100
AcDbLine
 10
0.0
 20
2.5
 30
0.0
 11
0.0
 21
4.7
 31
0.0
  0
LINE
  5
102
330
FA
100
AcDbEntity
  8
0
  6
SLD-Punktstrich
 62
     0
370
    15
100
AcDbLine
 10
-2.5
 20
0.0
 30
0.0
 11
-4.7
 21
0.0
 31
0.0
  0
LINE
  5
103
330
FA
100
AcDbEntity
  8
0
  6
SLD-Punktstrich
 62
     0
370
    15
100
AcDbLine
 10
0.0
 20
-2.5
 30
0.0
 11
0.0
 21
-4.7
 31
0.0
  0
LINE
  5
104
330
FA
100
AcDbEntity
  8
0
  6
SLD-Punktstrich
 62
     0
370
    15
100
AcDbLine
 10
2.5
 20
0.0
 30
0.0
 11
4.7
 21
0.0
 31
0.0
  0
ENDBLK
  5
FC
330
FA
100
AcDbEntity
  8
0
100
AcDbBlockEnd
  0
ENDSEC
  0
SECTION
  2
ENTITIES
  0
LINE
  5
73
330
1F
100
AcDbEntity
  8
0
  6
SLD-Punktstrich
 62
     7
100
AcDbLine
 10
0.0027086782
 20
-7.9651636526
 30
0.0
 11
0.0027086782
 21
7.9611755212
 31
0.0
  0
LINE
  5
74
330
1F
100
AcDbEntity
  8
0
  6
SLD-Punktstrich
 62
     7
100
AcDbLine
 10
0.0027086782
 20
-0.0019940657
 30
0.0
 11
200.0027086782
 21
-0.0019940657
 31
0.0
  0
POINT
  5
77
330
1F
100
AcDbEntity
  8
1
 62
     4
420
    65535
100
AcDbPoint
 10
0.0027086782
 20
-0.0019940657
 30
0.0
  0
POINT
  5
78
330
1F
100
AcDbEntity
  8
1
 62
     4
420
    65535
100
AcDbPoint
 10
174.9027086782
 20
-0.0019940657
 30
0.0
  0
POINT
  5
79
330
1F
100
AcDbEntity
  8
1
 62
     4
420
    65535
100
AcDbPoint
 10
200.0027086782
 20
-0.0019940657
 30
0.0
  0
LINE
  5
7A
330
1F
100
AcDbEntity
  8
1
 62
     4
420
    65535
100
AcDbLine
 10
189.9671060481
 20
-0.6414493765
 30
0.0
 11
189.9665374654
 21
-0.6414493825
 31
0.0
  0
LINE
  5
7B
330
1F
100
AcDbEntity
  8
1
 62
     4
420
    65535
100
AcDbLine
 10
189.9665374654
 20
-0.6414493825
 30
0.0
 11
189.9659688851
 21
-0.6414509929
 31
0.0
  0
SPLINE
  5
7C
330
1F
100
AcDbEntity
  8
1
 62
     4
420
    65535
100
AcDbSpline
210
0.0
220
0.0
230
1.0
 70
     8
 71
     3
 72
    14
 73
    10
 74
     0
 42
0.000000001
 43
0.00000001
 40
0.0
 40
0.0
 40
0.0
 40
0.0
 40
0.0698265629338338
 40
0.2245326896115926
 40
0.3792009032533245
 40
0.5335877218829514
 40
0.6875512416969439
 40
0.8410547129473472
 40
1.0
 40
1.0
 40
1.0
 40
1.0
 10
192.5854549506192
 20
-5.71687794247907
 30
0.0
 10
192.5771179490621
 20
-5.639447474205591
 30
0.0
 10
192.5503096786236
 20
-5.390463841489721
 30
0.0
 10
192.6377553720967
 20
-4.9692725616738
 30
0.0
 10
192.8388797314231
 20
-4.490070560394719
 30
0.0
 10
193.1559731507007
 20
-4.071366697863898
 30
0.0
 10
193.5622792363181
 20
-3.740750571867256
 30
0.0
 10
194.0417685065323
 20
-3.502391007642475
 30
0.0
 10
194.3939685966259
 20
-3.446580421522858
 30
0.0
 10
194.573135717417
 20
-3.418189111281982
 30
0.0
  0
SPLINE
  5
7D
330
1F
100
AcDbEntity
  8
1
 62
     4
420
    65535
100
AcDbSpline
210
0.0
220
0.0
230
1.0
 70
     8
 71
     3
 72
    15
 73
    11
 74
     0
 42
0.000000001
 43
0.00000001
 40
0.0
 40
0.0
 40
0.0
 40
0.0
 40
0.0602396447493249
 40
0.2077745385956581
 40
0.3555973945613084
 40
0.5035655485217606
 40
0.6518461902652473
 40
0.8005514157838637
 40
0.9497059968371996
 40
1.0
 40
1.0
 40
1.0
 40
1.0
 10
194.573135717417
 20
-3.418189111281981
 30
0.0
 10
194.6437769977508
 20
-3.414121574636453
 30
0.0
 10
194.8874281595106
 20
-3.400092100305016
 30
0.0
 10
195.3061148903176
 20
-3.456111238926905
 30
0.0
 10
195.7964867156545
 20
-3.639618150008998
 30
0.0
 10
196.2289485132767
 20
-3.9330560496638
 30
0.0
 10
196.5818441585145
 20
-4.318118202043486
 30
0.0
 10
196.8250006932332
 20
-4.774502537212577
 30
0.0
 10
196.9494173974489
 20
-5.164405340143119
 30
0.0
 10
196.9482570895855
 20
-5.394116111071639
 30
0.0
 10
196.9479645002569
 20
-5.452041186273422
 30
0.0
  0
LINE
  5
7E
330
1F
100
AcDbEntity
  8
1
 62
     4
420
    65535
100
AcDbLine
 10
174.9027086782
 20
7.9980059343
 30
0.0
 11
1.2027086782
 21
7.9980059343
 31
0.0
  0
LINE
  5
7F
330
1F
100
AcDbEntity
  8
1
 62
     4
420
    65535
100
AcDbLine
 10
1.2027086782
 20
7.9980059343
 30
0.0
 11
0.0027086782
 21
6.7980059343
 31
0.0
  0
LINE
  5
80
330
1F
100
AcDbEntity
  8
1
 62
     4
420
    65535
100
AcDbLine
 10
0.0027086782
 20
-6.8019940657
 30
0.0
 11
0.7027086782
 21
-7.5019940657
 31
0.0
  0
LINE
  5
81
330
1F
100
AcDbEntity
  8
1
 62
     4
420
    65535
100
AcDbLine
 10
179.9027086782
 20
7.8480059343
 30
0.0
 11
174.9027086782
 21
7.8480059343
 31
0.0
  0
LINE
  5
82
330
1F
100
AcDbEntity
  8
1
 62
     4
420
    65535
100
AcDbLine
 10
180.216512682
 20
8.1618099381
 30
0.0
 11
179.9027086782
 21
7.8480059343
 31
0.0
  0
LINE
  5
83
330
1F
100
AcDbEntity
  8
1
 62
     4
420
    65535
100
AcDbLine
 10
179.9027086782
 20
-7.8519940657
 30
0.0
 11
180.3648726228
 21
-8.3141580104
 31
0.0
  0
LINE
  5
84
330
1F
100
AcDbEntity
  8
1
 62
     4
420
    65535
100
AcDbLine
 10
180.3648726228
 20
-8.3141580104
 30
0.0
 11
184.0623308384
 21
-9.3048889533
 31
0.0
  0
ARC
  5
85
330
1F
100
AcDbEntity
  8
1
 62
     4
420
    65535
100
AcDbCircle
 10
189.9657610907
 20
-1.0398375273
 30
0.0
 40
0.3985259011283757
100
AcDbArc
 50
84.78793324479999
 51
184.784616582
  0
LINE
  5
86
330
1F
100
AcDbEntity
  8
1
 62
     4
420
    65535
100
AcDbLine
 10
198.8278477207
 20
-1.4091822608
 30
0.0
 11
190.0019641065
 21
-0.6429594157
 31
0.0
  0
ARC
  5
87
330
1F
100
AcDbEntity
  8
1
 62
     4
420
    65535
100
AcDbCircle
 10
198.7946046905
 20
-1.806301464
 30
0.0
 40
0.3985081687220342
100
AcDbArc
 50
5.2149871188
 51
85.214900373
  0
LINE
  5
88
330
1F
100
AcDbEntity
  8
1
 62
     4
420
    65535
100
AcDbLine
 10
199.9636280592
 20
-10.5301604769
 30
0.0
 11
199.1914632974
 21
-1.770079831
 31
0.0
  0
ARC
  5
89
330
1F
100
AcDbEntity
  8
1
 62
     4
420
    65535
100
AcDbCircle
 10
199.5664909053
 20
-10.5634016381
 30
0.0
 40
0.3985259011283522
100
AcDbArc
 50
264.7879332448
 51
4.784616582
  0
LINE
  5
8A
330
1F
100
AcDbEntity
  8
1
 62
     4
420
    65535
100
AcDbLine
 10
190.7044042752
 20
-10.1940569046
 30
0.0
 11
199.5302878894
 21
-10.9602797498
 31
0.0
  0
ARC
  5
8B
330
1F
100
AcDbEntity
  8
1
 62
     4
420
    65535
100
AcDbCircle
 10
190.7376473054
 20
-9.7969377015
 30
0.0
 40
0.3985081687218793
100
AcDbArc
 50
185.2149871188
 51
265.214900373
  0
LINE
  5
8C
330
1F
100
AcDbEntity
  8
1
 62
     4
420
    65535
100
AcDbLine
 10
189.5686239367
 20
-1.0730786886
 30
0.0
 11
190.3407886985
 21
-9.8331593344
 31
0.0
  0
CIRCLE
  5
8D
330
1F
100
AcDbEntity
  8
1
 62
     4
420
    65535
100
AcDbCircle
 10
194.7668252187
 20
-5.8181380052
 30
0.0
 40
3.140447947896198
  0
ARC
  5
8E
330
1F
100
AcDbEntity
  8
1
 62
     4
420
    65535
100
AcDbCircle
 10
194.766073915
 20
-5.7649790061
 30
0.0
 40
3.118655535798947
100
AcDbArc
 50
145.567163412
 51
34.5957234085
  0
CIRCLE
  5
8F
330
1F
100
AcDbEntity
  8
1
 62
     4
420
    65535
100
AcDbCircle
 10
194.7667160362
 20
-5.7608912727
 30
0.0
 40
3.011209007539299
  0
LWPOLYLINE
  5
90
330
1F
100
AcDbEntity
  8
1
 62
     4
420
    65535
100
AcDbPolyline
 90
        3
 70
   128
 43
0.0
 10
192.565816403
 20
-5.5853819693
 10
192.5664709359
 20
-5.6356513414
 10
192.5700678604
 20
-5.7180223411
  0
LINE
  5
91
330
1F
100
AcDbEntity
  8
1
 62
     4
420
    65535
100
AcDbLine
 10
196.9658119578
 20
-5.5791275665
 30
0.0
 11
196.9617777668
 21
-5.4499955129
 31
0.0
  0
ARC
  5
92
330
1F
100
AcDbEntity
  8
1
 62
     4
420
    65535
100
AcDbCircle
 10
194.7657515603
 20
-5.3230577762
 30
0.0
 40
2.200337467382704
100
AcDbArc
 50
180.3887584931
 51
356.5508694915
  0
ELLIPSE
  5
93
330
1F
100
AcDbEntity
  8
1
 62
     4
420
    65535
100
AcDbEllipse
 10
212.4607141252
 20
-111.5502180151
 30
0.0
 11
-43.93480888929543
 21
163.9669389956786
 31
0.0
210
0.0
220
0.0
230
1.0
 40
0.1178195839
 41
0.7681150823177768
 42
0.8144172524411264
  0
SPLINE
  5
94
330
1F
100
AcDbEntity
  8
1
 62
     4
420
    65535
100
AcDbSpline
210
0.0
220
0.0
230
1.0
 70
     8
 71
     3
 72
    22
 73
    18
 74
     0
 42
0.000000001
 43
0.00000001
 40
0.0
 40
0.0
 40
0.0
 40
0.0
 40
0.2500000000000074
 40
0.2500000000000074
 40
0.3750000000000077
 40
0.3750000000000077
 40
0.5000000000000079
 40
0.5000000000000079
 40
0.6250000000000081
 40
0.6250000000000081
 40
0.7500000000000084
 40
0.7500000000000084
 40
0.8125000000000064
 40
0.8125000000000064
 40
0.8750000000000042
 40
0.8750000000000042
 40
1.0
 40
1.0
 40
1.0
 40
1.0
 10
174.9027086781506
 20
7.445640460407522
 30
0.0
 10
174.0663795011713
 20
7.346239991690912
 30
0.0
 10
173.2574350560291
 20
7.213972347788952
 30
0.0
 10
172.0923740461149
 20
6.928276722822836
 30
0.0
 10
171.7121394777174
 20
6.818287654932572
 30
0.0
 10
170.970286758323
 20
6.557827564730185
 30
0.0
 10
170.6128109293691
 20
6.408649673312145
 30
0.0
 10
169.9338560996672
 20
6.063371532048346
 30
0.0
 10
169.6114580289584
 20
5.867095169338412
 30
0.0
 10
169.0065929563826
 20
5.410728657749761
 30
0.0
 10
168.7305789429966
 20
5.155055304919419
 30
0.0
 10
168.3631782711385
 20
4.724498684959641
 30
0.0
 10
168.248295063269
 20
4.572954509569692
 30
0.0
 10
168.034579194735
 20
4.251795537961214
 30
0.0
 10
167.9356904262693
 20
4.081653321541041
 30
0.0
 10
167.6718176322495
 20
3.556321694980701
 30
0.0
 10
167.5362405504795
 20
3.182130290964558
 30
0.0
 10
167.4397183561564
 20
2.781888115705794
 30
0.0
  0
LINE
  5
95
330
1F
100
AcDbEntity
  8
1
 62
     4
420
    65535
100
AcDbLine
 10
174.9027086782
 20
7.2868246124
 30
0.0
 11
174.9027086782
 21
7.4456404604
 31
0.0
  0
SPLINE
  5
96
330
1F
100
AcDbEntity
  8
1
 62
     4
420
    65535
100
AcDbSpline
210
0.0
220
0.0
230
1.0
 70
     8
 71
     3
 72
    10
 73
     6
 74
     0
 42
0.000000001
 43
0.00000001
 40
0.0
 40
0.0
 40
0.0
 40
0.0
 40
0.5
 40
0.5
 40
1.0
 40
1.0
 40
1.0
 40
1.0
 10
179.9027086781506
 20
7.583102494375518
 30
0.0
 10
179.0496593793003
 20
7.56969878009104
 30
0.0
 10
178.2062363480148
 20
7.543093282855603
 30
0.0
 10
176.5391048917523
 20
7.451118702017116
 30
0.0
 10
175.7153681439339
 20
7.386014430085529
 30
0.0
 10
174.9027086781506
 20
7.286824612386668
 30
0.0
  0
SPLINE
  5
97
330
1F
100
AcDbEntity
  8
1
 62
     4
420
    65535
100
AcDbSpline
210
0.0
220
0.0
230
1.0
 70
     8
 71
     3
 72
     8
 73
     4
 74
     0
 42
0.000000001
 43
0.00000001
 40
0.0000002848544016
 40
0.0000002848544016
 40
0.0000002848544016
 40
0.0000002848544016
 40
0.0006599483694577
 40
0.0006599483694577
 40
0.0006599483694577
 40
0.0006599483694577
 10
180.3648726228491
 20
8.052835887722171
 30
0.0
 10
180.2104983305648
 20
7.896765592696528
 30
0.0
 10
180.056401083851
 20
7.740182556443776
 30
0.0
 10
179.9027086781502
 20
7.583102494375892
 30
0.0
  0
SPLINE
  5
98
330
1F
100
AcDbEntity
  8
1
 62
     4
420
    65535
100
AcDbSpline
210
0.0
220
0.0
230
1.0
 70
     8
 71
     3
 72
     8
 73
     4
 74
     0
 42
0.000000001
 43
0.00000001
 40
0.0
 40
0.0
 40
0.0
 40
0.0
 40
1.0
 40
1.0
 40
1.0
 40
1.0
 10
180.5455991450731
 20
8.102646380081447
 30
0.0
 10
180.4853719565362
 20
8.086122277762222
 30
0.0
 10
180.4251296946576
 20
8.069519269087111
 30
0.0
 10
180.3648726228495
 20
8.052835887721814
 30
0.0
  0
LINE
  5
99
330
1F
100
AcDbEntity
  8
1
 62
     4
420
    65535
100
AcDbLine
 10
181.0744430463
 20
8.0093969317
 30
0.0
 11
180.5455991451
 21
8.1026463801
 31
0.0
  0
LINE
  5
9A
330
1F
100
AcDbEntity
  8
1
 62
     4
420
    65535
100
AcDbLine
 10
185.7991409335
 20
-9.6234156338
 30
0.0
 11
181.0744430463
 21
8.0093969317
 31
0.0
  0
SPLINE
  5
9B
330
1F
100
AcDbEntity
  8
1
 62
     4
420
    65535
100
AcDbSpline
210
0.0
220
0.0
230
1.0
 70
     8
 71
     3
 72
     8
 73
     4
 74
     0
 42
0.000000001
 43
0.00000001
 40
0.0
 40
0.0
 40
0.0
 40
0.0
 40
1.0
 40
1.0
 40
1.0
 40
1.0
 10
185.0027086781506
 20
-9.556253429304734
 30
0.0
 10
185.2682211410457
 20
-9.57859854207004
 30
0.0
 10
185.5336994653331
 20
-9.600975194649424
 30
0.0
 10
185.799140933484
 20
-9.623415633771787
 30
0.0
  0
SPLINE
  5
9C
330
1F
100
AcDbEntity
  8
1
 62
     4
420
    65535
100
AcDbSpline
210
0.0
220
0.0
230
1.0
 70
     8
 71
     3
 72
     8
 73
     4
 74
     0
 42
0.000000001
 43
0.00000001
 40
0.0
 40
0.0
 40
0.0
 40
0.0
 40
1.0
 40
1.0
 40
1.0
 40
1.0
 10
180.3648726228495
 20
-8.289085611962753
 30
0.0
 10
181.8829554984709
 20
-8.727840173077118
 30
0.0
 10
183.4323248177513
 20
-9.136630609663683
 30
0.0
 10
185.0027086781506
 20
-9.556253429304736
 30
0.0
  0
SPLINE
  5
9D
330
1F
100
AcDbEntity
  8
1
 62
     4
420
    65535
100
AcDbSpline
210
0.0
220
0.0
230
1.0
 70
     8
 71
     3
 72
     8
 73
     4
 74
     0
 42
0.000000001
 43
0.00000001
 40
0.0000002949373946
 40
0.0000002949373946
 40
0.0000002949373946
 40
0.0000002949373946
 40
0.0006794737781928
 40
0.0006794737781928
 40
0.0006794737781928
 40
0.0006794737781928
 10
179.9027086781506
 20
-7.81234566533977
 30
0.0
 10
180.0562266966919
 20
-7.971529962158781
 30
0.0
 10
180.2103124174115
 20
-8.130415769405849
 30
0.0
 10
180.3648726228495
 20
-8.289085611962767
 30
0.0
  0
LINE
  5
9E
330
1F
100
AcDbEntity
  8
1
 62
     4
420
    65535
100
AcDbLine
 10
179.9027086782
 20
-7.5019940657
 30
0.0
 11
179.9027086782
 21
-7.8123456653
 31
0.0
  0
LINE
  5
9F
330
1F
100
AcDbEntity
  8
1
 62
     4
420
    65535
100
AcDbLine
 10
175.7851194595
 20
-7.5019940657
 30
0.0
 11
179.9027086782
 21
-7.5019940657
 31
0.0
  0
SPLINE
  5
A0
330
1F
100
AcDbEntity
  8
1
 62
     4
420
    65535
100
AcDbSpline
210
0.0
220
0.0
230
1.0
 70
     8
 71
     3
 72
     8
 73
     4
 74
     0
 42
0.000000001
 43
0.00000001
 40
0.0
 40
0.0
 40
0.0
 40
0.0
 40
1.0
 40
1.0
 40
1.0
 40
1.0
 10
174.9027086781506
 20
-7.34724737424389
 30
0.0
 10
175.1937863132146
 20
-7.406253455817097
 30
0.0
 10
175.4879249069566
 20
-7.457356116648499
 30
0.0
 10
175.7851194595478
 20
-7.501994065710293
 30
0.0
  0
LINE
  5
A1
330
1F
100
AcDbEntity
  8
1
 62
     4
420
    65535
100
AcDbLine
 10
174.9027086782
 20
-7.5019940657
 30
0.0
 11
174.9027086782
 21
-7.3472473742
 31
0.0
  0
LINE
  5
A2
330
1F
100
AcDbEntity
  8
1
 62
     4
420
    65535
100
AcDbLine
 10
174.8827025798
 20
-7.5019940657
 30
0.0
 11
174.9027086782
 21
-7.5019940657
 31
0.0
  0
SPLINE
  5
A3
330
1F
100
AcDbEntity
  8
1
 62
     4
420
    65535
100
AcDbSpline
210
0.0
220
0.0
230
1.0
 70
     8
 71
     3
 72
    20
 73
    16
 74
     0
 42
0.000000001
 43
0.00000001
 40
0.0
 40
0.0
 40
0.0
 40
0.0
 40
0.1249999999999999
 40
0.1249999999999999
 40
0.2499999999999999
 40
0.2499999999999999
 40
0.3749999999999999
 40
0.3749999999999999
 40
0.5
 40
0.5
 40
0.625
 40
0.625
 40
0.75
 40
0.75
 40
1.0
 40
1.0
 40
1.0
 40
1.0
 10
168.2577353310982
 20
-2.785876247124471
 30
0.0
 10
168.4303603782168
 20
-3.129820213757833
 30
0.0
 10
168.6224263132524
 20
-3.458748615974554
 30
0.0
 10
169.0338925885465
 20
-4.072097784942016
 30
0.0
 10
169.2545705615056
 20
-4.35913311280751
 30
0.0
 10
169.7263101327171
 20
-4.897069947345597
 30
0.0
 10
169.9772797262073
 20
-5.14727179160588
 30
0.0
 10
170.497397933285
 20
-5.602984799951444
 30
0.0
 10
170.7680900468496
 20
-5.810321097313392
 30
0.0
 10
171.3311686183372
 20
-6.188904040429912
 30
0.0
 10
171.6235629680701
 20
-6.360125509310039
 30
0.0
 10
172.2307823562783
 20
-6.670309119356692
 30
0.0
 10
172.5455582285859
 20
-6.8090238319182
 30
0.0
 10
173.508438007538
 20
-7.176845385055997
 30
0.0
 10
174.1802606663614
 20
-7.360768354860253
 30
0.0
 10
174.8827025798163
 20
-7.501994065709165
 30
0.0
  0
LINE
  5
A4
330
1F
100
AcDbEntity
  8
1
 62
     4
420
    65535
100
AcDbLine
 10
174.9027086782
 20
7.9980059343
 30
0.0
 11
174.9027086782
 21
7.4456404604
 31
0.0
  0
LINE
  5
A5
330
1F
100
AcDbEntity
  8
1
 62
     4
420
    65535
100
AcDbLine
 10
167.4397183562
 20
2.7818881157
 30
0.0
 11
1.2027086782
 21
2.7818881157
 31
0.0
  0
LINE
  5
A6
330
1F
100
AcDbEntity
  8
1
 62
     4
420
    65535
100
AcDbLine
 10
1.2027086782
 20
7.9980059343
 30
0.0
 11
1.2027086782
 21
2.7818881157
 31
0.0
  0
LINE
  5
A7
330
1F
100
AcDbEntity
  8
1
 62
     4
420
    65535
100
AcDbLine
 10
1.2027086782
 20
-2.7858762471
 30
0.0
 11
1.2027086782
 21
-7.5019940657
 31
0.0
  0
LINE
  5
A8
330
1F
100
AcDbEntity
  8
1
 62
     4
420
    65535
100
AcDbLine
 10
1.2027086782
 20
-2.7858762471
 30
0.0
 11
168.2577353311
 21
-2.7858762471
 31
0.0
  0
LINE
  5
A9
330
1F
100
AcDbEntity
  8
1
 62
     4
420
    65535
100
AcDbLine
 10
174.8827025798
 20
-7.5019940657
 30
0.0
 11
1.2027086782
 21
-7.5019940657
 31
0.0
  0
LINE
  5
AA
330
1F
100
AcDbEntity
  8
1
 62
     4
420
    65535
100
AcDbLine
 10
0.0027086782
 20
-0.0019940657
 30
0.0
 11
0.0027086782
 21
-6.8019940657
 31
0.0
  0
LINE
  5
AB
330
1F
100
AcDbEntity
  8
1
 62
     4
420
    65535
100
AcDbLine
 10
0.0027086782
 20
6.7980059343
 30
0.0
 11
0.0027086782
 21
-0.0019940657
 31
0.0
  0
SPLINE
  5
AC
330
1F
100
AcDbEntity
  8
1
 62
     4
420
    65535
100
AcDbSpline
210
0.0
220
0.0
230
1.0
 70
     8
 71
     3
 72
    16
 73
    12
 74
     0
 42
0.000000001
 43
0.00000001
 40
0.0
 40
0.0
 40
0.0
 40
0.0
 40
0.2499999999999999
 40
0.2499999999999999
 40
0.4999999999999999
 40
0.4999999999999999
 40
0.6249999999999999
 40
0.6249999999999999
 40
0.7499999999999998
 40
0.7499999999999998
 40
1.0
 40
1.0
 40
1.0
 40
1.0
 10
1.202708678150555
 20
2.781888115705796
 30
0.0
 10
1.047621398958639
 20
2.336216153789445
 30
0.0
 10
0.9202585464727735
 20
1.874268375587086
 30
0.0
 10
0.748015946131277
 20
0.9421704045086786
 30
0.0
 10
0.7026575183197835
 20
0.4719867516838869
 30
0.0
 10
0.7027343234871034
 20
-0.2401977248567149
 30
0.0
 10
0.7142215577698764
 20
-0.4796431269894776
 30
0.0
 10
0.7590002042225218
 20
-0.9521858947847208
 30
0.0
 10
0.7921957687896732
 20
-1.186150557679646
 30
0.0
 10
0.9212481152632577
 20
-1.881754751609352
 30
0.0
 10
1.046544639791027
 20
-2.337110018719543
 30
0.0
 10
1.202708678150588
 20
-2.785876247124135
 30
0.0
  0
SPLINE
  5
AD
330
1F
100
AcDbEntity
  8
1
 62
     4
420
    65535
100
AcDbSpline
210
0.0
220
0.0
230
1.0
 70
    24
 71
     3
 72
    10
 73
     6
 74
     0
 42
0.000000001
 43
0.00000001
 40
0.0
 40
0.0
 40
0.0
 40
0.0
 40
0.4128917763167485
 40
0.8330781527373246
 40
1.0
 40
1.0
 40
1.0
 40
1.0
 10
1.202708678150598
 20
-7.501994065709193
 30
0.0
 10
1.08777941429761
 20
-7.501994065709193
 30
0.0
 10
0.8558904198492003
 20
-7.501994065709191
 30
0.0
 10
0.7017092250049383
 20
-7.501994065709187
 30
0.0
 10
0.7186366851014425
 20
-7.501994065709187
 30
0.0
 10
0.7234493632326515
 20
-7.501994065709187
 30
0.0
  0
LINE
  5
AE
330
1F
100
AcDbEntity
  8
1
 62
     4
420
    65535
100
AcDbLine
 10
179.9027086782
 20
7.8480059343
 30
0.0
 11
179.9027086782
 21
7.5831024944
 31
0.0
  0
LINE
  5
AF
330
1F
100
AcDbEntity
  8
1
 62
     4
420
    65535
100
AcDbLine
 10
175.7851194595
 20
-7.5019940657
 30
0.0
 11
174.9027086782
 21
-7.5019940657
 31
0.0
  0
LINE
  5
B0
330
1F
100
AcDbEntity
  8
1
 62
     4
420
    65535
100
AcDbLine
 10
180.3648726228
 20
8.1345133421
 30
0.0
 11
180.3648726228
 21
8.0528358877
 31
0.0
  0
SPLINE
  5
B1
330
1F
100
AcDbEntity
  8
1
 62
     4
420
    65535
100
AcDbSpline
210
0.0
220
0.0
230
1.0
 70
    24
 71
     3
 72
     8
 73
     4
 74
     0
 42
0.000000001
 43
0.00000001
 40
0.0
 40
0.0
 40
0.0
 40
0.0
 40
1.0
 40
1.0
 40
1.0
 40
1.0
 10
180.3648726228494
 20
8.134513342079096
 30
0.0
 10
180.4206387036565
 20
8.124680277424424
 30
0.0
 10
180.4810681883392
 20
8.11402492884455
 30
0.0
 10
180.5455991450731
 20
8.102646380081444
 30
0.0
  0
LINE
  5
B2
330
1F
100
AcDbEntity
  8
1
 62
     4
420
    65535
100
AcDbLine
 10
179.9027086782
 20
-7.8123456653
 30
0.0
 11
179.9027086782
 21
-7.8519940657
 31
0.0
  0
LINE
  5
B3
330
1F
100
AcDbEntity
  8
1
 62
     4
420
    65535
100
AcDbLine
 10
180.3648726228
 20
-8.289085612
 30
0.0
 11
180.3648726228
 21
-8.3141580104
 31
0.0
  0
LINE
  5
B4
330
1F
100
AcDbEntity
  8
1
 62
     4
420
    65535
100
AcDbLine
 10
180.2178927632
 20
8.160429857
 30
0.0
 11
180.3648726228
 21
8.1345133421
 31
0.0
  0
LINE
  5
B5
330
1F
100
AcDbEntity
  8
1
 62
     4
420
    65535
100
AcDbLine
 10
185.7991409335
 20
-9.6234156338
 30
0.0
 11
190.4094785836
 21
-10.0130797251
 31
0.0
  0
LINE
  5
B6
330
1F
100
AcDbEntity
  8
1
 62
     4
420
    65535
100
AcDbLine
 10
198.7093480848
 20
-1.3623383738
 30
0.0
 11
198.1528900617
 21
4.9980059343
 31
0.0
  0
LINE
  5
B7
330
1F
100
AcDbEntity
  8
1
 62
     4
420
    65535
100
AcDbLine
 10
190.0019121369
 20
-0.6063986132
 30
0.0
 11
198.7093480848
 21
-1.3623383738
 31
0.0
  0
ARC
  5
B8
330
1F
100
AcDbEntity
  8
1
 62
     4
420
    65535
100
AcDbCircle
 10
189.9657435905
 20
-1.0033765048
 30
0.0
 40
0.3986221396015858
100
AcDbArc
 50
84.7941700557
 51
182.4987660325
  0
LINE
  5
B9
330
1F
100
AcDbEntity
  8
1
 62
     4
420
    65535
100
AcDbLine
 10
198.1528900617
 20
4.9980059343
 30
0.0
 11
181.0744430463
 21
8.0093969317
 31
0.0
  0
LINE
  5
BA
330
1F
100
AcDbEntity
  8
1
 62
     4
420
    65535
100
AcDbLine
 10
189.5921166039
 20
-0.8635799934
 30
0.0
 11
189.5947484857
 21
-0.8934382544
 31
0.0
  0
LINE
  5
BB
330
1F
100
AcDbEntity
  8
1
 62
     4
420
    65535
100
AcDbLine
 10
198.7125708237
 20
-1.3991744479
 30
0.0
 11
198.7093480848
 21
-1.3623383738
 31
0.0
  0
ARC
  5
BC
330
1F
100
AcDbEntity
  8
1
 62
     4
420
    65535
100
AcDbCircle
 10
194.76544091
 20
-5.569486589
 30
0.0
 40
2.200392168816523
100
AcDbArc
 50
183.8706502232
 51
359.748958801
  0
LINE
  5
BD
330
1F
100
AcDbEntity
  8
1
 62
     4
420
    65535
100
AcDbLine
 10
189.5684751819
 20
-0.968429159
 30
0.0
 11
189.5685271515
 21
-1.0049899615
 31
0.0
  0
DIMENSION
  5
BE
330
1F
100
AcDbEntity
  8
2
  6
SLD-Durchgehend
 62
     7
370
    15
100
AcDbDimension
  2
_D
 10
200.0027086782
 20
14.7536384861
 30
0.0
 11
100.0027086782
 21
14.7536384861
 31
0.0
 70
   160
  1
<>
 71
     2
 42
200.0
  3
SLDDIMSTYLE0
100
AcDbAlignedDimension
 13
0.0027086782
 23
-0.0019940657
 33
0.0
 14
200.0027086782
 24
-0.0019940657
 34
0.0
100
AcDbRotatedDimension
  0
DIMENSION
  5
CA
330
1F
100
AcDbEntity
  8
2
  6
SLD-Durchgehend
 62
     7
370
    15
100
AcDbDimension
  2
_D_1
 10
174.9027086782
 20
-16.961789789
 30
0.0
 11
187.4527086782
 21
-16.961789789
 31
0.0
 70
   160
  1
<>
 71
     2
 42
25.09999999999999
  3
SLDDIMSTYLE0
100
AcDbAlignedDimension
 13
200.0027086782
 23
-0.0019940657
 33
0.0
 14
174.9027086782
 24
-0.0019940657
 34
0.0
100
AcDbRotatedDimension
  0
DIMENSION
  5
D4
330
1F
100
AcDbEntity
  8
2
  6
SLD-Durchgehend
 62
     7
370
    15
100
AcDbDimension
  2
_D_2
 10
205.96515018
 20
-0.0019940656999999
 30
0.0
 11
205.96515018
 21
-5.5019940657
 31
0.0
 70
   160
  1
<>
 71
     2
 42
11.0
  3
SLDDIMSTYLE1
100
AcDbAlignedDimension
 13
200.0027086782
 23
-11.0019940657
 33
0.0
 14
200.0027086782
 24
-0.0019940657
 34
0.0
 50
90.0
100
AcDbRotatedDimension
  0
DIMENSION
  5
E1
330
1F
100
AcDbEntity
  8
2
  6
SLD-Durchgehend
 62
     7
370
    15
100
AcDbDimension
  2
_D_3
 10
-5.997291321800001
 20
-8.0019940657
 30
0.0
 11
-5.9972913218
 21
-0.0019940657
 31
0.0
 70
   160
  1
%%c<>
 71
     2
 42
16.0
  3
SLDDIMSTYLE1
100
AcDbAlignedDimension
 13
0.0027086782
 23
7.9980059343
 33
0.0
 14
0.0027086782
 24
-8.0019940657
 34
0.0
 50
90.0
100
AcDbRotatedDimension
  0
ENDSEC
  0
SECTION
  2
OBJECTS
  0
DICTIONARY
  5
C
330
0
100
AcDbDictionary
281
     1
  3
ACAD_DETAILVIEWSTYLE
350
10A
  3
ACAD_GROUP
350
D
  3
ACAD_IMAGE_VARS
350
128
  3
ACAD_LAYOUT
350
1A
  3
ACAD_MATERIAL
350
43
  3
ACAD_MLEADERSTYLE
350
109
  3
ACAD_MLINESTYLE
350
17
  3
ACAD_PLOTSETTINGS
350
19
  3
ACAD_PLOTSTYLENAME
350
E
  3
ACAD_SCALELIST
350
47
  3
ACAD_SECTIONVIEWSTYLE
350
10B
  3
ACAD_TABLESTYLE
350
108
  3
ACDB_RECOMPOSE_DATA
350
134
  3
AcDbVariableDictionary
350
106
  3
APPDATA
350
126
  0
DICTIONARY
  5
10A
102
{ACAD_REACTORS
330
C
102
}
330
C
100
AcDbDictionary
281
     1
  0
DICTIONARY
  5
D
102
{ACAD_REACTORS
330
C
102
}
330
C
100
AcDbDictionary
281
     1
  0
RASTERVARIABLES
  5
128
102
{ACAD_REACTORS
330
C
102
}
330
C
100
AcDbRasterVariables
 90
        0
 70
     1
 71
     1
 72
     1
  0
DICTIONARY
  5
1A
102
{ACAD_REACTORS
330
C
102
}
330
C
100
AcDbDictionary
281
     1
  3
Layout1
350
1E
  3
Layout2
350
26
  3
Model
350
22
  0
DICTIONARY
  5
43
102
{ACAD_REACTORS
330
C
102
}
330
C
100
AcDbDictionary
281
     1
  3
ByBlock
350
45
  3
ByLayer
350
44
  3
Global
350
46
  0
DICTIONARY
  5
109
102
{ACAD_REACTORS
330
C
102
}
330
C
100
AcDbDictionary
281
     1
  0
DICTIONARY
  5
17
102
{ACAD_REACTORS
330
C
102
}
330
C
100
AcDbDictionary
281
     1
  3
Standard
350
18
  0
DICTIONARY
  5
19
102
{ACAD_REACTORS
330
C
102
}
330
C
100
AcDbDictionary
281
     1
  0
ACDBDICTIONARYWDFLT
  5
E
102
{ACAD_REACTORS
330
C
102
}
330
C
100
AcDbDictionary
281
     1
  3
Normal
350
F
100
AcDbDictionaryWithDefault
340
F
  0
DICTIONARY
  5
47
102
{ACAD_REACTORS
330
C
102
}
330
C
100
AcDbDictionary
281
     1
  3
A0
350
48
  3
A1
350
49
  3
A2
350
4A
  3
A3
350
4B
  3
A4
350
4C
  3
A5
350
4D
  3
A6
350
4E
  3
A7
350
4F
  3
A8
350
50
  3
A9
350
51
  3
B0
350
52
  3
B1
350
53
  3
B2
350
54
  3
B3
350
55
  3
B4
350
56
  3
B5
350
57
  3
B6
350
58
  3
B7
350
59
  3
B8
350
5A
  3
B9
350
5B
  3
C0
350
5C
  3
C1
350
5D
  3
C2
350
5E
  3
C3
350
5F
  3
C4
350
60
  3
C5
350
61
  3
C6
350
62
  3
C7
350
63
  3
C8
350
64
  3
C9
350
65
  3
D0
350
66
  3
D1
350
67
  3
D2
350
68
  0
DICTIONARY
  5
10B
102
{ACAD_REACTORS
330
C
102
}
330
C
100
AcDbDictionary
281
     1
  0
DICTIONARY
  5
108
102
{ACAD_REACTORS
330
C
102
}
330
C
100
AcDbDictionary
281
     1
  3
Standard
350
125
  0
XRECORD
  5
134
102
{ACAD_REACTORS
330
C
102
}
330
C
100
AcDbXrecord
280
     1
 90
        1
330
125
  0
DICTIONARY
  5
106
102
{ACAD_REACTORS
330
C
102
}
330
C
100
AcDbDictionary
281
     1
  3
CANNOSCALE
350
107
  3
CTABLESTYLE
350
135
  3
MSLTSCALE
350
136
  3
XCLIPFRAME
350
137
  0
DICTIONARY
  5
126
102
{ACAD_REACTORS
330
C
102
}
330
C
100
AcDbDictionary
281
     1
  0
LAYOUT
  5
1E
102
{ACAD_REACTORS
330
1A
102
}
330
1A
100
AcDbPlotSettings
  1

  2
none_device
  4

  6

 40
0.0
 41
0.0
 42
0.0
 43
0.0
 44
0.0
 45
0.0
 46
0.0
 47
0.0
 48
0.0
 49
0.0
140
0.0
141
0.0
142
1.0
143
1.0
 70
   688
 72
     1
 73
     0
 74
     5
  7

 75
    16
 76
     0
 77
     2
 78
   300
147
1.0
148
0.0
149
0.0
100
AcDbLayout
  1
Layout1
 70
     1
 71
     1
 10
0.0
 20
0.0
 11
420.0
 21
297.0
 12
0.0
 22
0.0
 32
0.0
 14
1.000000000000000E+20
 24
1.000000000000000E+20
 34
1.000000000000000E+20
 15
-1.000000000000000E+20
 25
-1.000000000000000E+20
 35
-1.000000000000000E+20
146
0.0
 13
0.0
 23
0.0
 33
0.0
 16
1.0
 26
0.0
 36
0.0
 17
0.0
 27
1.0
 37
0.0
 76
     0
330
1B
  0
LAYOUT
  5
26
102
{ACAD_REACTORS
330
1A
102
}
330
1A
100
AcDbPlotSettings
  1

  2
none_device
  4

  6

 40
0.0
 41
0.0
 42
0.0
 43
0.0
 44
0.0
 45
0.0
 46
0.0
 47
0.0
 48
0.0
 49
0.0
140
0.0
141
0.0
142
1.0
143
1.0
 70
   688
 72
     1
 73
     0
 74
     5
  7

 75
    16
 76
     0
 77
     2
 78
   300
147
1.0
148
0.0
149
0.0
100
AcDbLayout
  1
Layout2
 70
     1
 71
     2
 10
0.0
 20
0.0
 11
0.0
 21
0.0
 12
0.0
 22
0.0
 32
0.0
 14
0.0
 24
0.0
 34
0.0
 15
0.0
 25
0.0
 35
0.0
146
0.0
 13
0.0
 23
0.0
 33
0.0
 16
1.0
 26
0.0
 36
0.0
 17
0.0
 27
1.0
 37
0.0
 76
     0
330
23
  0
LAYOUT
  5
22
102
{ACAD_REACTORS
330
1A
102
}
330
1A
100
AcDbPlotSettings
  1

  2
none_device
  4
Letter_(8.50_x_11.00_Inches)
  6

 40
6.35
 41
6.35
 42
6.35000508
 43
6.35000508
 44
215.9
 45
279.4
 46
0.0
 47
0.0
 48
0.0
 49
0.0
140
0.0
141
0.0
142
1.0
143
1.0
 70
  1712
 72
     1
 73
     0
 74
     0
  7

 75
     0
 76
     0
 77
     2
 78
   300
147
1.0
148
0.0
149
0.0
100
AcDbLayout
  1
Model
 70
     1
 71
     0
 10
0.0
 20
0.0
 11
297.0
 21
210.0
 12
0.0
 22
0.0
 32
0.0
 14
0.0
 24
0.0
 34
0.0
 15
297.0
 25
210.0
 35
0.0
146
0.0
 13
0.0
 23
0.0
 33
0.0
 16
1.0
 26
0.0
 36
0.0
 17
0.0
 27
1.0
 37
0.0
 76
     0
330
1F
331
29
  0
MATERIAL
  5
45
102
{ACAD_REACTORS
330
43
102
}
330
43
100
AcDbMaterial
  1
ByBlock
  0
MATERIAL
  5
44
102
{ACAD_REACTORS
330
43
102
}
330
43
100
AcDbMaterial
  1
ByLayer
  0
MATERIAL
  5
46
102
{ACAD_REACTORS
330
43
102
}
330
43
100
AcDbMaterial
  1
Global
  0
MLINESTYLE
  5
18
102
{ACAD_REACTORS
330
17
102
}
330
17
100
AcDbMlineStyle
  2
Standard
 70
     0
  3

 62
   256
 51
90.0
 52
90.0
 71
     2
 49
0.5
 62
   256
  6
BYLAYER
 49
-0.5
 62
   256
  6
BYLAYER
  0
ACDBPLACEHOLDER
  5
F
102
{ACAD_REACTORS
330
E
102
}
330
E
  0
SCALE
  5
48
102
{ACAD_REACTORS
330
47
102
}
330
47
100
AcDbScale
 70
     0
300
1:1
140
1.0
141
1.0
290
     1
  0
SCALE
  5
49
102
{ACAD_REACTORS
330
47
102
}
330
47
100
AcDbScale
 70
     0
300
1:2
140
1.0
141
2.0
290
     0
  0
SCALE
  5
4A
102
{ACAD_REACTORS
330
47
102
}
330
47
100
AcDbScale
 70
     0
300
1:4
140
1.0
141
4.0
290
     0
  0
SCALE
  5
4B
102
{ACAD_REACTORS
330
47
102
}
330
47
100
AcDbScale
 70
     0
300
1:5
140
1.0
141
5.0
290
     0
  0
SCALE
  5
4C
102
{ACAD_REACTORS
330
47
102
}
330
47
100
AcDbScale
 70
     0
300
1:8
140
1.0
141
8.0
290
     0
  0
SCALE
  5
4D
102
{ACAD_REACTORS
330
47
102
}
330
47
100
AcDbScale
 70
     0
300
1:10
140
1.0
141
10.0
290
     0
  0
SCALE
  5
4E
102
{ACAD_REACTORS
330
47
102
}
330
47
100
AcDbScale
 70
     0
300
1:16
140
1.0
141
16.0
290
     0
  0
SCALE
  5
4F
102
{ACAD_REACTORS
330
47
102
}
330
47
100
AcDbScale
 70
     0
300
1:20
140
1.0
141
20.0
290
     0
  0
SCALE
  5
50
102
{ACAD_REACTORS
330
47
102
}
330
47
100
AcDbScale
 70
     0
300
1:30
140
1.0
141
30.0
290
     0
  0
SCALE
  5
51
102
{ACAD_REACTORS
330
47
102
}
330
47
100
AcDbScale
 70
     0
300
1:40
140
1.0
141
40.0
290
     0
  0
SCALE
  5
52
102
{ACAD_REACTORS
330
47
102
}
330
47
100
AcDbScale
 70
     0
300
1:50
140
1.0
141
50.0
290
     0
  0
SCALE
  5
53
102
{ACAD_REACTORS
330
47
102
}
330
47
100
AcDbScale
 70
     0
300
1:100
140
1.0
141
100.0
290
     0
  0
SCALE
  5
54
102
{ACAD_REACTORS
330
47
102
}
330
47
100
AcDbScale
 70
     0
300
2:1
140
2.0
141
1.0
290
     0
  0
SCALE
  5
55
102
{ACAD_REACTORS
330
47
102
}
330
47
100
AcDbScale
 70
     0
300
4:1
140
4.0
141
1.0
290
     0
  0
SCALE
  5
56
102
{ACAD_REACTORS
330
47
102
}
330
47
100
AcDbScale
 70
     0
300
8:1
140
8.0
141
1.0
290
     0
  0
SCALE
  5
57
102
{ACAD_REACTORS
330
47
102
}
330
47
100
AcDbScale
 70
     0
300
10:1
140
10.0
141
1.0
290
     0
  0
SCALE
  5
58
102
{ACAD_REACTORS
330
47
102
}
330
47
100
AcDbScale
 70
     0
300
100:1
140
100.0
141
1.0
290
     0
  0
SCALE
  5
59
102
{ACAD_REACTORS
330
47
102
}
330
47
100
AcDbScale
 70
     0
300
1/128" = 1'-0"
140
0.0078125
141
12.0
290
     0
  0
SCALE
  5
5A
102
{ACAD_REACTORS
330
47
102
}
330
47
100
AcDbScale
 70
     0
300
1/64" = 1'-0"
140
0.015625
141
12.0
290
     0
  0
SCALE
  5
5B
102
{ACAD_REACTORS
330
47
102
}
330
47
100
AcDbScale
 70
     0
300
1/32" = 1'-0"
140
0.03125
141
12.0
290
     0
  0
SCALE
  5
5C
102
{ACAD_REACTORS
330
47
102
}
330
47
100
AcDbScale
 70
     0
300
1/16" = 1'-0"
140
0.0625
141
12.0
290
     0
  0
SCALE
  5
5D
102
{ACAD_REACTORS
330
47
102
}
330
47
100
AcDbScale
 70
     0
300
3/32" = 1'-0"
140
0.09375
141
12.0
290
     0
  0
SCALE
  5
5E
102
{ACAD_REACTORS
330
47
102
}
330
47
100
AcDbScale
 70
     0
300
1/8" = 1'-0"
140
0.125
141
12.0
290
     0
  0
SCALE
  5
5F
102
{ACAD_REACTORS
330
47
102
}
330
47
100
AcDbScale
 70
     0
300
3/16" = 1'-0"
140
0.1875
141
12.0
290
     0
  0
SCALE
  5
60
102
{ACAD_REACTORS
330
47
102
}
330
47
100
AcDbScale
 70
     0
300
1/4" = 1'-0"
140
0.25
141
12.0
290
     0
  0
SCALE
  5
61
102
{ACAD_REACTORS
330
47
102
}
330
47
100
AcDbScale
 70
     0
300
3/8" = 1'-0"
140
0.375
141
12.0
290
     0
  0
SCALE
  5
62
102
{ACAD_REACTORS
330
47
102
}
330
47
100
AcDbScale
 70
     0
300
1/2" = 1'-0"
140
0.5
141
12.0
290
     0
  0
SCALE
  5
63
102
{ACAD_REACTORS
330
47
102
}
330
47
100
AcDbScale
 70
     0
300
3/4" = 1'-0"
140
0.75
141
12.0
290
     0
  0
SCALE
  5
64
102
{ACAD_REACTORS
330
47
102
}
330
47
100
AcDbScale
 70
     0
300
1" = 1'-0"
140
1.0
141
12.0
290
     0
  0
SCALE
  5
65
102
{ACAD_REACTORS
330
47
102
}
330
47
100
AcDbScale
 70
     0
300
1-1/2" = 1'-0"
140
1.5
141
12.0
290
     0
  0
SCALE
  5
66
102
{ACAD_REACTORS
330
47
102
}
330
47
100
AcDbScale
 70
     0
300
3" = 1'-0"
140
3.0
141
12.0
290
     0
  0
SCALE
  5
67
102
{ACAD_REACTORS
330
47
102
}
330
47
100
AcDbScale
 70
     0
300
6" = 1'-0"
140
6.0
141
12.0
290
     0
  0
SCALE
  5
68
102
{ACAD_REACTORS
330
47
102
}
330
47
100
AcDbScale
 70
     0
300
1'-0" = 1'-0"
140
12.0
141
12.0
290
     0
  0
TABLESTYLE
  5
125
102
{ACAD_REACTORS
330
108
102
}
102
{ACAD_XDICTIONARY
360
131
102
}
330
108
100
AcDbTableStyle
  3
Standard
 70
     0
 71
     0
 40
0.06
 41
0.06
280
     0
281
     0
  7
Standard
140
4.5
170
     2
 62
     0
 63
   257
283
     0
274
    -2
284
     1
 64
     0
275
    -2
285
     1
 65
     0
276
    -2
286
     1
 66
     0
277
    -2
287
     1
 67
     0
278
    -2
288
     1
 68
     0
279
    -2
289
     1
 69
     0
  7
Standard
140
6.0
170
     5
 62
     0
 63
   257
283
     0
274
    -2
284
     1
 64
     0
275
    -2
285
     1
 65
     0
276
    -2
286
     1
 66
     0
277
    -2
287
     1
 67
     0
278
    -2
288
     1
 68
     0
279
    -2
289
     1
 69
     0
  7
Standard
140
4.5
170
     5
 62
     0
 63
   257
283
     0
274
    -2
284
     1
 64
     0
275
    -2
285
     1
 65
     0
276
    -2
286
     1
 66
     0
277
    -2
287
     1
 67
     0
278
    -2
288
     1
 68
     0
279
    -2
289
     1
 69
     0
  0
DICTIONARYVAR
  5
107
102
{ACAD_REACTORS
330
106
102
}
330
106
100
DictionaryVariables
280
     0
  1
1:1
  0
DICTIONARYVAR
  5
135
102
{ACAD_REACTORS
330
106
102
}
330
106
100
DictionaryVariables
280
     0
  1
Standard
  0
DICTIONARYVAR
  5
136
102
{ACAD_REACTORS
330
106
102
}
330
106
100
DictionaryVariables
280
     0
  1
0
  0
DICTIONARYVAR
  5
137
102
{ACAD_REACTORS
330
106
102
}
330
106
100
DictionaryVariables
280
     0
  1
0
  0
DICTIONARY
  5
131
330
125
100
AcDbDictionary
280
     1
281
     1
  3
ACAD_ROUNDTRIP_2008_TABLESTYLE_CELLSTYLEMAP
360
133
  3
ACAD_XREC_ROUNDTRIP
360
132
  0
CELLSTYLEMAP
  5
133
102
{ACAD_REACTORS
330
131
102
}
330
131
100
AcDbCellStyleMap
 90
        3
300
CELLSTYLE
  1
TABLEFORMAT_BEGIN
 90
        5
170
     1
 91
        0
 92
        0
 62
   257
 93
        1
300
CONTENTFORMAT
  1
CONTENTFORMAT_BEGIN
 90
        0
 91
        0
 92
        4
 93
        0
300

 40
0.0
140
1.0
 94
        5
 62
     0
340
11
144
6.0
309
CONTENTFORMAT_END
171
     1
301
MARGIN
  1
CELLMARGIN_BEGIN
 40
1.5
 40
1.5
 40
1.5
 40
1.5
 40
1.5
 40
1.5
309
CELLMARGIN_END
 94
        6
 95
        1
302
GRIDFORMAT
  1
GRIDFORMAT_BEGIN
 90
        0
 91
        1
 62
     0
 92
       -2
340
14
 93
        0
 40
0.045
309
GRIDFORMAT_END
 95
        2
302
GRIDFORMAT
  1
GRIDFORMAT_BEGIN
 90
        0
 91
        1
 62
     0
 92
       -2
340
14
 93
        0
 40
0.045
309
GRIDFORMAT_END
 95
        4
302
GRIDFORMAT
  1
GRIDFORMAT_BEGIN
 90
        0
 91
        1
 62
     0
 92
       -2
340
14
 93
        0
 40
0.045
309
GRIDFORMAT_END
 95
        8
302
GRIDFORMAT
  1
GRIDFORMAT_BEGIN
 90
        0
 91
        1
 62
     0
 92
       -2
340
14
 93
        0
 40
0.045
309
GRIDFORMAT_END
 95
       16
302
GRIDFORMAT
  1
GRIDFORMAT_BEGIN
 90
        0
 91
        1
 62
     0
 92
       -2
340
14
 93
        0
 40
0.045
309
GRIDFORMAT_END
 95
       32
302
GRIDFORMAT
  1
GRIDFORMAT_BEGIN
 90
        0
 91
        1
 62
     0
 92
       -2
340
14
 93
        0
 40
0.045
309
GRIDFORMAT_END
309
TABLEFORMAT_END
  1
CELLSTYLE_BEGIN
 90
        1
 91
        1
300
_TITLE
309
CELLSTYLE_END
300
CELLSTYLE
  1
TABLEFORMAT_BEGIN
 90
        5
170
     1
 91
        0
 92
        0
 62
   257
 93
        1
300
CONTENTFORMAT
  1
CONTENTFORMAT_BEGIN
 90
        0
 91
        0
 92
        4
 93
        0
300

 40
0.0
140
1.0
 94
        5
 62
     0
340
11
144
4.5
309
CONTENTFORMAT_END
171
     1
301
MARGIN
  1
CELLMARGIN_BEGIN
 40
1.5
 40
1.5
 40
1.5
 40
1.5
 40
1.5
 40
1.5
309
CELLMARGIN_END
 94
        6
 95
        1
302
GRIDFORMAT
  1
GRIDFORMAT_BEGIN
 90
        0
 91
        1
 62
     0
 92
       -2
340
14
 93
        0
 40
0.045
309
GRIDFORMAT_END
 95
        2
302
GRIDFORMAT
  1
GRIDFORMAT_BEGIN
 90
        0
 91
        1
 62
     0
 92
       -2
340
14
 93
        0
 40
0.045
309
GRIDFORMAT_END
 95
        4
302
GRIDFORMAT
  1
GRIDFORMAT_BEGIN
 90
        0
 91
        1
 62
     0
 92
       -2
340
14
 93
        0
 40
0.045
309
GRIDFORMAT_END
 95
        8
302
GRIDFORMAT
  1
GRIDFORMAT_BEGIN
 90
        0
 91
        1
 62
     0
 92
       -2
340
14
 93
        0
 40
0.045
309
GRIDFORMAT_END
 95
       16
302
GRIDFORMAT
  1
GRIDFORMAT_BEGIN
 90
        0
 91
        1
 62
     0
 92
       -2
340
14
 93
        0
 40
0.045
309
GRIDFORMAT_END
 95
       32
302
GRIDFORMAT
  1
GRIDFORMAT_BEGIN
 90
        0
 91
        1
 62
     0
 92
       -2
340
14
 93
        0
 40
0.045
309
GRIDFORMAT_END
309
TABLEFORMAT_END
  1
CELLSTYLE_BEGIN
 90
        2
 91
        1
300
_HEADER
309
CELLSTYLE_END
300
CELLSTYLE
  1
TABLEFORMAT_BEGIN
 90
        5
170
     1
 91
        0
 92
        0
 62
   257
 93
        1
300
CONTENTFORMAT
  1
CONTENTFORMAT_BEGIN
 90
        0
 91
        0
 92
        4
 93
        0
300

 40
0.0
140
1.0
 94
        2
 62
     0
340
11
144
4.5
309
CONTENTFORMAT_END
171
     1
301
MARGIN
  1
CELLMARGIN_BEGIN
 40
1.5
 40
1.5
 40
1.5
 40
1.5
 40
1.5
 40
1.5
309
CELLMARGIN_END
 94
        6
 95
        1
302
GRIDFORMAT
  1
GRIDFORMAT_BEGIN
 90
        0
 91
        1
 62
     0
 92
       -2
340
14
 93
        0
 40
0.045
309
GRIDFORMAT_END
 95
        2
302
GRIDFORMAT
  1
GRIDFORMAT_BEGIN
 90
        0
 91
        1
 62
     0
 92
       -2
340
14
 93
        0
 40
0.045
309
GRIDFORMAT_END
 95
        4
302
GRIDFORMAT
  1
GRIDFORMAT_BEGIN
 90
        0
 91
        1
 62
     0
 92
       -2
340
14
 93
        0
 40
0.045
309
GRIDFORMAT_END
 95
        8
302
GRIDFORMAT
  1
GRIDFORMAT_BEGIN
 90
        0
 91
        1
 62
     0
 92
       -2
340
14
 93
        0
 40
0.045
309
GRIDFORMAT_END
 95
       16
302
GRIDFORMAT
  1
GRIDFORMAT_BEGIN
 90
        0
 91
        1
 62
     0
 92
       -2
340
14
 93
        0
 40
0.045
309
GRIDFORMAT_END
 95
       32
302
GRIDFORMAT
  1
GRIDFORMAT_BEGIN
 90
        0
 91
        1
 62
     0
 92
       -2
340
14
 93
        0
 40
0.045
309
GRIDFORMAT_END
309
TABLEFORMAT_END
  1
CELLSTYLE_BEGIN
 90
        3
 91
        2
300
_DATA
309
CELLSTYLE_END
  0
XRECORD
  5
132
102
{ACAD_REACTORS
330
131
102
}
330
131
100
AcDbXrecord
280
     1
102
ACAD_ROUNDTRIP_PRE2007_TABLESTYLE
 90
        4
 91
        0
  1

 92
        4
 93
        0
  2

 94
        4
 95
        0
  3

  0
ENDSEC
  0
EOF
