999
DXF file: 70721240.dxf
999
Pro/ENGINEER 2017380 by Parametric Technology Corporation
  0
SECTION
  2
HEADER
  9
$ACADVER
  1
AC1027
  9
$DWGCODEPAGE
  3
ANSI_1252
  9
$EXTMAX
 10
420.0
 20
297.0
 30
0.0
  9
$EXTMIN
 10
0.0
 20
0.0
 30
0.0
  9
$LIMMIN
 10
0.0
 20
0.0
  9
$LIMMAX
 10
420.0
 20
297.0
  9
$VIEWCTR
 10
210.0
 20
148.5
  9
$VIEWSIZE
 40
297.0
  9
$CLAYER
  8
0
  9
$LTSCALE
 40
23.1
  9
$CELTYPE
  6
BYLAYER
  9
$DIMSCALE
 40
1.0
  9
$DIMASZ
 40
3.5
  9
$DIMEXO
 40
0.0
  9
$DIMDLI
 40
15.96
  9
$DIMEXE
 40
1.5
  9
$DIMCEN
 40
3.78
  9
$DIMLFAC
 40
1.0
  9
$DIMBLK
  1
_FILLED
  9
$DIMALT
 70
0
  9
$DIMALTF
 40
25.4
  9
$DIMTXT
 40
3.5
  9
$DIMTOL
 70
1
  9
$DIMLIM
 70
0
  9
$DIMTFAC
 40
1.0
  9
$DIMTP
 40
0.05
  9
$DIMTM
 40
0.05
  9
$DIMGAP
 40
0.625
  9
$DIMDSEP
 70
46
  9
$AUNITS
 70
0
  9
$PDMODE
 70
3
  9
$PDSIZE
 40
0.3125
  9
$HANDSEED
  5
2A6
  9
$TILEMODE
 70
1
  9
$MEASUREMENT
 70
1
  9
$INSUNITS
 70
4
  0
ENDSEC
  0
SECTION
  2
CLASSES
  0
CLASS
  1
ACDBDICTIONARYWDFLT
  2
AcDbDictionaryWithDefault
  3
AutoCAD 2000
 90
0
 91
1
280
0
281
0
  0
CLASS
  1
ACDBPLACEHOLDER
  2
AcDbPlaceHolder
  3
AutoCAD 2000
 90
0
 91
1
280
0
281
0
  0
CLASS
  1
LAYOUT
  2
AcDbLayout
  3
AutoCAD 2000
 90
0
 91
0
280
0
281
0
  0
ENDSEC
  0
SECTION
  2
TABLES
  0
TABLE
  2
VPORT
  5
8
100
AcDbSymbolTable
 70
2
  0
VPORT
  5
1F4
100
AcDbSymbolTableRecord
100
AcDbViewportTableRecord
  2
*ACTIVE
 70
0
 10
0.0
 20
0.0
 11
1.0
 21
1.0
 12
210.0
 22
148.5
 13
0.0
 23
0.0
 14
1.0
 24
1.0
 15
0.0
 25
0.0
 16
0.0
 26
0.0
 36
1.0
 17
0.0
 27
0.0
 37
0.0
 40
297.0
 41
1.4141414141
 42
50.0
 43
0.0
 44
0.0
 50
0.0
 51
0.0
 71
0
 72
100
 73
1
 74
1
 75
0
 76
0
 77
0
 78
0
  0
ENDTAB
  0
TABLE
  2
LTYPE
  5
5
100
AcDbSymbolTable
 70
6
  0
LTYPE
  5
14
100
AcDbSymbolTableRecord
100
AcDbLinetypeTableRecord
  2
BYBLOCK
 70
0
  3

 72
65
 73
0
 40
0.0
  0
LTYPE
  5
15
100
AcDbSymbolTableRecord
100
AcDbLinetypeTableRecord
  2
BYLAYER
 70
0
  3

 72
65
 73
0
 40
0.0
  0
LTYPE
  5
16
100
AcDbSymbolTableRecord
100
AcDbLinetypeTableRecord
  2
CONTINUOUS
 70
64
  3
Solid line
 72
65
 73
0
 40
0.0
  0
LTYPE
  5
1F5
100
AcDbSymbolTableRecord
100
AcDbLinetypeTableRecord
  2
CENTER
 70
64
  3
____ _ ____ _ ____ _ ____ _ ____ _ ____ _ ____
 72
65
 73
4
 40
0.6
 49
0.375
 74
0
 49
-0.075
 74
0
 49
0.075
 74
0
 49
-0.075
 74
0
  0
LTYPE
  5
1F6
100
AcDbSymbolTableRecord
100
AcDbLinetypeTableRecord
  2
HIDDEN
 70
64
  3
- - - - - - - - - - - - - - - - - - - -
 72
65
 73
2
 40
0.2
 49
0.1
 74
0
 49
-0.1
 74
0
  0
LTYPE
  5
1F7
100
AcDbSymbolTableRecord
100
AcDbLinetypeTableRecord
  2
PHANTOM
 70
64
  3
_____ _ _ _____ _ _ _____ _ _ _____
 72
65
 73
6
 40
0.8
 49
0.45
 74
0
 49
-0.05
 74
0
 49
0.1
 74
0
 49
-0.05
 74
0
 49
0.1
 74
0
 49
-0.05
 74
0
  0
LTYPE
  5
1F8
100
AcDbSymbolTableRecord
100
AcDbLinetypeTableRecord
  2
DOT
 70
64
  3
. . . . . . . . . . . . . . . . . . . .
 72
65
 73
2
 40
0.2
 49
0.1
 74
0
 49
-0.1
 74
0
  0
LTYPE
  5
1F9
100
AcDbSymbolTableRecord
100
AcDbLinetypeTableRecord
  2
DASHED
 70
64
  3
- - - - - - - - - - - - - - - - - - - -
 72
65
 73
2
 40
0.2
 49
0.1
 74
0
 49
-0.1
 74
0
  0
ENDTAB
  0
TABLE
  2
LAYER
  5
2
100
AcDbSymbolTable
 70
36
  0
LAYER
  5
10
100
AcDbSymbolTableRecord
100
AcDbLayerTableRecord
  2
0
 70
0
 62
7
  6
CONTINUOUS
370
-3
390
F
  0
LAYER
  5
1FA
100
AcDbSymbolTableRecord
100
AcDbLayerTableRecord
  2
DEFAULT_1
 70
0
 62
7
  6
CENTER
370
-3
390
F
  0
LAYER
  5
1FB
100
AcDbSymbolTableRecord
100
AcDbLayerTableRecord
  2
DEFAULT_2
 70
0
 62
1
  6
HIDDEN
370
-3
390
F
  0
LAYER
  5
1FC
100
AcDbSymbolTableRecord
100
AcDbLayerTableRecord
  2
DEFAULT_3
 70
0
 62
7
  6
PHANTOM
370
-3
390
F
  0
LAYER
  5
1FD
100
AcDbSymbolTableRecord
100
AcDbLayerTableRecord
  2
BG_STARTBEZUEGE
 70
0
 62
7
  6
CONTINUOUS
370
-3
390
F
  0
LAYER
  5
1FE
100
AcDbSymbolTableRecord
100
AcDbLayerTableRecord
  2
HILFEN
 70
0
 62
7
  6
CONTINUOUS
370
-3
390
F
  0
LAYER
  5
1FF
100
AcDbSymbolTableRecord
100
AcDbLayerTableRecord
  2
PLATZIERUNG
 70
0
 62
7
  6
CONTINUOUS
370
-3
390
F
  0
LAYER
  5
200
100
AcDbSymbolTableRecord
100
AcDbLayerTableRecord
  2
T_STARTBEZUEGE
 70
0
 62
7
  6
CONTINUOUS
370
-3
390
F
  0
LAYER
  5
201
100
AcDbSymbolTableRecord
100
AcDbLayerTableRecord
  2
_03_2D_ZEICHNUNG_BEMASSUNGEN
 70
0
 62
7
  6
CONTINUOUS
370
-3
390
F
  0
LAYER
  5
202
100
AcDbSymbolTableRecord
100
AcDbLayerTableRecord
  2
_04_NOTIZEN
 70
0
 62
7
  6
CONTINUOUS
370
-3
390
F
  0
LAYER
  5
203
100
AcDbSymbolTableRecord
100
AcDbLayerTableRecord
  2
_05_2D_ELEMENTE
 70
0
 62
7
  6
CONTINUOUS
370
-3
390
F
  0
LAYER
  5
204
100
AcDbSymbolTableRecord
100
AcDbLayerTableRecord
  2
_07_EINRASTLINIEN
 70
0
 62
7
  6
CONTINUOUS
370
-3
390
F
  0
LAYER
  5
205
100
AcDbSymbolTableRecord
100
AcDbLayerTableRecord
  2
_21_KURVEN
 70
0
 62
7
  6
CONTINUOUS
370
-3
390
F
  0
LAYER
  5
206
100
AcDbSymbolTableRecord
100
AcDbLayerTableRecord
  2
_22_FLAECHEN
 70
0
 62
7
  6
CONTINUOUS
370
-3
390
F
  0
LAYER
  5
207
100
AcDbSymbolTableRecord
100
AcDbLayerTableRecord
  2
_26_BEZUGSACHSEN
 70
0
 62
7
  6
CONTINUOUS
370
-3
390
F
  0
LAYER
  5
208
100
AcDbSymbolTableRecord
100
AcDbLayerTableRecord
  2
_27_BEZUGSEBENEN
 70
0
 62
7
  6
CONTINUOUS
370
-3
390
F
  0
LAYER
  5
209
100
AcDbSymbolTableRecord
100
AcDbLayerTableRecord
  2
_28_BEZUGSPUNKTE
 70
0
 62
7
  6
CONTINUOUS
370
-3
390
F
  0
LAYER
  5
20A
100
AcDbSymbolTableRecord
100
AcDbLayerTableRecord
  2
_29_KOORDINATENSYSTEME
 70
0
 62
7
  6
CONTINUOUS
370
-3
390
F
  0
LAYER
  5
20B
100
AcDbSymbolTableRecord
100
AcDbLayerTableRecord
  2
_30_VOLUMEN
 70
0
 62
7
  6
CONTINUOUS
370
-3
390
F
  0
ENDTAB
  0
TABLE
  2
STYLE
  5
3
100
AcDbSymbolTable
 70
1
  0
STYLE
  5
11
100
AcDbSymbolTableRecord
100
AcDbTextStyleTableRecord
  2
STANDARD
 70
0
 40
0.0
 41
0.7
 50
0.0
 71
0
 42
0.2
  3
SIMPLEX.SHX
  4

  0
STYLE
  5
20C
100
AcDbSymbolTableRecord
100
AcDbTextStyleTableRecord
  2
TEXTSTYLE_1
 70
0
 40
0.0
 41
0.8
 50
0.0
 71
0
 42
0.2
  3
gdt
  4

  0
STYLE
  5
20D
100
AcDbSymbolTableRecord
100
AcDbTextStyleTableRecord
  2
TEXTSTYLE_2
 70
0
 40
0.0
 41
0.7
 50
0.0
 71
0
 42
0.2
  3
gdt
  4

  0
ENDTAB
  0
TABLE
  2
VIEW
  5
6
100
AcDbSymbolTable
 70
0
  0
ENDTAB
  0
TABLE
  2
UCS
  5
7
100
AcDbSymbolTable
 70
0
  0
ENDTAB
  0
TABLE
  2
APPID
  5
9
100
AcDbSymbolTable
 70
1
  0
APPID
  5
20E
100
AcDbSymbolTableRecord
100
AcDbRegAppTableRecord
  2
ACAD
 70
0
  0
ENDTAB
  0
TABLE
  2
BLOCK_RECORD
  5
1
100
AcDbSymbolTable
 70
0
  0
BLOCK_RECORD
  5
20F
100
AcDbSymbolTableRecord
100
AcDbBlockTableRecord
  2
*Model_Space
  0
BLOCK_RECORD
  5
210
100
AcDbSymbolTableRecord
100
AcDbBlockTableRecord
  2
*Paper_Space
  0
BLOCK_RECORD
  5
211
100
AcDbSymbolTableRecord
100
AcDbBlockTableRecord
  2
_FILLED
  0
BLOCK_RECORD
  5
212
100
AcDbSymbolTableRecord
100
AcDbBlockTableRecord
  2
*D0
  0
BLOCK_RECORD
  5
213
100
AcDbSymbolTableRecord
100
AcDbBlockTableRecord
  2
*D1
  0
BLOCK_RECORD
  5
214
100
AcDbSymbolTableRecord
100
AcDbBlockTableRecord
  2
*D2
  0
BLOCK_RECORD
  5
215
100
AcDbSymbolTableRecord
100
AcDbBlockTableRecord
  2
*D3
  0
ENDTAB
  0
TABLE
  2
DIMSTYLE
  5
A
100
AcDbSymbolTable
 70
1
100
AcDbDimStyleTable
 71
0
  0
DIMSTYLE
105
216
100
AcDbSymbolTableRecord
100
AcDbDimStyleTableRecord
  2
STANDARD
 70
0
  3

  4

 40
1.0
 41
3.5
 42
0.0
 43
0.38
 44
1.5
 45
0.0
 46
0.0
 47
0.05
 48
0.05
140
3.5
141
0.09
142
0.0
143
25.4
144
1.0
145
0.0
146
1.0
147
0.625
 71
1.0
 72
0.0
 73
0
 74
0
 75
0
 76
0
 77
1
 78
8
 79
2
170
0
171
1
172
0
173
0
174
0
175
0
176
0
177
0
178
2
270
2
179
2
271
2
272
2
273
2
274
2
275
0
280
0
281
0
282
0
283
1
284
8
285
0
286
0
287
3
288
0
340
11
278
46
341
211
342
211
343
211
344
211
  0
DIMSTYLE
105
217
100
AcDbSymbolTableRecord
100
AcDbDimStyleTableRecord
  2
DIMSTYLE_1
 70
0
  3

  4

 40
1.0
 41
3.5
 42
0.0
 43
0.38
 44
1.5
 45
0.0
 46
0.0
 47
0.5
 48
0.5
140
3.5
141
0.09
142
0.0
143
25.4
144
1.0
145
0.0
146
1.0
147
0.875
 71
0.0
 72
0.0
 73
0
 74
0
 75
0
 76
0
 77
1
 78
8
 79
2
170
0
171
1
172
0
173
0
174
0
175
0
176
0
177
0
178
2
270
2
179
2
271
2
272
2
273
2
274
2
275
0
280
0
281
0
282
0
283
1
284
8
285
0
286
0
287
3
288
0
340
11
278
46
341
211
342
211
343
211
344
211
  0
DIMSTYLE
105
218
100
AcDbSymbolTableRecord
100
AcDbDimStyleTableRecord
  2
DIMSTYLE_2
 70
0
  3

  4

 40
1.0
 41
3.5
 42
0.0
 43
0.38
 44
1.5
 45
0.0
 46
0.0
 47
0.2
 48
0.2
140
3.5
141
0.09
142
0.0
143
25.4
144
1.0
145
0.0
146
1.0
147
0.875
 71
0.0
 72
0.0
 73
0
 74
0
 75
0
 76
0
 77
1
 78
8
 79
2
170
0
171
1
172
0
173
0
174
0
175
0
176
0
177
0
178
2
270
2
179
2
271
2
272
2
273
2
274
2
275
0
280
0
281
0
282
0
283
1
284
8
285
0
286
0
287
3
288
0
340
11
278
46
341
211
342
211
343
211
344
211
  0
DIMSTYLE
105
219
100
AcDbSymbolTableRecord
100
AcDbDimStyleTableRecord
  2
DIMSTYLE_3
 70
0
  3

  4

 40
1.0
 41
3.5
 42
0.0
 43
0.38
 44
1.5
 45
0.0
 46
0.0
 47
0.3
 48
0.3
140
3.5
141
0.09
142
0.0
143
25.4
144
1.0
145
0.0
146
1.0
147
0.875
 71
0.0
 72
0.0
 73
0
 74
0
 75
0
 76
0
 77
1
 78
8
 79
2
170
0
171
1
172
0
173
0
174
0
175
0
176
0
177
0
178
2
270
2
179
2
271
2
272
2
273
2
274
2
275
0
280
0
281
0
282
0
283
1
284
8
285
0
286
0
287
3
288
0
340
11
278
46
341
211
342
211
343
211
344
211
  0
ENDTAB
  0
ENDSEC
  0
SECTION
  2
BLOCKS
  0
BLOCK
  5
20
100
AcDbEntity
  8
0
100
AcDbBlockBegin
  2
*Model_Space
 70
0
 10
0.0
 20
0.0
 30
0.0
  3
*Model_Space
  1

  0
ENDBLK
  5
21
100
AcDbEntity
  8
0
100
AcDbBlockEnd
  0
BLOCK
  5
1C
100
AcDbEntity
  8
0
100
AcDbBlockBegin
  2
*Paper_Space
 70
0
 10
0.0
 20
0.0
 30
0.0
  3
*Paper_Space
  1

  0
ENDBLK
  5
1D
100
AcDbEntity
  8
0
100
AcDbBlockEnd
  0
BLOCK
  5
21A
100
AcDbEntity
  8
0
100
AcDbBlockBegin
  2
_FILLED
 70
64
 10
0.0
 20
0.0
  3
_FILLED
  1

  0
SOLID
  5
21B
100
AcDbEntity
  8
0
  6
BYBLOCK
 62
0
100
AcDbTrace
 10
0.0
 20
0.0
 11
-1.0
 21
0.125
 12
-1.0
 22
-0.125
 13
-1.0
 23
-0.125
  0
ENDBLK
  5
21C
100
AcDbEntity
  8
0
  6
BYBLOCK
 62
0
100
AcDbBlockEnd
  0
BLOCK
  5
21D
100
AcDbEntity
  8
_03_2D_ZEICHNUNG_BEMASSUNGEN
100
AcDbBlockBegin
 62
7
  6
CONTINUOUS
  2
*D0
 70
65
 10
0.0
 20
0.0
  3
*D0
  1

  0
TEXT
  5
21E
100
AcDbEntity
  8
_03_2D_ZEICHNUNG_BEMASSUNGEN
100
AcDbText
 62
2
  6
CONTINUOUS
 10
148.05
 20
29.875
  7
STANDARD
 40
3.5
  1
308.1
 41
0.6857142857
 72
1
 11
154.05
 21
29.875
100
AcDbText
  0
LINE
  5
21F
100
AcDbEntity
  8
_03_2D_ZEICHNUNG_BEMASSUNGEN
100
AcDbLine
 62
7
  6
CONTINUOUS
 10
308.1
 20
0.0
 11
308.1
 21
30.5
  0
LINE
  5
220
100
AcDbEntity
  8
_03_2D_ZEICHNUNG_BEMASSUNGEN
100
AcDbLine
 62
7
  6
CONTINUOUS
 10
0.0
 20
0.0
 11
0.0
 21
30.5
  0
LINE
  5
221
100
AcDbEntity
  8
_03_2D_ZEICHNUNG_BEMASSUNGEN
100
AcDbLine
 62
7
  6
CONTINUOUS
 10
308.1
 20
29.0
 11
154.05
 21
29.0
  0
LINE
  5
222
100
AcDbEntity
  8
_03_2D_ZEICHNUNG_BEMASSUNGEN
100
AcDbLine
 62
7
  6
CONTINUOUS
 10
0.0
 20
29.0
 11
154.05
 21
29.0
  0
INSERT
  5
223
100
AcDbEntity
  8
_03_2D_ZEICHNUNG_BEMASSUNGEN
100
AcDbBlockReference
 62
7
  6
CONTINUOUS
  2
_FILLED
 10
308.1
 20
29.0
 41
3.5
 42
3.5
 43
3.5
  0
INSERT
  5
224
100
AcDbEntity
  8
_03_2D_ZEICHNUNG_BEMASSUNGEN
100
AcDbBlockReference
 62
7
  6
CONTINUOUS
  2
_FILLED
 10
0.0
 20
29.0
 41
3.5
 42
3.5
 43
3.5
 50
180.0
  0
ENDBLK
  5
225
100
AcDbEntity
  8
0
  6
BYBLOCK
 62
0
100
AcDbBlockEnd
  0
BLOCK
  5
226
100
AcDbEntity
  8
_03_2D_ZEICHNUNG_BEMASSUNGEN
100
AcDbBlockBegin
 62
7
  6
CONTINUOUS
  2
*D1
 70
65
 10
0.0
 20
0.0
  3
*D1
  1

  0
TEXT
  5
227
100
AcDbEntity
  8
_03_2D_ZEICHNUNG_BEMASSUNGEN
100
AcDbText
 62
2
  6
CONTINUOUS
 10
317.1062954258
 20
-16.25
  7
STANDARD
 40
3.5
  1
27
 50
90.0
 41
0.7857142857
 72
1
 11
317.1062954258
 21
-13.5
100
AcDbText
  0
LINE
  5
228
100
AcDbEntity
  8
_03_2D_ZEICHNUNG_BEMASSUNGEN
100
AcDbLine
 62
7
  6
CONTINUOUS
 10
311.9883939291
 20
0.0
 11
319.4812954258
 21
0.0
  0
LINE
  5
229
100
AcDbEntity
  8
_03_2D_ZEICHNUNG_BEMASSUNGEN
100
AcDbLine
 62
7
  6
CONTINUOUS
 10
300.0
 20
-27.0
 11
319.4812954258
 21
-27.0
  0
LINE
  5
22A
100
AcDbEntity
  8
_03_2D_ZEICHNUNG_BEMASSUNGEN
100
AcDbLine
 62
7
  6
CONTINUOUS
 10
317.9812954258
 20
0.0
 11
317.9812954258
 21
6.0
  0
LINE
  5
22B
100
AcDbEntity
  8
_03_2D_ZEICHNUNG_BEMASSUNGEN
100
AcDbLine
 62
7
  6
CONTINUOUS
 10
317.9812954258
 20
6.0
 11
317.9812954258
 21
-13.5
  0
LINE
  5
22C
100
AcDbEntity
  8
_03_2D_ZEICHNUNG_BEMASSUNGEN
100
AcDbLine
 62
7
  6
CONTINUOUS
 10
317.9812954258
 20
-27.0
 11
317.9812954258
 21
-33.0
  0
LINE
  5
22D
100
AcDbEntity
  8
_03_2D_ZEICHNUNG_BEMASSUNGEN
100
AcDbLine
 62
7
  6
CONTINUOUS
 10
317.9812954258
 20
-33.0
 11
317.9812954258
 21
-13.5
  0
INSERT
  5
22E
100
AcDbEntity
  8
_03_2D_ZEICHNUNG_BEMASSUNGEN
100
AcDbBlockReference
 62
7
  6
CONTINUOUS
  2
_FILLED
 10
317.9812954258
 20
0.0
 41
3.5
 42
3.5
 43
3.5
 50
270.0
  0
INSERT
  5
22F
100
AcDbEntity
  8
_03_2D_ZEICHNUNG_BEMASSUNGEN
100
AcDbBlockReference
 62
7
  6
CONTINUOUS
  2
_FILLED
 10
317.9812954258
 20
-27.0
 41
3.5
 42
3.5
 43
3.5
 50
90.0
  0
ENDBLK
  5
230
100
AcDbEntity
  8
0
  6
BYBLOCK
 62
0
100
AcDbBlockEnd
  0
BLOCK
  5
231
100
AcDbEntity
  8
_03_2D_ZEICHNUNG_BEMASSUNGEN
100
AcDbBlockBegin
 62
7
  6
CONTINUOUS
  2
*D2
 70
65
 10
0.0
 20
0.0
  3
*D2
  1

  0
TEXT
  5
232
100
AcDbEntity
  8
_03_2D_ZEICHNUNG_BEMASSUNGEN
100
AcDbText
 62
2
  6
CONTINUOUS
 10
146.0
 20
-35.4282324016
  7
STANDARD
 40
3.5
  1
300
 41
0.7619047619
 72
1
 11
150.0
 21
-35.4282324016
100
AcDbText
  0
LINE
  5
233
100
AcDbEntity
  8
_03_2D_ZEICHNUNG_BEMASSUNGEN
100
AcDbLine
 62
7
  6
CONTINUOUS
 10
0.0
 20
-18.5
 11
0.0
 21
-37.8032324016
  0
LINE
  5
234
100
AcDbEntity
  8
_03_2D_ZEICHNUNG_BEMASSUNGEN
100
AcDbLine
 62
7
  6
CONTINUOUS
 10
300.0
 20
-27.0
 11
300.0
 21
-37.8032324016
  0
LINE
  5
235
100
AcDbEntity
  8
_03_2D_ZEICHNUNG_BEMASSUNGEN
100
AcDbLine
 62
7
  6
CONTINUOUS
 10
0.0
 20
-36.3032324016
 11
150.0
 21
-36.3032324016
  0
LINE
  5
236
100
AcDbEntity
  8
_03_2D_ZEICHNUNG_BEMASSUNGEN
100
AcDbLine
 62
7
  6
CONTINUOUS
 10
300.0
 20
-36.3032324016
 11
150.0
 21
-36.3032324016
  0
INSERT
  5
237
100
AcDbEntity
  8
_03_2D_ZEICHNUNG_BEMASSUNGEN
100
AcDbBlockReference
 62
7
  6
CONTINUOUS
  2
_FILLED
 10
0.0
 20
-36.3032324016
 41
3.5
 42
3.5
 43
3.5
 50
180.0
  0
INSERT
  5
238
100
AcDbEntity
  8
_03_2D_ZEICHNUNG_BEMASSUNGEN
100
AcDbBlockReference
 62
7
  6
CONTINUOUS
  2
_FILLED
 10
300.0
 20
-36.3032324016
 41
3.5
 42
3.5
 43
3.5
 50
0.0
  0
ENDBLK
  5
239
100
AcDbEntity
  8
0
  6
BYBLOCK
 62
0
100
AcDbBlockEnd
  0
BLOCK
  5
23A
100
AcDbEntity
  8
_03_2D_ZEICHNUNG_BEMASSUNGEN
100
AcDbBlockBegin
 62
7
  6
CONTINUOUS
  2
*D3
 70
65
 10
0.0
 20
0.0
  3
*D3
  1

  0
TEXT
  5
23B
100
AcDbEntity
  8
_03_2D_ZEICHNUNG_BEMASSUNGEN
100
AcDbText
 62
2
  6
CONTINUOUS
 10
-9.875
 20
-5.0833333333
  7
TEXTSTYLE_2
 40
3.5
  1
n
 50
90.0
 41
1.0
 72
1
 11
-9.875
 21
-2.75
100
AcDbText
  0
TEXT
  5
23C
100
AcDbEntity
  8
_03_2D_ZEICHNUNG_BEMASSUNGEN
100
AcDbText
 62
2
  6
CONTINUOUS
 10
-9.875
 20
-0.4166666667
  7
STANDARD
 40
3.5
  1
40
 50
90.0
 41
0.7857142857
 72
1
 11
-9.875
 21
2.3333333333
100
AcDbText
  0
LINE
  5
23D
100
AcDbEntity
  8
_03_2D_ZEICHNUNG_BEMASSUNGEN
100
AcDbLine
 62
7
  6
CONTINUOUS
 10
1.5
 20
20.0
 11
-10.5
 21
20.0
  0
LINE
  5
23E
100
AcDbEntity
  8
_03_2D_ZEICHNUNG_BEMASSUNGEN
100
AcDbLine
 62
7
  6
CONTINUOUS
 10
1.5
 20
-20.0
 11
-10.5
 21
-20.0
  0
LINE
  5
23F
100
AcDbEntity
  8
_03_2D_ZEICHNUNG_BEMASSUNGEN
100
AcDbLine
 62
7
  6
CONTINUOUS
 10
-9.0
 20
20.0
 11
-9.0
 21
0.0
  0
LINE
  5
240
100
AcDbEntity
  8
_03_2D_ZEICHNUNG_BEMASSUNGEN
100
AcDbLine
 62
7
  6
CONTINUOUS
 10
-9.0
 20
-20.0
 11
-9.0
 21
0.0
  0
INSERT
  5
241
100
AcDbEntity
  8
_03_2D_ZEICHNUNG_BEMASSUNGEN
100
AcDbBlockReference
 62
7
  6
CONTINUOUS
  2
_FILLED
 10
-9.0
 20
20.0
 41
3.5
 42
3.5
 43
3.5
 50
90.0
  0
INSERT
  5
242
100
AcDbEntity
  8
_03_2D_ZEICHNUNG_BEMASSUNGEN
100
AcDbBlockReference
 62
7
  6
CONTINUOUS
  2
_FILLED
 10
-9.0
 20
-20.0
 41
3.5
 42
3.5
 43
3.5
 50
270.0
  0
ENDBLK
  5
243
100
AcDbEntity
  8
0
  6
BYBLOCK
 62
0
100
AcDbBlockEnd
  0
ENDSEC
  0
SECTION
  2
ENTITIES
  0
DIMENSION
  5
244
100
AcDbEntity
  8
_03_2D_ZEICHNUNG_BEMASSUNGEN
100
AcDbDimension
 62
7
  6
CONTINUOUS
  2
*D0
 10
0.0
 20
29.0
 11
153.5500030518
 21
29.0
 70
160
 71
2
 42
308.1
  3
DIMSTYLE_1
100
AcDbAlignedDimension
 13
308.1
 23
0.0
 14
0.0
 24
0.0
 50
180.0
100
AcDbRotatedDimension
  0
DIMENSION
  5
245
100
AcDbEntity
  8
_03_2D_ZEICHNUNG_BEMASSUNGEN
100
AcDbDimension
 62
7
  6
CONTINUOUS
  2
*D1
 10
317.9812954258
 20
-27.0
 11
317.9812954258
 21
-14.0000002598
 70
160
 71
2
 42
27.0
  3
DIMSTYLE_2
100
AcDbAlignedDimension
 13
311.9883939291
 23
0.0
 14
300.0
 24
-27.0
 50
270.0
100
AcDbRotatedDimension
  0
DIMENSION
  5
246
100
AcDbEntity
  8
_03_2D_ZEICHNUNG_BEMASSUNGEN
100
AcDbDimension
 62
7
  6
CONTINUOUS
  2
*D2
 10
300.0
 20
-36.3032324016
 11
149.4999984741
 21
-36.3032324016
 70
160
 71
2
 42
300.0
  3
DIMSTYLE_1
100
AcDbAlignedDimension
 13
0.0
 23
-18.5
 14
300.0
 24
-27.0
100
AcDbRotatedDimension
  0
DIMENSION
  5
247
100
AcDbEntity
  8
_03_2D_ZEICHNUNG_BEMASSUNGEN
100
AcDbDimension
 62
7
  6
CONTINUOUS
  2
*D3
 10
-9.0
 20
-20.0
 11
-9.0
 21
0.0
 70
160
 71
2
 42
40.0
  1
%%c<>
  3
DIMSTYLE_3
100
AcDbAlignedDimension
 13
1.5
 23
20.0
 14
1.5
 24
-20.0
 50
270.0
100
AcDbRotatedDimension
  0
LINE
  5
248
100
AcDbEntity
  8
_30_VOLUMEN
100
AcDbLine
 62
4
  6
CONTINUOUS
 10
-0.0
 20
18.5
 11
0.0
 21
-18.5
  0
LINE
  5
249
100
AcDbEntity
  8
0
100
AcDbLine
 62
4
  6
CONTINUOUS
 10
1.5
 20
20.0
 11
1.5
 21
6.2449979984
  0
LINE
  5
24A
100
AcDbEntity
  8
0
100
AcDbLine
 62
4
  6
CONTINUOUS
 10
1.5
 20
-6.2449979984
 11
1.5
 21
-20.0
  0
LINE
  5
24B
100
AcDbEntity
  8
_30_VOLUMEN
100
AcDbLine
 62
4
  6
CONTINUOUS
 10
1.5
 20
20.0
 11
-0.0
 21
18.5
  0
LINE
  5
24C
100
AcDbEntity
  8
_30_VOLUMEN
100
AcDbLine
 62
4
  6
CONTINUOUS
 10
1.5
 20
-20.0
 11
0.0
 21
-18.5
  0
LINE
  5
24D
100
AcDbEntity
  8
_30_VOLUMEN
100
AcDbLine
 62
4
  6
CONTINUOUS
 10
1.5
 20
-20.0
 11
240.0
 21
-20.0
  0
LINE
  5
24E
100
AcDbEntity
  8
_30_VOLUMEN
100
AcDbLine
 62
4
  6
CONTINUOUS
 10
240.0
 20
-19.75
 11
283.0051832957
 21
-19.75
  0
LINE
  5
24F
100
AcDbEntity
  8
0
100
AcDbLine
 62
4
  6
CONTINUOUS
 10
1.5
 20
-6.2449979984
 11
240.0
 21
-6.2449979984
  0
LINE
  5
250
100
AcDbEntity
  8
_30_VOLUMEN
100
AcDbLine
 62
4
  6
CONTINUOUS
 10
240.0
 20
-5.3909646632
 11
257.7654102112
 21
-5.3909646632
  0
LINE
  5
251
100
AcDbEntity
  8
_26_BEZUGSACHSEN
100
AcDbLine
 62
7
  6
CENTER
 10
-3.0
 20
0.0
 11
311.9883939291
 21
0.0
  0
LINE
  5
252
100
AcDbEntity
  8
_30_VOLUMEN
100
AcDbLine
 62
4
  6
CONTINUOUS
 10
240.0
 20
5.3909646632
 11
260.6474804163
 21
5.3909646632
  0
LINE
  5
253
100
AcDbEntity
  8
0
100
AcDbLine
 62
4
  6
CONTINUOUS
 10
1.5
 20
6.2449979984
 11
240.0
 21
6.2449979984
  0
LINE
  5
254
100
AcDbEntity
  8
_30_VOLUMEN
100
AcDbLine
 62
4
  6
CONTINUOUS
 10
240.0
 20
19.75
 11
270.2574111392
 21
19.75
  0
LINE
  5
255
100
AcDbEntity
  8
_30_VOLUMEN
100
AcDbLine
 62
4
  6
CONTINUOUS
 10
1.5
 20
20.0
 11
240.0
 21
20.0
  0
LINE
  5
256
100
AcDbEntity
  8
_30_VOLUMEN
100
AcDbLine
 62
4
  6
CONTINUOUS
 10
270.2573669299
 20
19.7500230727
 11
308.1
 21
0.0
  0
LINE
  5
257
100
AcDbEntity
  8
0
100
AcDbLine
 62
4
  6
CONTINUOUS
 10
240.0
 20
19.9999265109
 11
240.0
 21
5.3909646632
  0
LINE
  5
258
100
AcDbEntity
  8
0
100
AcDbLine
 62
4
  6
CONTINUOUS
 10
240.0
 20
-5.3909646632
 11
240.0
 21
-19.999925732
  0
LINE
  5
259
100
AcDbEntity
  8
_30_VOLUMEN
100
AcDbLine
 62
4
  6
CONTINUOUS
 10
299.4385599775
 20
-26.7704624639
 11
291.5822102179
 21
-18.9322841004
  0
LINE
  5
25A
100
AcDbEntity
  8
_21_KURVEN
100
AcDbLine
 62
7
  6
CONTINUOUS
 10
299.4343439639
 20
-26.7662562017
 11
291.5864262315
 21
-18.9364903626
  0
LINE
  5
25B
100
AcDbEntity
  8
_26_BEZUGSACHSEN
100
AcDbLine
 62
4
  6
CONTINUOUS
 10
292.3949401186
 20
-19.7431341921
 11
291.0208105391
 21
-18.3721829147
  0
LINE
  5
25C
100
AcDbEntity
  8
_26_BEZUGSACHSEN
100
AcDbLine
 62
4
  6
CONTINUOUS
 10
291.3505662883
 20
-18.3774039985
 11
291.1826960824
 21
-18.2099220691
  0
LINE
  5
25D
100
AcDbEntity
  8
_28_BEZUGSPUNKTE
100
AcDbLine
 62
1
  6
CONTINUOUS
 10
300.15625
 20
-27.15625
 11
299.84375
 21
-26.84375
  0
LINE
  5
25E
100
AcDbEntity
  8
_26_BEZUGSACHSEN
100
AcDbLine
 62
4
  6
CONTINUOUS
 10
308.1
 20
-17.492925887
 11
300.0021463086
 21
-9.4138021798
  0
LINE
  5
25F
100
AcDbEntity
  8
_30_VOLUMEN
100
AcDbLine
 62
4
  6
CONTINUOUS
 10
300.5635459874
 20
-9.9739033655
 11
308.419895747
 21
-17.812081729
  0
LINE
  5
260
100
AcDbEntity
  8
_21_KURVEN
100
AcDbLine
 62
7
  6
CONTINUOUS
 10
300.567762001
 20
-9.9781096277
 11
308.4156797334
 21
-17.8078754668
  0
LINE
  5
261
100
AcDbEntity
  8
_30_VOLUMEN
100
AcDbLine
 62
4
  6
CONTINUOUS
 10
291.5823469331
 20
-17.812081729
 11
299.4406099146
 21
-9.9739033655
  0
LINE
  5
262
100
AcDbEntity
  8
_21_KURVEN
100
AcDbLine
 62
7
  6
CONTINUOUS
 10
291.5865639734
 20
-17.8078754668
 11
299.4363928743
 21
-9.9781096277
  0
LINE
  5
263
100
AcDbEntity
  8
_26_BEZUGSACHSEN
100
AcDbLine
 62
4
  6
CONTINUOUS
 10
291.0208105391
 20
-18.3721829147
 11
300.0021463086
 21
-9.4138021798
  0
LINE
  5
264
100
AcDbEntity
  8
_28_BEZUGSPUNKTE
100
AcDbLine
 62
1
  6
CONTINUOUS
 10
300.15625
 20
-26.84375
 11
299.84375
 21
-27.15625
  0
LINE
  5
265
100
AcDbEntity
  8
_30_VOLUMEN
100
AcDbLine
 62
4
  6
CONTINUOUS
 10
308.4197590318
 20
-18.9322841004
 11
300.5614960503
 21
-26.7704624639
  0
LINE
  5
266
100
AcDbEntity
  8
_21_KURVEN
100
AcDbLine
 62
7
  6
CONTINUOUS
 10
308.4155419915
 20
-18.9364903626
 11
300.5657130906
 21
-26.7662562017
  0
LINE
  5
267
100
AcDbEntity
  8
_26_BEZUGSACHSEN
100
AcDbLine
 62
4
  6
CONTINUOUS
 10
308.1
 20
0.0
 11
308.1
 21
-17.492925887
  0
ARC
  5
268
100
AcDbEntity
  8
_30_VOLUMEN
100
AcDbCircle
 62
7
  6
CONTINUOUS
 10
-4476.6381349286
 20
1098.2168910573
 40
4889.1756095425
100
AcDbArc
 50
346.7817985002
 51
347.1342276224
  0
ARC
  5
269
100
AcDbEntity
  8
_30_VOLUMEN
100
AcDbCircle
 62
4
  6
CONTINUOUS
 10
299.9848437699
 20
-18.0387224277
 40
2.7422203673
100
AcDbArc
 50
185.8121043275
 51
225.0645824281
  0
ARC
  5
26A
100
AcDbEntity
  8
_30_VOLUMEN
100
AcDbCircle
 62
7
  6
CONTINUOUS
 10
299.9895486235
 20
-18.247701371
 40
2.7416452607
100
AcDbArc
 50
181.4580148386
 51
225.067928808
  0
ARC
  5
26B
100
AcDbEntity
  8
_30_VOLUMEN
100
AcDbCircle
 62
4
  6
CONTINUOUS
 10
299.9767787158
 20
-18.0403144535
 40
2.7340356617
100
AcDbArc
 50
183.750058728
 51
185.7960281422
  0
ARC
  5
26C
100
AcDbEntity
  8
_30_VOLUMEN
100
AcDbCircle
 62
4
  6
CONTINUOUS
 10
300.0191360087
 20
-18.2491779983
 40
2.7288535676
100
AcDbArc
 50
1.4478903815
 51
45.1021496095
  0
ARC
  5
26D
100
AcDbEntity
  8
_30_VOLUMEN
100
AcDbCircle
 62
4
  6
CONTINUOUS
 10
300.0196977683
 20
-18.0387022949
 40
2.7230659991
100
AcDbArc
 50
357.0490544541
 51
359.0751523923
  0
SPLINE
  5
26E
100
AcDbEntity
  8
_30_VOLUMEN
100
AcDbSpline
 62
4
  6
CONTINUOUS
 70
0
 71
3
 72
15
 73
11
 74
0
 42
0.0000001
 43
0.0000001
 44
0.0000000001
 40
0.0
 40
0.0
 40
0.0
 40
0.0
 40
0.124833101
 40
0.2497139833
 40
0.3746708502
 40
0.4997205716
 40
0.6248339329
 40
0.7498975276
 40
0.8750939107
 40
1.0
 40
1.0
 40
1.0
 40
1.0
 10
302.7391529188
 20
-18.1788883161
 30
0.0
 10
302.7256345784
 20
-18.441209158
 30
0.0
 10
302.622454929
 20
-18.965230153
 30
0.0
 10
302.2501798813
 20
-19.672155424
 30
0.0
 10
301.6920325774
 20
-20.2450914639
 30
0.0
 10
300.9937892938
 20
-20.6361866651
 30
0.0
 10
300.2130563017
 20
-20.8127220484
 30
0.0
 10
299.413778382
 20
-20.7612475303
 30
0.0
 10
298.663174891
 20
-20.484792994
 30
0.0
 10
298.2340466567
 20
-20.1655777399
 30
0.0
 10
298.0479880263
 20
-19.979949455
 30
0.0
  0
SPLINE
  5
26F
100
AcDbEntity
  8
_30_VOLUMEN
100
AcDbSpline
 62
4
  6
CONTINUOUS
 70
0
 71
3
 72
15
 73
11
 74
0
 42
0.0000001
 43
0.0000001
 44
0.0000000001
 40
0.0
 40
0.0
 40
0.0
 40
0.0
 40
0.1241842965
 40
0.2487957864
 40
0.3735630392
 40
0.4987474048
 40
0.624182205
 40
0.7496134053
 40
0.8750636828
 40
1.0
 40
1.0
 40
1.0
 40
1.0
 10
297.2488306769
 20
-18.3174599089
 30
0.0
 10
297.2421019053
 20
-18.0478711959
 30
0.0
 10
297.3105193869
 20
-17.502422654
 30
0.0
 10
297.6475442627
 20
-16.7517985624
 30
0.0
 10
298.1926579974
 20
-16.1317249795
 30
0.0
 10
298.8965087085
 20
-15.6970766699
 30
0.0
 10
299.6983595434
 20
-15.4879077283
 30
0.0
 10
300.5270751084
 20
-15.5216214368
 30
0.0
 10
301.3077859783
 20
-15.796499401
 30
0.0
 10
301.7532195336
 20
-16.1245301674
 30
0.0
 10
301.9452836411
 20
-16.3161500389
 30
0.0
  0
SPLINE
  5
270
100
AcDbEntity
  8
_30_VOLUMEN
100
AcDbSpline
 62
4
  6
CONTINUOUS
 70
0
 71
3
 72
15
 73
11
 74
0
 42
0.0000001
 43
0.0000001
 44
0.0000000001
 40
0.0
 40
0.0
 40
0.0
 40
0.0
 40
0.1249501591
 40
0.2497891901
 40
0.3746550521
 40
0.4996019281
 40
0.6246653704
 40
0.749812721
 40
0.87493323
 40
1.0
 40
1.0
 40
1.0
 40
1.0
 10
297.7309673274
 20
-20.6364665493
 30
0.0
 10
297.4358968294
 20
-20.3420785366
 30
0.0
 10
296.9572051684
 20
-19.6290514002
 30
0.0
 10
296.707871709
 20
-18.3723660959
 30
0.0
 10
296.9584757255
 20
-17.1143951869
 30
0.0
 10
297.6730378088
 20
-16.048669851
 30
0.0
 10
298.7414073567
 20
-15.3365772588
 30
0.0
 10
300.0016377625
 20
-15.0871060719
 30
0.0
 10
301.2605191272
 20
-15.3356114747
 30
0.0
 10
301.9757927623
 20
-15.8132365271
 30
0.0
 10
302.2711386376
 20
-16.1078992801
 30
0.0
  0
SPLINE
  5
271
100
AcDbEntity
  8
_30_VOLUMEN
100
AcDbSpline
 62
4
  6
CONTINUOUS
 70
0
 71
3
 72
15
 73
11
 74
0
 42
0.0000001
 43
0.0000001
 44
0.0000000001
 40
0.0
 40
0.0
 40
0.0
 40
0.0
 40
0.1249501591
 40
0.2497891901
 40
0.3746550521
 40
0.4996019281
 40
0.6246653704
 40
0.749812721
 40
0.87493323
 40
1.0
 40
1.0
 40
1.0
 40
1.0
 10
302.2711386376
 20
-16.1078992801
 30
0.0
 10
302.5662091355
 20
-16.4022872928
 30
0.0
 10
303.0449007966
 20
-17.1153144292
 30
0.0
 10
303.294234256
 20
-18.3719997335
 30
0.0
 10
303.0436302394
 20
-19.6299706425
 30
0.0
 10
302.3290681561
 20
-20.6956959785
 30
0.0
 10
301.2606986083
 20
-21.4077885706
 30
0.0
 10
300.0004682024
 20
-21.6572597575
 30
0.0
 10
298.7415868378
 20
-21.4087543547
 30
0.0
 10
298.0263132026
 20
-20.9311293024
 30
0.0
 10
297.7309673274
 20
-20.6364665493
 30
0.0
  0
SPLINE
  5
272
100
AcDbEntity
  8
_30_VOLUMEN
100
AcDbSpline
 62
4
  6
CONTINUOUS
 70
0
 71
3
 72
15
 73
11
 74
0
 42
0.0000001
 43
0.0000001
 44
0.0000000001
 40
0.0
 40
0.0
 40
0.0
 40
0.0
 40
0.1250512854
 40
0.2501890773
 40
0.3753327008
 40
0.5003980739
 40
0.6253468606
 40
0.7502090097
 40
0.8750653143
 40
1.0
 40
1.0
 40
1.0
 40
1.0
 10
297.7703132207
 20
-20.5743434601
 30
0.0
 10
298.0604372049
 20
-20.8637964001
 30
0.0
 10
298.7631765512
 20
-21.332952681
 30
0.0
 10
299.9999035383
 20
-21.5773833155
 30
0.0
 10
301.2380421765
 20
-21.3321473677
 30
0.0
 10
302.287713077
 20
-20.6326550322
 30
0.0
 10
302.9896315682
 20
-19.5855817938
 30
0.0
 10
303.2359806623
 20
-18.3496630211
 30
0.0
 10
302.9907358554
 20
-17.1150937784
 30
0.0
 10
302.5205319233
 20
-16.4145613435
 30
0.0
 10
302.2306784551
 20
-16.1253782938
 30
0.0
  0
SPLINE
  5
273
100
AcDbEntity
  8
_30_VOLUMEN
100
AcDbSpline
 62
4
  6
CONTINUOUS
 70
0
 71
3
 72
15
 73
11
 74
0
 42
0.0000001
 43
0.0000001
 44
0.0000000001
 40
0.0
 40
0.0
 40
0.0
 40
0.0
 40
0.1249346857
 40
0.2497909903
 40
0.3746531394
 40
0.4996019261
 40
0.6246672992
 40
0.7498109227
 40
0.8749487146
 40
1.0
 40
1.0
 40
1.0
 40
1.0
 10
297.7703132207
 20
-20.5743434601
 30
0.0
 10
297.4804597524
 20
-20.2851604104
 30
0.0
 10
297.0102558203
 20
-19.5846279755
 30
0.0
 10
296.7650110135
 20
-18.3500587328
 30
0.0
 10
297.0113601076
 20
-17.1141399601
 30
0.0
 10
297.7132785988
 20
-16.0670667217
 30
0.0
 10
298.7629494992
 20
-15.3675743862
 30
0.0
 10
300.0010881374
 20
-15.1223384384
 30
0.0
 10
301.2378151246
 20
-15.3667690729
 30
0.0
 10
301.9405544708
 20
-15.8359253538
 30
0.0
 10
302.2306784551
 20
-16.1253782938
 30
0.0
  0
SPLINE
  5
274
100
AcDbEntity
  8
_30_VOLUMEN
100
AcDbSpline
 62
7
  6
CONTINUOUS
 70
0
 71
3
 72
15
 73
11
 74
0
 42
0.0000001
 43
0.0000001
 44
0.0000000001
 40
0.0
 40
0.0
 40
0.0
 40
0.0
 40
0.1248426177
 40
0.2501373979
 40
0.3752193112
 40
0.5003270959
 40
0.6253659389
 40
0.7503356654
 40
0.8752256045
 40
1.0
 40
1.0
 40
1.0
 40
1.0
 10
298.0531970607
 20
-20.1886497905
 30
0.0
 10
298.2452007473
 20
-20.380209381
 30
0.0
 10
298.6906025338
 20
-20.7077062615
 30
0.0
 10
299.4700585835
 20
-20.9830059517
 30
0.0
 10
300.297456951
 20
-21.0169053264
 30
0.0
 10
301.0975779283
 20
-20.8070698573
 30
0.0
 10
301.801488209
 20
-20.3731173822
 30
0.0
 10
302.3471974446
 20
-19.7519484507
 30
0.0
 10
302.6850306713
 20
-18.9988004384
 30
0.0
 10
302.7539142224
 20
-18.4512129305
 30
0.0
 10
302.7470938726
 20
-18.1802265829
 30
0.0
  0
SPLINE
  5
275
100
AcDbEntity
  8
_21_KURVEN
100
AcDbSpline
 62
7
  6
CONTINUOUS
 70
0
 71
3
 72
9
 73
5
 74
0
 42
0.0000001
 43
0.0000001
 44
0.0000000001
 40
0.0
 40
0.0
 40
0.0
 40
0.0
 40
0.5
 40
1.0
 40
1.0
 40
1.0
 40
1.0
 10
300.567762001
 20
-9.9781096277
 30
0.0
 10
300.5415215794
 20
-9.9530918708
 30
0.0
 10
300.48775565
 20
-9.9041292106
 30
0.0
 10
300.4260259308
 20
-9.8656312356
 30
0.0
 10
300.3936936799
 20
-9.8465141935
 30
0.0
  0
SPLINE
  5
276
100
AcDbEntity
  8
_21_KURVEN
100
AcDbSpline
 62
7
  6
CONTINUOUS
 70
0
 71
3
 72
10
 73
6
 74
0
 42
0.0000001
 43
0.0000001
 44
0.0000000001
 40
0.0
 40
0.0
 40
0.0
 40
0.0
 40
0.5
 40
0.75
 40
1.0
 40
1.0
 40
1.0
 40
1.0
 10
300.3936936829
 20
-9.8465141951
 30
0.0
 10
300.3691108142
 20
-9.8333047414
 30
0.0
 10
300.3259330038
 20
-9.8114660954
 30
0.0
 10
300.2742327795
 20
-9.7917066485
 30
0.0
 10
300.2440213599
 20
-9.7818848292
 30
0.0
 10
300.2293489079
 20
-9.7772401419
 30
0.0
  0
SPLINE
  5
277
100
AcDbEntity
  8
_21_KURVEN
100
AcDbSpline
 62
7
  6
CONTINUOUS
 70
0
 71
3
 72
8
 73
4
 74
0
 42
0.0000001
 43
0.0000001
 44
0.0000000001
 40
0.0
 40
0.0
 40
0.0
 40
0.0
 40
1.0
 40
1.0
 40
1.0
 40
1.0
 10
300.2293489032
 20
-9.7772401406
 30
0.0
 10
300.2132599087
 20
-9.7725762751
 30
0.0
 10
300.1972215046
 20
-9.7683723089
 30
0.0
 10
300.1805680856
 20
-9.7644768022
 30
0.0
  0
SPLINE
  5
278
100
AcDbEntity
  8
_21_KURVEN
100
AcDbSpline
 62
7
  6
CONTINUOUS
 70
0
 71
3
 72
8
 73
4
 74
0
 42
0.0000001
 43
0.0000001
 44
0.0000000001
 40
0.0
 40
0.0
 40
0.0
 40
0.0
 40
1.0
 40
1.0
 40
1.0
 40
1.0
 10
300.1805680838
 20
-9.7644768018
 30
0.0
 10
300.131402579
 20
-9.7540604128
 30
0.0
 10
300.0786330346
 20
-9.7470543182
 30
0.0
 10
300.0229790714
 20
-9.7446375182
 30
0.0
  0
SPLINE
  5
279
100
AcDbEntity
  8
_21_KURVEN
100
AcDbSpline
 62
7
  6
CONTINUOUS
 70
0
 71
3
 72
8
 73
4
 74
0
 42
0.0000001
 43
0.0000001
 44
0.0000000001
 40
0.0
 40
0.0
 40
0.0
 40
0.0
 40
1.0
 40
1.0
 40
1.0
 40
1.0
 10
300.0229790766
 20
-9.7446375183
 30
0.0
 10
300.0118118932
 20
-9.7443856687
 30
0.0
 10
299.9977493034
 20
-9.7442921901
 30
0.0
 10
299.9811941391
 20
-9.7446385255
 30
0.0
  0
SPLINE
  5
27A
100
AcDbEntity
  8
_21_KURVEN
100
AcDbSpline
 62
7
  6
CONTINUOUS
 70
0
 71
3
 72
8
 73
4
 74
0
 42
0.0000001
 43
0.0000001
 44
0.0000000001
 40
0.0
 40
0.0
 40
0.0
 40
0.0
 40
1.0
 40
1.0
 40
1.0
 40
1.0
 10
299.9811941395
 20
-9.7446385255
 30
0.0
 10
299.9309745559
 20
-9.746736349
 30
0.0
 10
299.8781057172
 20
-9.7530325151
 30
0.0
 10
299.8236088682
 20
-9.7644836667
 30
0.0
  0
SPLINE
  5
27B
100
AcDbEntity
  8
_21_KURVEN
100
AcDbSpline
 62
7
  6
CONTINUOUS
 70
0
 71
3
 72
8
 73
4
 74
0
 42
0.0000001
 43
0.0000001
 44
0.0000000001
 40
0.0
 40
0.0
 40
0.0
 40
0.0
 40
1.0
 40
1.0
 40
1.0
 40
1.0
 10
299.8236088725
 20
-9.7644836657
 30
0.0
 10
299.8072955193
 20
-9.7682981888
 30
0.0
 10
299.7912625977
 20
-9.7724856281
 30
0.0
 10
299.7748153626
 20
-9.7772518565
 30
0.0
  0
SPLINE
  5
27C
100
AcDbEntity
  8
_21_KURVEN
100
AcDbSpline
 62
7
  6
CONTINUOUS
 70
0
 71
3
 72
9
 73
5
 74
0
 42
0.0000001
 43
0.0000001
 44
0.0000000001
 40
0.0
 40
0.0
 40
0.0
 40
0.0
 40
0.5
 40
1.0
 40
1.0
 40
1.0
 40
1.0
 10
299.7748153609
 20
-9.777251857
 30
0.0
 10
299.7481837469
 20
-9.7856308523
 30
0.0
 10
299.6963831026
 20
-9.8027238446
 30
0.0
 10
299.64257136
 20
-9.8294958319
 30
0.0
 10
299.6154792863
 20
-9.8437455892
 30
0.0
  0
SPLINE
  5
27D
100
AcDbEntity
  8
_21_KURVEN
100
AcDbSpline
 62
7
  6
CONTINUOUS
 70
0
 71
3
 72
9
 73
5
 74
0
 42
0.0000001
 43
0.0000001
 44
0.0000000001
 40
0.0
 40
0.0
 40
0.0
 40
0.0
 40
0.5
 40
1.0
 40
1.0
 40
1.0
 40
1.0
 10
299.6154792819
 20
-9.8437455916
 30
0.0
 10
299.5841038809
 20
-9.8619601217
 30
0.0
 10
299.5196294822
 20
-9.9013880339
 30
0.0
 10
299.4636805092
 20
-9.9521453044
 30
0.0
 10
299.436392879
 20
-9.978109623
 30
0.0
  0
SPLINE
  5
27E
100
AcDbEntity
  8
_21_KURVEN
100
AcDbSpline
 62
7
  6
CONTINUOUS
 70
0
 71
3
 72
9
 73
5
 74
0
 42
0.0000001
 43
0.0000001
 44
0.0000000001
 40
0.0
 40
0.0
 40
0.0
 40
0.0
 40
0.5
 40
1.0
 40
1.0
 40
1.0
 40
1.0
 10
308.4155419915
 20
-18.9364903626
 30
0.0
 10
308.440623996
 20
-18.9103107754
 30
0.0
 10
308.4897126895
 20
-18.8566697738
 30
0.0
 10
308.5283121295
 20
-18.7950856439
 30
0.0
 10
308.5474797609
 20
-18.7628297759
 30
0.0
  0
SPLINE
  5
27F
100
AcDbEntity
  8
_21_KURVEN
100
AcDbSpline
 62
7
  6
CONTINUOUS
 70
0
 71
3
 72
10
 73
6
 74
0
 42
0.0000001
 43
0.0000001
 44
0.0000000001
 40
0.0
 40
0.0
 40
0.0
 40
0.0
 40
0.5
 40
0.75
 40
1.0
 40
1.0
 40
1.0
 40
1.0
 10
308.5474797592
 20
-18.7628297788
 30
0.0
 10
308.5607244419
 20
-18.738305147
 30
0.0
 10
308.5826216393
 20
-18.6952297909
 30
0.0
 10
308.6024356012
 20
-18.6436530212
 30
0.0
 10
308.6122850676
 20
-18.6135139532
 30
0.0
 10
308.616942876
 20
-18.5988766546
 30
0.0
  0
SPLINE
  5
280
100
AcDbEntity
  8
_21_KURVEN
100
AcDbSpline
 62
7
  6
CONTINUOUS
 70
0
 71
3
 72
8
 73
4
 74
0
 42
0.0000001
 43
0.0000001
 44
0.0000000001
 40
0.0
 40
0.0
 40
0.0
 40
0.0
 40
1.0
 40
1.0
 40
1.0
 40
1.0
 10
308.6169428774
 20
-18.5988766499
 30
0.0
 10
308.6216200832
 20
-18.582826255
 30
0.0
 10
308.6258362614
 20
-18.5668263833
 30
0.0
 10
308.6297433021
 20
-18.5502130316
 30
0.0
  0
SPLINE
  5
281
100
AcDbEntity
  8
_21_KURVEN
100
AcDbSpline
 62
7
  6
CONTINUOUS
 70
0
 71
3
 72
8
 73
4
 74
0
 42
0.0000001
 43
0.0000001
 44
0.0000000001
 40
0.0
 40
0.0
 40
0.0
 40
0.0
 40
1.0
 40
1.0
 40
1.0
 40
1.0
 10
308.6297433025
 20
-18.5502130297
 30
0.0
 10
308.6401910972
 20
-18.5011659465
 30
0.0
 10
308.6472207139
 20
-18.4485240124
 30
0.0
 10
308.6496501876
 20
-18.3930052402
 30
0.0
  0
SPLINE
  5
282
100
AcDbEntity
  8
_21_KURVEN
100
AcDbSpline
 62
7
  6
CONTINUOUS
 70
0
 71
3
 72
8
 73
4
 74
0
 42
0.0000001
 43
0.0000001
 44
0.0000000001
 40
0.0
 40
0.0
 40
0.0
 40
0.0
 40
1.0
 40
1.0
 40
1.0
 40
1.0
 10
308.6496501875
 20
-18.3930052454
 30
0.0
 10
308.6499040113
 20
-18.3818652171
 30
0.0
 10
308.6499994301
 20
-18.3678368502
 30
0.0
 10
308.6496542651
 20
-18.3513220303
 30
0.0
  0
SPLINE
  5
283
100
AcDbEntity
  8
_21_KURVEN
100
AcDbSpline
 62
7
  6
CONTINUOUS
 70
0
 71
3
 72
8
 73
4
 74
0
 42
0.0000001
 43
0.0000001
 44
0.0000000001
 40
0.0
 40
0.0
 40
0.0
 40
0.0
 40
1.0
 40
1.0
 40
1.0
 40
1.0
 10
308.6496542651
 20
-18.3513220307
 30
0.0
 10
308.6475574362
 20
-18.3012249582
 30
0.0
 10
308.6412523418
 20
-18.2484855912
 30
0.0
 10
308.6297798799
 20
-18.1941228047
 30
0.0
  0
SPLINE
  5
284
100
AcDbEntity
  8
_21_KURVEN
100
AcDbSpline
 62
7
  6
CONTINUOUS
 70
0
 71
3
 72
8
 73
4
 74
0
 42
0.0000001
 43
0.0000001
 44
0.0000000001
 40
0.0
 40
0.0
 40
0.0
 40
0.0
 40
1.0
 40
1.0
 40
1.0
 40
1.0
 10
308.6297798809
 20
-18.194122809
 30
0.0
 10
308.625958035
 20
-18.1778496338
 30
0.0
 10
308.6217623288
 20
-18.1618562529
 30
0.0
 10
308.6169864714
 20
-18.1454496377
 30
0.0
  0
SPLINE
  5
285
100
AcDbEntity
  8
_21_KURVEN
100
AcDbSpline
 62
7
  6
CONTINUOUS
 70
0
 71
3
 72
9
 73
5
 74
0
 42
0.0000001
 43
0.0000001
 44
0.0000000001
 40
0.0
 40
0.0
 40
0.0
 40
0.0
 40
0.5
 40
1.0
 40
1.0
 40
1.0
 40
1.0
 10
308.6169864709
 20
-18.1454496359
 30
0.0
 10
308.60859027
 20
-18.1188838747
 30
0.0
 10
308.591461871
 20
-18.0672114161
 30
0.0
 10
308.5646311014
 20
-18.0135339335
 30
0.0
 10
308.5503498676
 20
-17.9865095482
 30
0.0
  0
SPLINE
  5
286
100
AcDbEntity
  8
_21_KURVEN
100
AcDbSpline
 62
7
  6
CONTINUOUS
 70
0
 71
3
 72
9
 73
5
 74
0
 42
0.0000001
 43
0.0000001
 44
0.0000000001
 40
0.0
 40
0.0
 40
0.0
 40
0.0
 40
0.5
 40
1.0
 40
1.0
 40
1.0
 40
1.0
 10
308.5503498652
 20
-17.9865095438
 30
0.0
 10
308.5320947046
 20
-17.9552127414
 30
0.0
 10
308.492578423
 20
-17.890900101
 30
0.0
 10
308.4417040973
 20
-17.835093511
 30
0.0
 10
308.4156797381
 20
-17.8078754715
 30
0.0
  0
SPLINE
  5
287
100
AcDbEntity
  8
_21_KURVEN
100
AcDbSpline
 62
7
  6
CONTINUOUS
 70
0
 71
3
 72
9
 73
5
 74
0
 42
0.0000001
 43
0.0000001
 44
0.0000000001
 40
0.0
 40
0.0
 40
0.0
 40
0.0
 40
0.5
 40
1.0
 40
1.0
 40
1.0
 40
1.0
 10
299.4343439639
 20
-26.7662562017
 30
0.0
 10
299.4605843855
 20
-26.7912739587
 30
0.0
 10
299.514350315
 20
-26.8402366188
 30
0.0
 10
299.5760800341
 20
-26.8787345938
 30
0.0
 10
299.608412285
 20
-26.897851636
 30
0.0
  0
SPLINE
  5
288
100
AcDbEntity
  8
_21_KURVEN
100
AcDbSpline
 62
7
  6
CONTINUOUS
 70
0
 71
3
 72
10
 73
6
 74
0
 42
0.0000001
 43
0.0000001
 44
0.0000000001
 40
0.0
 40
0.0
 40
0.0
 40
0.0
 40
0.5
 40
0.75
 40
1.0
 40
1.0
 40
1.0
 40
1.0
 10
299.6084122821
 20
-26.8978516343
 30
0.0
 10
299.6329951508
 20
-26.911061088
 30
0.0
 10
299.6761729611
 20
-26.932899734
 30
0.0
 10
299.7278731854
 20
-26.952659181
 30
0.0
 10
299.758084605
 20
-26.9624810002
 30
0.0
 10
299.7727570571
 20
-26.9671256875
 30
0.0
  0
SPLINE
  5
289
100
AcDbEntity
  8
_21_KURVEN
100
AcDbSpline
 62
7
  6
CONTINUOUS
 70
0
 71
3
 72
8
 73
4
 74
0
 42
0.0000001
 43
0.0000001
 44
0.0000000001
 40
0.0
 40
0.0
 40
0.0
 40
0.0
 40
1.0
 40
1.0
 40
1.0
 40
1.0
 10
299.7727570618
 20
-26.9671256889
 30
0.0
 10
299.7888460562
 20
-26.9717895543
 30
0.0
 10
299.8048844604
 20
-26.9759935205
 30
0.0
 10
299.8215378793
 20
-26.9798890272
 30
0.0
  0
SPLINE
  5
28A
100
AcDbEntity
  8
_21_KURVEN
100
AcDbSpline
 62
7
  6
CONTINUOUS
 70
0
 71
3
 72
8
 73
4
 74
0
 42
0.0000001
 43
0.0000001
 44
0.0000000001
 40
0.0
 40
0.0
 40
0.0
 40
0.0
 40
1.0
 40
1.0
 40
1.0
 40
1.0
 10
299.8215378812
 20
-26.9798890277
 30
0.0
 10
299.8707033859
 20
-26.9903054166
 30
0.0
 10
299.9234729304
 20
-26.9973115112
 30
0.0
 10
299.9791268936
 20
-26.9997283113
 30
0.0
  0
SPLINE
  5
28B
100
AcDbEntity
  8
_21_KURVEN
100
AcDbSpline
 62
7
  6
CONTINUOUS
 70
0
 71
3
 72
8
 73
4
 74
0
 42
0.0000001
 43
0.0000001
 44
0.0000000001
 40
0.0
 40
0.0
 40
0.0
 40
0.0
 40
1.0
 40
1.0
 40
1.0
 40
1.0
 10
299.9791268884
 20
-26.9997283111
 30
0.0
 10
299.9902940717
 20
-26.9999801607
 30
0.0
 10
300.0043566615
 20
-27.0000736393
 30
0.0
 10
300.0209118259
 20
-26.9997273039
 30
0.0
  0
SPLINE
  5
28C
100
AcDbEntity
  8
_21_KURVEN
100
AcDbSpline
 62
7
  6
CONTINUOUS
 70
0
 71
3
 72
8
 73
4
 74
0
 42
0.0000001
 43
0.0000001
 44
0.0000000001
 40
0.0
 40
0.0
 40
0.0
 40
0.0
 40
1.0
 40
1.0
 40
1.0
 40
1.0
 10
300.0209118255
 20
-26.9997273039
 30
0.0
 10
300.0711314091
 20
-26.9976294804
 30
0.0
 10
300.1240002478
 20
-26.9913333143
 30
0.0
 10
300.1784970968
 20
-26.9798821628
 30
0.0
  0
SPLINE
  5
28D
100
AcDbEntity
  8
_21_KURVEN
100
AcDbSpline
 62
7
  6
CONTINUOUS
 70
0
 71
3
 72
8
 73
4
 74
0
 42
0.0000001
 43
0.0000001
 44
0.0000000001
 40
0.0
 40
0.0
 40
0.0
 40
0.0
 40
1.0
 40
1.0
 40
1.0
 40
1.0
 10
300.1784970924
 20
-26.9798821637
 30
0.0
 10
300.1948104456
 20
-26.9760676406
 30
0.0
 10
300.2108433673
 20
-26.9718802013
 30
0.0
 10
300.2272906023
 20
-26.967113973
 30
0.0
  0
SPLINE
  5
28E
100
AcDbEntity
  8
_21_KURVEN
100
AcDbSpline
 62
7
  6
CONTINUOUS
 70
0
 71
3
 72
9
 73
5
 74
0
 42
0.0000001
 43
0.0000001
 44
0.0000000001
 40
0.0
 40
0.0
 40
0.0
 40
0.0
 40
0.5
 40
1.0
 40
1.0
 40
1.0
 40
1.0
 10
300.2272906041
 20
-26.9671139725
 30
0.0
 10
300.2539222181
 20
-26.9587349772
 30
0.0
 10
300.3057228624
 20
-26.9416419849
 30
0.0
 10
300.3595346049
 20
-26.9148699976
 30
0.0
 10
300.3866266786
 20
-26.9006202402
 30
0.0
  0
SPLINE
  5
28F
100
AcDbEntity
  8
_21_KURVEN
100
AcDbSpline
 62
7
  6
CONTINUOUS
 70
0
 71
3
 72
9
 73
5
 74
0
 42
0.0000001
 43
0.0000001
 44
0.0000000001
 40
0.0
 40
0.0
 40
0.0
 40
0.0
 40
0.5
 40
1.0
 40
1.0
 40
1.0
 40
1.0
 10
300.3866266831
 20
-26.9006202378
 30
0.0
 10
300.418002084
 20
-26.8824057077
 30
0.0
 10
300.4824764827
 20
-26.8429777955
 30
0.0
 10
300.5384254557
 20
-26.7922205251
 30
0.0
 10
300.565713086
 20
-26.7662562064
 30
0.0
  0
SPLINE
  5
290
100
AcDbEntity
  8
_21_KURVEN
100
AcDbSpline
 62
1
  6
CENTER
 70
0
 71
3
 72
163
 73
159
 74
0
 42
0.0000001
 43
0.0000001
 44
0.0000000001
 40
0.0
 40
0.0
 40
0.0
 40
0.0
 40
0.015625
 40
0.03125
 40
0.0390625
 40
0.046875
 40
0.0546875
 40
0.05859375
 40
0.060546875
 40
0.0625
 40
0.064453125
 40
0.06640625
 40
0.0703125
 40
0.078125
 40
0.09375
 40
0.109375
 40
0.1171875
 40
0.12109375
 40
0.123046875
 40
0.125
 40
0.126953125
 40
0.12890625
 40
0.1328125
 40
0.140625
 40
0.15625
 40
0.171875
 40
0.1796875
 40
0.18359375
 40
0.185546875
 40
0.1875
 40
0.189453125
 40
0.19140625
 40
0.1953125
 40
0.203125
 40
0.21875
 40
0.234375
 40
0.2421875
 40
0.24609375
 40
0.248046875
 40
0.25
 40
0.251953125
 40
0.25390625
 40
0.2578125
 40
0.265625
 40
0.28125
 40
0.296875
 40
0.3046875
 40
0.30859375
 40
0.310546875
 40
0.3125
 40
0.314453125
 40
0.31640625
 40
0.3203125
 40
0.328125
 40
0.34375
 40
0.359375
 40
0.3671875
 40
0.37109375
 40
0.373046875
 40
0.375
 40
0.376953125
 40
0.37890625
 40
0.3828125
 40
0.390625
 40
0.40625
 40
0.421875
 40
0.4296875
 40
0.43359375
 40
0.435546875
 40
0.4375
 40
0.439453125
 40
0.44140625
 40
0.4453125
 40
0.453125
 40
0.46875
 40
0.484375
 40
0.4921875
 40
0.49609375
 40
0.498046875
 40
0.5
 40
0.501953125
 40
0.50390625
 40
0.5078125
 40
0.515625
 40
0.53125
 40
0.546875
 40
0.5546875
 40
0.55859375
 40
0.560546875
 40
0.5625
 40
0.564453125
 40
0.56640625
 40
0.5703125
 40
0.578125
 40
0.59375
 40
0.609375
 40
0.6171875
 40
0.62109375
 40
0.623046875
 40
0.625
 40
0.626953125
 40
0.62890625
 40
0.6328125
 40
0.640625
 40
0.65625
 40
0.671875
 40
0.6796875
 40
0.68359375
 40
0.685546875
 40
0.6875
 40
0.689453125
 40
0.69140625
 40
0.6953125
 40
0.703125
 40
0.71875
 40
0.734375
 40
0.7421875
 40
0.74609375
 40
0.748046875
 40
0.75
 40
0.751953125
 40
0.75390625
 40
0.7578125
 40
0.765625
 40
0.78125
 40
0.796875
 40
0.8046875
 40
0.80859375
 40
0.810546875
 40
0.8125
 40
0.814453125
 40
0.81640625
 40
0.8203125
 40
0.828125
 40
0.84375
 40
0.859375
 40
0.8671875
 40
0.87109375
 40
0.873046875
 40
0.875
 40
0.876953125
 40
0.87890625
 40
0.8828125
 40
0.890625
 40
0.90625
 40
0.921875
 40
0.9296875
 40
0.93359375
 40
0.935546875
 40
0.9375
 40
0.939453125
 40
0.94140625
 40
0.9453125
 40
0.953125
 40
0.9609375
 40
0.96875
 40
0.984375
 40
1.0
 40
1.0
 40
1.0
 40
1.0
 10
295.5103850977
 20
-22.8513732822
 30
0.0
 10
295.5901812372
 20
-22.9167655447
 30
0.0
 10
295.7497759433
 20
-23.0475464536
 30
0.0
 10
295.9492571903
 20
-23.2110406704
 30
0.0
 10
296.1088676728
 20
-23.3417980746
 30
0.0
 10
296.2285063615
 20
-23.439969187
 30
0.0
 10
296.3284252271
 20
-23.5214507369
 30
0.0
 10
296.3979367838
 20
-23.5791309254
 30
0.0
 10
296.4383316559
 20
-23.6110868829
 30
0.0
 10
296.4667291906
 20
-23.6378825577
 30
0.0
 10
296.5023842115
 20
-23.6538654813
 30
0.0
 10
296.5473929443
 20
-23.6789473881
 30
0.0
 10
296.6273356241
 20
-23.7210862625
 30
0.0
 10
296.7863815137
 20
-23.8066180163
 30
0.0
 10
297.014057399
 20
-23.9280831224
 30
0.0
 10
297.2414623886
 20
-24.0500521021
 30
0.0
 10
297.4008875321
 20
-24.1348784329
 30
0.0
 10
297.4803087378
 20
-24.177987264
 30
0.0
 10
297.526157247
 20
-24.2015071627
 30
0.0
 10
297.5592319874
 20
-24.2222894822
 30
0.0
 10
297.597320812
 20
-24.2310590793
 30
0.0
 10
297.6463570772
 20
-24.2469417477
 30
0.0
 10
297.7329840066
 20
-24.2727872865
 30
0.0
 10
297.9056576627
 20
-24.3258711048
 30
0.0
 10
298.1526591067
 20
-24.4009052443
 30
0.0
 10
298.3994665292
 20
-24.4764860911
 30
0.0
 10
298.5724118153
 20
-24.5288045193
 30
0.0
 10
298.6586652535
 20
-24.5557024695
 30
0.0
 10
298.7083029851
 20
-24.5698903456
 30
0.0
 10
298.7445437558
 20
-24.5838673286
 30
0.0
 10
298.7845596122
 20
-24.5850911984
 30
0.0
 10
298.8365974206
 20
-24.5911711334
 30
0.0
 10
298.9282757868
 20
-24.5997417749
 30
0.0
 10
299.1111986015
 20
-24.6183614253
 30
0.0
 10
299.3727379094
 20
-24.6441134609
 30
0.0
 10
299.6342197225
 20
-24.6704394185
 30
0.0
 10
299.8172230299
 20
-24.688255578
 30
0.0
 10
299.9087907185
 20
-24.6979310195
 30
0.0
 10
299.9610067611
 20
-24.702231796
 30
0.0
 10
300.0004749787
 20
-24.708922274
 30
0.0
 10
300.0387726289
 20
-24.7023671928
 30
0.0
 10
300.0902444481
 20
-24.6982469455
 30
0.0
 10
300.1801301192
 20
-24.6888874292
 30
0.0
 10
300.3600381119
 20
-24.6717031282
 30
0.0
 10
300.616964025
 20
-24.6462797612
 30
0.0
 10
300.8739716718
 20
-24.6214305587
 30
0.0
 10
301.0537652374
 20
-24.6034424274
 30
0.0
 10
301.1438082459
 20
-24.5951881779
 30
0.0
 10
301.1950266905
 20
-24.5892880205
 30
0.0
 10
301.2341028544
 20
-24.5882018565
 30
0.0
 10
301.2706470482
 20
-24.574351598
 30
0.0
 10
301.32025577
 20
-24.5603365182
 30
0.0
 10
301.4066600629
 20
-24.5337391794
 30
0.0
 10
301.579763859
 20
-24.4820232512
 30
0.0
 10
301.8268730233
 20
-24.407302354
 30
0.0
 10
302.0741477739
 20
-24.3331287901
 30
0.0
 10
302.2470197494
 20
-24.2806465952
 30
0.0
 10
302.3337427956
 20
-24.255102873
 30
0.0
 10
302.3828382003
 20
-24.2393910599
 30
0.0
 10
302.4209596021
 20
-24.2307541514
 30
0.0
 10
302.4541119217
 20
-24.2100871377
 30
0.0
 10
302.5000481687
 20
-24.1867270482
 30
0.0
 10
302.5796302705
 20
-24.1438950091
 30
0.0
 10
302.7393713788
 20
-24.0596248938
 30
0.0
 10
302.9672356672
 20
-23.9384443746
 30
0.0
 10
303.1953502689
 20
-23.8177872486
 30
0.0
 10
303.3547409386
 20
-23.7327843829
 30
0.0
 10
303.4348048934
 20
-23.6909598757
 30
0.0
 10
303.4799651694
 20
-23.6659772673
 30
0.0
 10
303.5155017223
 20
-23.6502955735
 30
0.0
 10
303.5446681692
 20
-23.6229342745
 30
0.0
 10
303.5857785911
 20
-23.5905262049
 30
0.0
 10
303.6566880263
 20
-23.5319172462
 30
0.0
 10
303.7992479479
 20
-23.4160506444
 30
0.0
 10
304.0024605586
 20
-23.2497718612
 30
0.0
 10
304.2060393239
 20
-23.0839394089
 30
0.0
 10
304.348086629
 20
-22.9674479439
 30
0.0
 10
304.4197009119
 20
-22.9096981721
 30
0.0
 10
304.4596762545
 20
-22.8759064768
 30
0.0
 10
304.4923303242
 20
-22.8527964794
 30
0.0
 10
304.5147676954
 20
-22.8211472986
 30
0.0
 10
304.5482476342
 20
-22.7819267295
 30
0.0
 10
304.6051798116
 20
-22.7119053192
 30
0.0
 10
304.7202286722
 20
-22.5728511943
 30
0.0
 10
304.8839039401
 20
-22.3736445638
 30
0.0
 10
305.0480439958
 20
-22.1747862258
 30
0.0
 10
305.1624421534
 20
-22.0352444914
 30
0.0
 10
305.2202690475
 20
-21.9658935441
 30
0.0
 10
305.2523081437
 20
-21.9255932685
 30
0.0
 10
305.27917262
 20
-21.8972615731
 30
0.0
 10
305.2951989015
 20
-21.8616914137
 30
0.0
 10
305.3203474933
 20
-21.8167891949
 30
0.0
 10
305.362598938
 20
-21.7370360007
 30
0.0
 10
305.4483587833
 20
-21.5783668816
 30
0.0
 10
305.5701480304
 20
-21.3512304683
 30
0.0
 10
305.6924423464
 20
-21.1243642289
 30
0.0
 10
305.7774950952
 20
-20.9653168663
 30
0.0
 10
305.8207187976
 20
-20.8860837569
 30
0.0
 10
305.8443016757
 20
-20.8403439989
 30
0.0
 10
305.8651387388
 20
-20.8073472462
 30
0.0
 10
305.8739343742
 20
-20.7693500782
 30
0.0
 10
305.8898617724
 20
-20.7204312543
 30
0.0
 10
305.9157809307
 20
-20.6340120649
 30
0.0
 10
305.9690153163
 20
-20.4617523066
 30
0.0
 10
306.0442626395
 20
-20.2153430334
 30
0.0
 10
306.1200579804
 20
-19.9691272427
 30
0.0
 10
306.1725251412
 20
-19.7965966089
 30
0.0
 10
306.1994992337
 20
-19.7105498733
 30
0.0
 10
306.2137277769
 20
-19.6610312536
 30
0.0
 10
306.2277432813
 20
-19.6248770066
 30
0.0
 10
306.2289750096
 20
-19.5849584167
 30
0.0
 10
306.2350761175
 20
-19.5330465502
 30
0.0
 10
306.2436788362
 20
-19.4415903244
 30
0.0
 10
306.2623661961
 20
-19.2591105543
 30
0.0
 10
306.2882129183
 20
-18.9982048084
 30
0.0
 10
306.3146349561
 20
-18.7373563476
 30
0.0
 10
306.332516874
 20
-18.5547963785
 30
0.0
 10
306.3422270755
 20
-18.4634504264
 30
0.0
 10
306.3465447047
 20
-18.4113609762
 30
0.0
 10
306.3532563152
 20
-18.3719880263
 30
0.0
 10
306.3466898997
 20
-18.3337844069
 30
0.0
 10
306.342565864
 20
-18.2824383935
 30
0.0
 10
306.3331944504
 20
-18.1927726816
 30
0.0
 10
306.3159901167
 20
-18.0133047532
 30
0.0
 10
306.2905359872
 20
-17.7570074017
 30
0.0
 10
306.2656574334
 20
-17.5006284456
 30
0.0
 10
306.2476472938
 20
-17.3212747636
 30
0.0
 10
306.2393838633
 20
-17.2314519628
 30
0.0
 10
306.233475543
 20
-17.1803589239
 30
0.0
 10
306.2323914858
 20
-17.1413780201
 30
0.0
 10
306.2185118767
 20
-17.1049244766
 30
0.0
 10
306.2044686345
 20
-17.0554382297
 30
0.0
 10
306.1778169076
 20
-16.9692475196
 30
0.0
 10
306.125995848
 20
-16.7965714277
 30
0.0
 10
306.0511226885
 20
-16.5500729287
 30
0.0
 10
305.9767982183
 20
-16.3034091799
 30
0.0
 10
305.9242089937
 20
-16.1309644376
 30
0.0
 10
305.8986134936
 20
-16.0444556218
 30
0.0
 10
305.8828693149
 20
-15.9954816489
 30
0.0
 10
305.8742159703
 20
-15.9574541023
 30
0.0
 10
305.8535025576
 20
-15.9243850056
 30
0.0
 10
305.8300910531
 20
-15.8785634309
 30
0.0
 10
305.7871641766
 20
-15.7991802803
 30
0.0
 10
305.7027078585
 20
-15.6398383092
 30
0.0
 10
305.5812593546
 20
-15.4125434923
 30
0.0
 10
305.4603355535
 20
-15.1849989077
 30
0.0
 10
305.3751446514
 20
-15.0260066114
 30
0.0
 10
305.3332278279
 20
-14.9461426579
 30
0.0
 10
305.3081897446
 20
-14.9010953633
 30
0.0
 10
305.2924741268
 20
-14.8656472288
 30
0.0
 10
305.2650495364
 20
-14.8365551234
 30
0.0
 10
305.2325676366
 20
-14.7955485953
 30
0.0
 10
305.1738213975
 20
-14.7248201381
 30
0.0
 10
305.0908930668
 20
-14.6232394367
 30
0.0
 10
304.9909532224
 20
-14.5015737596
 30
0.0
 10
304.8578488984
 20
-14.339272082
 30
0.0
 10
304.6914170981
 20
-14.1364228841
 30
0.0
 10
304.5582873211
 20
-13.9741350233
 30
0.0
 10
304.4917204747
 20
-13.8929921557
 30
0.0
  0
SPLINE
  5
291
100
AcDbEntity
  8
_21_KURVEN
100
AcDbSpline
 62
1
  6
CENTER
 70
0
 71
3
 72
163
 73
159
 74
0
 42
0.0000001
 43
0.0000001
 44
0.0000000001
 40
0.0
 40
0.0
 40
0.0
 40
0.0
 40
0.015625
 40
0.03125
 40
0.0390625
 40
0.046875
 40
0.0546875
 40
0.05859375
 40
0.060546875
 40
0.0625
 40
0.064453125
 40
0.06640625
 40
0.0703125
 40
0.078125
 40
0.09375
 40
0.109375
 40
0.1171875
 40
0.12109375
 40
0.123046875
 40
0.125
 40
0.126953125
 40
0.12890625
 40
0.1328125
 40
0.140625
 40
0.15625
 40
0.171875
 40
0.1796875
 40
0.18359375
 40
0.185546875
 40
0.1875
 40
0.189453125
 40
0.19140625
 40
0.1953125
 40
0.203125
 40
0.21875
 40
0.234375
 40
0.2421875
 40
0.24609375
 40
0.248046875
 40
0.25
 40
0.251953125
 40
0.25390625
 40
0.2578125
 40
0.265625
 40
0.28125
 40
0.296875
 40
0.3046875
 40
0.30859375
 40
0.310546875
 40
0.3125
 40
0.314453125
 40
0.31640625
 40
0.3203125
 40
0.328125
 40
0.34375
 40
0.359375
 40
0.3671875
 40
0.37109375
 40
0.373046875
 40
0.375
 40
0.376953125
 40
0.37890625
 40
0.3828125
 40
0.390625
 40
0.40625
 40
0.421875
 40
0.4296875
 40
0.43359375
 40
0.435546875
 40
0.4375
 40
0.439453125
 40
0.44140625
 40
0.4453125
 40
0.453125
 40
0.46875
 40
0.484375
 40
0.4921875
 40
0.49609375
 40
0.498046875
 40
0.5
 40
0.501953125
 40
0.50390625
 40
0.5078125
 40
0.515625
 40
0.53125
 40
0.546875
 40
0.5546875
 40
0.55859375
 40
0.560546875
 40
0.5625
 40
0.564453125
 40
0.56640625
 40
0.5703125
 40
0.578125
 40
0.59375
 40
0.609375
 40
0.6171875
 40
0.62109375
 40
0.623046875
 40
0.625
 40
0.626953125
 40
0.62890625
 40
0.6328125
 40
0.640625
 40
0.65625
 40
0.671875
 40
0.6796875
 40
0.68359375
 40
0.685546875
 40
0.6875
 40
0.689453125
 40
0.69140625
 40
0.6953125
 40
0.703125
 40
0.71875
 40
0.734375
 40
0.7421875
 40
0.74609375
 40
0.748046875
 40
0.75
 40
0.751953125
 40
0.75390625
 40
0.7578125
 40
0.765625
 40
0.78125
 40
0.796875
 40
0.8046875
 40
0.80859375
 40
0.810546875
 40
0.8125
 40
0.814453125
 40
0.81640625
 40
0.8203125
 40
0.828125
 40
0.84375
 40
0.859375
 40
0.8671875
 40
0.87109375
 40
0.873046875
 40
0.875
 40
0.876953125
 40
0.87890625
 40
0.8828125
 40
0.890625
 40
0.90625
 40
0.921875
 40
0.9296875
 40
0.93359375
 40
0.935546875
 40
0.9375
 40
0.939453125
 40
0.94140625
 40
0.9453125
 40
0.953125
 40
0.9609375
 40
0.96875
 40
0.984375
 40
1.0
 40
1.0
 40
1.0
 40
1.0
 10
304.4917208672
 20
-13.8929925473
 30
0.0
 10
304.4119247277
 20
-13.8276002847
 30
0.0
 10
304.2523300216
 20
-13.6968193758
 30
0.0
 10
304.0528487746
 20
-13.5333251591
 30
0.0
 10
303.8932382922
 20
-13.4025677549
 30
0.0
 10
303.7735996035
 20
-13.3043966424
 30
0.0
 10
303.6736807379
 20
-13.2229150926
 30
0.0
 10
303.6041691812
 20
-13.1652349041
 30
0.0
 10
303.5637743091
 20
-13.1332789465
 30
0.0
 10
303.5353767744
 20
-13.1064832718
 30
0.0
 10
303.4997217534
 20
-13.0905003482
 30
0.0
 10
303.4547130207
 20
-13.0654184413
 30
0.0
 10
303.3747703409
 20
-13.0232795669
 30
0.0
 10
303.2157244512
 20
-12.9377478131
 30
0.0
 10
302.988048566
 20
-12.816282707
 30
0.0
 10
302.7606435763
 20
-12.6943137273
 30
0.0
 10
302.6012184329
 20
-12.6094873966
 30
0.0
 10
302.5217972271
 20
-12.5663785655
 30
0.0
 10
302.475948718
 20
-12.5428586668
 30
0.0
 10
302.4428739776
 20
-12.5220763472
 30
0.0
 10
302.404785153
 20
-12.5133067502
 30
0.0
 10
302.3557488877
 20
-12.4974240818
 30
0.0
 10
302.2691219584
 20
-12.471578543
 30
0.0
 10
302.0964483022
 20
-12.4184947246
 30
0.0
 10
301.8494468583
 20
-12.3434605851
 30
0.0
 10
301.6026394357
 20
-12.2678797384
 30
0.0
 10
301.4296941496
 20
-12.2155613101
 30
0.0
 10
301.3434407115
 20
-12.1886633599
 30
0.0
 10
301.2938029799
 20
-12.1744754838
 30
0.0
 10
301.2575622092
 20
-12.1604985008
 30
0.0
 10
301.2175463528
 20
-12.1592746311
 30
0.0
 10
301.1655085444
 20
-12.153194696
 30
0.0
 10
301.0738301781
 20
-12.1446240545
 30
0.0
 10
300.8909073635
 20
-12.1260044041
 30
0.0
 10
300.6293680555
 20
-12.1002523686
 30
0.0
 10
300.3678862425
 20
-12.0739264109
 30
0.0
 10
300.184882935
 20
-12.0561102515
 30
0.0
 10
300.0933152464
 20
-12.0464348099
 30
0.0
 10
300.0410992039
 20
-12.0421340335
 30
0.0
 10
300.0016309862
 20
-12.0354435554
 30
0.0
 10
299.963333336
 20
-12.0419986367
 30
0.0
 10
299.9118615168
 20
-12.046118884
 30
0.0
 10
299.8219758458
 20
-12.0554784003
 30
0.0
 10
299.642067853
 20
-12.0726627012
 30
0.0
 10
299.3851419399
 20
-12.0980860682
 30
0.0
 10
299.1281342931
 20
-12.1229352707
 30
0.0
 10
298.9483407276
 20
-12.140923402
 30
0.0
 10
298.8582977191
 20
-12.1491776516
 30
0.0
 10
298.8070792745
 20
-12.155077809
 30
0.0
 10
298.7680031106
 20
-12.156163973
 30
0.0
 10
298.7314589168
 20
-12.1700142314
 30
0.0
 10
298.681850195
 20
-12.1840293112
 30
0.0
 10
298.5954459021
 20
-12.21062665
 30
0.0
 10
298.422342106
 20
-12.2623425783
 30
0.0
 10
298.1752329416
 20
-12.3370634755
 30
0.0
 10
297.9279581911
 20
-12.4112370393
 30
0.0
 10
297.7550862156
 20
-12.4637192343
 30
0.0
 10
297.6683631694
 20
-12.4892629564
 30
0.0
 10
297.6192677647
 20
-12.5049747695
 30
0.0
 10
297.5811463628
 20
-12.5136116781
 30
0.0
 10
297.5479940432
 20
-12.5342786917
 30
0.0
 10
297.5020577963
 20
-12.5576387813
 30
0.0
 10
297.4224756944
 20
-12.6004708204
 30
0.0
 10
297.2627345862
 20
-12.6847409357
 30
0.0
 10
297.0348702977
 20
-12.8059214548
 30
0.0
 10
296.8067556961
 20
-12.9265785808
 30
0.0
 10
296.6473650263
 20
-13.0115814465
 30
0.0
 10
296.5673010715
 20
-13.0534059538
 30
0.0
 10
296.5221407956
 20
-13.0783885622
 30
0.0
 10
296.4866042426
 20
-13.0940702559
 30
0.0
 10
296.4574377958
 20
-13.1214315549
 30
0.0
 10
296.4163273738
 20
-13.1538396245
 30
0.0
 10
296.3454179386
 20
-13.2124485832
 30
0.0
 10
296.202858017
 20
-13.328315185
 30
0.0
 10
295.9996454063
 20
-13.4945939682
 30
0.0
 10
295.796066641
 20
-13.6604264205
 30
0.0
 10
295.6540193359
 20
-13.7769178855
 30
0.0
 10
295.5824050531
 20
-13.8346676573
 30
0.0
 10
295.5424297105
 20
-13.8684593526
 30
0.0
 10
295.5097756408
 20
-13.89156935
 30
0.0
 10
295.4873382696
 20
-13.9232185308
 30
0.0
 10
295.4538583308
 20
-13.9624390999
 30
0.0
 10
295.3969261534
 20
-14.0324605102
 30
0.0
 10
295.2818772927
 20
-14.1715146351
 30
0.0
 10
295.1182020249
 20
-14.3707212656
 30
0.0
 10
294.9540619691
 20
-14.5695796037
 30
0.0
 10
294.8396638116
 20
-14.709121338
 30
0.0
 10
294.7818369174
 20
-14.7784722854
 30
0.0
 10
294.7497978212
 20
-14.818772561
 30
0.0
 10
294.722933345
 20
-14.8471042563
 30
0.0
 10
294.7069070634
 20
-14.8826744158
 30
0.0
 10
294.6817584716
 20
-14.9275766345
 30
0.0
 10
294.639507027
 20
-15.0073298287
 30
0.0
 10
294.5537471816
 20
-15.1659989478
 30
0.0
 10
294.4319579346
 20
-15.3931353612
 30
0.0
 10
294.3096636186
 20
-15.6200016006
 30
0.0
 10
294.2246108697
 20
-15.7790489632
 30
0.0
 10
294.1813871674
 20
-15.8582820726
 30
0.0
 10
294.1578042892
 20
-15.9040218305
 30
0.0
 10
294.1369672262
 20
-15.9370185832
 30
0.0
 10
294.1281715908
 20
-15.9750157512
 30
0.0
 10
294.1122441926
 20
-16.0239345751
 30
0.0
 10
294.0863250342
 20
-16.1103537645
 30
0.0
 10
294.0330906486
 20
-16.2826135228
 30
0.0
 10
293.9578433254
 20
-16.529022796
 30
0.0
 10
293.8820479845
 20
-16.7752385867
 30
0.0
 10
293.8295808238
 20
-16.9477692205
 30
0.0
 10
293.8026067312
 20
-17.0338159561
 30
0.0
 10
293.788378188
 20
-17.0833345758
 30
0.0
 10
293.7743626836
 20
-17.1194888228
 30
0.0
 10
293.7731309553
 20
-17.1594074127
 30
0.0
 10
293.7670298474
 20
-17.2113192793
 30
0.0
 10
293.7584271287
 20
-17.3027755051
 30
0.0
 10
293.7397397688
 20
-17.4852552751
 30
0.0
 10
293.7138930467
 20
-17.746161021
 30
0.0
 10
293.6874710088
 20
-18.0070094818
 30
0.0
 10
293.6695890909
 20
-18.189569451
 30
0.0
 10
293.6598788894
 20
-18.280915403
 30
0.0
 10
293.6555612603
 20
-18.3330048533
 30
0.0
 10
293.6488496497
 20
-18.3723778031
 30
0.0
 10
293.6554160652
 20
-18.4105814226
 30
0.0
 10
293.6595401009
 20
-18.4619274359
 30
0.0
 10
293.6689115146
 20
-18.5515931478
 30
0.0
 10
293.6861158483
 20
-18.7310610762
 30
0.0
 10
293.7115699778
 20
-18.9873584277
 30
0.0
 10
293.7364485316
 20
-19.2437373839
 30
0.0
 10
293.7544586712
 20
-19.4230910658
 30
0.0
 10
293.7627221017
 20
-19.5129138666
 30
0.0
 10
293.768630422
 20
-19.5640069055
 30
0.0
 10
293.7697144792
 20
-19.6029878093
 30
0.0
 10
293.7835940883
 20
-19.6394413528
 30
0.0
 10
293.7976373305
 20
-19.6889275997
 30
0.0
 10
293.8242890573
 20
-19.7751183098
 30
0.0
 10
293.876110117
 20
-19.9477944017
 30
0.0
 10
293.9509832764
 20
-20.1942929008
 30
0.0
 10
294.0253077467
 20
-20.4409566495
 30
0.0
 10
294.0778969712
 20
-20.6134013919
 30
0.0
 10
294.1034924714
 20
-20.6999102076
 30
0.0
 10
294.11923665
 20
-20.7488841805
 30
0.0
 10
294.1278899947
 20
-20.7869117272
 30
0.0
 10
294.1486034074
 20
-20.8199808239
 30
0.0
 10
294.1720149118
 20
-20.8658023985
 30
0.0
 10
294.2149417883
 20
-20.9451855491
 30
0.0
 10
294.2993981064
 20
-21.1045275202
 30
0.0
 10
294.4208466104
 20
-21.3318223371
 30
0.0
 10
294.5417704114
 20
-21.5593669217
 30
0.0
 10
294.6269613135
 20
-21.718359218
 30
0.0
 10
294.668878137
 20
-21.7982231715
 30
0.0
 10
294.6939162204
 20
-21.8432704662
 30
0.0
 10
294.7096318381
 20
-21.8787186007
 30
0.0
 10
294.7370564286
 20
-21.9078107061
 30
0.0
 10
294.7695383283
 20
-21.9488172341
 30
0.0
 10
294.8282845674
 20
-22.0195456913
 30
0.0
 10
294.9112128981
 20
-22.1211263927
 30
0.0
 10
295.0111527426
 20
-22.2427920699
 30
0.0
 10
295.1442570665
 20
-22.4050937475
 30
0.0
 10
295.3106888669
 20
-22.6079429453
 30
0.0
 10
295.4438186438
 20
-22.7702308061
 30
0.0
 10
295.5103854902
 20
-22.8513736737
 30
0.0
  0
SPLINE
  5
292
100
AcDbEntity
  8
_21_KURVEN
100
AcDbSpline
 62
7
  6
CONTINUOUS
 70
0
 71
3
 72
9
 73
5
 74
0
 42
0.0000001
 43
0.0000001
 44
0.0000000001
 40
0.0
 40
0.0
 40
0.0
 40
0.0
 40
0.5
 40
1.0
 40
1.0
 40
1.0
 40
1.0
 10
291.5865639734
 20
-17.8078754668
 30
0.0
 10
291.561481969
 20
-17.834055054
 30
0.0
 10
291.5123932755
 20
-17.8876960556
 30
0.0
 10
291.4737938354
 20
-17.9492801855
 30
0.0
 10
291.454626204
 20
-17.9815360535
 30
0.0
  0
SPLINE
  5
293
100
AcDbEntity
  8
_21_KURVEN
100
AcDbSpline
 62
7
  6
CONTINUOUS
 70
0
 71
3
 72
10
 73
6
 74
0
 42
0.0000001
 43
0.0000001
 44
0.0000000001
 40
0.0
 40
0.0
 40
0.0
 40
0.0
 40
0.5
 40
0.75
 40
1.0
 40
1.0
 40
1.0
 40
1.0
 10
291.4546262057
 20
-17.9815360506
 30
0.0
 10
291.441381523
 20
-18.0060606824
 30
0.0
 10
291.4194843256
 20
-18.0491360385
 30
0.0
 10
291.3996703637
 20
-18.1007128083
 30
0.0
 10
291.3898208974
 20
-18.1308518763
 30
0.0
 10
291.3851630889
 20
-18.1454891749
 30
0.0
  0
SPLINE
  5
294
100
AcDbEntity
  8
_21_KURVEN
100
AcDbSpline
 62
7
  6
CONTINUOUS
 70
0
 71
3
 72
8
 73
4
 74
0
 42
0.0000001
 43
0.0000001
 44
0.0000000001
 40
0.0
 40
0.0
 40
0.0
 40
0.0
 40
1.0
 40
1.0
 40
1.0
 40
1.0
 10
291.3851630876
 20
-18.1454891795
 30
0.0
 10
291.3804858817
 20
-18.1615395744
 30
0.0
 10
291.3762697036
 20
-18.1775394461
 30
0.0
 10
291.3723626628
 20
-18.1941527979
 30
0.0
  0
SPLINE
  5
295
100
AcDbEntity
  8
_21_KURVEN
100
AcDbSpline
 62
7
  6
CONTINUOUS
 70
0
 71
3
 72
8
 73
4
 74
0
 42
0.0000001
 43
0.0000001
 44
0.0000000001
 40
0.0
 40
0.0
 40
0.0
 40
0.0
 40
1.0
 40
1.0
 40
1.0
 40
1.0
 10
291.3723626624
 20
-18.1941527997
 30
0.0
 10
291.3619148677
 20
-18.243199883
 30
0.0
 10
291.3548852511
 20
-18.295841817
 30
0.0
 10
291.3524557773
 20
-18.3513605892
 30
0.0
  0
SPLINE
  5
296
100
AcDbEntity
  8
_21_KURVEN
100
AcDbSpline
 62
7
  6
CONTINUOUS
 70
0
 71
3
 72
8
 73
4
 74
0
 42
0.0000001
 43
0.0000001
 44
0.0000000001
 40
0.0
 40
0.0
 40
0.0
 40
0.0
 40
1.0
 40
1.0
 40
1.0
 40
1.0
 10
291.3524557775
 20
-18.351360584
 30
0.0
 10
291.3522019537
 20
-18.3625006124
 30
0.0
 10
291.3521065349
 20
-18.3765289792
 30
0.0
 10
291.3524516999
 20
-18.3930437992
 30
0.0
  0
SPLINE
  5
297
100
AcDbEntity
  8
_21_KURVEN
100
AcDbSpline
 62
7
  6
CONTINUOUS
 70
0
 71
3
 72
8
 73
4
 74
0
 42
0.0000001
 43
0.0000001
 44
0.0000000001
 40
0.0
 40
0.0
 40
0.0
 40
0.0
 40
1.0
 40
1.0
 40
1.0
 40
1.0
 10
291.3524516999
 20
-18.3930437987
 30
0.0
 10
291.3545485287
 20
-18.4431408712
 30
0.0
 10
291.3608536232
 20
-18.4958802383
 30
0.0
 10
291.372326085
 20
-18.5502430247
 30
0.0
  0
SPLINE
  5
298
100
AcDbEntity
  8
_21_KURVEN
100
AcDbSpline
 62
7
  6
CONTINUOUS
 70
0
 71
3
 72
8
 73
4
 74
0
 42
0.0000001
 43
0.0000001
 44
0.0000000001
 40
0.0
 40
0.0
 40
0.0
 40
0.0
 40
1.0
 40
1.0
 40
1.0
 40
1.0
 10
291.372326084
 20
-18.5502430204
 30
0.0
 10
291.3761479299
 20
-18.5665161956
 30
0.0
 10
291.3803436362
 20
-18.5825095765
 30
0.0
 10
291.3851194935
 20
-18.5989161918
 30
0.0
  0
SPLINE
  5
299
100
AcDbEntity
  8
_21_KURVEN
100
AcDbSpline
 62
7
  6
CONTINUOUS
 70
0
 71
3
 72
9
 73
5
 74
0
 42
0.0000001
 43
0.0000001
 44
0.0000000001
 40
0.0
 40
0.0
 40
0.0
 40
0.0
 40
0.5
 40
1.0
 40
1.0
 40
1.0
 40
1.0
 10
291.3851194941
 20
-18.5989161935
 30
0.0
 10
291.3935156949
 20
-18.6254819548
 30
0.0
 10
291.410644094
 20
-18.6771544133
 30
0.0
 10
291.4374748636
 20
-18.7308318959
 30
0.0
 10
291.4517560973
 20
-18.7578562812
 30
0.0
  0
SPLINE
  5
29A
100
AcDbEntity
  8
_21_KURVEN
100
AcDbSpline
 62
7
  6
CONTINUOUS
 70
0
 71
3
 72
9
 73
5
 74
0
 42
0.0000001
 43
0.0000001
 44
0.0000000001
 40
0.0
 40
0.0
 40
0.0
 40
0.0
 40
0.5
 40
1.0
 40
1.0
 40
1.0
 40
1.0
 10
291.4517560998
 20
-18.7578562856
 30
0.0
 10
291.4700112603
 20
-18.789153088
 30
0.0
 10
291.5095275419
 20
-18.8534657285
 30
0.0
 10
291.5604018676
 20
-18.9092723184
 30
0.0
 10
291.5864262269
 20
-18.9364903579
 30
0.0
  0
SPLINE
  5
29B
100
AcDbEntity
  8
0
100
AcDbSpline
 62
4
  6
CONTINUOUS
 70
0
 71
3
 72
11
 73
7
 74
0
 42
0.0000001
 43
0.0000001
 44
0.0000000001
 40
0.0
 40
0.0
 40
0.0
 40
0.0
 40
0.2500298805
 40
0.500000013
 40
0.7499701377
 40
1.0
 40
1.0
 40
1.0
 40
1.0
 10
1.5
 20
6.2449979984
 30
0.0
 10
1.1848641838
 20
5.2357556696
 30
0.0
 10
0.6797503601
 20
3.1743572523
 30
0.0
 10
0.4101755902
 20
-0.0000001335
 30
0.0
 10
0.6797503685
 20
-3.1743574439
 30
0.0
 10
1.1848642068
 20
-5.235755743
 30
0.0
 10
1.5
 20
-6.2449979984
 30
0.0
  0
SPLINE
  5
29C
100
AcDbEntity
  8
_30_VOLUMEN
100
AcDbSpline
 62
4
  6
CONTINUOUS
 70
0
 71
3
 72
24
 73
20
 74
0
 42
0.0000001
 43
0.0000001
 44
0.0000000001
 40
0.0
 40
0.0
 40
0.0
 40
0.0
 40
0.1445622157
 40
0.2157234485
 40
0.2855168772
 40
0.3534342158
 40
0.418935463
 40
0.4814689218
 40
0.5405611527
 40
0.596036886
 40
0.6484152033
 40
0.6739500389
 40
0.6994115114
 40
0.7251407735
 40
0.7514693413
 40
0.8068840083
 40
0.8669581703
 40
0.9316145408
 40
1.0
 40
1.0
 40
1.0
 40
1.0
 10
283.0051832957
 20
-19.7426943122
 30
0.0
 10
281.309574294
 20
-19.7426136507
 30
0.0
 10
278.7792630894
 20
-19.7396003303
 30
0.0
 10
275.4305119857
 20
-19.7031907761
 30
0.0
 10
272.9811957706
 20
-19.643786877
 30
0.0
 10
270.6000042744
 20
-19.5311630799
 30
0.0
 10
268.3090335279
 20
-19.3371223688
 30
0.0
 10
266.1345552597
 20
-19.0261529322
 30
0.0
 10
264.1077128849
 20
-18.553995599
 30
0.0
 10
262.2660078134
 20
-17.86821965
 30
0.0
 10
260.9122099635
 20
-17.0584412086
 30
0.0
 10
259.9959117294
 20
-16.2600802007
 30
0.0
 10
259.3945110108
 20
-15.5873203547
 30
0.0
 10
258.8782807573
 20
-14.8358741316
 30
0.0
 10
258.2963504806
 20
-13.7144624739
 30
0.0
 10
257.7942328391
 20
-12.1149629441
 30
0.0
 10
257.5244544718
 20
-10.0119818607
 30
0.0
 10
257.5219941187
 20
-7.7425607014
 30
0.0
 10
257.6645761517
 20
-6.1867128526
 30
0.0
 10
257.7654102112
 20
-5.3909646632
 30
0.0
  0
LINE
  5
29D
100
AcDbEntity
  8
_26_BEZUGSACHSEN
100
AcDbLine
 62
4
  6
CONTINUOUS
 10
283.0051820958
 20
-19.7426948179
 11
292.3949401186
 21
-19.7431341921
  0
SPLINE
  5
29E
100
AcDbEntity
  8
_30_VOLUMEN
100
AcDbSpline
 62
4
  6
CONTINUOUS
 70
0
 71
3
 72
15
 73
11
 74
0
 42
0.0000001
 43
0.0000001
 44
0.0000000001
 40
0.0
 40
0.0
 40
0.0
 40
0.0
 40
0.1368977643
 40
0.2688028046
 40
0.3956018382
 40
0.518082387
 40
0.6378221263
 40
0.7568242813
 40
0.8770432623
 40
1.0
 40
1.0
 40
1.0
 40
1.0
 10
260.6474804163
 20
5.3909646632
 30
0.0
 10
260.9800273785
 20
6.1871113962
 30
0.0
 10
261.689915114
 20
7.7276757942
 30
0.0
 10
262.9304709625
 20
9.8947731404
 30
0.0
 10
264.3400480607
 20
11.8467130771
 30
0.0
 10
265.9258155942
 20
13.5568498393
 30
0.0
 10
267.6875871639
 20
15.0098132946
 30
0.0
 10
269.6164996197
 20
16.2046062017
 30
0.0
 10
271.6973607169
 20
17.1554500398
 30
0.0
 10
273.1552025721
 20
17.6376608561
 30
0.0
 10
273.9009260239
 20
17.848454119
 30
0.0
  0
LINE
  5
29F
100
AcDbEntity
  8
_30_VOLUMEN
100
AcDbLine
 62
4
  6
CONTINUOUS
 10
260.6474804163
 20
5.3909646632
 11
257.7654102112
 21
-5.3909646632
  0
ELLIPSE
  5
2A0
100
AcDbEntity
  8
_30_VOLUMEN
100
AcDbEllipse
 62
4
  6
CONTINUOUS
 10
300.0000984326
 20
-26.193473053
 30
0.0
 11
0.0040305181
 21
0.809983572
 31
0.0
 40
0.9876603206
 41
-3.9146498688
 42
-2.3587062249
  0
ELLIPSE
  5
2A1
100
AcDbEntity
  8
_30_VOLUMEN
100
AcDbEllipse
 62
4
  6
CONTINUOUS
 10
292.1606760505
 20
-18.3721829147
 30
0.0
 11
0.8119653201
 21
0.0028163126
 31
0.0
 40
0.9828575888
 41
2.3600918371
 42
3.916035481
  0
ELLIPSE
  5
2A2
100
AcDbEntity
  8
_30_VOLUMEN
100
AcDbEllipse
 62
4
  6
CONTINUOUS
 10
300.0020075323
 20
-10.5508927764
 30
0.0
 11
0.0040305181
 21
0.809983572
 31
0.0
 40
0.9876603206
 41
-0.7730572152
 42
0.7828864286
  0
ELLIPSE
  5
2A3
100
AcDbEntity
  8
_30_VOLUMEN
100
AcDbEllipse
 62
4
  6
CONTINUOUS
 10
307.8414299144
 20
-18.3721829147
 30
0.0
 11
0.8119653201
 21
0.0028163126
 31
0.0
 40
0.9828575888
 41
-0.7815008164
 42
0.7744428274
  0
ENDSEC
  0
SECTION
  2
OBJECTS
  0
DICTIONARY
  5
C
100
AcDbDictionary
280
0
281
1
  3
ACAD_GROUP
350
D
  3
ACAD_MLINESTYLE
350
17
  3
ACAD_LAYOUT
350
1A
  3
ACAD_PLOTSETTINGS
350
19
  3
ACAD_PLOTSTYLENAME
350
E
  0
DICTIONARY
  5
D
102
{ACAD_REACTORS
330
C
102
}
100
AcDbDictionary
280
0
281
1
  0
ACDBDICTIONARYWDFLT
  5
E
102
{ACAD_REACTORS
330
C
102
}
100
AcDbDictionary
281
1
  3
Normal
350
F
100
AcDbDictionaryWithDefault
340
F
  0
DICTIONARY
  5
17
102
{ACAD_REACTORS
330
C
102
}
100
AcDbDictionary
280
0
281
1
  3
Standard
350
18
  0
DICTIONARY
  5
19
102
{ACAD_REACTORS
330
C
102
}
100
AcDbDictionary
281
1
  0
DICTIONARY
  5
1A
102
{ACAD_REACTORS
330
C
102
}
100
AcDbDictionary
281
1
  3
Model
350
2A4
  3
Layout1
350
2A5
  0
ACDBPLACEHOLDER
  5
F
102
{ACAD_REACTORS
330
E
102
}
  0
MLINESTYLE
  5
18
102
{ACAD_REACTORS
330
17
102
}
100
AcDbMlineStyle
  2
STANDARD
 70
0
  3

 62
256
 51
90.0
 52
90.0
 71
2
 49
0.5
 62
256
  6
BYLAYER
 49
-0.5
 62
256
  6
BYLAYER
  0
LAYOUT
  5
2A4
102
{ACAD_REACTORS
330
1A
102
}
100
AcDbPlotSettings
  1

  2
none_device
  4
ISO_A3_(420.00_x_297.00_MM)
  6

 40
0.0
 41
0.0
 42
0.0
 43
0.0
 44
420.0
 45
297.0
 46
0.0
 47
0.0
 48
0.0
 49
0.0
140
0.0
141
0.0
142
1.0
143
1.0
 70
1024
 72
1
 73
0
 74
0
  7

 75
0
147
1.0
148
0.0
149
0.0
100
AcDbLayout
  1
Model
 70
0
 71
0
 10
0.0
 20
0.0
 11
420.0
 21
297.0
 12
0.0
 22
0.0
 32
0.0
 14
0.0
 24
0.0
 34
0.0
 15
0.0
 25
0.0
 35
0.0
146
0.0
 13
0.0
 23
0.0
 33
0.0
 16
1.0
 26
0.0
 36
0.0
 17
0.0
 27
1.0
 37
0.0
 76
0
330
20F
345
0
346
0
  0
LAYOUT
  5
2A5
102
{ACAD_REACTORS
330
1A
102
}
100
AcDbPlotSettings
  1

  2
none_device
  4
ISO_A3_(420.00_x_297.00_MM)
  6

 40
0.0
 41
0.0
 42
0.0
 43
0.0
 44
420.0
 45
297.0
 46
0.0
 47
0.0
 48
0.0
 49
0.0
140
0.0
141
0.0
142
1.0
143
1.0
 70
0
 72
1
 73
0
 74
0
  7

 75
0
147
1.0
148
0.0
149
0.0
100
AcDbLayout
  1
Layout1
 70
0
 71
1
 10
0.0
 20
0.0
 11
420.0
 21
297.0
 12
0.0
 22
0.0
 32
0.0
 14
0.0
 24
0.0
 34
0.0
 15
0.0
 25
0.0
 35
0.0
146
0.0
 13
0.0
 23
0.0
 33
0.0
 16
1.0
 26
0.0
 36
0.0
 17
0.0
 27
1.0
 37
0.0
 76
0
330
210
345
0
346
0
  0
ENDSEC
  0
EOF
