999
DXF file: 70724225.dxf
999
Pro/ENGINEER 2017380 by Parametric Technology Corporation
  0
SECTION
  2
HEADER
  9
$ACADVER
  1
AC1027
  9
$DWGCODEPAGE
  3
ANSI_1252
  9
$EXTMAX
 10
420.0
 20
297.0
 30
0.0
  9
$EXTMIN
 10
0.0
 20
0.0
 30
0.0
  9
$LIMMIN
 10
0.0
 20
0.0
  9
$LIMMAX
 10
420.0
 20
297.0
  9
$VIEWCTR
 10
210.0
 20
148.5
  9
$VIEWSIZE
 40
297.0
  9
$CLAYER
  8
0
  9
$LTSCALE
 40
23.1
  9
$CELTYPE
  6
BYLAYER
  9
$DIMSCALE
 40
1.0
  9
$DIMASZ
 40
3.5
  9
$DIMEXO
 40
0.0
  9
$DIMDLI
 40
15.96
  9
$DIMEXE
 40
1.5
  9
$DIMCEN
 40
3.78
  9
$DIMLFAC
 40
1.0
  9
$DIMBLK
  1
_FILLED
  9
$DIMALT
 70
0
  9
$DIMALTF
 40
25.4
  9
$DIMTXT
 40
3.5
  9
$DIMTOL
 70
1
  9
$DIMLIM
 70
0
  9
$DIMTFAC
 40
1.0
  9
$DIMTP
 40
0.05
  9
$DIMTM
 40
0.05
  9
$DIMGAP
 40
0.625
  9
$DIMDSEP
 70
46
  9
$AUNITS
 70
0
  9
$PDMODE
 70
3
  9
$PDSIZE
 40
0.3125
  9
$HANDSEED
  5
2AB
  9
$TILEMODE
 70
1
  9
$MEASUREMENT
 70
1
  9
$INSUNITS
 70
4
  0
ENDSEC
  0
SECTION
  2
CLASSES
  0
CLASS
  1
ACDBDICTIONARYWDFLT
  2
AcDbDictionaryWithDefault
  3
AutoCAD 2000
 90
0
 91
1
280
0
281
0
  0
CLASS
  1
ACDBPLACEHOLDER
  2
AcDbPlaceHolder
  3
AutoCAD 2000
 90
0
 91
1
280
0
281
0
  0
CLASS
  1
LAYOUT
  2
AcDbLayout
  3
AutoCAD 2000
 90
0
 91
0
280
0
281
0
  0
ENDSEC
  0
SECTION
  2
TABLES
  0
TABLE
  2
VPORT
  5
8
100
AcDbSymbolTable
 70
2
  0
VPORT
  5
1F4
100
AcDbSymbolTableRecord
100
AcDbViewportTableRecord
  2
*ACTIVE
 70
0
 10
0.0
 20
0.0
 11
1.0
 21
1.0
 12
210.0
 22
148.5
 13
0.0
 23
0.0
 14
1.0
 24
1.0
 15
0.0
 25
0.0
 16
0.0
 26
0.0
 36
1.0
 17
0.0
 27
0.0
 37
0.0
 40
297.0
 41
1.4141414141
 42
50.0
 43
0.0
 44
0.0
 50
0.0
 51
0.0
 71
0
 72
100
 73
1
 74
1
 75
0
 76
0
 77
0
 78
0
  0
ENDTAB
  0
TABLE
  2
LTYPE
  5
5
100
AcDbSymbolTable
 70
6
  0
LTYPE
  5
14
100
AcDbSymbolTableRecord
100
AcDbLinetypeTableRecord
  2
BYBLOCK
 70
0
  3

 72
65
 73
0
 40
0.0
  0
LTYPE
  5
15
100
AcDbSymbolTableRecord
100
AcDbLinetypeTableRecord
  2
BYLAYER
 70
0
  3

 72
65
 73
0
 40
0.0
  0
LTYPE
  5
16
100
AcDbSymbolTableRecord
100
AcDbLinetypeTableRecord
  2
CONTINUOUS
 70
64
  3
Solid line
 72
65
 73
0
 40
0.0
  0
LTYPE
  5
1F5
100
AcDbSymbolTableRecord
100
AcDbLinetypeTableRecord
  2
CENTER
 70
64
  3
____ _ ____ _ ____ _ ____ _ ____ _ ____ _ ____
 72
65
 73
4
 40
0.6
 49
0.375
 74
0
 49
-0.075
 74
0
 49
0.075
 74
0
 49
-0.075
 74
0
  0
LTYPE
  5
1F6
100
AcDbSymbolTableRecord
100
AcDbLinetypeTableRecord
  2
HIDDEN
 70
64
  3
- - - - - - - - - - - - - - - - - - - -
 72
65
 73
2
 40
0.2
 49
0.1
 74
0
 49
-0.1
 74
0
  0
LTYPE
  5
1F7
100
AcDbSymbolTableRecord
100
AcDbLinetypeTableRecord
  2
PHANTOM
 70
64
  3
_____ _ _ _____ _ _ _____ _ _ _____
 72
65
 73
6
 40
0.8
 49
0.45
 74
0
 49
-0.05
 74
0
 49
0.1
 74
0
 49
-0.05
 74
0
 49
0.1
 74
0
 49
-0.05
 74
0
  0
LTYPE
  5
1F8
100
AcDbSymbolTableRecord
100
AcDbLinetypeTableRecord
  2
DOT
 70
64
  3
. . . . . . . . . . . . . . . . . . . .
 72
65
 73
2
 40
0.2
 49
0.1
 74
0
 49
-0.1
 74
0
  0
LTYPE
  5
1F9
100
AcDbSymbolTableRecord
100
AcDbLinetypeTableRecord
  2
DASHED
 70
64
  3
- - - - - - - - - - - - - - - - - - - -
 72
65
 73
2
 40
0.2
 49
0.1
 74
0
 49
-0.1
 74
0
  0
ENDTAB
  0
TABLE
  2
LAYER
  5
2
100
AcDbSymbolTable
 70
36
  0
LAYER
  5
10
100
AcDbSymbolTableRecord
100
AcDbLayerTableRecord
  2
0
 70
0
 62
7
  6
CONTINUOUS
370
-3
390
F
  0
LAYER
  5
1FA
100
AcDbSymbolTableRecord
100
AcDbLayerTableRecord
  2
DEFAULT_1
 70
0
 62
7
  6
CENTER
370
-3
390
F
  0
LAYER
  5
1FB
100
AcDbSymbolTableRecord
100
AcDbLayerTableRecord
  2
DEFAULT_2
 70
0
 62
1
  6
HIDDEN
370
-3
390
F
  0
LAYER
  5
1FC
100
AcDbSymbolTableRecord
100
AcDbLayerTableRecord
  2
DEFAULT_3
 70
0
 62
7
  6
PHANTOM
370
-3
390
F
  0
LAYER
  5
1FD
100
AcDbSymbolTableRecord
100
AcDbLayerTableRecord
  2
BG_STARTBEZUEGE
 70
0
 62
7
  6
CONTINUOUS
370
-3
390
F
  0
LAYER
  5
1FE
100
AcDbSymbolTableRecord
100
AcDbLayerTableRecord
  2
HILFEN
 70
0
 62
7
  6
CONTINUOUS
370
-3
390
F
  0
LAYER
  5
1FF
100
AcDbSymbolTableRecord
100
AcDbLayerTableRecord
  2
PLATZIERUNG
 70
0
 62
7
  6
CONTINUOUS
370
-3
390
F
  0
LAYER
  5
200
100
AcDbSymbolTableRecord
100
AcDbLayerTableRecord
  2
T_STARTBEZUEGE
 70
0
 62
7
  6
CONTINUOUS
370
-3
390
F
  0
LAYER
  5
201
100
AcDbSymbolTableRecord
100
AcDbLayerTableRecord
  2
_03_2D_ZEICHNUNG_BEMASSUNGEN
 70
0
 62
7
  6
CONTINUOUS
370
-3
390
F
  0
LAYER
  5
202
100
AcDbSymbolTableRecord
100
AcDbLayerTableRecord
  2
_04_NOTIZEN
 70
0
 62
7
  6
CONTINUOUS
370
-3
390
F
  0
LAYER
  5
203
100
AcDbSymbolTableRecord
100
AcDbLayerTableRecord
  2
_05_2D_ELEMENTE
 70
0
 62
7
  6
CONTINUOUS
370
-3
390
F
  0
LAYER
  5
204
100
AcDbSymbolTableRecord
100
AcDbLayerTableRecord
  2
_07_EINRASTLINIEN
 70
0
 62
7
  6
CONTINUOUS
370
-3
390
F
  0
LAYER
  5
205
100
AcDbSymbolTableRecord
100
AcDbLayerTableRecord
  2
_21_KURVEN
 70
0
 62
7
  6
CONTINUOUS
370
-3
390
F
  0
LAYER
  5
206
100
AcDbSymbolTableRecord
100
AcDbLayerTableRecord
  2
_22_FLAECHEN
 70
0
 62
7
  6
CONTINUOUS
370
-3
390
F
  0
LAYER
  5
207
100
AcDbSymbolTableRecord
100
AcDbLayerTableRecord
  2
_26_BEZUGSACHSEN
 70
0
 62
7
  6
CONTINUOUS
370
-3
390
F
  0
LAYER
  5
208
100
AcDbSymbolTableRecord
100
AcDbLayerTableRecord
  2
_27_BEZUGSEBENEN
 70
0
 62
7
  6
CONTINUOUS
370
-3
390
F
  0
LAYER
  5
209
100
AcDbSymbolTableRecord
100
AcDbLayerTableRecord
  2
_28_BEZUGSPUNKTE
 70
0
 62
7
  6
CONTINUOUS
370
-3
390
F
  0
LAYER
  5
20A
100
AcDbSymbolTableRecord
100
AcDbLayerTableRecord
  2
_29_KOORDINATENSYSTEME
 70
0
 62
7
  6
CONTINUOUS
370
-3
390
F
  0
LAYER
  5
20B
100
AcDbSymbolTableRecord
100
AcDbLayerTableRecord
  2
_30_VOLUMEN
 70
0
 62
7
  6
CONTINUOUS
370
-3
390
F
  0
ENDTAB
  0
TABLE
  2
STYLE
  5
3
100
AcDbSymbolTable
 70
1
  0
STYLE
  5
11
100
AcDbSymbolTableRecord
100
AcDbTextStyleTableRecord
  2
STANDARD
 70
0
 40
0.0
 41
0.7
 50
0.0
 71
0
 42
0.2
  3
SIMPLEX.SHX
  4

  0
STYLE
  5
20C
100
AcDbSymbolTableRecord
100
AcDbTextStyleTableRecord
  2
TEXTSTYLE_1
 70
0
 40
0.0
 41
0.8
 50
0.0
 71
0
 42
0.2
  3
gdt
  4

  0
STYLE
  5
20D
100
AcDbSymbolTableRecord
100
AcDbTextStyleTableRecord
  2
TEXTSTYLE_2
 70
0
 40
0.0
 41
0.7
 50
0.0
 71
0
 42
0.2
  3
gdt
  4

  0
ENDTAB
  0
TABLE
  2
VIEW
  5
6
100
AcDbSymbolTable
 70
0
  0
ENDTAB
  0
TABLE
  2
UCS
  5
7
100
AcDbSymbolTable
 70
0
  0
ENDTAB
  0
TABLE
  2
APPID
  5
9
100
AcDbSymbolTable
 70
1
  0
APPID
  5
20E
100
AcDbSymbolTableRecord
100
AcDbRegAppTableRecord
  2
ACAD
 70
0
  0
ENDTAB
  0
TABLE
  2
BLOCK_RECORD
  5
1
100
AcDbSymbolTable
 70
0
  0
BLOCK_RECORD
  5
20F
100
AcDbSymbolTableRecord
100
AcDbBlockTableRecord
  2
*Model_Space
  0
BLOCK_RECORD
  5
210
100
AcDbSymbolTableRecord
100
AcDbBlockTableRecord
  2
*Paper_Space
  0
BLOCK_RECORD
  5
211
100
AcDbSymbolTableRecord
100
AcDbBlockTableRecord
  2
_FILLED
  0
BLOCK_RECORD
  5
212
100
AcDbSymbolTableRecord
100
AcDbBlockTableRecord
  2
*D0
  0
BLOCK_RECORD
  5
213
100
AcDbSymbolTableRecord
100
AcDbBlockTableRecord
  2
*D1
  0
BLOCK_RECORD
  5
214
100
AcDbSymbolTableRecord
100
AcDbBlockTableRecord
  2
*D2
  0
BLOCK_RECORD
  5
215
100
AcDbSymbolTableRecord
100
AcDbBlockTableRecord
  2
*D3
  0
ENDTAB
  0
TABLE
  2
DIMSTYLE
  5
A
100
AcDbSymbolTable
 70
1
100
AcDbDimStyleTable
 71
0
  0
DIMSTYLE
105
216
100
AcDbSymbolTableRecord
100
AcDbDimStyleTableRecord
  2
STANDARD
 70
0
  3

  4

 40
1.0
 41
3.5
 42
0.0
 43
0.38
 44
1.5
 45
0.0
 46
0.0
 47
0.05
 48
0.05
140
3.5
141
0.09
142
0.0
143
25.4
144
1.0
145
0.0
146
1.0
147
0.625
 71
1.0
 72
0.0
 73
0
 74
0
 75
0
 76
0
 77
1
 78
8
 79
2
170
0
171
1
172
0
173
0
174
0
175
0
176
0
177
0
178
2
270
2
179
2
271
2
272
2
273
2
274
2
275
0
280
0
281
0
282
0
283
1
284
8
285
0
286
0
287
3
288
0
340
11
278
46
341
211
342
211
343
211
344
211
  0
DIMSTYLE
105
217
100
AcDbSymbolTableRecord
100
AcDbDimStyleTableRecord
  2
DIMSTYLE_1
 70
0
  3

  4

 40
1.0
 41
3.5
 42
0.0
 43
0.38
 44
1.5
 45
0.0
 46
0.0
 47
0.2
 48
0.2
140
3.5
141
0.09
142
0.0
143
25.4
144
1.0
145
0.0
146
1.0
147
0.875
 71
0.0
 72
0.0
 73
0
 74
0
 75
0
 76
0
 77
1
 78
8
 79
2
170
0
171
1
172
0
173
0
174
0
175
0
176
0
177
0
178
2
270
2
179
2
271
2
272
2
273
2
274
2
275
0
280
0
281
0
282
0
283
1
284
8
285
0
286
0
287
3
288
0
340
11
278
46
341
211
342
211
343
211
344
211
  0
DIMSTYLE
105
218
100
AcDbSymbolTableRecord
100
AcDbDimStyleTableRecord
  2
DIMSTYLE_2
 70
0
  3

  4

 40
1.0
 41
3.5
 42
0.0
 43
0.38
 44
1.5
 45
0.0
 46
0.0
 47
0.5
 48
0.5
140
3.5
141
0.09
142
0.0
143
25.4
144
1.0
145
0.0
146
1.0
147
0.875
 71
0.0
 72
0.0
 73
0
 74
0
 75
0
 76
0
 77
1
 78
8
 79
2
170
0
171
1
172
0
173
0
174
0
175
0
176
0
177
0
178
2
270
2
179
2
271
2
272
2
273
2
274
2
275
0
280
0
281
0
282
0
283
1
284
8
285
0
286
0
287
3
288
0
340
11
278
46
341
211
342
211
343
211
344
211
  0
ENDTAB
  0
ENDSEC
  0
SECTION
  2
BLOCKS
  0
BLOCK
  5
20
100
AcDbEntity
  8
0
100
AcDbBlockBegin
  2
*Model_Space
 70
0
 10
0.0
 20
0.0
 30
0.0
  3
*Model_Space
  1

  0
ENDBLK
  5
21
100
AcDbEntity
  8
0
100
AcDbBlockEnd
  0
BLOCK
  5
1C
100
AcDbEntity
  8
0
100
AcDbBlockBegin
  2
*Paper_Space
 70
0
 10
0.0
 20
0.0
 30
0.0
  3
*Paper_Space
  1

  0
ENDBLK
  5
1D
100
AcDbEntity
  8
0
100
AcDbBlockEnd
  0
BLOCK
  5
219
100
AcDbEntity
  8
0
100
AcDbBlockBegin
  2
_FILLED
 70
64
 10
0.0
 20
0.0
  3
_FILLED
  1

  0
SOLID
  5
21A
100
AcDbEntity
  8
0
  6
BYBLOCK
 62
0
100
AcDbTrace
 10
0.0
 20
0.0
 11
-1.0
 21
0.125
 12
-1.0
 22
-0.125
 13
-1.0
 23
-0.125
  0
ENDBLK
  5
21B
100
AcDbEntity
  8
0
  6
BYBLOCK
 62
0
100
AcDbBlockEnd
  0
BLOCK
  5
21C
100
AcDbEntity
  8
_03_2D_ZEICHNUNG_BEMASSUNGEN
100
AcDbBlockBegin
 62
7
  6
CONTINUOUS
  2
*D0
 70
65
 10
0.0
 20
0.0
  3
*D0
  1

  0
TEXT
  5
21D
100
AcDbEntity
  8
_03_2D_ZEICHNUNG_BEMASSUNGEN
100
AcDbText
 62
2
  6
CONTINUOUS
 10
-9.875
 20
-4.9583333333
  7
TEXTSTYLE_2
 40
3.5
  1
n
 50
90.0
 41
1.0
 72
1
 11
-9.875
 21
-2.625
100
AcDbText
  0
TEXT
  5
21E
100
AcDbEntity
  8
_03_2D_ZEICHNUNG_BEMASSUNGEN
100
AcDbText
 62
2
  6
CONTINUOUS
 10
-9.875
 20
-0.2916666667
  7
STANDARD
 40
3.5
  1
25
 50
90.0
 41
0.75
 72
1
 11
-9.875
 21
2.3333333333
100
AcDbText
  0
LINE
  5
21F
100
AcDbEntity
  8
_03_2D_ZEICHNUNG_BEMASSUNGEN
100
AcDbLine
 62
7
  6
CONTINUOUS
 10
1.5
 20
12.5
 11
-10.5
 21
12.5
  0
LINE
  5
220
100
AcDbEntity
  8
_03_2D_ZEICHNUNG_BEMASSUNGEN
100
AcDbLine
 62
7
  6
CONTINUOUS
 10
1.5
 20
-12.5
 11
-10.5
 21
-12.5
  0
LINE
  5
221
100
AcDbEntity
  8
_03_2D_ZEICHNUNG_BEMASSUNGEN
100
AcDbLine
 62
7
  6
CONTINUOUS
 10
-9.0
 20
12.5
 11
-9.0
 21
0.0
  0
LINE
  5
222
100
AcDbEntity
  8
_03_2D_ZEICHNUNG_BEMASSUNGEN
100
AcDbLine
 62
7
  6
CONTINUOUS
 10
-9.0
 20
-12.5
 11
-9.0
 21
0.0
  0
INSERT
  5
223
100
AcDbEntity
  8
_03_2D_ZEICHNUNG_BEMASSUNGEN
100
AcDbBlockReference
 62
7
  6
CONTINUOUS
  2
_FILLED
 10
-9.0
 20
12.5
 41
3.5
 42
3.5
 43
3.5
 50
90.0
  0
INSERT
  5
224
100
AcDbEntity
  8
_03_2D_ZEICHNUNG_BEMASSUNGEN
100
AcDbBlockReference
 62
7
  6
CONTINUOUS
  2
_FILLED
 10
-9.0
 20
-12.5
 41
3.5
 42
3.5
 43
3.5
 50
270.0
  0
ENDBLK
  5
225
100
AcDbEntity
  8
0
  6
BYBLOCK
 62
0
100
AcDbBlockEnd
  0
BLOCK
  5
226
100
AcDbEntity
  8
_03_2D_ZEICHNUNG_BEMASSUNGEN
100
AcDbBlockBegin
 62
7
  6
CONTINUOUS
  2
*D1
 70
65
 10
0.0
 20
0.0
  3
*D1
  1

  0
TEXT
  5
227
100
AcDbEntity
  8
_03_2D_ZEICHNUNG_BEMASSUNGEN
100
AcDbText
 62
2
  6
CONTINUOUS
 10
94.7
 20
36.0543579247
  7
STANDARD
 40
3.5
  1
202.4
 41
0.7428571429
 72
1
 11
101.2
 21
36.0543579247
100
AcDbText
  0
LINE
  5
228
100
AcDbEntity
  8
_03_2D_ZEICHNUNG_BEMASSUNGEN
100
AcDbLine
 62
7
  6
CONTINUOUS
 10
202.4
 20
0.0
 11
202.4
 21
36.6793579247
  0
LINE
  5
229
100
AcDbEntity
  8
_03_2D_ZEICHNUNG_BEMASSUNGEN
100
AcDbLine
 62
7
  6
CONTINUOUS
 10
0.0
 20
0.0
 11
0.0
 21
36.6793579247
  0
LINE
  5
22A
100
AcDbEntity
  8
_03_2D_ZEICHNUNG_BEMASSUNGEN
100
AcDbLine
 62
7
  6
CONTINUOUS
 10
202.4
 20
35.1793579247
 11
101.2
 21
35.1793579247
  0
LINE
  5
22B
100
AcDbEntity
  8
_03_2D_ZEICHNUNG_BEMASSUNGEN
100
AcDbLine
 62
7
  6
CONTINUOUS
 10
0.0
 20
35.1793579247
 11
101.2
 21
35.1793579247
  0
INSERT
  5
22C
100
AcDbEntity
  8
_03_2D_ZEICHNUNG_BEMASSUNGEN
100
AcDbBlockReference
 62
7
  6
CONTINUOUS
  2
_FILLED
 10
202.4
 20
35.1793579247
 41
3.5
 42
3.5
 43
3.5
  0
INSERT
  5
22D
100
AcDbEntity
  8
_03_2D_ZEICHNUNG_BEMASSUNGEN
100
AcDbBlockReference
 62
7
  6
CONTINUOUS
  2
_FILLED
 10
0.0
 20
35.1793579247
 41
3.5
 42
3.5
 43
3.5
 50
180.0
  0
ENDBLK
  5
22E
100
AcDbEntity
  8
0
  6
BYBLOCK
 62
0
100
AcDbBlockEnd
  0
BLOCK
  5
22F
100
AcDbEntity
  8
_03_2D_ZEICHNUNG_BEMASSUNGEN
100
AcDbBlockBegin
 62
7
  6
CONTINUOUS
  2
*D2
 70
65
 10
0.0
 20
0.0
  3
*D2
  1

  0
TEXT
  5
230
100
AcDbEntity
  8
_03_2D_ZEICHNUNG_BEMASSUNGEN
100
AcDbText
 62
2
  6
CONTINUOUS
 10
210.9742616002
 20
6.125
  7
STANDARD
 40
3.5
  1
17
 50
90.0
 41
0.6785714286
 72
1
 11
210.9742616002
 21
8.5
100
AcDbText
  0
LINE
  5
231
100
AcDbEntity
  8
_03_2D_ZEICHNUNG_BEMASSUNGEN
100
AcDbLine
 62
7
  6
CONTINUOUS
 10
205.8554189532
 20
0.0
 11
213.3492616002
 21
0.0
  0
LINE
  5
232
100
AcDbEntity
  8
_03_2D_ZEICHNUNG_BEMASSUNGEN
100
AcDbLine
 62
7
  6
CONTINUOUS
 10
200.0
 20
17.0
 11
213.3492616002
 21
17.0
  0
LINE
  5
233
100
AcDbEntity
  8
_03_2D_ZEICHNUNG_BEMASSUNGEN
100
AcDbLine
 62
7
  6
CONTINUOUS
 10
211.8492616002
 20
0.0
 11
211.8492616002
 21
-6.0
  0
LINE
  5
234
100
AcDbEntity
  8
_03_2D_ZEICHNUNG_BEMASSUNGEN
100
AcDbLine
 62
7
  6
CONTINUOUS
 10
211.8492616002
 20
-6.0
 11
211.8492616002
 21
8.5
  0
LINE
  5
235
100
AcDbEntity
  8
_03_2D_ZEICHNUNG_BEMASSUNGEN
100
AcDbLine
 62
7
  6
CONTINUOUS
 10
211.8492616002
 20
17.0
 11
211.8492616002
 21
23.0
  0
LINE
  5
236
100
AcDbEntity
  8
_03_2D_ZEICHNUNG_BEMASSUNGEN
100
AcDbLine
 62
7
  6
CONTINUOUS
 10
211.8492616002
 20
23.0
 11
211.8492616002
 21
8.5
  0
INSERT
  5
237
100
AcDbEntity
  8
_03_2D_ZEICHNUNG_BEMASSUNGEN
100
AcDbBlockReference
 62
7
  6
CONTINUOUS
  2
_FILLED
 10
211.8492616002
 20
0.0
 41
3.5
 42
3.5
 43
3.5
 50
90.0
  0
INSERT
  5
238
100
AcDbEntity
  8
_03_2D_ZEICHNUNG_BEMASSUNGEN
100
AcDbBlockReference
 62
7
  6
CONTINUOUS
  2
_FILLED
 10
211.8492616002
 20
17.0
 41
3.5
 42
3.5
 43
3.5
 50
270.0
  0
ENDBLK
  5
239
100
AcDbEntity
  8
0
  6
BYBLOCK
 62
0
100
AcDbBlockEnd
  0
BLOCK
  5
23A
100
AcDbEntity
  8
_03_2D_ZEICHNUNG_BEMASSUNGEN
100
AcDbBlockBegin
 62
7
  6
CONTINUOUS
  2
*D3
 70
65
 10
0.0
 20
0.0
  3
*D3
  1

  0
TEXT
  5
23B
100
AcDbEntity
  8
_03_2D_ZEICHNUNG_BEMASSUNGEN
100
AcDbText
 62
2
  6
CONTINUOUS
 10
95.875
 20
27.0543579247
  7
STANDARD
 40
3.5
  1
200
 41
0.7857142857
 72
1
 11
100.0
 21
27.0543579247
100
AcDbText
  0
LINE
  5
23C
100
AcDbEntity
  8
_03_2D_ZEICHNUNG_BEMASSUNGEN
100
AcDbLine
 62
7
  6
CONTINUOUS
 10
-0.0
 20
11.0
 11
-0.0
 21
27.6793579247
  0
LINE
  5
23D
100
AcDbEntity
  8
_03_2D_ZEICHNUNG_BEMASSUNGEN
100
AcDbLine
 62
7
  6
CONTINUOUS
 10
200.0
 20
17.0
 11
200.0
 21
27.6793579247
  0
LINE
  5
23E
100
AcDbEntity
  8
_03_2D_ZEICHNUNG_BEMASSUNGEN
100
AcDbLine
 62
7
  6
CONTINUOUS
 10
-0.0
 20
26.1793579247
 11
100.0
 21
26.1793579247
  0
LINE
  5
23F
100
AcDbEntity
  8
_03_2D_ZEICHNUNG_BEMASSUNGEN
100
AcDbLine
 62
7
  6
CONTINUOUS
 10
200.0
 20
26.1793579247
 11
100.0
 21
26.1793579247
  0
INSERT
  5
240
100
AcDbEntity
  8
_03_2D_ZEICHNUNG_BEMASSUNGEN
100
AcDbBlockReference
 62
7
  6
CONTINUOUS
  2
_FILLED
 10
-0.0
 20
26.1793579247
 41
3.5
 42
3.5
 43
3.5
 50
180.0
  0
INSERT
  5
241
100
AcDbEntity
  8
_03_2D_ZEICHNUNG_BEMASSUNGEN
100
AcDbBlockReference
 62
7
  6
CONTINUOUS
  2
_FILLED
 10
200.0
 20
26.1793579247
 41
3.5
 42
3.5
 43
3.5
 50
0.0
  0
ENDBLK
  5
242
100
AcDbEntity
  8
0
  6
BYBLOCK
 62
0
100
AcDbBlockEnd
  0
ENDSEC
  0
SECTION
  2
ENTITIES
  0
DIMENSION
  5
243
100
AcDbEntity
  8
_03_2D_ZEICHNUNG_BEMASSUNGEN
100
AcDbDimension
 62
7
  6
CONTINUOUS
  2
*D0
 10
-9.0
 20
-12.5
 11
-9.0
 21
-0.0
 70
160
 71
2
 42
25.0
  1
%%c<>
  3
DIMSTYLE_1
100
AcDbAlignedDimension
 13
1.5
 23
12.5
 14
1.5
 24
-12.5
 50
270.0
100
AcDbRotatedDimension
  0
DIMENSION
  5
244
100
AcDbEntity
  8
_03_2D_ZEICHNUNG_BEMASSUNGEN
100
AcDbDimension
 62
7
  6
CONTINUOUS
  2
*D1
 10
0.0
 20
35.1793579247
 11
100.7000019836
 21
35.1793579247
 70
160
 71
2
 42
202.4
  3
DIMSTYLE_2
100
AcDbAlignedDimension
 13
202.4
 23
0.0
 14
0.0
 24
0.0
 50
180.0
100
AcDbRotatedDimension
  0
DIMENSION
  5
245
100
AcDbEntity
  8
_03_2D_ZEICHNUNG_BEMASSUNGEN
100
AcDbDimension
 62
7
  6
CONTINUOUS
  2
*D2
 10
211.8492616002
 20
17.0
 11
211.8492616002
 21
7.9999977382
 70
160
 71
2
 42
17.0
  3
DIMSTYLE_1
100
AcDbAlignedDimension
 13
205.8554189532
 23
0.0
 14
200.0
 24
17.0
 50
90.0
100
AcDbRotatedDimension
  0
DIMENSION
  5
246
100
AcDbEntity
  8
_03_2D_ZEICHNUNG_BEMASSUNGEN
100
AcDbDimension
 62
7
  6
CONTINUOUS
  2
*D3
 10
200.0
 20
26.1793579247
 11
99.5000001526
 21
26.1793579247
 70
160
 71
2
 42
200.0
  3
DIMSTYLE_2
100
AcDbAlignedDimension
 13
-0.0
 23
11.0
 14
200.0
 24
17.0
100
AcDbRotatedDimension
  0
LINE
  5
247
100
AcDbEntity
  8
0
100
AcDbLine
 62
4
  6
CONTINUOUS
 10
0.0
 20
-10.9999138248
 11
-0.0
 21
10.9999112645
  0
LINE
  5
248
100
AcDbEntity
  8
0
100
AcDbLine
 62
4
  6
CONTINUOUS
 10
1.5
 20
-12.5
 11
1.5
 21
-6.7823299831
  0
LINE
  5
249
100
AcDbEntity
  8
0
100
AcDbLine
 62
4
  6
CONTINUOUS
 10
1.5
 20
6.7823299831
 11
1.5
 21
12.5
  0
LINE
  5
24A
100
AcDbEntity
  8
_30_VOLUMEN
100
AcDbLine
 62
4
  6
CONTINUOUS
 10
0.0
 20
-11.0
 11
1.5
 21
-12.5
  0
LINE
  5
24B
100
AcDbEntity
  8
_30_VOLUMEN
100
AcDbLine
 62
4
  6
CONTINUOUS
 10
-0.0
 20
11.0
 11
1.5
 21
12.5
  0
LINE
  5
24C
100
AcDbEntity
  8
_30_VOLUMEN
100
AcDbLine
 62
4
  6
CONTINUOUS
 10
202.0823070197
 20
7.7963149165
 11
194.4160868373
 21
5.7470912475
  0
LINE
  5
24D
100
AcDbEntity
  8
_21_KURVEN
100
AcDbLine
 62
7
  6
CONTINUOUS
 10
202.0765473246
 20
7.7947753177
 11
194.4218465323
 21
5.7486308463
  0
LINE
  5
24E
100
AcDbEntity
  8
_26_BEZUGSACHSEN
100
AcDbLine
 62
4
  6
CONTINUOUS
 10
202.4
 20
7.8812360327
 11
193.6491322567
 21
5.5420799849
  0
LINE
  5
24F
100
AcDbEntity
  8
_30_VOLUMEN
100
AcDbLine
 62
4
  6
CONTINUOUS
 10
1.5
 20
-12.5
 11
164.0
 21
-12.5
  0
LINE
  5
250
100
AcDbEntity
  8
_30_VOLUMEN
100
AcDbLine
 62
4
  6
CONTINUOUS
 10
164.0
 20
-12.25
 11
194.1279351225
 21
-12.25
  0
LINE
  5
251
100
AcDbEntity
  8
_30_VOLUMEN
100
AcDbLine
 62
4
  6
CONTINUOUS
 10
183.21
 20
12.25
 11
190.2930507406
 21
14.150485026
  0
LINE
  5
252
100
AcDbEntity
  8
_30_VOLUMEN
100
AcDbLine
 62
4
  6
CONTINUOUS
 10
191.949719054
 20
14.925122993
 11
199.6159392364
 21
16.974346662
  0
LINE
  5
253
100
AcDbEntity
  8
_21_KURVEN
100
AcDbLine
 62
7
  6
CONTINUOUS
 10
191.955478749
 20
14.9266625918
 11
199.6101795414
 21
16.9728070632
  0
LINE
  5
254
100
AcDbEntity
  8
0
100
AcDbLine
 62
4
  6
CONTINUOUS
 10
1.5
 20
-6.7823299831
 11
164.0
 21
-6.7823299831
  0
LINE
  5
255
100
AcDbEntity
  8
_30_VOLUMEN
100
AcDbLine
 62
4
  6
CONTINUOUS
 10
164.0
 20
-6.3097147321
 11
178.0469784235
 21
-6.3097147321
  0
LINE
  5
256
100
AcDbEntity
  8
_26_BEZUGSACHSEN
100
AcDbLine
 62
7
  6
CENTER
 10
-3.0
 20
0.0
 11
205.8554189532
 21
0.0
  0
LINE
  5
257
100
AcDbEntity
  8
_30_VOLUMEN
100
AcDbLine
 62
4
  6
CONTINUOUS
 10
164.0
 20
6.3097147321
 11
174.6737341217
 21
6.3097147321
  0
LINE
  5
258
100
AcDbEntity
  8
0
100
AcDbLine
 62
4
  6
CONTINUOUS
 10
1.5
 20
6.7823299831
 11
164.0
 21
6.7823299831
  0
LINE
  5
259
100
AcDbEntity
  8
_30_VOLUMEN
100
AcDbLine
 62
4
  6
CONTINUOUS
 10
164.0
 20
12.25
 11
183.21
 21
12.25
  0
LINE
  5
25A
100
AcDbEntity
  8
_30_VOLUMEN
100
AcDbLine
 62
4
  6
CONTINUOUS
 10
1.5
 20
12.5
 11
164.0
 21
12.5
  0
LINE
  5
25B
100
AcDbEntity
  8
_28_BEZUGSPUNKTE
100
AcDbLine
 62
1
  6
CONTINUOUS
 10
200.15625
 20
17.15625
 11
199.84375
 21
16.84375
  0
LINE
  5
25C
100
AcDbEntity
  8
0
100
AcDbLine
 62
4
  6
CONTINUOUS
 10
164.0
 20
12.4999440729
 11
164.0
 21
6.3097147321
  0
LINE
  5
25D
100
AcDbEntity
  8
0
100
AcDbLine
 62
4
  6
CONTINUOUS
 10
164.0
 20
-6.3097147321
 11
164.0
 21
-12.4999425849
  0
LINE
  5
25E
100
AcDbEntity
  8
_30_VOLUMEN
100
AcDbLine
 62
4
  6
CONTINUOUS
 10
183.21
 20
12.119035288
 11
183.21
 21
12.25
  0
LINE
  5
25F
100
AcDbEntity
  8
_28_BEZUGSPUNKTE
100
AcDbLine
 62
1
  6
CONTINUOUS
 10
200.15625
 20
16.84375
 11
199.84375
 21
17.15625
  0
LINE
  5
260
100
AcDbEntity
  8
_30_VOLUMEN
100
AcDbLine
 62
4
  6
CONTINUOUS
 10
202.4
 20
0.0
 11
194.1278866832
 21
-12.2500717332
  0
LINE
  5
261
100
AcDbEntity
  8
_26_BEZUGSACHSEN
100
AcDbLine
 62
4
  6
CONTINUOUS
 10
202.4
 20
7.8812360327
 11
202.4
 21
0.0
  0
LINE
  5
262
100
AcDbEntity
  8
_30_VOLUMEN
100
AcDbLine
 62
4
  6
CONTINUOUS
 10
193.4435273138
 20
6.3071924333
 11
191.3883694164
 21
13.954999282
  0
LINE
  5
263
100
AcDbEntity
  8
_21_KURVEN
100
AcDbLine
 62
7
  6
CONTINUOUS
 10
193.4419832566
 20
6.3129382942
 11
191.3899134736
 21
13.949253421
  0
LINE
  5
264
100
AcDbEntity
  8
_26_BEZUGSACHSEN
100
AcDbLine
 62
4
  6
CONTINUOUS
 10
191.2660415041
 20
14.4102150329
 11
193.6491322567
 21
5.5420799849
  0
LINE
  5
265
100
AcDbEntity
  8
_21_KURVEN
100
AcDbLine
 62
7
  6
CONTINUOUS
 10
200.5900428171
 20
16.4084996153
 11
202.6421126
 21
8.7721844885
  0
LINE
  5
266
100
AcDbEntity
  8
_30_VOLUMEN
100
AcDbLine
 62
4
  6
CONTINUOUS
 10
200.5884987599
 20
16.4142454763
 11
202.6436566573
 21
8.7664386276
  0
LINE
  5
267
100
AcDbEntity
  8
_30_VOLUMEN
100
AcDbLine
 62
7
  6
CONTINUOUS
 10
199.1378988033
 20
11.8053938476
 11
199.2122495969
 21
11.1824854022
  0
ARC
  5
268
100
AcDbEntity
  8
_30_VOLUMEN
100
AcDbCircle
 62
7
  6
CONTINUOUS
 10
-2379.9885831221
 20
-571.1541742735
 40
2636.0822337144
100
AcDbArc
 50
12.2915017828
 51
12.8285998978
  0
ARC
  5
269
100
AcDbEntity
  8
_30_VOLUMEN
100
AcDbCircle
 62
4
  6
CONTINUOUS
 10
196.9817450813
 20
11.0825886727
 40
2.2268328634
100
AcDbArc
 50
1.3472614028
 51
2.5380746759
  0
ARC
  5
26A
100
AcDbEntity
  8
_30_VOLUMEN
100
AcDbCircle
 62
4
  6
CONTINUOUS
 10
197.0205941327
 20
11.0855226558
 40
2.2109590957
100
AcDbArc
 50
174.6513256271
 51
177.7956394878
  0
ARC
  5
26B
100
AcDbEntity
  8
_30_VOLUMEN
100
AcDbCircle
 62
4
  6
CONTINUOUS
 10
197.0007847327
 20
11.2393696013
 40
2.187804951
100
AcDbArc
 50
178.6144050777
 51
195.0010070791
  0
SPLINE
  5
26C
100
AcDbEntity
  8
_30_VOLUMEN
100
AcDbSpline
 62
4
  6
CONTINUOUS
 70
0
 71
3
 72
9
 73
5
 74
0
 42
0.0000001
 43
0.0000001
 44
0.0000000001
 40
0.0
 40
0.0
 40
0.0
 40
0.0
 40
0.7489713307
 40
1.0
 40
1.0
 40
1.0
 40
1.0
 10
199.1340652196
 20
11.6518010428
 30
0.0
 10
199.1649478979
 20
11.5368781168
 30
0.0
 10
199.1933348344
 20
11.379552578
 30
0.0
 10
199.2046271953
 20
11.2210456065
 30
0.0
 10
199.2063934543
 20
11.1812001218
 30
0.0
  0
SPLINE
  5
26D
100
AcDbEntity
  8
_30_VOLUMEN
100
AcDbSpline
 62
4
  6
CONTINUOUS
 70
0
 71
3
 72
15
 73
11
 74
0
 42
0.0000001
 43
0.0000001
 44
0.0000000001
 40
0.0
 40
0.0
 40
0.0
 40
0.0
 40
0.1249529772
 40
0.2498131138
 40
0.3748391468
 40
0.4999524939
 40
0.625084684
 40
0.75010433
 40
0.8752083594
 40
1.0
 40
1.0
 40
1.0
 40
1.0
 10
194.8192618459
 20
11.291620414
 30
0.0
 10
194.8429143907
 20
11.5441312338
 30
0.0
 10
194.9810636239
 20
12.0448649204
 30
0.0
 10
195.4314486319
 20
12.6762959523
 30
0.0
 10
196.0702373877
 20
13.1181563344
 30
0.0
 10
196.8220374401
 20
13.3154748583
 30
0.0
 10
197.5958316365
 20
13.2447885495
 30
0.0
 10
198.3000864392
 20
12.9158380572
 30
0.0
 10
198.8483487656
 20
12.3668573425
 30
0.0
 10
199.0683322096
 20
11.896411622
 30
0.0
 10
199.1340652196
 20
11.6518010428
 30
0.0
  0
SPLINE
  5
26E
100
AcDbEntity
  8
_30_VOLUMEN
100
AcDbSpline
 62
4
  6
CONTINUOUS
 70
0
 71
3
 72
15
 73
11
 74
0
 42
0.0000001
 43
0.0000001
 44
0.0000000001
 40
0.0
 40
0.0
 40
0.0
 40
0.0
 40
0.1241553668
 40
0.2487705569
 40
0.3738365419
 40
0.4993818807
 40
0.625080308
 40
0.7505328541
 40
0.875576787
 40
1.0
 40
1.0
 40
1.0
 40
1.0
 10
199.2122495969
 20
11.1824854022
 30
0.0
 10
199.2058130619
 20
10.9246051712
 30
0.0
 10
199.0986466044
 20
10.4056369316
 30
0.0
 10
198.6765545756
 20
9.7345610969
 30
0.0
 10
198.0434189296
 20
9.2513592972
 30
0.0
 10
197.2796912271
 20
9.0181722403
 30
0.0
 10
196.4817920809
 20
9.0661656311
 30
0.0
 10
195.7511919852
 20
9.388307146
 30
0.0
 10
195.181591976
 20
9.9429526153
 30
0.0
 10
194.9546272444
 20
10.4234270644
 30
0.0
 10
194.8875373808
 20
10.6730868687
 30
0.0
  0
SPLINE
  5
26F
100
AcDbEntity
  8
_30_VOLUMEN
100
AcDbSpline
 62
4
  6
CONTINUOUS
 70
0
 71
3
 72
15
 73
11
 74
0
 42
0.0000001
 43
0.0000001
 44
0.0000000001
 40
0.0
 40
0.0
 40
0.0
 40
0.0
 40
0.124849919
 40
0.2497244025
 40
0.3746969996
 40
0.499783701
 40
0.624933695
 40
0.7500591785
 40
0.8750866684
 40
1.0
 40
1.0
 40
1.0
 40
1.0
 10
199.5852880031
 20
12.0475005691
 30
0.0
 10
199.6748538868
 20
11.7142013225
 30
0.0
 10
199.7222368424
 20
11.0042542327
 30
0.0
 10
199.3795035552
 20
9.9992952097
 30
0.0
 10
198.6773497976
 20
9.2003556674
 30
0.0
 10
197.7224255652
 20
8.7308812148
 30
0.0
 10
196.660237031
 20
8.6613534636
 30
0.0
 10
195.6519935204
 20
9.0029406011
 30
0.0
 10
194.8515248713
 20
9.7019149912
 30
0.0
 10
194.5363494457
 20
10.3404688077
 30
0.0
 10
194.4467380706
 20
10.6739373404
 30
0.0
  0
SPLINE
  5
270
100
AcDbEntity
  8
_30_VOLUMEN
100
AcDbSpline
 62
4
  6
CONTINUOUS
 70
0
 71
3
 72
15
 73
11
 74
0
 42
0.0000001
 43
0.0000001
 44
0.0000000001
 40
0.0
 40
0.0
 40
0.0
 40
0.0
 40
0.124849919
 40
0.2497244025
 40
0.3746969996
 40
0.499783701
 40
0.624933695
 40
0.7500591785
 40
0.8750866684
 40
1.0
 40
1.0
 40
1.0
 40
1.0
 10
194.4467380706
 20
10.6739373404
 30
0.0
 10
194.3571721869
 20
11.007236587
 30
0.0
 10
194.3097892312
 20
11.7171836768
 30
0.0
 10
194.6525225184
 20
12.7221426999
 30
0.0
 10
195.3546762761
 20
13.5210822422
 30
0.0
 10
196.3096005084
 20
13.9905566948
 30
0.0
 10
197.3717890427
 20
14.060084446
 30
0.0
 10
198.3800325533
 20
13.7184973085
 30
0.0
 10
199.1805012024
 20
13.0195229184
 30
0.0
 10
199.495676628
 20
12.3809691018
 30
0.0
 10
199.5852880031
 20
12.0475005691
 30
0.0
  0
SPLINE
  5
271
100
AcDbEntity
  8
_30_VOLUMEN
100
AcDbSpline
 62
4
  6
CONTINUOUS
 70
0
 71
3
 72
19
 73
15
 74
0
 42
0.0000001
 43
0.0000001
 44
0.0000000001
 40
0.0
 40
0.0
 40
0.0
 40
0.0
 40
0.1245760615
 40
0.2493651732
 40
0.3120359446
 40
0.3747638695
 40
0.4374899912
 40
0.5002142295
 40
0.5629223681
 40
0.6256023403
 40
0.6882613333
 40
0.7508507966
 40
0.8754872196
 40
1.0
 40
1.0
 40
1.0
 40
1.0
 10
199.5302307084
 20
12.0106103355
 30
0.0
 10
199.4425502986
 20
12.3368932162
 30
0.0
 10
199.1342751423
 20
12.9615967469
 30
0.0
 10
198.4793402694
 20
13.5330138116
 30
0.0
 10
197.8573483945
 20
13.8134408317
 30
0.0
 10
197.3571034418
 20
13.9295016523
 30
0.0
 10
196.843768998
 20
13.9470101191
 30
0.0
 10
196.3371342388
 20
13.8628740008
 30
0.0
 10
195.8562011414
 20
13.6830535855
 30
0.0
 10
195.4204129727
 20
13.4118525552
 30
0.0
 10
195.0453748341
 20
13.0618149308
 30
0.0
 10
194.6473091948
 20
12.5086782785
 30
0.0
 10
194.3666319123
 20
11.6868163582
 30
0.0
 10
194.4130452054
 20
10.9923006367
 30
0.0
 10
194.500681076
 20
10.6661834986
 30
0.0
  0
SPLINE
  5
272
100
AcDbEntity
  8
_30_VOLUMEN
100
AcDbSpline
 62
4
  6
CONTINUOUS
 70
0
 71
3
 72
19
 73
15
 74
0
 42
0.0000001
 43
0.0000001
 44
0.0000000001
 40
0.0
 40
0.0
 40
0.0
 40
0.0
 40
0.1245127804
 40
0.2491492034
 40
0.3117386667
 40
0.3743976597
 40
0.4370776319
 40
0.4997857705
 40
0.5625100088
 40
0.6252361305
 40
0.6879640554
 40
0.7506348268
 40
0.8754239385
 40
1.0
 40
1.0
 40
1.0
 40
1.0
 10
199.5302307084
 20
12.0106103355
 30
0.0
 10
199.6178665791
 20
11.6844931973
 30
0.0
 10
199.6642798722
 20
10.9899774759
 30
0.0
 10
199.3836025897
 20
10.1681155556
 30
0.0
 10
198.9855369504
 20
9.6149789032
 30
0.0
 10
198.6104988118
 20
9.2649412788
 30
0.0
 10
198.1747106431
 20
8.9937402485
 30
0.0
 10
197.6937775456
 20
8.8139198332
 30
0.0
 10
197.1871427865
 20
8.7297837149
 30
0.0
 10
196.6738083426
 20
8.7472921817
 30
0.0
 10
196.17356339
 20
8.8633530024
 30
0.0
 10
195.5515715151
 20
9.1437800224
 30
0.0
 10
194.8966366422
 20
9.7151970871
 30
0.0
 10
194.5883614859
 20
10.3399006179
 30
0.0
 10
194.500681076
 20
10.6661834986
 30
0.0
  0
SPLINE
  5
273
100
AcDbEntity
  8
_30_VOLUMEN
100
AcDbSpline
 62
7
  6
CONTINUOUS
 70
0
 71
3
 72
20
 73
16
 74
0
 42
0.0000001
 43
0.0000001
 44
0.0000000001
 40
0.0
 40
0.0
 40
0.0
 40
0.0
 40
0.1243465072
 40
0.1871036908
 40
0.2497491542
 40
0.3744421917
 40
0.4370752505
 40
0.4997374526
 40
0.5623599218
 40
0.6249804886
 40
0.7496411231
 40
0.8121488157
 40
0.8746798819
 40
0.9372903418
 40
1.0
 40
1.0
 40
1.0
 40
1.0
 10
199.1378988033
 20
11.8053938476
 30
0.0
 10
199.0706121975
 20
12.0557857835
 30
0.0
 10
198.8979888445
 20
12.4175189085
 30
0.0
 10
198.5588745759
 20
12.8153966079
 30
0.0
 10
198.1525085902
 20
13.1460163639
 30
0.0
 10
197.6639880993
 20
13.3624879302
 30
0.0
 10
197.1461728433
 20
13.438871838
 30
0.0
 10
196.7524230388
 20
13.4280206494
 30
0.0
 10
196.3666608592
 20
13.3476307456
 30
0.0
 10
195.8820640472
 20
13.1504797068
 30
0.0
 10
195.4567628525
 20
12.8276199115
 30
0.0
 10
195.1405051026
 20
12.4112852033
 30
0.0
 10
194.9608816564
 20
12.0612272134
 30
0.0
 10
194.8470606639
 20
11.684278334
 30
0.0
 10
194.8178296415
 20
11.4229644702
 30
0.0
 10
194.8145993831
 20
11.2922483387
 30
0.0
  0
SPLINE
  5
274
100
AcDbEntity
  8
_21_KURVEN
100
AcDbSpline
 62
7
  6
CONTINUOUS
 70
0
 71
3
 72
9
 73
5
 74
0
 42
0.0000001
 43
0.0000001
 44
0.0000000001
 40
0.0
 40
0.0
 40
0.0
 40
0.0
 40
0.5
 40
1.0
 40
1.0
 40
1.0
 40
1.0
 10
193.4419832566
 20
6.3129382942
 30
0.0
 10
193.4521756096
 20
6.2781824876
 30
0.0
 10
193.4742108204
 20
6.2089590793
 30
0.0
 10
193.5083862594
 20
6.14482679
 30
0.0
 10
193.5268109721
 20
6.1121430118
 30
0.0
  0
SPLINE
  5
275
100
AcDbEntity
  8
_21_KURVEN
100
AcDbSpline
 62
7
  6
CONTINUOUS
 70
0
 71
3
 72
10
 73
6
 74
0
 42
0.0000001
 43
0.0000001
 44
0.0000000001
 40
0.0
 40
0.0
 40
0.0
 40
0.0
 40
0.5
 40
0.75
 40
1.0
 40
1.0
 40
1.0
 40
1.0
 10
193.5268109704
 20
6.1121430147
 30
0.0
 10
193.5414838032
 20
6.0884409763
 30
0.0
 10
193.5679381588
 20
6.0479904761
 30
0.0
 10
193.6028153571
 20
6.0050899081
 30
0.0
 10
193.6240602353
 20
5.9815144292
 30
0.0
 10
193.6344408155
 20
5.9701733627
 30
0.0
  0
SPLINE
  5
276
100
AcDbEntity
  8
_21_KURVEN
100
AcDbSpline
 62
7
  6
CONTINUOUS
 70
0
 71
3
 72
8
 73
4
 74
0
 42
0.0000001
 43
0.0000001
 44
0.0000000001
 40
0.0
 40
0.0
 40
0.0
 40
0.0
 40
1.0
 40
1.0
 40
1.0
 40
1.0
 10
193.6344408189
 20
5.9701733592
 30
0.0
 10
193.6460386386
 20
5.9581091358
 30
0.0
 10
193.6578230564
 20
5.9464684584
 30
0.0
 10
193.6702946709
 20
5.9347881747
 30
0.0
  0
SPLINE
  5
277
100
AcDbEntity
  8
_21_KURVEN
100
AcDbSpline
 62
7
  6
CONTINUOUS
 70
0
 71
3
 72
8
 73
4
 74
0
 42
0.0000001
 43
0.0000001
 44
0.0000000001
 40
0.0
 40
0.0
 40
0.0
 40
0.0
 40
1.0
 40
1.0
 40
1.0
 40
1.0
 10
193.6702946723
 20
5.9347881734
 30
0.0
 10
193.7076575389
 20
5.9012437743
 30
0.0
 10
193.7498504023
 20
5.8688553515
 30
0.0
 10
193.7968406981
 20
5.8390029551
 30
0.0
  0
SPLINE
  5
278
100
AcDbEntity
  8
_21_KURVEN
100
AcDbSpline
 62
7
  6
CONTINUOUS
 70
0
 71
3
 72
8
 73
4
 74
0
 42
0.0000001
 43
0.0000001
 44
0.0000000001
 40
0.0
 40
0.0
 40
0.0
 40
0.0
 40
1.0
 40
1.0
 40
1.0
 40
1.0
 10
193.7968406937
 20
5.8390029578
 30
0.0
 10
193.8063862591
 20
5.8332148355
 30
0.0
 10
193.8185188415
 20
5.8261196972
 30
0.0
 10
193.8330305593
 20
5.8181622225
 30
0.0
  0
SPLINE
  5
279
100
AcDbEntity
  8
_21_KURVEN
100
AcDbSpline
 62
7
  6
CONTINUOUS
 70
0
 71
3
 72
8
 73
4
 74
0
 42
0.0000001
 43
0.0000001
 44
0.0000000001
 40
0.0
 40
0.0
 40
0.0
 40
0.0
 40
1.0
 40
1.0
 40
1.0
 40
1.0
 10
193.8330305589
 20
5.8181622227
 30
0.0
 10
193.8775760791
 20
5.7949304549
 30
0.0
 10
193.9265194894
 20
5.7740134112
 30
0.0
 10
193.97945559
 20
5.7567490061
 30
0.0
  0
SPLINE
  5
27A
100
AcDbEntity
  8
_21_KURVEN
100
AcDbSpline
 62
7
  6
CONTINUOUS
 70
0
 71
3
 72
8
 73
4
 74
0
 42
0.0000001
 43
0.0000001
 44
0.0000000001
 40
0.0
 40
0.0
 40
0.0
 40
0.0
 40
1.0
 40
1.0
 40
1.0
 40
1.0
 10
193.9794555858
 20
5.7567490074
 30
0.0
 10
193.9954954667
 20
5.7519158938
 30
0.0
 10
194.011479304
 20
5.7475456321
 30
0.0
 10
194.0281119509
 20
5.7434699993
 30
0.0
  0
SPLINE
  5
27B
100
AcDbEntity
  8
_21_KURVEN
100
AcDbSpline
 62
7
  6
CONTINUOUS
 70
0
 71
3
 72
9
 73
5
 74
0
 42
0.0000001
 43
0.0000001
 44
0.0000000001
 40
0.0
 40
0.0
 40
0.0
 40
0.0
 40
0.5
 40
1.0
 40
1.0
 40
1.0
 40
1.0
 10
194.0281119527
 20
5.7434699989
 30
0.0
 10
194.0553751784
 20
5.7374435411
 30
0.0
 10
194.1088027449
 20
5.7264102773
 30
0.0
 10
194.1688213576
 20
5.7227567571
 30
0.0
 10
194.1994246845
 20
5.7215852164
 30
0.0
  0
SPLINE
  5
27C
100
AcDbEntity
  8
_21_KURVEN
100
AcDbSpline
 62
7
  6
CONTINUOUS
 70
0
 71
3
 72
9
 73
5
 74
0
 42
0.0000001
 43
0.0000001
 44
0.0000000001
 40
0.0
 40
0.0
 40
0.0
 40
0.0
 40
0.5
 40
1.0
 40
1.0
 40
1.0
 40
1.0
 10
194.1994246895
 20
5.7215852163
 30
0.0
 10
194.2357241334
 20
5.7217110608
 30
0.0
 10
194.3113182558
 20
5.7237003142
 30
0.0
 10
194.385204732
 20
5.7397541048
 30
0.0
 10
194.4218465259
 20
5.7486308446
 30
0.0
  0
SPLINE
  5
27D
100
AcDbEntity
  8
_21_KURVEN
100
AcDbSpline
 62
7
  6
CONTINUOUS
 70
0
 71
3
 72
9
 73
5
 74
0
 42
0.0000001
 43
0.0000001
 44
0.0000000001
 40
0.0
 40
0.0
 40
0.0
 40
0.0
 40
0.5
 40
1.0
 40
1.0
 40
1.0
 40
1.0
 10
191.955478749
 20
14.9266625918
 30
0.0
 10
191.920639366
 20
14.9164992827
 30
0.0
 10
191.8512497091
 20
14.8945261428
 30
0.0
 10
191.7869650735
 20
14.8604417092
 30
0.0
 10
191.7542037777
 20
14.8420658292
 30
0.0
  0
SPLINE
  5
27E
100
AcDbEntity
  8
_21_KURVEN
100
AcDbSpline
 62
7
  6
CONTINUOUS
 70
0
 71
3
 72
10
 73
6
 74
0
 42
0.0000001
 43
0.0000001
 44
0.0000000001
 40
0.0
 40
0.0
 40
0.0
 40
0.0
 40
0.5
 40
0.75
 40
1.0
 40
1.0
 40
1.0
 40
1.0
 10
191.7542037806
 20
14.842065831
 30
0.0
 10
191.7304456867
 20
14.8274316037
 30
0.0
 10
191.6898996926
 20
14.801046574
 30
0.0
 10
191.6468986773
 20
14.7662595046
 30
0.0
 10
191.6232682518
 20
14.7450692157
 30
0.0
 10
191.6119007726
 20
14.7347152869
 30
0.0
  0
SPLINE
  5
27F
100
AcDbEntity
  8
_21_KURVEN
100
AcDbSpline
 62
7
  6
CONTINUOUS
 70
0
 71
3
 72
8
 73
4
 74
0
 42
0.0000001
 43
0.0000001
 44
0.0000000001
 40
0.0
 40
0.0
 40
0.0
 40
0.0
 40
1.0
 40
1.0
 40
1.0
 40
1.0
 10
191.6119007691
 20
14.7347152836
 30
0.0
 10
191.5998085164
 20
14.7231471666
 30
0.0
 10
191.5881408661
 20
14.7113928543
 30
0.0
 10
191.5764335965
 20
14.698953023
 30
0.0
  0
SPLINE
  5
280
100
AcDbEntity
  8
_21_KURVEN
100
AcDbSpline
 62
7
  6
CONTINUOUS
 70
0
 71
3
 72
8
 73
4
 74
0
 42
0.0000001
 43
0.0000001
 44
0.0000000001
 40
0.0
 40
0.0
 40
0.0
 40
0.0
 40
1.0
 40
1.0
 40
1.0
 40
1.0
 10
191.5764335952
 20
14.6989530216
 30
0.0
 10
191.5428118839
 20
14.661685196
 30
0.0
 10
191.5103495579
 20
14.6195989911
 30
0.0
 10
191.4804300314
 20
14.5727267241
 30
0.0
  0
SPLINE
  5
281
100
AcDbEntity
  8
_21_KURVEN
100
AcDbSpline
 62
7
  6
CONTINUOUS
 70
0
 71
3
 72
8
 73
4
 74
0
 42
0.0000001
 43
0.0000001
 44
0.0000000001
 40
0.0
 40
0.0
 40
0.0
 40
0.0
 40
1.0
 40
1.0
 40
1.0
 40
1.0
 10
191.4804300341
 20
14.5727267285
 30
0.0
 10
191.4746289488
 20
14.5632051057
 30
0.0
 10
191.4675179727
 20
14.5511029229
 30
0.0
 10
191.4595428455
 20
14.5366275016
 30
0.0
  0
SPLINE
  5
282
100
AcDbEntity
  8
_21_KURVEN
100
AcDbSpline
 62
7
  6
CONTINUOUS
 70
0
 71
3
 72
8
 73
4
 74
0
 42
0.0000001
 43
0.0000001
 44
0.0000000001
 40
0.0
 40
0.0
 40
0.0
 40
0.0
 40
1.0
 40
1.0
 40
1.0
 40
1.0
 10
191.4595428457
 20
14.536627502
 30
0.0
 10
191.436259807
 20
14.4921932528
 30
0.0
 10
191.4152976765
 20
14.4433715381
 30
0.0
 10
191.3979975846
 20
14.3905664083
 30
0.0
  0
SPLINE
  5
283
100
AcDbEntity
  8
_21_KURVEN
100
AcDbSpline
 62
7
  6
CONTINUOUS
 70
0
 71
3
 72
8
 73
4
 74
0
 42
0.0000001
 43
0.0000001
 44
0.0000000001
 40
0.0
 40
0.0
 40
0.0
 40
0.0
 40
1.0
 40
1.0
 40
1.0
 40
1.0
 10
191.3979975859
 20
14.3905664125
 30
0.0
 10
191.3931546305
 20
14.3745661678
 30
0.0
 10
191.3887756497
 20
14.358621774
 30
0.0
 10
191.3846920958
 20
14.3420301142
 30
0.0
  0
SPLINE
  5
284
100
AcDbEntity
  8
_21_KURVEN
100
AcDbSpline
 62
7
  6
CONTINUOUS
 70
0
 71
3
 72
9
 73
5
 74
0
 42
0.0000001
 43
0.0000001
 44
0.0000000001
 40
0.0
 40
0.0
 40
0.0
 40
0.0
 40
0.5
 40
1.0
 40
1.0
 40
1.0
 40
1.0
 10
191.3846920954
 20
14.3420301124
 30
0.0
 10
191.380365625
 20
14.3230146838
 30
0.0
 10
191.370860751
 20
14.2780010043
 30
0.0
 10
191.3668487046
 20
14.2377607267
 30
0.0
 10
191.3647184354
 20
14.2135427595
 30
0.0
  0
SPLINE
  5
285
100
AcDbEntity
  8
_21_KURVEN
100
AcDbSpline
 62
7
  6
CONTINUOUS
 70
0
 71
3
 72
8
 73
4
 74
0
 42
0.0000001
 43
0.0000001
 44
0.0000000001
 40
0.0
 40
0.0
 40
0.0
 40
0.0
 40
1.0
 40
1.0
 40
1.0
 40
1.0
 10
191.3647184351
 20
14.2135427552
 30
0.0
 10
191.3639505385
 20
14.2024263355
 30
0.0
 10
191.3632225741
 20
14.1891844521
 30
0.0
 10
191.3627747626
 20
14.1711370884
 30
0.0
  0
SPLINE
  5
286
100
AcDbEntity
  8
_21_KURVEN
100
AcDbSpline
 62
7
  6
CONTINUOUS
 70
0
 71
3
 72
9
 73
5
 74
0
 42
0.0000001
 43
0.0000001
 44
0.0000000001
 40
0.0
 40
0.0
 40
0.0
 40
0.0
 40
0.5
 40
1.0
 40
1.0
 40
1.0
 40
1.0
 10
191.3627747626
 20
14.1711370877
 30
0.0
 10
191.3629053336
 20
14.1349259967
 30
0.0
 10
191.364908645
 20
14.0595156602
 30
0.0
 10
191.3810106084
 20
13.9858071004
 30
0.0
 10
191.3899134719
 20
13.9492534274
 30
0.0
  0
SPLINE
  5
287
100
AcDbEntity
  8
_21_KURVEN
100
AcDbSpline
 62
7
  6
CONTINUOUS
 70
0
 71
3
 72
9
 73
5
 74
0
 42
0.0000001
 43
0.0000001
 44
0.0000000001
 40
0.0
 40
0.0
 40
0.0
 40
0.0
 40
0.5
 40
1.0
 40
1.0
 40
1.0
 40
1.0
 10
200.5900428171
 20
16.4084996153
 30
0.0
 10
200.5798504641
 20
16.443255422
 30
0.0
 10
200.5578152533
 20
16.5124788303
 30
0.0
 10
200.5236398143
 20
16.5766111196
 30
0.0
 10
200.5052151016
 20
16.6092948977
 30
0.0
  0
SPLINE
  5
288
100
AcDbEntity
  8
_21_KURVEN
100
AcDbSpline
 62
7
  6
CONTINUOUS
 70
0
 71
3
 72
10
 73
6
 74
0
 42
0.0000001
 43
0.0000001
 44
0.0000000001
 40
0.0
 40
0.0
 40
0.0
 40
0.0
 40
0.5
 40
0.75
 40
1.0
 40
1.0
 40
1.0
 40
1.0
 10
200.5052151033
 20
16.6092948948
 30
0.0
 10
200.4905422704
 20
16.6329969332
 30
0.0
 10
200.4640879149
 20
16.6734474335
 30
0.0
 10
200.4292107166
 20
16.7163480014
 30
0.0
 10
200.4079658384
 20
16.7399234804
 30
0.0
 10
200.3975852581
 20
16.7512645469
 30
0.0
  0
SPLINE
  5
289
100
AcDbEntity
  8
_21_KURVEN
100
AcDbSpline
 62
7
  6
CONTINUOUS
 70
0
 71
3
 72
8
 73
4
 74
0
 42
0.0000001
 43
0.0000001
 44
0.0000000001
 40
0.0
 40
0.0
 40
0.0
 40
0.0
 40
1.0
 40
1.0
 40
1.0
 40
1.0
 10
200.3975852548
 20
16.7512645504
 30
0.0
 10
200.385987435
 20
16.7633287738
 30
0.0
 10
200.3742030173
 20
16.7749694512
 30
0.0
 10
200.3617314027
 20
16.7866497348
 30
0.0
  0
SPLINE
  5
28A
100
AcDbEntity
  8
_21_KURVEN
100
AcDbSpline
 62
7
  6
CONTINUOUS
 70
0
 71
3
 72
8
 73
4
 74
0
 42
0.0000001
 43
0.0000001
 44
0.0000000001
 40
0.0
 40
0.0
 40
0.0
 40
0.0
 40
1.0
 40
1.0
 40
1.0
 40
1.0
 10
200.3617314013
 20
16.7866497361
 30
0.0
 10
200.3243685348
 20
16.8201941352
 30
0.0
 10
200.2821756713
 20
16.8525825581
 30
0.0
 10
200.2351853756
 20
16.8824349544
 30
0.0
  0
SPLINE
  5
28B
100
AcDbEntity
  8
_21_KURVEN
100
AcDbSpline
 62
7
  6
CONTINUOUS
 70
0
 71
3
 72
8
 73
4
 74
0
 42
0.0000001
 43
0.0000001
 44
0.0000000001
 40
0.0
 40
0.0
 40
0.0
 40
0.0
 40
1.0
 40
1.0
 40
1.0
 40
1.0
 10
200.23518538
 20
16.8824349517
 30
0.0
 10
200.2256398146
 20
16.888223074
 30
0.0
 10
200.2135072322
 20
16.8953182123
 30
0.0
 10
200.1989955144
 20
16.9032756871
 30
0.0
  0
SPLINE
  5
28C
100
AcDbEntity
  8
_21_KURVEN
100
AcDbSpline
 62
7
  6
CONTINUOUS
 70
0
 71
3
 72
8
 73
4
 74
0
 42
0.0000001
 43
0.0000001
 44
0.0000000001
 40
0.0
 40
0.0
 40
0.0
 40
0.0
 40
1.0
 40
1.0
 40
1.0
 40
1.0
 10
200.1989955148
 20
16.9032756868
 30
0.0
 10
200.1544499945
 20
16.9265074546
 30
0.0
 10
200.1055065843
 20
16.9474244984
 30
0.0
 10
200.0525704836
 20
16.9646889034
 30
0.0
  0
SPLINE
  5
28D
100
AcDbEntity
  8
_21_KURVEN
100
AcDbSpline
 62
7
  6
CONTINUOUS
 70
0
 71
3
 72
8
 73
4
 74
0
 42
0.0000001
 43
0.0000001
 44
0.0000000001
 40
0.0
 40
0.0
 40
0.0
 40
0.0
 40
1.0
 40
1.0
 40
1.0
 40
1.0
 10
200.0525704879
 20
16.9646889021
 30
0.0
 10
200.0365306069
 20
16.9695220158
 30
0.0
 10
200.0205467696
 20
16.9738922774
 30
0.0
 10
200.0039141228
 20
16.9779679102
 30
0.0
  0
SPLINE
  5
28E
100
AcDbEntity
  8
_21_KURVEN
100
AcDbSpline
 62
7
  6
CONTINUOUS
 70
0
 71
3
 72
9
 73
5
 74
0
 42
0.0000001
 43
0.0000001
 44
0.0000000001
 40
0.0
 40
0.0
 40
0.0
 40
0.0
 40
0.5
 40
1.0
 40
1.0
 40
1.0
 40
1.0
 10
200.003914121
 20
16.9779679107
 30
0.0
 10
199.9766508953
 20
16.9839943685
 30
0.0
 10
199.9232233288
 20
16.9950276322
 30
0.0
 10
199.8632047161
 20
16.9986811524
 30
0.0
 10
199.8326013892
 20
16.9998526932
 30
0.0
  0
SPLINE
  5
28F
100
AcDbEntity
  8
_21_KURVEN
100
AcDbSpline
 62
7
  6
CONTINUOUS
 70
0
 71
3
 72
9
 73
5
 74
0
 42
0.0000001
 43
0.0000001
 44
0.0000000001
 40
0.0
 40
0.0
 40
0.0
 40
0.0
 40
0.5
 40
1.0
 40
1.0
 40
1.0
 40
1.0
 10
199.8326013841
 20
16.9998526933
 30
0.0
 10
199.7963019403
 20
16.9997268487
 30
0.0
 10
199.7207078179
 20
16.9977375954
 30
0.0
 10
199.6468213416
 20
16.9816838047
 30
0.0
 10
199.6101795477
 20
16.9728070649
 30
0.0
  0
SPLINE
  5
290
100
AcDbEntity
  8
_21_KURVEN
100
AcDbSpline
 62
1
  6
CENTER
 70
0
 71
3
 72
131
 73
127
 74
0
 42
0.0000001
 43
0.0000001
 44
0.0000000001
 40
0.0
 40
0.0
 40
0.0
 40
0.0
 40
0.015625
 40
0.03125
 40
0.046875
 40
0.0546875
 40
0.05859375
 40
0.0625
 40
0.06640625
 40
0.0703125
 40
0.078125
 40
0.09375
 40
0.109375
 40
0.1171875
 40
0.12109375
 40
0.125
 40
0.12890625
 40
0.1328125
 40
0.140625
 40
0.15625
 40
0.171875
 40
0.1796875
 40
0.18359375
 40
0.1875
 40
0.19140625
 40
0.1953125
 40
0.203125
 40
0.21875
 40
0.234375
 40
0.2421875
 40
0.24609375
 40
0.25
 40
0.25390625
 40
0.2578125
 40
0.265625
 40
0.28125
 40
0.296875
 40
0.3046875
 40
0.30859375
 40
0.3125
 40
0.31640625
 40
0.3203125
 40
0.328125
 40
0.34375
 40
0.359375
 40
0.3671875
 40
0.37109375
 40
0.375
 40
0.37890625
 40
0.3828125
 40
0.390625
 40
0.40625
 40
0.421875
 40
0.4296875
 40
0.43359375
 40
0.4375
 40
0.44140625
 40
0.4453125
 40
0.453125
 40
0.46875
 40
0.484375
 40
0.4921875
 40
0.49609375
 40
0.5
 40
0.50390625
 40
0.5078125
 40
0.515625
 40
0.53125
 40
0.546875
 40
0.5546875
 40
0.55859375
 40
0.5625
 40
0.56640625
 40
0.5703125
 40
0.578125
 40
0.59375
 40
0.609375
 40
0.6171875
 40
0.62109375
 40
0.625
 40
0.62890625
 40
0.6328125
 40
0.640625
 40
0.65625
 40
0.671875
 40
0.6796875
 40
0.68359375
 40
0.6875
 40
0.69140625
 40
0.6953125
 40
0.703125
 40
0.71875
 40
0.734375
 40
0.7421875
 40
0.74609375
 40
0.75
 40
0.75390625
 40
0.7578125
 40
0.765625
 40
0.78125
 40
0.796875
 40
0.8046875
 40
0.80859375
 40
0.8125
 40
0.81640625
 40
0.8203125
 40
0.828125
 40
0.84375
 40
0.859375
 40
0.8671875
 40
0.87109375
 40
0.875
 40
0.87890625
 40
0.8828125
 40
0.890625
 40
0.90625
 40
0.921875
 40
0.9296875
 40
0.93359375
 40
0.9375
 40
0.94140625
 40
0.9453125
 40
0.953125
 40
0.96875
 40
0.984375
 40
1.0
 40
1.0
 40
1.0
 40
1.0
 10
201.6160777086
 20
12.5903420519
 30
0.0
 10
201.5888165261
 20
12.6626692636
 30
0.0
 10
201.5342635445
 20
12.8073086573
 30
0.0
 10
201.4526177714
 20
13.0243579255
 30
0.0
 10
201.3840438374
 20
13.2049692977
 30
0.0
 10
201.3370868738
 20
13.3319101432
 30
0.0
 10
201.3086239912
 20
13.4036474433
 30
0.0
 10
201.2918693136
 20
13.4597048574
 30
0.0
 10
201.2575598648
 20
13.5071446782
 30
0.0
 10
201.2179387694
 20
13.5734048446
 30
0.0
 10
201.1457327703
 20
13.6879474575
 30
0.0
 10
201.0442053397
 20
13.8524119117
 30
0.0
 10
200.941646841
 20
14.0162385816
 30
0.0
 10
200.8708843371
 20
14.1316740925
 30
0.0
 10
200.8289948921
 20
14.1965311335
 30
0.0
 10
200.8016451525
 20
14.2482759978
 30
0.0
 10
200.7587529006
 20
14.2881655822
 30
0.0
 10
200.7069860631
 20
14.3454882975
 30
0.0
 10
200.6138531579
 20
14.4438622003
 30
0.0
 10
200.4822500131
 20
14.5855199348
 30
0.0
 10
200.3497113029
 20
14.7263801743
 30
0.0
 10
200.2578881892
 20
14.82587057
 30
0.0
 10
200.204063108
 20
14.8814387966
 30
0.0
 10
200.167485922
 20
14.9267114712
 30
0.0
 10
200.1164196016
 20
14.9582398413
 30
0.0
 10
200.0533859928
 20
15.0050736048
 30
0.0
 10
199.9407135535
 20
15.0847804223
 30
0.0
 10
199.7810569905
 20
15.1999677002
 30
0.0
 10
199.6206863104
 20
15.3141634306
 30
0.0
 10
199.5090136349
 20
15.3952584148
 30
0.0
 10
199.4444089688
 20
15.4399107735
 30
0.0
 10
199.3981629379
 20
15.4781320899
 30
0.0
 10
199.3434828867
 20
15.4982690329
 30
0.0
 10
199.2735186587
 20
15.5314281405
 30
0.0
 10
199.1497040082
 20
15.5864984583
 30
0.0
 10
198.973596547
 20
15.66686372
 30
0.0
 10
198.7970299782
 20
15.7460899806
 30
0.0
 10
198.6738580783
 20
15.8027549
 30
0.0
 10
198.6028838135
 20
15.8334082052
 30
0.0
 10
198.5513027387
 20
15.8612334055
 30
0.0
 10
198.4934183297
 20
15.8705810446
 30
0.0
 10
198.4184380555
 20
15.8894916463
 30
0.0
 10
198.2861953984
 20
15.9195622928
 30
0.0
 10
198.0978356764
 20
15.9642544256
 30
0.0
 10
197.9091990445
 20
16.0077682098
 30
0.0
 10
197.7773440612
 20
16.0394885444
 30
0.0
 10
197.7017545853
 20
16.0558067791
 30
0.0
 10
197.6457393177
 20
16.0731082716
 30
0.0
 10
197.5871385786
 20
16.0710623337
 30
0.0
 10
197.5099061561
 20
16.0750849787
 30
0.0
 10
197.3743286563
 20
16.0789597113
 30
0.0
 10
197.1808709194
 20
16.0863081162
 30
0.0
 10
196.9873170086
 20
16.0924326043
 30
0.0
 10
196.8518741523
 20
16.0980208204
 30
0.0
 10
196.7744301472
 20
16.0993508484
 30
0.0
 10
196.7164785817
 20
16.1055663487
 30
0.0
 10
196.6580253065
 20
16.0918415512
 30
0.0
 10
196.5802619524
 20
16.0804990685
 30
0.0
 10
196.4441014324
 20
16.0573896697
 30
0.0
 10
196.2495724652
 20
16.0262298853
 30
0.0
 10
196.0552414436
 20
15.9938651578
 30
0.0
 10
195.9188037998
 20
15.9724426793
 30
0.0
 10
195.8414759259
 20
15.9584493218
 30
0.0
 10
195.7816865181
 20
15.95285789
 30
0.0
 10
195.728752873
 20
15.9285280835
 30
0.0
 10
195.6557824666
 20
15.9026262241
 30
0.0
 10
195.5292073217
 20
15.8542345154
 30
0.0
 10
195.347730202
 20
15.7868446263
 30
0.0
 10
195.1667358447
 20
15.7183253959
 30
0.0
 10
195.0394848326
 20
15.671514765
 30
0.0
 10
194.9675765032
 20
15.6431283548
 30
0.0
 10
194.9113842127
 20
15.6264216018
 30
0.0
 10
194.8638328284
 20
15.5922013695
 30
0.0
 10
194.7974157761
 20
15.5526848226
 30
0.0
 10
194.6826024329
 20
15.480668532
 30
0.0
 10
194.5177489804
 20
15.3794082947
 30
0.0
 10
194.3535349987
 20
15.2771194096
 30
0.0
 10
194.2378263966
 20
15.206543226
 30
0.0
 10
194.1728161797
 20
15.1647636538
 30
0.0
 10
194.1209483682
 20
15.1374867948
 30
0.0
 10
194.0809666601
 20
15.0947038173
 30
0.0
 10
194.0235103582
 20
15.043069981
 30
0.0
 10
193.9249077245
 20
14.9501757776
 30
0.0
 10
193.782920314
 20
14.818910257
 30
0.0
 10
193.6417324584
 20
14.6867113516
 30
0.0
 10
193.5420104478
 20
14.595123887
 30
0.0
 10
193.4863131667
 20
14.5414366041
 30
0.0
 10
193.4409344628
 20
14.5049539743
 30
0.0
 10
193.4093353688
 20
14.4540158094
 30
0.0
 10
193.3623949874
 20
14.391141353
 30
0.0
 10
193.2825073727
 20
14.2787529102
 30
0.0
 10
193.167058432
 20
14.1194990426
 30
0.0
 10
193.0526035457
 20
13.9595326757
 30
0.0
 10
192.9713242549
 20
13.8481417319
 30
0.0
 10
192.926570793
 20
13.7836997772
 30
0.0
 10
192.8882618325
 20
13.7375709821
 30
0.0
 10
192.8680824049
 20
13.6830264969
 30
0.0
 10
192.8348508946
 20
13.6132366284
 30
0.0
 10
192.7796612585
 20
13.4897300998
 30
0.0
 10
192.6991213158
 20
13.314061143
 30
0.0
 10
192.6197232098
 20
13.1379340575
 30
0.0
 10
192.5629350024
 20
13.015068909
 30
0.0
 10
192.5322155325
 20
12.9442711576
 30
0.0
 10
192.5043287081
 20
12.8928190406
 30
0.0
 10
192.4949653046
 20
12.8350766848
 30
0.0
 10
192.4760176825
 20
12.7602812466
 30
0.0
 10
192.4458897525
 20
12.6283641851
 30
0.0
 10
192.4011114864
 20
12.4404684515
 30
0.0
 10
192.3575144782
 20
12.2522963386
 30
0.0
 10
192.325732787
 20
12.120766208
 30
0.0
 10
192.3093839325
 20
12.0453627356
 30
0.0
 10
192.2920470376
 20
11.9894859393
 30
0.0
 10
192.2941051029
 20
11.9310276101
 30
0.0
 10
192.290082044
 20
11.8539836937
 30
0.0
 10
192.2862143616
 20
11.7187367185
 30
0.0
 10
192.2788715796
 20
11.5257508355
 30
0.0
 10
192.2727557009
 20
11.3326688579
 30
0.0
 10
192.2671703538
 20
11.1975564151
 30
0.0
 10
192.2658464822
 20
11.1203010908
 30
0.0
 10
192.2596229502
 20
11.0624913994
 30
0.0
 10
192.2733880539
 20
11.0041786076
 30
0.0
 10
192.2847692522
 20
10.9266037059
 30
0.0
 10
192.3079349928
 20
10.7907658619
 30
0.0
 10
192.3393294164
 20
10.5967545739
 30
0.0
 10
192.3777348134
 20
10.3639226022
 30
0.0
 10
192.403198966
 20
10.2087047975
 30
0.0
 10
192.4159484729
 20
10.1310954564
 30
0.0
  0
SPLINE
  5
291
100
AcDbEntity
  8
_21_KURVEN
100
AcDbSpline
 62
1
  6
CENTER
 70
0
 71
3
 72
131
 73
127
 74
0
 42
0.0000001
 43
0.0000001
 44
0.0000000001
 40
0.0
 40
0.0
 40
0.0
 40
0.0
 40
0.015625
 40
0.03125
 40
0.046875
 40
0.0546875
 40
0.05859375
 40
0.0625
 40
0.06640625
 40
0.0703125
 40
0.078125
 40
0.09375
 40
0.109375
 40
0.1171875
 40
0.12109375
 40
0.125
 40
0.12890625
 40
0.1328125
 40
0.140625
 40
0.15625
 40
0.171875
 40
0.1796875
 40
0.18359375
 40
0.1875
 40
0.19140625
 40
0.1953125
 40
0.203125
 40
0.21875
 40
0.234375
 40
0.2421875
 40
0.24609375
 40
0.25
 40
0.25390625
 40
0.2578125
 40
0.265625
 40
0.28125
 40
0.296875
 40
0.3046875
 40
0.30859375
 40
0.3125
 40
0.31640625
 40
0.3203125
 40
0.328125
 40
0.34375
 40
0.359375
 40
0.3671875
 40
0.37109375
 40
0.375
 40
0.37890625
 40
0.3828125
 40
0.390625
 40
0.40625
 40
0.421875
 40
0.4296875
 40
0.43359375
 40
0.4375
 40
0.44140625
 40
0.4453125
 40
0.453125
 40
0.46875
 40
0.484375
 40
0.4921875
 40
0.49609375
 40
0.5
 40
0.50390625
 40
0.5078125
 40
0.515625
 40
0.53125
 40
0.546875
 40
0.5546875
 40
0.55859375
 40
0.5625
 40
0.56640625
 40
0.5703125
 40
0.578125
 40
0.59375
 40
0.609375
 40
0.6171875
 40
0.62109375
 40
0.625
 40
0.62890625
 40
0.6328125
 40
0.640625
 40
0.65625
 40
0.671875
 40
0.6796875
 40
0.68359375
 40
0.6875
 40
0.69140625
 40
0.6953125
 40
0.703125
 40
0.71875
 40
0.734375
 40
0.7421875
 40
0.74609375
 40
0.75
 40
0.75390625
 40
0.7578125
 40
0.765625
 40
0.78125
 40
0.796875
 40
0.8046875
 40
0.80859375
 40
0.8125
 40
0.81640625
 40
0.8203125
 40
0.828125
 40
0.84375
 40
0.859375
 40
0.8671875
 40
0.87109375
 40
0.875
 40
0.87890625
 40
0.8828125
 40
0.890625
 40
0.90625
 40
0.921875
 40
0.9296875
 40
0.93359375
 40
0.9375
 40
0.94140625
 40
0.9453125
 40
0.953125
 40
0.96875
 40
0.984375
 40
1.0
 40
1.0
 40
1.0
 40
1.0
 10
192.4159483651
 20
10.1310958576
 30
0.0
 10
192.4432095476
 20
10.058768646
 30
0.0
 10
192.4977625292
 20
9.9141292522
 30
0.0
 10
192.5794083022
 20
9.6970799841
 30
0.0
 10
192.6479822362
 20
9.5164686119
 30
0.0
 10
192.6949391999
 20
9.3895277664
 30
0.0
 10
192.7234020824
 20
9.3177904663
 30
0.0
 10
192.7401567601
 20
9.2617330522
 30
0.0
 10
192.7744662089
 20
9.2142932313
 30
0.0
 10
192.8140873042
 20
9.148033065
 30
0.0
 10
192.8862933033
 20
9.033490452
 30
0.0
 10
192.987820734
 20
8.8690259979
 30
0.0
 10
193.0903792327
 20
8.705199328
 30
0.0
 10
193.1611417365
 20
8.5897638171
 30
0.0
 10
193.2030311816
 20
8.524906776
 30
0.0
 10
193.2303809212
 20
8.4731619118
 30
0.0
 10
193.2732731731
 20
8.4332723273
 30
0.0
 10
193.3250400106
 20
8.3759496121
 30
0.0
 10
193.4181729158
 20
8.2775757092
 30
0.0
 10
193.5497760606
 20
8.1359179748
 30
0.0
 10
193.6823147707
 20
7.9950577352
 30
0.0
 10
193.7741378844
 20
7.8955673396
 30
0.0
 10
193.8279629657
 20
7.839999113
 30
0.0
 10
193.8645401517
 20
7.7947264384
 30
0.0
 10
193.9156064721
 20
7.7631980682
 30
0.0
 10
193.9786400809
 20
7.7163643048
 30
0.0
 10
194.0913125201
 20
7.6366574872
 30
0.0
 10
194.2509690832
 20
7.5214702093
 30
0.0
 10
194.4113397632
 20
7.407274479
 30
0.0
 10
194.5230124387
 20
7.3261794948
 30
0.0
 10
194.5876171048
 20
7.2815271361
 30
0.0
 10
194.6338631357
 20
7.2433058197
 30
0.0
 10
194.6885431869
 20
7.2231688766
 30
0.0
 10
194.758507415
 20
7.1900097691
 30
0.0
 10
194.8823220655
 20
7.1349394512
 30
0.0
 10
195.0584295267
 20
7.0545741895
 30
0.0
 10
195.2349960955
 20
6.9753479289
 30
0.0
 10
195.3581679953
 20
6.9186830095
 30
0.0
 10
195.4291422601
 20
6.8880297044
 30
0.0
 10
195.4807233349
 20
6.8602045041
 30
0.0
 10
195.5386077439
 20
6.850856865
 30
0.0
 10
195.6135880181
 20
6.8319462633
 30
0.0
 10
195.7458306752
 20
6.8018756168
 30
0.0
 10
195.9341903973
 20
6.7571834839
 30
0.0
 10
196.1228270292
 20
6.7136696997
 30
0.0
 10
196.2546820125
 20
6.6819493651
 30
0.0
 10
196.3302714884
 20
6.6656311304
 30
0.0
 10
196.386286756
 20
6.648329638
 30
0.0
 10
196.4448874951
 20
6.6503755758
 30
0.0
 10
196.5221199176
 20
6.6463529309
 30
0.0
 10
196.6576974173
 20
6.6424781983
 30
0.0
 10
196.8511551543
 20
6.6351297934
 30
0.0
 10
197.0447090651
 20
6.6290053053
 30
0.0
 10
197.1801519214
 20
6.6234170892
 30
0.0
 10
197.2575959265
 20
6.6220870611
 30
0.0
 10
197.3155474919
 20
6.6158715608
 30
0.0
 10
197.3740007671
 20
6.6295963583
 30
0.0
 10
197.4517641213
 20
6.6409388411
 30
0.0
 10
197.5879246413
 20
6.6640482399
 30
0.0
 10
197.7824536085
 20
6.6952080243
 30
0.0
 10
197.9767846301
 20
6.7275727518
 30
0.0
 10
198.1132222739
 20
6.7489952303
 30
0.0
 10
198.1905501478
 20
6.7629885878
 30
0.0
 10
198.2503395556
 20
6.7685800196
 30
0.0
 10
198.3032732007
 20
6.792909826
 30
0.0
 10
198.3762436071
 20
6.8188116855
 30
0.0
 10
198.502818752
 20
6.8672033941
 30
0.0
 10
198.6842958716
 20
6.9345932832
 30
0.0
 10
198.865290229
 20
7.0031125136
 30
0.0
 10
198.9925412411
 20
7.0499231445
 30
0.0
 10
199.0644495705
 20
7.0783095547
 30
0.0
 10
199.1206418609
 20
7.0950163077
 30
0.0
 10
199.1681932452
 20
7.1292365401
 30
0.0
 10
199.2346102976
 20
7.1687530869
 30
0.0
 10
199.3494236408
 20
7.2407693776
 30
0.0
 10
199.5142770932
 20
7.3420296148
 30
0.0
 10
199.678491075
 20
7.4443185
 30
0.0
 10
199.7941996771
 20
7.5148946836
 30
0.0
 10
199.859209894
 20
7.5566742558
 30
0.0
 10
199.9110777055
 20
7.5839511148
 30
0.0
 10
199.9510594136
 20
7.6267340923
 30
0.0
 10
200.0085157155
 20
7.6783679285
 30
0.0
 10
200.1071183492
 20
7.7712621319
 30
0.0
 10
200.2491057597
 20
7.9025276525
 30
0.0
 10
200.3902936153
 20
8.034726558
 30
0.0
 10
200.4900156259
 20
8.1263140226
 30
0.0
 10
200.545712907
 20
8.1800013055
 30
0.0
 10
200.5910916108
 20
8.2164839353
 30
0.0
 10
200.6226907049
 20
8.2674221002
 30
0.0
 10
200.6696310862
 20
8.3302965566
 30
0.0
 10
200.749518701
 20
8.4426849993
 30
0.0
 10
200.8649676416
 20
8.601938867
 30
0.0
 10
200.979422528
 20
8.7619052338
 30
0.0
 10
201.0607018187
 20
8.8732961777
 30
0.0
 10
201.1054552806
 20
8.9377381323
 30
0.0
 10
201.1437642412
 20
8.9838669275
 30
0.0
 10
201.1639436688
 20
9.0384114127
 30
0.0
 10
201.1971751791
 20
9.1082012812
 30
0.0
 10
201.2523648152
 20
9.2317078097
 30
0.0
 10
201.3329047578
 20
9.4073767666
 30
0.0
 10
201.4123028639
 20
9.5835038521
 30
0.0
 10
201.4690910712
 20
9.7063690005
 30
0.0
 10
201.4998105411
 20
9.777166752
 30
0.0
 10
201.5276973655
 20
9.828618869
 30
0.0
 10
201.5370607691
 20
9.8863612248
 30
0.0
 10
201.5560083912
 20
9.961156663
 30
0.0
 10
201.5861363211
 20
10.0930737244
 30
0.0
 10
201.6309145873
 20
10.2809694581
 30
0.0
 10
201.6745115955
 20
10.4691415709
 30
0.0
 10
201.7062932866
 20
10.6006717016
 30
0.0
 10
201.7226421412
 20
10.6760751739
 30
0.0
 10
201.7399790361
 20
10.7319519703
 30
0.0
 10
201.7379209708
 20
10.7904102995
 30
0.0
 10
201.7419440296
 20
10.8674542159
 30
0.0
 10
201.7458117121
 20
11.002701191
 30
0.0
 10
201.7531544941
 20
11.1956870741
 30
0.0
 10
201.7592703728
 20
11.3887690516
 30
0.0
 10
201.7648557199
 20
11.5238814945
 30
0.0
 10
201.7661795914
 20
11.6011368188
 30
0.0
 10
201.7724031234
 20
11.6589465101
 30
0.0
 10
201.7586380198
 20
11.7172593019
 30
0.0
 10
201.7472568215
 20
11.7948342036
 30
0.0
 10
201.7240910808
 20
11.9306720477
 30
0.0
 10
201.6926966572
 20
12.1246833356
 30
0.0
 10
201.6542912602
 20
12.3575153073
 30
0.0
 10
201.6288271077
 20
12.512733112
 30
0.0
 10
201.6160776008
 20
12.5903424531
 30
0.0
  0
SPLINE
  5
292
100
AcDbEntity
  8
_21_KURVEN
100
AcDbSpline
 62
7
  6
CONTINUOUS
 70
0
 71
3
 72
9
 73
5
 74
0
 42
0.0000001
 43
0.0000001
 44
0.0000000001
 40
0.0
 40
0.0
 40
0.0
 40
0.0
 40
0.5
 40
1.0
 40
1.0
 40
1.0
 40
1.0
 10
202.0765473246
 20
7.7947753177
 30
0.0
 10
202.0953645814
 20
7.8000519143
 30
0.0
 10
202.1382695072
 20
7.8126512537
 30
0.0
 10
202.1795001093
 20
7.8299395902
 30
0.0
 10
202.2021868551
 20
7.8398686482
 30
0.0
  0
SPLINE
  5
293
100
AcDbEntity
  8
_21_KURVEN
100
AcDbSpline
 62
7
  6
CONTINUOUS
 70
0
 71
3
 72
8
 73
4
 74
0
 42
0.0000001
 43
0.0000001
 44
0.0000000001
 40
0.0
 40
0.0
 40
0.0
 40
0.0
 40
1.0
 40
1.0
 40
1.0
 40
1.0
 10
202.2021868584
 20
7.8398686497
 30
0.0
 10
202.2274785857
 20
7.8516742839
 30
0.0
 10
202.2508295403
 20
7.8637409733
 30
0.0
 10
202.277822294
 20
7.8793720791
 30
0.0
  0
SPLINE
  5
294
100
AcDbEntity
  8
_21_KURVEN
100
AcDbSpline
 62
7
  6
CONTINUOUS
 70
0
 71
3
 72
9
 73
5
 74
0
 42
0.0000001
 43
0.0000001
 44
0.0000000001
 40
0.0
 40
0.0
 40
0.0
 40
0.0
 40
0.5
 40
1.0
 40
1.0
 40
1.0
 40
1.0
 10
202.2778222931
 20
7.8793720786
 30
0.0
 10
202.2992277995
 20
7.8925057587
 30
0.0
 10
202.3406028965
 20
7.9185884254
 30
0.0
 10
202.3825485559
 20
7.9533269501
 30
0.0
 10
202.4027846706
 20
7.9707845985
 30
0.0
  0
LINE
  5
295
100
AcDbEntity
  8
_21_KURVEN
100
AcDbLine
 62
7
  6
CONTINUOUS
 10
202.4027846665
 20
7.9707845949
 11
202.4201253047
 21
7.986722626
  0
SPLINE
  5
296
100
AcDbEntity
  8
_21_KURVEN
100
AcDbSpline
 62
7
  6
CONTINUOUS
 70
0
 71
3
 72
8
 73
4
 74
0
 42
0.0000001
 43
0.0000001
 44
0.0000000001
 40
0.0
 40
0.0
 40
0.0
 40
0.0
 40
1.0
 40
1.0
 40
1.0
 40
1.0
 10
202.4201253046
 20
7.986722626
 30
0.0
 10
202.4322175573
 20
7.998290743
 30
0.0
 10
202.4438852076
 20
8.0100450552
 30
0.0
 10
202.4555924772
 20
8.0224848865
 30
0.0
  0
SPLINE
  5
297
100
AcDbEntity
  8
_21_KURVEN
100
AcDbSpline
 62
7
  6
CONTINUOUS
 70
0
 71
3
 72
8
 73
4
 74
0
 42
0.0000001
 43
0.0000001
 44
0.0000000001
 40
0.0
 40
0.0
 40
0.0
 40
0.0
 40
1.0
 40
1.0
 40
1.0
 40
1.0
 10
202.4555924785
 20
8.0224848879
 30
0.0
 10
202.4892141897
 20
8.0597527135
 30
0.0
 10
202.5216765158
 20
8.1018389184
 30
0.0
 10
202.5515960423
 20
8.1487111855
 30
0.0
  0
SPLINE
  5
298
100
AcDbEntity
  8
_21_KURVEN
100
AcDbSpline
 62
7
  6
CONTINUOUS
 70
0
 71
3
 72
8
 73
4
 74
0
 42
0.0000001
 43
0.0000001
 44
0.0000000001
 40
0.0
 40
0.0
 40
0.0
 40
0.0
 40
1.0
 40
1.0
 40
1.0
 40
1.0
 10
202.5515960396
 20
8.1487111811
 30
0.0
 10
202.5573971249
 20
8.1582328038
 30
0.0
 10
202.5645081009
 20
8.1703349866
 30
0.0
 10
202.5724832281
 20
8.1848104079
 30
0.0
  0
SPLINE
  5
299
100
AcDbEntity
  8
_21_KURVEN
100
AcDbSpline
 62
7
  6
CONTINUOUS
 70
0
 71
3
 72
8
 73
4
 74
0
 42
0.0000001
 43
0.0000001
 44
0.0000000001
 40
0.0
 40
0.0
 40
0.0
 40
0.0
 40
1.0
 40
1.0
 40
1.0
 40
1.0
 10
202.5724832279
 20
8.1848104075
 30
0.0
 10
202.5957662667
 20
8.2292446567
 30
0.0
 10
202.6167283972
 20
8.2780663714
 30
0.0
 10
202.6340284891
 20
8.3308715013
 30
0.0
  0
SPLINE
  5
29A
100
AcDbEntity
  8
_21_KURVEN
100
AcDbSpline
 62
7
  6
CONTINUOUS
 70
0
 71
3
 72
8
 73
4
 74
0
 42
0.0000001
 43
0.0000001
 44
0.0000000001
 40
0.0
 40
0.0
 40
0.0
 40
0.0
 40
1.0
 40
1.0
 40
1.0
 40
1.0
 10
202.6340284878
 20
8.3308714971
 30
0.0
 10
202.6388714432
 20
8.3468717417
 30
0.0
 10
202.643250424
 20
8.3628161355
 30
0.0
 10
202.6473339779
 20
8.3794077953
 30
0.0
  0
SPLINE
  5
29B
100
AcDbEntity
  8
_21_KURVEN
100
AcDbSpline
 62
7
  6
CONTINUOUS
 70
0
 71
3
 72
9
 73
5
 74
0
 42
0.0000001
 43
0.0000001
 44
0.0000000001
 40
0.0
 40
0.0
 40
0.0
 40
0.0
 40
0.5
 40
1.0
 40
1.0
 40
1.0
 40
1.0
 10
202.6473339783
 20
8.3794077971
 30
0.0
 10
202.6533718237
 20
8.4066039189
 30
0.0
 10
202.6644255081
 20
8.4599000768
 30
0.0
 10
202.6680806371
 20
8.519772134
 30
0.0
 10
202.669251311
 20
8.5503008168
 30
0.0
  0
SPLINE
  5
29C
100
AcDbEntity
  8
_21_KURVEN
100
AcDbSpline
 62
7
  6
CONTINUOUS
 70
0
 71
3
 72
9
 73
5
 74
0
 42
0.0000001
 43
0.0000001
 44
0.0000000001
 40
0.0
 40
0.0
 40
0.0
 40
0.0
 40
0.5
 40
1.0
 40
1.0
 40
1.0
 40
1.0
 10
202.6692513111
 20
8.5503008219
 30
0.0
 10
202.66912074
 20
8.5865119128
 30
0.0
 10
202.6671174287
 20
8.6619222494
 30
0.0
 10
202.6510154652
 20
8.7356308092
 30
0.0
 10
202.6421126017
 20
8.7721844822
 30
0.0
  0
LINE
  5
29D
100
AcDbEntity
  8
_26_BEZUGSACHSEN
100
AcDbLine
 62
4
  6
CONTINUOUS
 10
202.4
 20
7.8770841739
 11
202.3783661606
 21
7.9550210007
  0
SPLINE
  5
29E
100
AcDbEntity
  8
0
100
AcDbSpline
 62
4
  6
CONTINUOUS
 70
0
 71
3
 72
9
 73
5
 74
0
 42
0.0000001
 43
0.0000001
 44
0.0000000001
 40
0.0
 40
0.0
 40
0.0
 40
0.0
 40
0.2501354764
 40
1.0
 40
1.0
 40
1.0
 40
1.0
 10
0.0
 20
-3.2787192622
 30
0.0
 10
0.0908715157
 20
-3.5835903393
 30
0.0
 10
0.4967361299
 20
-4.7898072598
 30
0.0
 10
1.0451784662
 20
-5.9440827751
 30
0.0
 10
1.5
 20
-6.7823299831
 30
0.0
  0
SPLINE
  5
29F
100
AcDbEntity
  8
0
100
AcDbSpline
 62
4
  6
CONTINUOUS
 70
0
 71
3
 72
9
 73
5
 74
0
 42
0.0000001
 43
0.0000001
 44
0.0000000001
 40
0.0
 40
0.0
 40
0.0
 40
0.0
 40
0.7498649348
 40
1.0
 40
1.0
 40
1.0
 40
1.0
 10
1.5
 20
6.7823299831
 30
0.0
 10
1.0451782156
 20
5.9440823131
 30
0.0
 10
0.4967355935
 20
4.7898068915
 30
0.0
 10
0.0908713666
 20
3.5835898388
 30
0.0
 10
-0.0
 20
3.2787192622
 30
0.0
  0
LINE
  5
2A0
100
AcDbEntity
  8
_26_BEZUGSACHSEN
100
AcDbLine
 62
4
  6
CONTINUOUS
 10
191.2660415041
 20
14.4102150329
 11
190.2934639037
 21
14.1489451798
  0
LINE
  5
2A1
100
AcDbEntity
  8
_30_VOLUMEN
100
AcDbLine
 62
4
  6
CONTINUOUS
 10
174.6737341217
 20
6.3097147321
 11
178.0469784235
 21
-6.3097147321
  0
SPLINE
  5
2A2
100
AcDbEntity
  8
_30_VOLUMEN
100
AcDbSpline
 62
4
  6
CONTINUOUS
 70
0
 71
3
 72
17
 73
13
 74
0
 42
0.0000001
 43
0.0000001
 44
0.0000000001
 40
0.0
 40
0.0
 40
0.0
 40
0.0
 40
0.1293654478
 40
0.2478056477
 40
0.3043543645
 40
0.3601788847
 40
0.4162144342
 40
0.4732814201
 40
0.5925590349
 40
0.7204333897
 40
0.8566775057
 40
1.0
 40
1.0
 40
1.0
 40
1.0
 10
174.6737341217
 20
6.3097147321
 30
0.0
 10
174.7192374444
 20
6.805654398
 30
0.0
 10
174.8749333154
 20
7.7525709799
 30
0.0
 10
175.3155667999
 20
8.8527576172
 30
0.0
 10
175.812963517
 20
9.5924995906
 30
0.0
 10
176.2491971204
 20
10.0751245472
 30
0.0
 10
176.7500212531
 20
10.4930876857
 30
0.0
 10
177.5064431445
 20
10.9746740457
 30
0.0
 10
178.5945949322
 20
11.4292641685
 30
0.0
 10
180.0311328622
 20
11.7819673902
 30
0.0
 10
181.5857752208
 20
12.0026024284
 30
0.0
 10
182.6592131078
 20
12.0863858541
 30
0.0
 10
183.21
 20
12.119035288
 30
0.0
  0
SPLINE
  5
2A3
100
AcDbEntity
  8
_30_VOLUMEN
100
AcDbSpline
 62
4
  6
CONTINUOUS
 70
0
 71
3
 72
11
 73
7
 74
0
 42
0.0000001
 43
0.0000001
 44
0.0000000001
 40
0.0
 40
0.0
 40
0.0
 40
0.0
 40
0.2412310632
 40
0.4898144698
 40
0.7435077015
 40
1.0
 40
1.0
 40
1.0
 40
1.0
 10
183.21
 20
12.119035288
 30
0.0
 10
183.7715600085
 20
12.3082774434
 30
0.0
 10
184.9205674331
 20
12.6664504329
 30
0.0
 10
186.6768685139
 20
13.1678772287
 30
0.0
 10
188.4747963041
 20
13.6595926826
 30
0.0
 10
189.6849692161
 20
13.9854645186
 30
0.0
 10
190.2934705599
 20
14.1489443465
 30
0.0
  0
SPLINE
  5
2A4
100
AcDbEntity
  8
_30_VOLUMEN
100
AcDbSpline
 62
4
  6
CONTINUOUS
 70
0
 71
3
 72
15
 73
11
 74
0
 42
0.0000001
 43
0.0000001
 44
0.0000000001
 40
0.0
 40
0.0
 40
0.0
 40
0.0
 40
0.1379590568
 40
0.2726299815
 40
0.4025246651
 40
0.5268249855
 40
0.6459213888
 40
0.7619290179
 40
0.8786015982
 40
1.0
 40
1.0
 40
1.0
 40
1.0
 10
194.2534923551
 20
-12.0640638254
 30
0.0
 10
193.4269996361
 20
-12.050899558
 30
0.0
 10
191.7938804601
 20
-12.0071873277
 30
0.0
 10
189.3857974787
 20
-11.8619600149
 30
0.0
 10
187.069513959
 20
-11.5940031445
 30
0.0
 10
184.8743469462
 20
-11.1444386653
 30
0.0
 10
182.8296803904
 20
-10.4435144676
 30
0.0
 10
180.9715962614
 20
-9.4215247163
 30
0.0
 10
179.3440138535
 20
-8.0386671038
 30
0.0
 10
178.4522162471
 20
-6.9137453899
 30
0.0
 10
178.0469784235
 20
-6.3097147321
 30
0.0
  0
ELLIPSE
  5
2A5
100
AcDbEntity
  8
_30_VOLUMEN
100
AcDbEllipse
 62
4
  6
CONTINUOUS
 10
199.813081245
 20
16.1946085816
 30
0.0
 11
0.4567955806
 21
0.6695215464
 31
0.0
 40
0.9864099288
 41
-0.7027888612
 42
0.8531547826
  0
ELLIPSE
  5
2A6
100
AcDbEntity
  8
_30_VOLUMEN
100
AcDbEllipse
 62
4
  6
CONTINUOUS
 10
201.8620397223
 20
8.5698714775
 30
0.0
 11
0.7270242299
 21
-0.3606700786
 31
0.0
 40
0.9838252689
 41
5.4421986822
 42
6.9981423261
  0
ELLIPSE
  5
2A7
100
AcDbEntity
  8
_30_VOLUMEN
100
AcDbEllipse
 62
4
  6
CONTINUOUS
 10
194.2189448286
 20
6.526829328
 30
0.0
 11
0.4567955806
 21
0.6695215464
 31
0.0
 40
0.9864099288
 41
-3.8443815148
 42
-2.288437871
  0
ELLIPSE
  5
2A8
100
AcDbEntity
  8
_30_VOLUMEN
100
AcDbEllipse
 62
4
  6
CONTINUOUS
 10
192.1699863514
 20
14.1515664321
 30
0.0
 11
0.7270242299
 21
-0.3606700786
 31
0.0
 40
0.9838252689
 41
2.3006060286
 42
3.8565496725
  0
ENDSEC
  0
SECTION
  2
OBJECTS
  0
DICTIONARY
  5
C
100
AcDbDictionary
280
0
281
1
  3
ACAD_GROUP
350
D
  3
ACAD_MLINESTYLE
350
17
  3
ACAD_LAYOUT
350
1A
  3
ACAD_PLOTSETTINGS
350
19
  3
ACAD_PLOTSTYLENAME
350
E
  0
DICTIONARY
  5
D
102
{ACAD_REACTORS
330
C
102
}
100
AcDbDictionary
280
0
281
1
  0
ACDBDICTIONARYWDFLT
  5
E
102
{ACAD_REACTORS
330
C
102
}
100
AcDbDictionary
281
1
  3
Normal
350
F
100
AcDbDictionaryWithDefault
340
F
  0
DICTIONARY
  5
17
102
{ACAD_REACTORS
330
C
102
}
100
AcDbDictionary
280
0
281
1
  3
Standard
350
18
  0
DICTIONARY
  5
19
102
{ACAD_REACTORS
330
C
102
}
100
AcDbDictionary
281
1
  0
DICTIONARY
  5
1A
102
{ACAD_REACTORS
330
C
102
}
100
AcDbDictionary
281
1
  3
Model
350
2A9
  3
Layout1
350
2AA
  0
ACDBPLACEHOLDER
  5
F
102
{ACAD_REACTORS
330
E
102
}
  0
MLINESTYLE
  5
18
102
{ACAD_REACTORS
330
17
102
}
100
AcDbMlineStyle
  2
STANDARD
 70
0
  3

 62
256
 51
90.0
 52
90.0
 71
2
 49
0.5
 62
256
  6
BYLAYER
 49
-0.5
 62
256
  6
BYLAYER
  0
LAYOUT
  5
2A9
102
{ACAD_REACTORS
330
1A
102
}
100
AcDbPlotSettings
  1

  2
none_device
  4
ISO_A3_(420.00_x_297.00_MM)
  6

 40
0.0
 41
0.0
 42
0.0
 43
0.0
 44
420.0
 45
297.0
 46
0.0
 47
0.0
 48
0.0
 49
0.0
140
0.0
141
0.0
142
1.0
143
1.0
 70
1024
 72
1
 73
0
 74
0
  7

 75
0
147
1.0
148
0.0
149
0.0
100
AcDbLayout
  1
Model
 70
0
 71
0
 10
0.0
 20
0.0
 11
420.0
 21
297.0
 12
0.0
 22
0.0
 32
0.0
 14
0.0
 24
0.0
 34
0.0
 15
0.0
 25
0.0
 35
0.0
146
0.0
 13
0.0
 23
0.0
 33
0.0
 16
1.0
 26
0.0
 36
0.0
 17
0.0
 27
1.0
 37
0.0
 76
0
330
20F
345
0
346
0
  0
LAYOUT
  5
2AA
102
{ACAD_REACTORS
330
1A
102
}
100
AcDbPlotSettings
  1

  2
none_device
  4
ISO_A3_(420.00_x_297.00_MM)
  6

 40
0.0
 41
0.0
 42
0.0
 43
0.0
 44
420.0
 45
297.0
 46
0.0
 47
0.0
 48
0.0
 49
0.0
140
0.0
141
0.0
142
1.0
143
1.0
 70
0
 72
1
 73
0
 74
0
  7

 75
0
147
1.0
148
0.0
149
0.0
100
AcDbLayout
  1
Layout1
 70
0
 71
1
 10
0.0
 20
0.0
 11
420.0
 21
297.0
 12
0.0
 22
0.0
 32
0.0
 14
0.0
 24
0.0
 34
0.0
 15
0.0
 25
0.0
 35
0.0
146
0.0
 13
0.0
 23
0.0
 33
0.0
 16
1.0
 26
0.0
 36
0.0
 17
0.0
 27
1.0
 37
0.0
 76
0
330
210
345
0
346
0
  0
ENDSEC
  0
EOF
