999
DXF file: 70725220.dxf
999
Pro/ENGINEER 2017380 by Parametric Technology Corporation
  0
SECTION
  2
HEADER
  9
$ACADVER
  1
AC1027
  9
$DWGCODEPAGE
  3
ANSI_1252
  9
$EXTMAX
 10
420.0
 20
297.0
 30
0.0
  9
$EXTMIN
 10
0.0
 20
0.0
 30
0.0
  9
$LIMMIN
 10
0.0
 20
0.0
  9
$LIMMAX
 10
420.0
 20
297.0
  9
$VIEWCTR
 10
210.0
 20
148.5
  9
$VIEWSIZE
 40
297.0
  9
$CLAYER
  8
0
  9
$LTSCALE
 40
23.1
  9
$CELTYPE
  6
BYLAYER
  9
$DIMSCALE
 40
1.0
  9
$DIMASZ
 40
3.5
  9
$DIMEXO
 40
0.0
  9
$DIMDLI
 40
15.96
  9
$DIMEXE
 40
1.5
  9
$DIMCEN
 40
3.78
  9
$DIMLFAC
 40
1.0
  9
$DIMBLK
  1
_FILLED
  9
$DIMALT
 70
0
  9
$DIMALTF
 40
25.4
  9
$DIMTXT
 40
3.5
  9
$DIMTOL
 70
1
  9
$DIMLIM
 70
0
  9
$DIMTFAC
 40
1.0
  9
$DIMTP
 40
0.05
  9
$DIMTM
 40
0.05
  9
$DIMGAP
 40
0.625
  9
$DIMDSEP
 70
46
  9
$AUNITS
 70
0
  9
$PDMODE
 70
3
  9
$PDSIZE
 40
0.3125
  9
$HANDSEED
  5
2AD
  9
$TILEMODE
 70
1
  9
$MEASUREMENT
 70
1
  9
$INSUNITS
 70
4
  0
ENDSEC
  0
SECTION
  2
CLASSES
  0
CLASS
  1
ACDBDICTIONARYWDFLT
  2
AcDbDictionaryWithDefault
  3
AutoCAD 2000
 90
0
 91
1
280
0
281
0
  0
CLASS
  1
ACDBPLACEHOLDER
  2
AcDbPlaceHolder
  3
AutoCAD 2000
 90
0
 91
1
280
0
281
0
  0
CLASS
  1
LAYOUT
  2
AcDbLayout
  3
AutoCAD 2000
 90
0
 91
0
280
0
281
0
  0
ENDSEC
  0
SECTION
  2
TABLES
  0
TABLE
  2
VPORT
  5
8
100
AcDbSymbolTable
 70
2
  0
VPORT
  5
1F4
100
AcDbSymbolTableRecord
100
AcDbViewportTableRecord
  2
*ACTIVE
 70
0
 10
0.0
 20
0.0
 11
1.0
 21
1.0
 12
210.0
 22
148.5
 13
0.0
 23
0.0
 14
1.0
 24
1.0
 15
0.0
 25
0.0
 16
0.0
 26
0.0
 36
1.0
 17
0.0
 27
0.0
 37
0.0
 40
297.0
 41
1.4141414141
 42
50.0
 43
0.0
 44
0.0
 50
0.0
 51
0.0
 71
0
 72
100
 73
1
 74
1
 75
0
 76
0
 77
0
 78
0
  0
ENDTAB
  0
TABLE
  2
LTYPE
  5
5
100
AcDbSymbolTable
 70
6
  0
LTYPE
  5
14
100
AcDbSymbolTableRecord
100
AcDbLinetypeTableRecord
  2
BYBLOCK
 70
0
  3

 72
65
 73
0
 40
0.0
  0
LTYPE
  5
15
100
AcDbSymbolTableRecord
100
AcDbLinetypeTableRecord
  2
BYLAYER
 70
0
  3

 72
65
 73
0
 40
0.0
  0
LTYPE
  5
16
100
AcDbSymbolTableRecord
100
AcDbLinetypeTableRecord
  2
CONTINUOUS
 70
64
  3
Solid line
 72
65
 73
0
 40
0.0
  0
LTYPE
  5
1F5
100
AcDbSymbolTableRecord
100
AcDbLinetypeTableRecord
  2
CENTER
 70
64
  3
____ _ ____ _ ____ _ ____ _ ____ _ ____ _ ____
 72
65
 73
4
 40
0.6
 49
0.375
 74
0
 49
-0.075
 74
0
 49
0.075
 74
0
 49
-0.075
 74
0
  0
LTYPE
  5
1F6
100
AcDbSymbolTableRecord
100
AcDbLinetypeTableRecord
  2
HIDDEN
 70
64
  3
- - - - - - - - - - - - - - - - - - - -
 72
65
 73
2
 40
0.2
 49
0.1
 74
0
 49
-0.1
 74
0
  0
LTYPE
  5
1F7
100
AcDbSymbolTableRecord
100
AcDbLinetypeTableRecord
  2
PHANTOM
 70
64
  3
_____ _ _ _____ _ _ _____ _ _ _____
 72
65
 73
6
 40
0.8
 49
0.45
 74
0
 49
-0.05
 74
0
 49
0.1
 74
0
 49
-0.05
 74
0
 49
0.1
 74
0
 49
-0.05
 74
0
  0
LTYPE
  5
1F8
100
AcDbSymbolTableRecord
100
AcDbLinetypeTableRecord
  2
DOT
 70
64
  3
. . . . . . . . . . . . . . . . . . . .
 72
65
 73
2
 40
0.2
 49
0.1
 74
0
 49
-0.1
 74
0
  0
LTYPE
  5
1F9
100
AcDbSymbolTableRecord
100
AcDbLinetypeTableRecord
  2
DASHED
 70
64
  3
- - - - - - - - - - - - - - - - - - - -
 72
65
 73
2
 40
0.2
 49
0.1
 74
0
 49
-0.1
 74
0
  0
ENDTAB
  0
TABLE
  2
LAYER
  5
2
100
AcDbSymbolTable
 70
36
  0
LAYER
  5
10
100
AcDbSymbolTableRecord
100
AcDbLayerTableRecord
  2
0
 70
0
 62
7
  6
CONTINUOUS
370
-3
390
F
  0
LAYER
  5
1FA
100
AcDbSymbolTableRecord
100
AcDbLayerTableRecord
  2
DEFAULT_1
 70
0
 62
7
  6
CENTER
370
-3
390
F
  0
LAYER
  5
1FB
100
AcDbSymbolTableRecord
100
AcDbLayerTableRecord
  2
DEFAULT_2
 70
0
 62
1
  6
HIDDEN
370
-3
390
F
  0
LAYER
  5
1FC
100
AcDbSymbolTableRecord
100
AcDbLayerTableRecord
  2
DEFAULT_3
 70
0
 62
7
  6
PHANTOM
370
-3
390
F
  0
LAYER
  5
1FD
100
AcDbSymbolTableRecord
100
AcDbLayerTableRecord
  2
BG_STARTBEZUEGE
 70
0
 62
7
  6
CONTINUOUS
370
-3
390
F
  0
LAYER
  5
1FE
100
AcDbSymbolTableRecord
100
AcDbLayerTableRecord
  2
HILFEN
 70
0
 62
7
  6
CONTINUOUS
370
-3
390
F
  0
LAYER
  5
1FF
100
AcDbSymbolTableRecord
100
AcDbLayerTableRecord
  2
PLATZIERUNG
 70
0
 62
7
  6
CONTINUOUS
370
-3
390
F
  0
LAYER
  5
200
100
AcDbSymbolTableRecord
100
AcDbLayerTableRecord
  2
T_STARTBEZUEGE
 70
0
 62
7
  6
CONTINUOUS
370
-3
390
F
  0
LAYER
  5
201
100
AcDbSymbolTableRecord
100
AcDbLayerTableRecord
  2
_03_2D_ZEICHNUNG_BEMASSUNGEN
 70
0
 62
7
  6
CONTINUOUS
370
-3
390
F
  0
LAYER
  5
202
100
AcDbSymbolTableRecord
100
AcDbLayerTableRecord
  2
_04_NOTIZEN
 70
0
 62
7
  6
CONTINUOUS
370
-3
390
F
  0
LAYER
  5
203
100
AcDbSymbolTableRecord
100
AcDbLayerTableRecord
  2
_05_2D_ELEMENTE
 70
0
 62
7
  6
CONTINUOUS
370
-3
390
F
  0
LAYER
  5
204
100
AcDbSymbolTableRecord
100
AcDbLayerTableRecord
  2
_07_EINRASTLINIEN
 70
0
 62
7
  6
CONTINUOUS
370
-3
390
F
  0
LAYER
  5
205
100
AcDbSymbolTableRecord
100
AcDbLayerTableRecord
  2
_21_KURVEN
 70
0
 62
7
  6
CONTINUOUS
370
-3
390
F
  0
LAYER
  5
206
100
AcDbSymbolTableRecord
100
AcDbLayerTableRecord
  2
_22_FLAECHEN
 70
0
 62
7
  6
CONTINUOUS
370
-3
390
F
  0
LAYER
  5
207
100
AcDbSymbolTableRecord
100
AcDbLayerTableRecord
  2
_26_BEZUGSACHSEN
 70
0
 62
7
  6
CONTINUOUS
370
-3
390
F
  0
LAYER
  5
208
100
AcDbSymbolTableRecord
100
AcDbLayerTableRecord
  2
_27_BEZUGSEBENEN
 70
0
 62
7
  6
CONTINUOUS
370
-3
390
F
  0
LAYER
  5
209
100
AcDbSymbolTableRecord
100
AcDbLayerTableRecord
  2
_28_BEZUGSPUNKTE
 70
0
 62
7
  6
CONTINUOUS
370
-3
390
F
  0
LAYER
  5
20A
100
AcDbSymbolTableRecord
100
AcDbLayerTableRecord
  2
_29_KOORDINATENSYSTEME
 70
0
 62
7
  6
CONTINUOUS
370
-3
390
F
  0
LAYER
  5
20B
100
AcDbSymbolTableRecord
100
AcDbLayerTableRecord
  2
_30_VOLUMEN
 70
0
 62
7
  6
CONTINUOUS
370
-3
390
F
  0
ENDTAB
  0
TABLE
  2
STYLE
  5
3
100
AcDbSymbolTable
 70
1
  0
STYLE
  5
11
100
AcDbSymbolTableRecord
100
AcDbTextStyleTableRecord
  2
STANDARD
 70
0
 40
0.0
 41
0.7
 50
0.0
 71
0
 42
0.2
  3
SIMPLEX.SHX
  4

  0
STYLE
  5
20C
100
AcDbSymbolTableRecord
100
AcDbTextStyleTableRecord
  2
TEXTSTYLE_1
 70
0
 40
0.0
 41
0.8
 50
0.0
 71
0
 42
0.2
  3
gdt
  4

  0
STYLE
  5
20D
100
AcDbSymbolTableRecord
100
AcDbTextStyleTableRecord
  2
TEXTSTYLE_2
 70
0
 40
0.0
 41
0.7
 50
0.0
 71
0
 42
0.2
  3
gdt
  4

  0
ENDTAB
  0
TABLE
  2
VIEW
  5
6
100
AcDbSymbolTable
 70
0
  0
ENDTAB
  0
TABLE
  2
UCS
  5
7
100
AcDbSymbolTable
 70
0
  0
ENDTAB
  0
TABLE
  2
APPID
  5
9
100
AcDbSymbolTable
 70
1
  0
APPID
  5
20E
100
AcDbSymbolTableRecord
100
AcDbRegAppTableRecord
  2
ACAD
 70
0
  0
ENDTAB
  0
TABLE
  2
BLOCK_RECORD
  5
1
100
AcDbSymbolTable
 70
0
  0
BLOCK_RECORD
  5
20F
100
AcDbSymbolTableRecord
100
AcDbBlockTableRecord
  2
*Model_Space
  0
BLOCK_RECORD
  5
210
100
AcDbSymbolTableRecord
100
AcDbBlockTableRecord
  2
*Paper_Space
  0
BLOCK_RECORD
  5
211
100
AcDbSymbolTableRecord
100
AcDbBlockTableRecord
  2
_FILLED
  0
BLOCK_RECORD
  5
212
100
AcDbSymbolTableRecord
100
AcDbBlockTableRecord
  2
*D0
  0
BLOCK_RECORD
  5
213
100
AcDbSymbolTableRecord
100
AcDbBlockTableRecord
  2
*D1
  0
BLOCK_RECORD
  5
214
100
AcDbSymbolTableRecord
100
AcDbBlockTableRecord
  2
*D2
  0
BLOCK_RECORD
  5
215
100
AcDbSymbolTableRecord
100
AcDbBlockTableRecord
  2
*D3
  0
ENDTAB
  0
TABLE
  2
DIMSTYLE
  5
A
100
AcDbSymbolTable
 70
1
100
AcDbDimStyleTable
 71
0
  0
DIMSTYLE
105
216
100
AcDbSymbolTableRecord
100
AcDbDimStyleTableRecord
  2
STANDARD
 70
0
  3

  4

 40
1.0
 41
3.5
 42
0.0
 43
0.38
 44
1.5
 45
0.0
 46
0.0
 47
0.05
 48
0.05
140
3.5
141
0.09
142
0.0
143
25.4
144
1.0
145
0.0
146
1.0
147
0.625
 71
1.0
 72
0.0
 73
0
 74
0
 75
0
 76
0
 77
1
 78
8
 79
2
170
0
171
1
172
0
173
0
174
0
175
0
176
0
177
0
178
2
270
2
179
2
271
2
272
2
273
2
274
2
275
0
280
0
281
0
282
0
283
1
284
8
285
0
286
0
287
3
288
0
340
11
278
46
341
211
342
211
343
211
344
211
  0
DIMSTYLE
105
217
100
AcDbSymbolTableRecord
100
AcDbDimStyleTableRecord
  2
DIMSTYLE_1
 70
0
  3

  4

 40
1.0
 41
3.5
 42
0.0
 43
0.38
 44
1.5
 45
0.0
 46
0.0
 47
0.5
 48
0.5
140
3.5
141
0.09
142
0.0
143
25.4
144
1.0
145
0.0
146
1.0
147
0.875
 71
0.0
 72
0.0
 73
0
 74
0
 75
0
 76
0
 77
1
 78
8
 79
2
170
0
171
1
172
0
173
0
174
0
175
0
176
0
177
0
178
2
270
2
179
2
271
2
272
2
273
2
274
2
275
0
280
0
281
0
282
0
283
1
284
8
285
0
286
0
287
3
288
0
340
11
278
46
341
211
342
211
343
211
344
211
  0
DIMSTYLE
105
218
100
AcDbSymbolTableRecord
100
AcDbDimStyleTableRecord
  2
DIMSTYLE_2
 70
0
  3

  4

 40
1.0
 41
3.5
 42
0.0
 43
0.38
 44
1.5
 45
0.0
 46
0.0
 47
0.2
 48
0.2
140
3.5
141
0.09
142
0.0
143
25.4
144
1.0
145
0.0
146
1.0
147
0.875
 71
0.0
 72
0.0
 73
0
 74
0
 75
0
 76
0
 77
1
 78
8
 79
2
170
0
171
1
172
0
173
0
174
0
175
0
176
0
177
0
178
2
270
2
179
2
271
2
272
2
273
2
274
2
275
0
280
0
281
0
282
0
283
1
284
8
285
0
286
0
287
3
288
0
340
11
278
46
341
211
342
211
343
211
344
211
  0
ENDTAB
  0
ENDSEC
  0
SECTION
  2
BLOCKS
  0
BLOCK
  5
20
100
AcDbEntity
  8
0
100
AcDbBlockBegin
  2
*Model_Space
 70
0
 10
0.0
 20
0.0
 30
0.0
  3
*Model_Space
  1

  0
ENDBLK
  5
21
100
AcDbEntity
  8
0
100
AcDbBlockEnd
  0
BLOCK
  5
1C
100
AcDbEntity
  8
0
100
AcDbBlockBegin
  2
*Paper_Space
 70
0
 10
0.0
 20
0.0
 30
0.0
  3
*Paper_Space
  1

  0
ENDBLK
  5
1D
100
AcDbEntity
  8
0
100
AcDbBlockEnd
  0
BLOCK
  5
219
100
AcDbEntity
  8
0
100
AcDbBlockBegin
  2
_FILLED
 70
64
 10
0.0
 20
0.0
  3
_FILLED
  1

  0
SOLID
  5
21A
100
AcDbEntity
  8
0
  6
BYBLOCK
 62
0
100
AcDbTrace
 10
0.0
 20
0.0
 11
-1.0
 21
0.125
 12
-1.0
 22
-0.125
 13
-1.0
 23
-0.125
  0
ENDBLK
  5
21B
100
AcDbEntity
  8
0
  6
BYBLOCK
 62
0
100
AcDbBlockEnd
  0
BLOCK
  5
21C
100
AcDbEntity
  8
_03_2D_ZEICHNUNG_BEMASSUNGEN
100
AcDbBlockBegin
 62
7
  6
CONTINUOUS
  2
*D0
 70
65
 10
0.0
 20
0.0
  3
*D0
  1

  0
TEXT
  5
21D
100
AcDbEntity
  8
_03_2D_ZEICHNUNG_BEMASSUNGEN
100
AcDbText
 62
2
  6
CONTINUOUS
 10
85.075
 20
19.8643857515
  7
STANDARD
 40
3.5
  1
182.4
 41
0.7
 72
1
 11
91.2
 21
19.8643857515
100
AcDbText
  0
LINE
  5
21E
100
AcDbEntity
  8
_03_2D_ZEICHNUNG_BEMASSUNGEN
100
AcDbLine
 62
7
  6
CONTINUOUS
 10
182.4
 20
0.0
 11
182.4
 21
20.4893857515
  0
LINE
  5
21F
100
AcDbEntity
  8
_03_2D_ZEICHNUNG_BEMASSUNGEN
100
AcDbLine
 62
7
  6
CONTINUOUS
 10
0.0
 20
0.0
 11
0.0
 21
20.4893857515
  0
LINE
  5
220
100
AcDbEntity
  8
_03_2D_ZEICHNUNG_BEMASSUNGEN
100
AcDbLine
 62
7
  6
CONTINUOUS
 10
182.4
 20
18.9893857515
 11
91.2
 21
18.9893857515
  0
LINE
  5
221
100
AcDbEntity
  8
_03_2D_ZEICHNUNG_BEMASSUNGEN
100
AcDbLine
 62
7
  6
CONTINUOUS
 10
0.0
 20
18.9893857515
 11
91.2
 21
18.9893857515
  0
INSERT
  5
222
100
AcDbEntity
  8
_03_2D_ZEICHNUNG_BEMASSUNGEN
100
AcDbBlockReference
 62
7
  6
CONTINUOUS
  2
_FILLED
 10
182.4
 20
18.9893857515
 41
3.5
 42
3.5
 43
3.5
  0
INSERT
  5
223
100
AcDbEntity
  8
_03_2D_ZEICHNUNG_BEMASSUNGEN
100
AcDbBlockReference
 62
7
  6
CONTINUOUS
  2
_FILLED
 10
0.0
 20
18.9893857515
 41
3.5
 42
3.5
 43
3.5
 50
180.0
  0
ENDBLK
  5
224
100
AcDbEntity
  8
0
  6
BYBLOCK
 62
0
100
AcDbBlockEnd
  0
BLOCK
  5
225
100
AcDbEntity
  8
_03_2D_ZEICHNUNG_BEMASSUNGEN
100
AcDbBlockBegin
 62
7
  6
CONTINUOUS
  2
*D1
 70
65
 10
0.0
 20
0.0
  3
*D1
  1

  0
TEXT
  5
226
100
AcDbEntity
  8
_03_2D_ZEICHNUNG_BEMASSUNGEN
100
AcDbText
 62
2
  6
CONTINUOUS
 10
190.9584076571
 20
-8.75
  7
STANDARD
 40
3.5
  1
13
 50
90.0
 41
0.6428571429
 72
1
 11
190.9584076571
 21
-6.5
100
AcDbText
  0
LINE
  5
227
100
AcDbEntity
  8
_03_2D_ZEICHNUNG_BEMASSUNGEN
100
AcDbLine
 62
7
  6
CONTINUOUS
 10
185.8395650084
 20
0.0
 11
193.3334076571
 21
0.0
  0
LINE
  5
228
100
AcDbEntity
  8
_03_2D_ZEICHNUNG_BEMASSUNGEN
100
AcDbLine
 62
7
  6
CONTINUOUS
 10
180.0
 20
-13.0
 11
193.3334076571
 21
-13.0
  0
LINE
  5
229
100
AcDbEntity
  8
_03_2D_ZEICHNUNG_BEMASSUNGEN
100
AcDbLine
 62
7
  6
CONTINUOUS
 10
191.8334076571
 20
0.0
 11
191.8334076571
 21
6.0
  0
LINE
  5
22A
100
AcDbEntity
  8
_03_2D_ZEICHNUNG_BEMASSUNGEN
100
AcDbLine
 62
7
  6
CONTINUOUS
 10
191.8334076571
 20
6.0
 11
191.8334076571
 21
-6.5
  0
LINE
  5
22B
100
AcDbEntity
  8
_03_2D_ZEICHNUNG_BEMASSUNGEN
100
AcDbLine
 62
7
  6
CONTINUOUS
 10
191.8334076571
 20
-13.0
 11
191.8334076571
 21
-19.0
  0
LINE
  5
22C
100
AcDbEntity
  8
_03_2D_ZEICHNUNG_BEMASSUNGEN
100
AcDbLine
 62
7
  6
CONTINUOUS
 10
191.8334076571
 20
-19.0
 11
191.8334076571
 21
-6.5
  0
INSERT
  5
22D
100
AcDbEntity
  8
_03_2D_ZEICHNUNG_BEMASSUNGEN
100
AcDbBlockReference
 62
7
  6
CONTINUOUS
  2
_FILLED
 10
191.8334076571
 20
0.0
 41
3.5
 42
3.5
 43
3.5
 50
270.0
  0
INSERT
  5
22E
100
AcDbEntity
  8
_03_2D_ZEICHNUNG_BEMASSUNGEN
100
AcDbBlockReference
 62
7
  6
CONTINUOUS
  2
_FILLED
 10
191.8334076571
 20
-13.0
 41
3.5
 42
3.5
 43
3.5
 50
90.0
  0
ENDBLK
  5
22F
100
AcDbEntity
  8
0
  6
BYBLOCK
 62
0
100
AcDbBlockEnd
  0
BLOCK
  5
230
100
AcDbEntity
  8
_03_2D_ZEICHNUNG_BEMASSUNGEN
100
AcDbBlockBegin
 62
7
  6
CONTINUOUS
  2
*D2
 70
65
 10
0.0
 20
0.0
  3
*D2
  1

  0
TEXT
  5
231
100
AcDbEntity
  8
_03_2D_ZEICHNUNG_BEMASSUNGEN
100
AcDbText
 62
2
  6
CONTINUOUS
 10
86.25
 20
-21.2764797113
  7
STANDARD
 40
3.5
  1
180
 41
0.7142857143
 72
1
 11
90.0
 21
-21.2764797113
100
AcDbText
  0
LINE
  5
232
100
AcDbEntity
  8
_03_2D_ZEICHNUNG_BEMASSUNGEN
100
AcDbLine
 62
7
  6
CONTINUOUS
 10
0.0
 20
-8.5
 11
0.0
 21
-23.6514797113
  0
LINE
  5
233
100
AcDbEntity
  8
_03_2D_ZEICHNUNG_BEMASSUNGEN
100
AcDbLine
 62
7
  6
CONTINUOUS
 10
180.0
 20
-13.0
 11
180.0
 21
-23.6514797113
  0
LINE
  5
234
100
AcDbEntity
  8
_03_2D_ZEICHNUNG_BEMASSUNGEN
100
AcDbLine
 62
7
  6
CONTINUOUS
 10
0.0
 20
-22.1514797113
 11
90.0
 21
-22.1514797113
  0
LINE
  5
235
100
AcDbEntity
  8
_03_2D_ZEICHNUNG_BEMASSUNGEN
100
AcDbLine
 62
7
  6
CONTINUOUS
 10
180.0
 20
-22.1514797113
 11
90.0
 21
-22.1514797113
  0
INSERT
  5
236
100
AcDbEntity
  8
_03_2D_ZEICHNUNG_BEMASSUNGEN
100
AcDbBlockReference
 62
7
  6
CONTINUOUS
  2
_FILLED
 10
0.0
 20
-22.1514797113
 41
3.5
 42
3.5
 43
3.5
 50
180.0
  0
INSERT
  5
237
100
AcDbEntity
  8
_03_2D_ZEICHNUNG_BEMASSUNGEN
100
AcDbBlockReference
 62
7
  6
CONTINUOUS
  2
_FILLED
 10
180.0
 20
-22.1514797113
 41
3.5
 42
3.5
 43
3.5
 50
0.0
  0
ENDBLK
  5
238
100
AcDbEntity
  8
0
  6
BYBLOCK
 62
0
100
AcDbBlockEnd
  0
BLOCK
  5
239
100
AcDbEntity
  8
_03_2D_ZEICHNUNG_BEMASSUNGEN
100
AcDbBlockBegin
 62
7
  6
CONTINUOUS
  2
*D3
 70
65
 10
0.0
 20
0.0
  3
*D3
  1

  0
TEXT
  5
23A
100
AcDbEntity
  8
_03_2D_ZEICHNUNG_BEMASSUNGEN
100
AcDbText
 62
2
  6
CONTINUOUS
 10
-9.875
 20
-5.0833333333
  7
TEXTSTYLE_2
 40
3.5
  1
n
 50
90.0
 41
1.0
 72
1
 11
-9.875
 21
-2.75
100
AcDbText
  0
TEXT
  5
23B
100
AcDbEntity
  8
_03_2D_ZEICHNUNG_BEMASSUNGEN
100
AcDbText
 62
2
  6
CONTINUOUS
 10
-9.875
 20
-0.4166666667
  7
STANDARD
 40
3.5
  1
20
 50
90.0
 41
0.7857142857
 72
1
 11
-9.875
 21
2.3333333333
100
AcDbText
  0
LINE
  5
23C
100
AcDbEntity
  8
_03_2D_ZEICHNUNG_BEMASSUNGEN
100
AcDbLine
 62
7
  6
CONTINUOUS
 10
1.5
 20
10.0
 11
-10.5
 21
10.0
  0
LINE
  5
23D
100
AcDbEntity
  8
_03_2D_ZEICHNUNG_BEMASSUNGEN
100
AcDbLine
 62
7
  6
CONTINUOUS
 10
1.5
 20
-10.0
 11
-10.5
 21
-10.0
  0
LINE
  5
23E
100
AcDbEntity
  8
_03_2D_ZEICHNUNG_BEMASSUNGEN
100
AcDbLine
 62
7
  6
CONTINUOUS
 10
-9.0
 20
10.0
 11
-9.0
 21
0.0
  0
LINE
  5
23F
100
AcDbEntity
  8
_03_2D_ZEICHNUNG_BEMASSUNGEN
100
AcDbLine
 62
7
  6
CONTINUOUS
 10
-9.0
 20
-10.0
 11
-9.0
 21
0.0
  0
INSERT
  5
240
100
AcDbEntity
  8
_03_2D_ZEICHNUNG_BEMASSUNGEN
100
AcDbBlockReference
 62
7
  6
CONTINUOUS
  2
_FILLED
 10
-9.0
 20
10.0
 41
3.5
 42
3.5
 43
3.5
 50
90.0
  0
INSERT
  5
241
100
AcDbEntity
  8
_03_2D_ZEICHNUNG_BEMASSUNGEN
100
AcDbBlockReference
 62
7
  6
CONTINUOUS
  2
_FILLED
 10
-9.0
 20
-10.0
 41
3.5
 42
3.5
 43
3.5
 50
270.0
  0
ENDBLK
  5
242
100
AcDbEntity
  8
0
  6
BYBLOCK
 62
0
100
AcDbBlockEnd
  0
ENDSEC
  0
SECTION
  2
ENTITIES
  0
DIMENSION
  5
243
100
AcDbEntity
  8
_03_2D_ZEICHNUNG_BEMASSUNGEN
100
AcDbDimension
 62
7
  6
CONTINUOUS
  2
*D0
 10
0.0
 20
18.9893857515
 11
90.7000016785
 21
18.9893857515
 70
160
 71
2
 42
182.4
  3
DIMSTYLE_1
100
AcDbAlignedDimension
 13
182.4
 23
0.0
 14
0.0
 24
0.0
 50
180.0
100
AcDbRotatedDimension
  0
DIMENSION
  5
244
100
AcDbEntity
  8
_03_2D_ZEICHNUNG_BEMASSUNGEN
100
AcDbDimension
 62
7
  6
CONTINUOUS
  2
*D1
 10
191.8334076571
 20
-13.0
 11
191.8334076571
 21
-6.9999991488
 70
160
 71
2
 42
13.0
  3
DIMSTYLE_2
100
AcDbAlignedDimension
 13
185.8395650084
 23
0.0
 14
180.0
 24
-13.0
 50
270.0
100
AcDbRotatedDimension
  0
DIMENSION
  5
245
100
AcDbEntity
  8
_03_2D_ZEICHNUNG_BEMASSUNGEN
100
AcDbDimension
 62
7
  6
CONTINUOUS
  2
*D2
 10
180.0
 20
-22.1514797113
 11
89.4999998474
 21
-22.1514797113
 70
160
 71
2
 42
180.0
  3
DIMSTYLE_1
100
AcDbAlignedDimension
 13
0.0
 23
-8.5
 14
180.0
 24
-13.0
100
AcDbRotatedDimension
  0
DIMENSION
  5
246
100
AcDbEntity
  8
_03_2D_ZEICHNUNG_BEMASSUNGEN
100
AcDbDimension
 62
7
  6
CONTINUOUS
  2
*D3
 10
-9.0
 20
-10.0
 11
-9.0
 21
0.0
 70
160
 71
2
 42
20.0
  1
%%c<>
  3
DIMSTYLE_2
100
AcDbAlignedDimension
 13
1.5
 23
10.0
 14
1.5
 24
-10.0
 50
270.0
100
AcDbRotatedDimension
  0
LINE
  5
247
100
AcDbEntity
  8
0
100
AcDbLine
 62
4
  6
CONTINUOUS
 10
0.0
 20
-8.5
 11
-0.0
 21
8.4998739997
  0
LINE
  5
248
100
AcDbEntity
  8
0
100
AcDbLine
 62
4
  6
CONTINUOUS
 10
1.5
 20
-5.2678268764
 11
1.5
 21
-10.0
  0
LINE
  5
249
100
AcDbEntity
  8
0
100
AcDbLine
 62
4
  6
CONTINUOUS
 10
1.5
 20
5.2678268764
 11
1.5
 21
10.0
  0
LINE
  5
24A
100
AcDbEntity
  8
_30_VOLUMEN
100
AcDbLine
 62
4
  6
CONTINUOUS
 10
-0.0
 20
8.5
 11
1.5
 21
10.0
  0
LINE
  5
24B
100
AcDbEntity
  8
_30_VOLUMEN
100
AcDbLine
 62
4
  6
CONTINUOUS
 10
1.5
 20
-10.0
 11
0.0
 21
-8.5
  0
LINE
  5
24C
100
AcDbEntity
  8
_30_VOLUMEN
100
AcDbLine
 62
4
  6
CONTINUOUS
 10
1.5
 20
-10.0
 11
148.0
 21
-10.0
  0
LINE
  5
24D
100
AcDbEntity
  8
_30_VOLUMEN
100
AcDbLine
 62
4
  6
CONTINUOUS
 10
148.0
 20
-9.75
 11
166.7188132898
 21
-9.75
  0
LINE
  5
24E
100
AcDbEntity
  8
0
100
AcDbLine
 62
4
  6
CONTINUOUS
 10
1.5
 20
-5.2678268764
 11
148.0
 21
-5.2678268764
  0
LINE
  5
24F
100
AcDbEntity
  8
_30_VOLUMEN
100
AcDbLine
 62
4
  6
CONTINUOUS
 10
148.0
 20
-4.7762432936
 11
154.0456151029
 21
-4.7762432936
  0
LINE
  5
250
100
AcDbEntity
  8
_26_BEZUGSACHSEN
100
AcDbLine
 62
7
  6
CENTER
 10
-3.0
 20
0.0
 11
185.8395650084
 21
0.0
  0
LINE
  5
251
100
AcDbEntity
  8
_30_VOLUMEN
100
AcDbLine
 62
4
  6
CONTINUOUS
 10
148.0
 20
4.7762432936
 11
156.5913028789
 21
4.7762432936
  0
LINE
  5
252
100
AcDbEntity
  8
0
100
AcDbLine
 62
4
  6
CONTINUOUS
 10
1.5
 20
5.2678268764
 11
148.0
 21
5.2678268764
  0
LINE
  5
253
100
AcDbEntity
  8
_30_VOLUMEN
100
AcDbLine
 62
4
  6
CONTINUOUS
 10
148.0
 20
9.75
 11
172.8086294245
 21
9.75
  0
LINE
  5
254
100
AcDbEntity
  8
_30_VOLUMEN
100
AcDbLine
 62
4
  6
CONTINUOUS
 10
1.5
 20
10.0
 11
148.0
 21
10.0
  0
LINE
  5
255
100
AcDbEntity
  8
_30_VOLUMEN
100
AcDbLine
 62
4
  6
CONTINUOUS
 10
179.5995394049
 20
-12.9744248938
 11
171.9334438903
 21
-10.9314504847
  0
LINE
  5
256
100
AcDbEntity
  8
_21_KURVEN
100
AcDbLine
 62
7
  6
CONTINUOUS
 10
179.5937798035
 20
-12.9728899901
 11
171.9392034917
 21
-10.9329853883
  0
LINE
  5
257
100
AcDbEntity
  8
_26_BEZUGSACHSEN
100
AcDbLine
 62
4
  6
CONTINUOUS
 10
182.4
 20
-3.9132674272
 11
173.6334279259
 21
-1.5770217635
  0
LINE
  5
258
100
AcDbEntity
  8
_21_KURVEN
100
AcDbLine
 62
7
  6
CONTINUOUS
 10
174.4061296356
 20
-1.7829427328
 11
182.0607059474
 21
-3.8228473345
  0
LINE
  5
259
100
AcDbEntity
  8
_30_VOLUMEN
100
AcDbLine
 62
4
  6
CONTINUOUS
 10
174.4003700343
 20
-1.7814078291
 11
182.0664655488
 21
-3.8243822382
  0
LINE
  5
25A
100
AcDbEntity
  8
_30_VOLUMEN
100
AcDbLine
 62
4
  6
CONTINUOUS
 10
172.8085877311
 20
9.7500111717
 11
181.547917769
 21
7.4083147457
  0
LINE
  5
25B
100
AcDbEntity
  8
_28_BEZUGSPUNKTE
100
AcDbLine
 62
1
  6
CONTINUOUS
 10
180.15625
 20
-13.15625
 11
179.84375
 21
-12.84375
  0
LINE
  5
25C
100
AcDbEntity
  8
0
100
AcDbLine
 62
4
  6
CONTINUOUS
 10
148.0
 20
9.9998908504
 11
148.0
 21
4.7762432936
  0
LINE
  5
25D
100
AcDbEntity
  8
0
100
AcDbLine
 62
4
  6
CONTINUOUS
 10
148.0
 20
-4.7762432936
 11
148.0
 21
-9.9998941353
  0
LINE
  5
25E
100
AcDbEntity
  8
_28_BEZUGSPUNKTE
100
AcDbLine
 62
1
  6
CONTINUOUS
 10
180.15625
 20
-12.84375
 11
179.84375
 21
-13.15625
  0
LINE
  5
25F
100
AcDbEntity
  8
_30_VOLUMEN
100
AcDbLine
 62
4
  6
CONTINUOUS
 10
171.3721532718
 20
-9.964285238
 11
173.4277764361
 21
-2.3398009447
  0
LINE
  5
260
100
AcDbEntity
  8
_21_KURVEN
100
AcDbLine
 62
7
  6
CONTINUOUS
 10
171.3736976786
 20
-9.9585568995
 11
173.4262320293
 21
-2.3455292832
  0
LINE
  5
261
100
AcDbEntity
  8
_26_BEZUGSACHSEN
100
AcDbLine
 62
4
  6
CONTINUOUS
 10
171.2738842399
 20
-10.3287735854
 11
173.6334279259
 21
-1.5770217635
  0
LINE
  5
262
100
AcDbEntity
  8
_26_BEZUGSACHSEN
100
AcDbLine
 62
4
  6
CONTINUOUS
 10
182.4
 20
4.4982220793
 11
182.4
 21
-3.9132674272
  0
LINE
  5
263
100
AcDbEntity
  8
_30_VOLUMEN
100
AcDbLine
 62
4
  6
CONTINUOUS
 10
182.6277561673
 20
-4.7915474849
 11
180.572133003
 21
-12.4160317782
  0
LINE
  5
264
100
AcDbEntity
  8
_21_KURVEN
100
AcDbLine
 62
7
  6
CONTINUOUS
 10
182.6262117605
 20
-4.7972758234
 11
180.5736774098
 21
-12.4103034397
  0
LINE
  5
265
100
AcDbEntity
  8
_30_VOLUMEN
100
AcDbLine
 62
4
  6
CONTINUOUS
 10
181.5479401143
 20
7.4083087583
 11
182.4
 21
4.4982623726
  0
ARC
  5
266
100
AcDbEntity
  8
_30_VOLUMEN
100
AcDbCircle
 62
7
  6
CONTINUOUS
 10
-676.2865308659
 20
164.6035191975
 40
860.8453812816
100
AcDbArc
 50
348.3150779993
 51
349.6170120698
  0
ARC
  5
267
100
AcDbEntity
  8
_30_VOLUMEN
100
AcDbCircle
 62
4
  6
CONTINUOUS
 10
-211.6809821073
 20
-107.0093915233
 40
409.4514892627
100
AcDbArc
 50
15.7488389077
 51
16.2306323932
  0
ARC
  5
268
100
AcDbEntity
  8
_30_VOLUMEN
100
AcDbCircle
 62
4
  6
CONTINUOUS
 10
176.9805792493
 20
-6.960352202
 40
2.1875154175
100
AcDbArc
 50
184.0740517185
 51
187.0391835865
  0
ARC
  5
269
100
AcDbEntity
  8
_30_VOLUMEN
100
AcDbCircle
 62
4
  6
CONTINUOUS
 10
177.0411360807
 20
-6.9636527492
 40
2.1519013322
100
AcDbArc
 50
354.9248854738
 51
356.9752831089
  0
ARC
  5
26A
100
AcDbEntity
  8
_30_VOLUMEN
100
AcDbCircle
 62
4
  6
CONTINUOUS
 10
177.0522401132
 20
-6.9642781767
 40
2.1407797676
100
AcDbArc
 50
356.9763170687
 51
357.8457736914
  0
SPLINE
  5
26B
100
AcDbEntity
  8
_30_VOLUMEN
100
AcDbSpline
 62
4
  6
CONTINUOUS
 70
0
 71
3
 72
11
 73
7
 74
0
 42
0.0000001
 43
0.0000001
 44
0.0000000001
 40
0.0
 40
0.0
 40
0.0
 40
0.0
 40
0.2502074116
 40
0.5008085911
 40
0.7505105745
 40
1.0
 40
1.0
 40
1.0
 40
1.0
 10
176.4232750077
 20
-9.0763346664
 30
0.0
 10
176.2142010286
 20
-9.0206175431
 30
0.0
 10
175.8101020597
 20
-8.8453028679
 30
0.0
 10
175.307900598
 20
-8.4198307436
 30
0.0
 10
174.9530070155
 20
-7.865870729
 30
0.0
 10
174.8359874384
 20
-7.4425523188
 30
0.0
 10
174.8095520646
 20
-7.2284280599
 30
0.0
  0
SPLINE
  5
26C
100
AcDbEntity
  8
_30_VOLUMEN
100
AcDbSpline
 62
4
  6
CONTINUOUS
 70
0
 71
3
 72
11
 73
7
 74
0
 42
0.0000001
 43
0.0000001
 44
0.0000000001
 40
0.0
 40
0.0
 40
0.0
 40
0.0
 40
0.2528174451
 40
0.5038712193
 40
0.7528699299
 40
1.0
 40
1.0
 40
1.0
 40
1.0
 10
177.5708387444
 20
-5.0954958382
 30
0.0
 10
177.7992714328
 20
-5.1563719564
 30
0.0
 10
178.2378132312
 20
-5.3531872369
 30
0.0
 10
178.7658581945
 20
-5.8367662768
 30
0.0
 10
179.1078698982
 20
-6.4597431195
 30
0.0
 10
179.1927455185
 20
-6.9255115876
 30
0.0
 10
179.1965823542
 20
-7.1565667186
 30
0.0
  0
SPLINE
  5
26D
100
AcDbEntity
  8
_30_VOLUMEN
100
AcDbSpline
 62
4
  6
CONTINUOUS
 70
0
 71
3
 72
11
 73
7
 74
0
 42
0.0000001
 43
0.0000001
 44
0.0000000001
 40
0.0
 40
0.0
 40
0.0
 40
0.0
 40
0.2493006527
 40
0.4991085472
 40
0.7494824882
 40
1.0
 40
1.0
 40
1.0
 40
1.0
 10
179.1846010585
 20
-7.1540135445
 30
0.0
 10
179.1566668911
 20
-7.4686209001
 30
0.0
 10
178.9588655861
 20
-8.0944971531
 30
0.0
 10
178.2939043449
 20
-8.8133511382
 30
0.0
 10
177.3875813181
 20
-9.1874082953
 30
0.0
 10
176.7299582805
 20
-9.1580641566
 30
0.0
 10
176.4232750077
 20
-9.0763346664
 30
0.0
  0
SPLINE
  5
26E
100
AcDbEntity
  8
_30_VOLUMEN
100
AcDbSpline
 62
4
  6
CONTINUOUS
 70
0
 71
3
 72
11
 73
7
 74
0
 42
0.0000001
 43
0.0000001
 44
0.0000000001
 40
0.0
 40
0.0
 40
0.0
 40
0.0
 40
0.2464308956
 40
0.4952388679
 40
0.7470225949
 40
1.0
 40
1.0
 40
1.0
 40
1.0
 10
174.7971888783
 20
-7.2296217948
 30
0.0
 10
174.7917132042
 20
-6.89987544
 30
0.0
 10
174.9389171565
 20
-6.2244893049
 30
0.0
 10
175.5919267783
 20
-5.4216546695
 30
0.0
 10
176.5401076461
 20
-4.9859033977
 30
0.0
 10
177.2437031735
 20
-5.0083159174
 30
0.0
 10
177.5708387444
 20
-5.0954958382
 30
0.0
  0
SPLINE
  5
26F
100
AcDbEntity
  8
_30_VOLUMEN
100
AcDbSpline
 62
4
  6
CONTINUOUS
 70
0
 71
3
 72
15
 73
11
 74
0
 42
0.0000001
 43
0.0000001
 44
0.0000000001
 40
0.0
 40
0.0
 40
0.0
 40
0.0
 40
0.1251999214
 40
0.2501439782
 40
0.3748646252
 40
0.4995256108
 40
0.6243258416
 40
0.7493822313
 40
0.8746614321
 40
1.0
 40
1.0
 40
1.0
 40
1.0
 10
176.3110283634
 20
-9.9332038642
 30
0.0
 10
175.9771173297
 20
-9.844218318
 30
0.0
 10
175.3380422134
 20
-9.5317276241
 30
0.0
 10
174.6368308263
 20
-8.7360145918
 30
0.0
 10
174.2938746255
 20
-7.7324564038
 30
0.0
 10
174.3639659991
 20
-6.6747994778
 30
0.0
 10
174.8356069106
 20
-5.7246252121
 30
0.0
 10
175.636902222
 20
-5.0268794613
 30
0.0
 10
176.6435076313
 20
-4.6866191979
 30
0.0
 10
177.3546002686
 20
-4.7335447698
 30
0.0
 10
177.6888810758
 20
-4.8226288587
 30
0.0
  0
SPLINE
  5
270
100
AcDbEntity
  8
_30_VOLUMEN
100
AcDbSpline
 62
4
  6
CONTINUOUS
 70
0
 71
3
 72
15
 73
11
 74
0
 42
0.0000001
 43
0.0000001
 44
0.0000000001
 40
0.0
 40
0.0
 40
0.0
 40
0.0
 40
0.1251999214
 40
0.2501439782
 40
0.3748646252
 40
0.4995256108
 40
0.6243258416
 40
0.7493822313
 40
0.8746614321
 40
1.0
 40
1.0
 40
1.0
 40
1.0
 10
177.6888810758
 20
-4.8226288587
 30
0.0
 10
178.0227921095
 20
-4.9116144049
 30
0.0
 10
178.6618672257
 20
-5.2241050988
 30
0.0
 10
179.3630786128
 20
-6.0198181311
 30
0.0
 10
179.7060348137
 20
-7.0233763191
 30
0.0
 10
179.6359434401
 20
-8.0810332451
 30
0.0
 10
179.1643025285
 20
-9.0312075108
 30
0.0
 10
178.3630072172
 20
-9.7289532616
 30
0.0
 10
177.3564018079
 20
-10.069213525
 30
0.0
 10
176.6453091705
 20
-10.0222879531
 30
0.0
 10
176.3110283634
 20
-9.9332038642
 30
0.0
  0
SPLINE
  5
271
100
AcDbEntity
  8
_30_VOLUMEN
100
AcDbSpline
 62
4
  6
CONTINUOUS
 70
0
 71
3
 72
19
 73
15
 74
0
 42
0.0000001
 43
0.0000001
 44
0.0000000001
 40
0.0
 40
0.0
 40
0.0
 40
0.0
 40
0.1249981626
 40
0.2500366803
 40
0.3127139124
 40
0.3753651732
 40
0.4379432543
 40
0.5004698119
 40
0.5629609437
 40
0.6254375281
 40
0.6879373269
 40
0.7504361191
 40
0.8751401945
 40
1.0
 40
1.0
 40
1.0
 40
1.0
 10
176.3250866086
 20
-9.8455513621
 30
0.0
 10
176.6521642129
 20
-9.9327158351
 30
0.0
 10
177.3477971184
 20
-9.9786834923
 30
0.0
 10
178.1714572703
 20
-9.6998738417
 30
0.0
 10
178.7263696744
 20
-9.30380895
 30
0.0
 10
179.077386473
 20
-8.9308311752
 30
0.0
 10
179.3494236389
 20
-8.4973858178
 30
0.0
 10
179.5298638275
 20
-8.0189739746
 30
0.0
 10
179.6143493768
 20
-7.5149658382
 30
0.0
 10
179.5968845885
 20
-7.0042870202
 30
0.0
 10
179.4805681721
 20
-6.5066668027
 30
0.0
 10
179.1992500828
 20
-5.8875887482
 30
0.0
 10
178.6256417099
 20
-5.2360884254
 30
0.0
 10
178.0004275104
 20
-4.930451238
 30
0.0
 10
177.6737119395
 20
-4.8433832451
 30
0.0
  0
SPLINE
  5
272
100
AcDbEntity
  8
_30_VOLUMEN
100
AcDbSpline
 62
7
  6
CONTINUOUS
 70
0
 71
3
 72
12
 73
8
 74
0
 42
0.0000001
 43
0.0000001
 44
0.0000000001
 40
0.0
 40
0.0
 40
0.0
 40
0.0
 40
0.2498289198
 40
0.375717944
 40
0.5012575742
 40
0.7507811158
 40
1.0
 40
1.0
 40
1.0
 40
1.0
 10
176.4270969006
 20
-9.3064899357
 30
0.0
 10
176.199907348
 20
-9.2459451067
 30
0.0
 10
175.8706579552
 20
-9.0967558258
 30
0.0
 10
175.4967298142
 20
-8.8068012983
 30
0.0
 10
175.1751544373
 20
-8.4593588566
 30
0.0
 10
174.8858065891
 20
-7.9356716172
 30
0.0
 10
174.8016311053
 20
-7.4641249138
 30
0.0
 10
174.7977529213
 20
-7.2296124667
 30
0.0
  0
SPLINE
  5
273
100
AcDbEntity
  8
_30_VOLUMEN
100
AcDbSpline
 62
4
  6
CONTINUOUS
 70
0
 71
3
 72
19
 73
15
 74
0
 42
0.0000001
 43
0.0000001
 44
0.0000000001
 40
0.0
 40
0.0
 40
0.0
 40
0.0
 40
0.1248598055
 40
0.2495638809
 40
0.3120626731
 40
0.3745624719
 40
0.4370390563
 40
0.4995301881
 40
0.5620567457
 40
0.6246348268
 40
0.6872860876
 40
0.7499633197
 40
0.8750018374
 40
1.0
 40
1.0
 40
1.0
 40
1.0
 10
176.3250866086
 20
-9.8455513621
 30
0.0
 10
175.9983710377
 20
-9.7584833691
 30
0.0
 10
175.3731568382
 20
-9.4528461818
 30
0.0
 10
174.7995484653
 20
-8.801345859
 30
0.0
 10
174.5182303759
 20
-8.1822678045
 30
0.0
 10
174.4019139595
 20
-7.6846475869
 30
0.0
 10
174.3844491712
 20
-7.1739687689
 30
0.0
 10
174.4689347206
 20
-6.6699606326
 30
0.0
 10
174.6493749091
 20
-6.1915487894
 30
0.0
 10
174.9214120751
 20
-5.758103432
 30
0.0
 10
175.2724288737
 20
-5.3851256572
 30
0.0
 10
175.8273412778
 20
-4.9890607655
 30
0.0
 10
176.6510014297
 20
-4.7102511149
 30
0.0
 10
177.3466343351
 20
-4.7562187721
 30
0.0
 10
177.6737119395
 20
-4.8433832451
 30
0.0
  0
SPLINE
  5
274
100
AcDbEntity
  8
_30_VOLUMEN
100
AcDbSpline
 62
7
  6
CONTINUOUS
 70
0
 71
3
 72
14
 73
10
 74
0
 42
0.0000001
 43
0.0000001
 44
0.0000000001
 40
0.0
 40
0.0
 40
0.0
 40
0.0
 40
0.2492404931
 40
0.3748616747
 40
0.5001616633
 40
0.6252511779
 40
0.7502974011
 40
0.8751647877
 40
1.0
 40
1.0
 40
1.0
 40
1.0
 10
176.4270969006
 20
-9.3064899357
 30
0.0
 10
176.7516491732
 20
-9.392981421
 30
0.0
 10
177.2799433332
 20
-9.408352148
 30
0.0
 10
177.9247993143
 20
-9.1982066099
 30
0.0
 10
178.3624056262
 20
-8.933269153
 30
0.0
 10
178.7266426758
 20
-8.5756939253
 30
0.0
 10
178.9988512154
 20
-8.1445746121
 30
0.0
 10
179.165929093
 20
-7.6633219634
 30
0.0
 10
179.1987999771
 20
-7.3247824257
 30
0.0
 10
179.1960183112
 20
-7.1565760467
 30
0.0
  0
SPLINE
  5
275
100
AcDbEntity
  8
_21_KURVEN
100
AcDbSpline
 62
7
  6
CONTINUOUS
 70
0
 71
3
 72
9
 73
5
 74
0
 42
0.0000001
 43
0.0000001
 44
0.0000000001
 40
0.0
 40
0.0
 40
0.0
 40
0.0
 40
0.5
 40
1.0
 40
1.0
 40
1.0
 40
1.0
 10
174.4061296356
 20
-1.7829427328
 30
0.0
 10
174.3708642834
 20
-1.7743926672
 30
0.0
 10
174.2997582239
 20
-1.7588577801
 30
0.0
 10
174.2269991539
 20
-1.7563173916
 30
0.0
 10
174.1894148136
 20
-1.7558907864
 30
0.0
  0
SPLINE
  5
276
100
AcDbEntity
  8
_21_KURVEN
100
AcDbSpline
 62
7
  6
CONTINUOUS
 70
0
 71
3
 72
10
 73
6
 74
0
 42
0.0000001
 43
0.0000001
 44
0.0000000001
 40
0.0
 40
0.0
 40
0.0
 40
0.0
 40
0.5
 40
0.75
 40
1.0
 40
1.0
 40
1.0
 40
1.0
 10
174.189414817
 20
-1.7558907863
 30
0.0
 10
174.1615030369
 20
-1.7567108712
 30
0.0
 10
174.1131611978
 20
-1.7593277223
 30
0.0
 10
174.0584799814
 20
-1.7679774655
 30
0.0
 10
174.0273909921
 20
-1.7745210383
 30
0.0
 10
174.0123551711
 20
-1.7778072183
 30
0.0
  0
SPLINE
  5
277
100
AcDbEntity
  8
_21_KURVEN
100
AcDbSpline
 62
7
  6
CONTINUOUS
 70
0
 71
3
 72
8
 73
4
 74
0
 42
0.0000001
 43
0.0000001
 44
0.0000000001
 40
0.0
 40
0.0
 40
0.0
 40
0.0
 40
1.0
 40
1.0
 40
1.0
 40
1.0
 10
174.0123551664
 20
-1.7778072195
 30
0.0
 10
173.996082843
 20
-1.7817812348
 30
0.0
 10
173.9800848233
 20
-1.7861271355
 30
0.0
 10
173.963708719
 20
-1.7910451598
 30
0.0
  0
SPLINE
  5
278
100
AcDbEntity
  8
_21_KURVEN
100
AcDbSpline
 62
7
  6
CONTINUOUS
 70
0
 71
3
 72
8
 73
4
 74
0
 42
0.0000001
 43
0.0000001
 44
0.0000000001
 40
0.0
 40
0.0
 40
0.0
 40
0.0
 40
1.0
 40
1.0
 40
1.0
 40
1.0
 10
173.9637087172
 20
-1.7910451604
 30
0.0
 10
173.9159053006
 20
-1.8065005679
 30
0.0
 10
173.8666894941
 20
-1.8266923145
 30
0.0
 10
173.8172754498
 20
-1.8522804188
 30
0.0
  0
SPLINE
  5
279
100
AcDbEntity
  8
_21_KURVEN
100
AcDbSpline
 62
7
  6
CONTINUOUS
 70
0
 71
3
 72
8
 73
4
 74
0
 42
0.0000001
 43
0.0000001
 44
0.0000000001
 40
0.0
 40
0.0
 40
0.0
 40
0.0
 40
1.0
 40
1.0
 40
1.0
 40
1.0
 10
173.8172754543
 20
-1.8522804163
 30
0.0
 10
173.8074771524
 20
-1.8576160014
 30
0.0
 10
173.7952504612
 20
-1.8645280866
 30
0.0
 10
173.7810853302
 20
-1.8730593355
 30
0.0
  0
SPLINE
  5
27A
100
AcDbEntity
  8
_21_KURVEN
100
AcDbSpline
 62
7
  6
CONTINUOUS
 70
0
 71
3
 72
8
 73
4
 74
0
 42
0.0000001
 43
0.0000001
 44
0.0000000001
 40
0.0
 40
0.0
 40
0.0
 40
0.0
 40
1.0
 40
1.0
 40
1.0
 40
1.0
 10
173.7810853306
 20
-1.8730593353
 30
0.0
 10
173.7386406754
 20
-1.8998427122
 30
0.0
 10
173.6960055293
 20
-1.931567991
 30
0.0
 10
173.6545438476
 20
-1.9685532381
 30
0.0
  0
SPLINE
  5
27B
100
AcDbEntity
  8
_21_KURVEN
100
AcDbSpline
 62
7
  6
CONTINUOUS
 70
0
 71
3
 72
8
 73
4
 74
0
 42
0.0000001
 43
0.0000001
 44
0.0000000001
 40
0.0
 40
0.0
 40
0.0
 40
0.0
 40
1.0
 40
1.0
 40
1.0
 40
1.0
 10
173.6545438509
 20
-1.9685532351
 30
0.0
 10
173.6423262996
 20
-1.9799584093
 30
0.0
 10
173.6305385282
 20
-1.991546083
 30
0.0
 10
173.6186819833
 20
-2.0038394612
 30
0.0
  0
SPLINE
  5
27C
100
AcDbEntity
  8
_21_KURVEN
100
AcDbSpline
 62
7
  6
CONTINUOUS
 70
0
 71
3
 72
9
 73
5
 74
0
 42
0.0000001
 43
0.0000001
 44
0.0000000001
 40
0.0
 40
0.0
 40
0.0
 40
0.0
 40
0.5
 40
1.0
 40
1.0
 40
1.0
 40
1.0
 10
173.618681982
 20
-2.0038394626
 30
0.0
 10
173.5998151786
 20
-2.0243161298
 30
0.0
 10
173.5635162319
 20
-2.0648313924
 30
0.0
 10
173.5303262373
 20
-2.114702803
 30
0.0
 10
173.5140028573
 20
-2.1404768074
 30
0.0
  0
SPLINE
  5
27D
100
AcDbEntity
  8
_21_KURVEN
100
AcDbSpline
 62
7
  6
CONTINUOUS
 70
0
 71
3
 72
9
 73
5
 74
0
 42
0.0000001
 43
0.0000001
 44
0.0000000001
 40
0.0
 40
0.0
 40
0.0
 40
0.0
 40
0.5
 40
1.0
 40
1.0
 40
1.0
 40
1.0
 10
173.5140028547
 20
-2.1404768117
 30
0.0
 10
173.4959566291
 20
-2.1718036329
 30
0.0
 10
173.4598742691
 20
-2.2379033342
 30
0.0
 10
173.4368538283
 20
-2.3095445712
 30
0.0
 10
173.426232031
 20
-2.3455292768
 30
0.0
  0
SPLINE
  5
27E
100
AcDbEntity
  8
_21_KURVEN
100
AcDbSpline
 62
7
  6
CONTINUOUS
 70
0
 71
3
 72
9
 73
5
 74
0
 42
0.0000001
 43
0.0000001
 44
0.0000000001
 40
0.0
 40
0.0
 40
0.0
 40
0.0
 40
0.5
 40
1.0
 40
1.0
 40
1.0
 40
1.0
 10
182.6262117605
 20
-4.7972758234
 30
0.0
 10
182.634815343
 20
-4.7622020447
 30
0.0
 10
182.6504487494
 20
-4.6914825686
 30
0.0
 10
182.6530164011
 20
-4.6191215055
 30
0.0
 10
182.6534522123
 20
-4.5817429208
 30
0.0
  0
SPLINE
  5
27F
100
AcDbEntity
  8
_21_KURVEN
100
AcDbSpline
 62
7
  6
CONTINUOUS
 70
0
 71
3
 72
10
 73
6
 74
0
 42
0.0000001
 43
0.0000001
 44
0.0000000001
 40
0.0
 40
0.0
 40
0.0
 40
0.0
 40
0.5
 40
0.75
 40
1.0
 40
1.0
 40
1.0
 40
1.0
 10
182.6534522124
 20
-4.5817429242
 30
0.0
 10
182.6526327036
 20
-4.5539841545
 30
0.0
 10
182.6500102614
 20
-4.5059075405
 30
0.0
 10
182.641322862
 20
-4.4515273678
 30
0.0
 10
182.634748927
 20
-4.4206098334
 30
0.0
 10
182.6314473939
 20
-4.4056569567
 30
0.0
  0
SPLINE
  5
280
100
AcDbEntity
  8
_21_KURVEN
100
AcDbSpline
 62
7
  6
CONTINUOUS
 70
0
 71
3
 72
8
 73
4
 74
0
 42
0.0000001
 43
0.0000001
 44
0.0000000001
 40
0.0
 40
0.0
 40
0.0
 40
0.0
 40
1.0
 40
1.0
 40
1.0
 40
1.0
 10
182.6314473927
 20
-4.405656952
 30
0.0
 10
182.6274544621
 20
-4.3894744703
 30
0.0
 10
182.6230875482
 20
-4.3735648577
 30
0.0
 10
182.6181454291
 20
-4.3572793355
 30
0.0
  0
SPLINE
  5
281
100
AcDbEntity
  8
_21_KURVEN
100
AcDbSpline
 62
7
  6
CONTINUOUS
 70
0
 71
3
 72
8
 73
4
 74
0
 42
0.0000001
 43
0.0000001
 44
0.0000000001
 40
0.0
 40
0.0
 40
0.0
 40
0.0
 40
1.0
 40
1.0
 40
1.0
 40
1.0
 10
182.6181454285
 20
-4.3572793337
 30
0.0
 10
182.6026136327
 20
-4.3097405357
 30
0.0
 10
182.5823196737
 20
-4.2607979469
 30
0.0
 10
182.5565996767
 20
-4.2116591904
 30
0.0
  0
SPLINE
  5
282
100
AcDbEntity
  8
_21_KURVEN
100
AcDbSpline
 62
7
  6
CONTINUOUS
 70
0
 71
3
 72
8
 73
4
 74
0
 42
0.0000001
 43
0.0000001
 44
0.0000000001
 40
0.0
 40
0.0
 40
0.0
 40
0.0
 40
1.0
 40
1.0
 40
1.0
 40
1.0
 10
182.5565996791
 20
-4.211659195
 30
0.0
 10
182.5512364999
 20
-4.2019155276
 30
0.0
 10
182.5442885821
 20
-4.1897570577
 30
0.0
 10
182.5357129378
 20
-4.1756710595
 30
0.0
  0
SPLINE
  5
283
100
AcDbEntity
  8
_21_KURVEN
100
AcDbSpline
 62
7
  6
CONTINUOUS
 70
0
 71
3
 72
8
 73
4
 74
0
 42
0.0000001
 43
0.0000001
 44
0.0000000001
 40
0.0
 40
0.0
 40
0.0
 40
0.0
 40
1.0
 40
1.0
 40
1.0
 40
1.0
 10
182.535712938
 20
-4.1756710599
 30
0.0
 10
182.5087898147
 20
-4.1334637423
 30
0.0
 10
182.4768976105
 20
-4.0910678785
 30
0.0
 10
182.4397162585
 20
-4.0498400122
 30
0.0
  0
SPLINE
  5
284
100
AcDbEntity
  8
_21_KURVEN
100
AcDbSpline
 62
7
  6
CONTINUOUS
 70
0
 71
3
 72
8
 73
4
 74
0
 42
0.0000001
 43
0.0000001
 44
0.0000000001
 40
0.0
 40
0.0
 40
0.0
 40
0.0
 40
1.0
 40
1.0
 40
1.0
 40
1.0
 10
182.4397162615
 20
-4.0498400155
 30
0.0
 10
182.4282505106
 20
-4.0376914552
 30
0.0
 10
182.4166011768
 20
-4.0259703544
 30
0.0
 10
182.4042422649
 20
-4.0141809855
 30
0.0
  0
SPLINE
  5
285
100
AcDbEntity
  8
_21_KURVEN
100
AcDbSpline
 62
7
  6
CONTINUOUS
 70
0
 71
3
 72
9
 73
5
 74
0
 42
0.0000001
 43
0.0000001
 44
0.0000000001
 40
0.0
 40
0.0
 40
0.0
 40
0.0
 40
0.5
 40
1.0
 40
1.0
 40
1.0
 40
1.0
 10
182.4042422636
 20
-4.0141809842
 30
0.0
 10
182.3899010501
 20
-4.0009739522
 30
0.0
 10
182.3555837299
 20
-3.9703446349
 30
0.0
 10
182.3226623758
 20
-3.9468261185
 30
0.0
 10
182.3027069823
 20
-3.9329167528
 30
0.0
  0
SPLINE
  5
286
100
AcDbEntity
  8
_21_KURVEN
100
AcDbSpline
 62
7
  6
CONTINUOUS
 70
0
 71
3
 72
8
 73
4
 74
0
 42
0.0000001
 43
0.0000001
 44
0.0000000001
 40
0.0
 40
0.0
 40
0.0
 40
0.0
 40
1.0
 40
1.0
 40
1.0
 40
1.0
 10
182.3027069787
 20
-3.9329167504
 30
0.0
 10
182.2934421479
 20
-3.9267129462
 30
0.0
 10
182.2823124713
 20
-3.9194838207
 30
0.0
 10
182.2668715826
 20
-3.9101000679
 30
0.0
  0
SPLINE
  5
287
100
AcDbEntity
  8
_21_KURVEN
100
AcDbSpline
 62
7
  6
CONTINUOUS
 70
0
 71
3
 72
8
 73
4
 74
0
 42
0.0000001
 43
0.0000001
 44
0.0000000001
 40
0.0
 40
0.0
 40
0.0
 40
0.0
 40
1.0
 40
1.0
 40
1.0
 40
1.0
 10
182.266871582
 20
-3.9101000675
 30
0.0
 10
182.2524813556
 20
-3.9015675245
 30
0.0
 10
182.2306740577
 20
-3.8894585434
 30
0.0
 10
182.2104654471
 20
-3.8792634865
 30
0.0
  0
SPLINE
  5
288
100
AcDbEntity
  8
_21_KURVEN
100
AcDbSpline
 62
7
  6
CONTINUOUS
 70
0
 71
3
 72
9
 73
5
 74
0
 42
0.0000001
 43
0.0000001
 44
0.0000000001
 40
0.0
 40
0.0
 40
0.0
 40
0.0
 40
0.5
 40
1.0
 40
1.0
 40
1.0
 40
1.0
 10
182.2104654462
 20
-3.879263486
 30
0.0
 10
182.1878008537
 20
-3.8684681055
 30
0.0
 10
182.1395250348
 20
-3.8463984946
 30
0.0
 10
182.0887394816
 20
-3.830865753
 30
0.0
 10
182.060705947
 20
-3.8228473344
 30
0.0
  0
SPLINE
  5
289
100
AcDbEntity
  8
_21_KURVEN
100
AcDbSpline
 62
7
  6
CONTINUOUS
 70
0
 71
3
 72
9
 73
5
 74
0
 42
0.0000001
 43
0.0000001
 44
0.0000000001
 40
0.0
 40
0.0
 40
0.0
 40
0.0
 40
0.5
 40
1.0
 40
1.0
 40
1.0
 40
1.0
 10
179.5937798035
 20
-12.9728899901
 30
0.0
 10
179.6290451557
 20
-12.9814400557
 30
0.0
 10
179.7001512152
 20
-12.9969749428
 30
0.0
 10
179.7729102852
 20
-12.9995153313
 30
0.0
 10
179.8104946255
 20
-12.9999419365
 30
0.0
  0
SPLINE
  5
28A
100
AcDbEntity
  8
_21_KURVEN
100
AcDbSpline
 62
7
  6
CONTINUOUS
 70
0
 71
3
 72
10
 73
6
 74
0
 42
0.0000001
 43
0.0000001
 44
0.0000000001
 40
0.0
 40
0.0
 40
0.0
 40
0.0
 40
0.5
 40
0.75
 40
1.0
 40
1.0
 40
1.0
 40
1.0
 10
179.8104946221
 20
-12.9999419366
 30
0.0
 10
179.8384064023
 20
-12.9991218517
 30
0.0
 10
179.8867482413
 20
-12.9965050006
 30
0.0
 10
179.9414294577
 20
-12.9878552574
 30
0.0
 10
179.972518447
 20
-12.9813116845
 30
0.0
 10
179.987554268
 20
-12.9780255046
 30
0.0
  0
SPLINE
  5
28B
100
AcDbEntity
  8
_21_KURVEN
100
AcDbSpline
 62
7
  6
CONTINUOUS
 70
0
 71
3
 72
8
 73
4
 74
0
 42
0.0000001
 43
0.0000001
 44
0.0000000001
 40
0.0
 40
0.0
 40
0.0
 40
0.0
 40
1.0
 40
1.0
 40
1.0
 40
1.0
 10
179.9875542727
 20
-12.9780255034
 30
0.0
 10
180.0038265961
 20
-12.9740514881
 30
0.0
 10
180.0198246158
 20
-12.9697055874
 30
0.0
 10
180.0362007201
 20
-12.9647875631
 30
0.0
  0
SPLINE
  5
28C
100
AcDbEntity
  8
_21_KURVEN
100
AcDbSpline
 62
7
  6
CONTINUOUS
 70
0
 71
3
 72
8
 73
4
 74
0
 42
0.0000001
 43
0.0000001
 44
0.0000000001
 40
0.0
 40
0.0
 40
0.0
 40
0.0
 40
1.0
 40
1.0
 40
1.0
 40
1.0
 10
180.036200722
 20
-12.9647875625
 30
0.0
 10
180.0840041385
 20
-12.949332155
 30
0.0
 10
180.1332199451
 20
-12.9291404084
 30
0.0
 10
180.1826339894
 20
-12.9035523041
 30
0.0
  0
SPLINE
  5
28D
100
AcDbEntity
  8
_21_KURVEN
100
AcDbSpline
 62
7
  6
CONTINUOUS
 70
0
 71
3
 72
8
 73
4
 74
0
 42
0.0000001
 43
0.0000001
 44
0.0000000001
 40
0.0
 40
0.0
 40
0.0
 40
0.0
 40
1.0
 40
1.0
 40
1.0
 40
1.0
 10
180.1826339848
 20
-12.9035523065
 30
0.0
 10
180.1924322867
 20
-12.8982167215
 30
0.0
 10
180.2046589779
 20
-12.8913046363
 30
0.0
 10
180.2188241089
 20
-12.8827733874
 30
0.0
  0
SPLINE
  5
28E
100
AcDbEntity
  8
_21_KURVEN
100
AcDbSpline
 62
7
  6
CONTINUOUS
 70
0
 71
3
 72
8
 73
4
 74
0
 42
0.0000001
 43
0.0000001
 44
0.0000000001
 40
0.0
 40
0.0
 40
0.0
 40
0.0
 40
1.0
 40
1.0
 40
1.0
 40
1.0
 10
180.2188241086
 20
-12.8827733876
 30
0.0
 10
180.2612687637
 20
-12.8559900107
 30
0.0
 10
180.3039039098
 20
-12.8242647319
 30
0.0
 10
180.3453655915
 20
-12.7872794848
 30
0.0
  0
SPLINE
  5
28F
100
AcDbEntity
  8
_21_KURVEN
100
AcDbSpline
 62
7
  6
CONTINUOUS
 70
0
 71
3
 72
8
 73
4
 74
0
 42
0.0000001
 43
0.0000001
 44
0.0000000001
 40
0.0
 40
0.0
 40
0.0
 40
0.0
 40
1.0
 40
1.0
 40
1.0
 40
1.0
 10
180.3453655882
 20
-12.7872794878
 30
0.0
 10
180.3575831395
 20
-12.7758743136
 30
0.0
 10
180.369370911
 20
-12.7642866399
 30
0.0
 10
180.3812274559
 20
-12.7519932617
 30
0.0
  0
SPLINE
  5
290
100
AcDbEntity
  8
_21_KURVEN
100
AcDbSpline
 62
7
  6
CONTINUOUS
 70
0
 71
3
 72
9
 73
5
 74
0
 42
0.0000001
 43
0.0000001
 44
0.0000000001
 40
0.0
 40
0.0
 40
0.0
 40
0.0
 40
0.5
 40
1.0
 40
1.0
 40
1.0
 40
1.0
 10
180.3812274571
 20
-12.7519932603
 30
0.0
 10
180.4000942605
 20
-12.7315165931
 30
0.0
 10
180.4363932072
 20
-12.6910013305
 30
0.0
 10
180.4695832018
 20
-12.6411299198
 30
0.0
 10
180.4859065818
 20
-12.6153559155
 30
0.0
  0
SPLINE
  5
291
100
AcDbEntity
  8
_21_KURVEN
100
AcDbSpline
 62
7
  6
CONTINUOUS
 70
0
 71
3
 72
9
 73
5
 74
0
 42
0.0000001
 43
0.0000001
 44
0.0000000001
 40
0.0
 40
0.0
 40
0.0
 40
0.0
 40
0.5
 40
1.0
 40
1.0
 40
1.0
 40
1.0
 10
180.4859065844
 20
-12.6153559112
 30
0.0
 10
180.5039528101
 20
-12.58402909
 30
0.0
 10
180.54003517
 20
-12.5179293887
 30
0.0
 10
180.5630556108
 20
-12.4462881517
 30
0.0
 10
180.5736774081
 20
-12.4103034461
 30
0.0
  0
SPLINE
  5
292
100
AcDbEntity
  8
_21_KURVEN
100
AcDbSpline
 62
1
  6
CENTER
 70
0
 71
3
 72
131
 73
127
 74
0
 42
0.0000001
 43
0.0000001
 44
0.0000000001
 40
0.0
 40
0.0
 40
0.0
 40
0.0
 40
0.015625
 40
0.03125
 40
0.046875
 40
0.0546875
 40
0.05859375
 40
0.0625
 40
0.06640625
 40
0.0703125
 40
0.078125
 40
0.09375
 40
0.109375
 40
0.1171875
 40
0.12109375
 40
0.125
 40
0.12890625
 40
0.1328125
 40
0.140625
 40
0.15625
 40
0.171875
 40
0.1796875
 40
0.18359375
 40
0.1875
 40
0.19140625
 40
0.1953125
 40
0.203125
 40
0.21875
 40
0.234375
 40
0.2421875
 40
0.24609375
 40
0.25
 40
0.25390625
 40
0.2578125
 40
0.265625
 40
0.28125
 40
0.296875
 40
0.3046875
 40
0.30859375
 40
0.3125
 40
0.31640625
 40
0.3203125
 40
0.328125
 40
0.34375
 40
0.359375
 40
0.3671875
 40
0.37109375
 40
0.375
 40
0.37890625
 40
0.3828125
 40
0.390625
 40
0.40625
 40
0.421875
 40
0.4296875
 40
0.43359375
 40
0.4375
 40
0.44140625
 40
0.4453125
 40
0.453125
 40
0.46875
 40
0.484375
 40
0.4921875
 40
0.49609375
 40
0.5
 40
0.50390625
 40
0.5078125
 40
0.515625
 40
0.53125
 40
0.546875
 40
0.5546875
 40
0.55859375
 40
0.5625
 40
0.56640625
 40
0.5703125
 40
0.578125
 40
0.59375
 40
0.609375
 40
0.6171875
 40
0.62109375
 40
0.625
 40
0.62890625
 40
0.6328125
 40
0.640625
 40
0.65625
 40
0.671875
 40
0.6796875
 40
0.68359375
 40
0.6875
 40
0.69140625
 40
0.6953125
 40
0.703125
 40
0.71875
 40
0.734375
 40
0.7421875
 40
0.74609375
 40
0.75
 40
0.75390625
 40
0.7578125
 40
0.765625
 40
0.78125
 40
0.796875
 40
0.8046875
 40
0.80859375
 40
0.8125
 40
0.81640625
 40
0.8203125
 40
0.828125
 40
0.84375
 40
0.859375
 40
0.8671875
 40
0.87109375
 40
0.875
 40
0.87890625
 40
0.8828125
 40
0.890625
 40
0.90625
 40
0.921875
 40
0.9296875
 40
0.93359375
 40
0.9375
 40
0.94140625
 40
0.9453125
 40
0.953125
 40
0.96875
 40
0.984375
 40
1.0
 40
1.0
 40
1.0
 40
1.0
 10
175.7664916476
 20
-11.9529376892
 30
0.0
 10
175.8429055776
 20
-11.9655190333
 30
0.0
 10
175.9957357052
 20
-11.9906478585
 30
0.0
 10
176.2249672908
 20
-12.028544274
 30
0.0
 10
176.4160332957
 20
-12.0595320184
 30
0.0
 10
176.5497021161
 20
-12.0823790133
 30
0.0
 10
176.6262050508
 20
-12.0936312358
 30
0.0
 10
176.6832421064
 20
-12.1071498482
 30
0.0
 10
176.7415793678
 20
-12.10125228
 30
0.0
 10
176.8189090946
 20
-12.1001633373
 30
0.0
 10
176.9544449255
 20
-12.0950822637
 30
0.0
 10
177.1479775809
 20
-12.0896372006
 30
0.0
 10
177.3414723453
 20
-12.08298611
 30
0.0
 10
177.4770612237
 20
-12.0795934749
 30
0.0
 10
177.5543075901
 20
-12.0758512716
 30
0.0
 10
177.6129006163
 20
-12.0780943895
 30
0.0
 10
177.6689771333
 20
-12.0610402034
 30
0.0
 10
177.7446240647
 20
-12.0450343076
 30
0.0
 10
177.8765924354
 20
-12.0138678542
 30
0.0
 10
178.0653717786
 20
-11.9711481214
 30
0.0
 10
178.2539268376
 20
-11.9272249873
 30
0.0
 10
178.3862092062
 20
-11.8977432957
 30
0.0
 10
178.4613627125
 20
-11.8790899171
 30
0.0
 10
178.5189531475
 20
-11.8701586899
 30
0.0
 10
178.5718605705
 20
-11.8418955843
 30
0.0
 10
178.6440384007
 20
-11.81095623
 30
0.0
 10
178.7695768507
 20
-11.7536536752
 30
0.0
 10
178.9494113406
 20
-11.6735743739
 30
0.0
 10
179.1287423522
 20
-11.59238565
 30
0.0
 10
179.254985672
 20
-11.5366362869
 30
0.0
 10
179.3260558496
 20
-11.5032562028
 30
0.0
 10
179.3823617521
 20
-11.4824816998
 30
0.0
 10
179.4271890083
 20
-11.4454266094
 30
0.0
 10
179.4909638286
 20
-11.4017001192
 30
0.0
 10
179.6006909995
 20
-11.3225176982
 30
0.0
 10
179.7585285033
 20
-11.2109079531
 30
0.0
 10
179.9156069962
 20
-11.0983349031
 30
0.0
 10
180.0263967824
 20
-11.020501109
 30
0.0
 10
180.0885017785
 20
-10.974655348
 30
0.0
 10
180.1384523592
 20
-10.9441025657
 30
0.0
 10
180.1755173321
 20
-10.8989082832
 30
0.0
 10
180.2294334596
 20
-10.8437575353
 30
0.0
 10
180.3216765921
 20
-10.7448518749
 30
0.0
 10
180.4546783737
 20
-10.604903551
 30
0.0
 10
180.5867958635
 20
-10.464129228
 30
0.0
 10
180.6802770046
 20
-10.3663799663
 30
0.0
 10
180.73224769
 20
-10.3094120205
 30
0.0
 10
180.775281633
 20
-10.2697932316
 30
0.0
 10
180.8028154151
 20
-10.2183013731
 30
0.0
 10
180.8449354295
 20
-10.1537880467
 30
0.0
 10
180.9161088149
 20
-10.0389493772
 30
0.0
 10
181.0192465637
 20
-9.8759913739
 30
0.0
 10
181.1213700716
 20
-9.7123403169
 30
0.0
 10
181.1939633942
 20
-9.5984719226
 30
0.0
 10
181.2338520786
 20
-9.5324338781
 30
0.0
 10
181.2682319868
 20
-9.4856201321
 30
0.0
 10
181.2855549229
 20
-9.428432432
 30
0.0
 10
181.3146037661
 20
-9.3558010731
 30
0.0
 10
181.3626468963
 20
-9.2270065013
 30
0.0
 10
181.4328958473
 20
-9.0439264404
 30
0.0
 10
181.50199992
 20
-8.8604161057
 30
0.0
 10
181.5516458797
 20
-8.7322239173
 30
0.0
 10
181.5781759909
 20
-8.658645956
 30
0.0
 10
181.6032268548
 20
-8.6043626043
 30
0.0
 10
181.608584101
 20
-8.5466414165
 30
0.0
 10
181.622598373
 20
-8.470879121
 30
0.0
 10
181.6439026016
 20
-8.3377350032
 30
0.0
 10
181.6761763308
 20
-8.1478326534
 30
0.0
 10
181.7072283497
 20
-7.957783031
 30
0.0
 10
181.7302429726
 20
-7.8248450948
 30
0.0
 10
181.7415694822
 20
-7.7487587996
 30
0.0
 10
181.7551732722
 20
-7.6920317019
 30
0.0
 10
181.749253783
 20
-7.6340149896
 30
0.0
 10
181.7481729799
 20
-7.5571089684
 30
0.0
 10
181.743088635
 20
-7.4223163333
 30
0.0
 10
181.7376489046
 20
-7.2298445688
 30
0.0
 10
181.7309964856
 20
-7.0374107055
 30
0.0
 10
181.7276099048
 20
-6.9025650086
 30
0.0
 10
181.7238611866
 20
-6.8257423703
 30
0.0
 10
181.7261273463
 20
-6.7674698239
 30
0.0
 10
181.7089894772
 20
-6.7117035253
 30
0.0
 10
181.6929092415
 20
-6.6364738
 30
0.0
 10
181.6615952376
 20
-6.5052338496
 30
0.0
 10
181.6186746976
 20
-6.3174961639
 30
0.0
 10
181.5745440884
 20
-6.1299817537
 30
0.0
 10
181.5449241812
 20
-5.9984292177
 30
0.0
 10
181.5261817935
 20
-5.9236906982
 30
0.0
 10
181.5172118908
 20
-5.8664172908
 30
0.0
 10
181.4888027991
 20
-5.8138047754
 30
0.0
 10
181.457706237
 20
-5.7420278769
 30
0.0
 10
181.4001110333
 20
-5.6171874015
 30
0.0
 10
181.3196235625
 20
-5.4383523977
 30
0.0
 10
181.2380204679
 20
-5.2600183174
 30
0.0
 10
181.1819871375
 20
-5.1344765491
 30
0.0
 10
181.148436203
 20
-5.0638016823
 30
0.0
 10
181.1275575719
 20
-5.0078079332
 30
0.0
 10
181.090306606
 20
-4.963232937
 30
0.0
 10
181.0463509591
 20
-4.8998153614
 30
0.0
 10
180.9667525174
 20
-4.7907035652
 30
0.0
 10
180.854556959
 20
-4.6337508317
 30
0.0
 10
180.7413926525
 20
-4.4775531282
 30
0.0
 10
180.6631504581
 20
-4.3673842901
 30
0.0
 10
180.6170635655
 20
-4.3056277805
 30
0.0
 10
180.5863516491
 20
-4.2559563318
 30
0.0
 10
180.5409152543
 20
-4.219102593
 30
0.0
 10
180.4854706404
 20
-4.1654918026
 30
0.0
 10
180.3860371583
 20
-4.0737718904
 30
0.0
 10
180.2453424363
 20
-3.9415240345
 30
0.0
 10
180.1038170053
 20
-3.8101557782
 30
0.0
 10
180.0055465158
 20
-3.7172044265
 30
0.0
 10
179.9482743422
 20
-3.6655287554
 30
0.0
 10
179.9084452329
 20
-3.6227377188
 30
0.0
 10
179.856674844
 20
-3.5953641215
 30
0.0
 10
179.7918139422
 20
-3.5534865501
 30
0.0
 10
179.6763558678
 20
-3.4827239014
 30
0.0
 10
179.512519309
 20
-3.3801807265
 30
0.0
 10
179.3479856959
 20
-3.2786463512
 30
0.0
 10
179.2335034974
 20
-3.2064713831
 30
0.0
 10
179.1671090763
 20
-3.1668131707
 30
0.0
 10
179.1200438033
 20
-3.1326301762
 30
0.0
 10
179.06254437
 20
-3.115412209
 30
0.0
 10
178.9895180178
 20
-3.0865373166
 30
0.0
 10
178.8600260946
 20
-3.0387634879
 30
0.0
 10
178.6759247752
 20
-2.9690727456
 30
0.0
 10
178.4546210384
 20
-2.8860652031
 30
0.0
 10
178.307158005
 20
-2.8306084894
 30
0.0
 10
178.2334173894
 20
-2.8028949265
 30
0.0
  0
SPLINE
  5
293
100
AcDbEntity
  8
_21_KURVEN
100
AcDbSpline
 62
1
  6
CENTER
 70
0
 71
3
 72
131
 73
127
 74
0
 42
0.0000001
 43
0.0000001
 44
0.0000000001
 40
0.0
 40
0.0
 40
0.0
 40
0.0
 40
0.015625
 40
0.03125
 40
0.046875
 40
0.0546875
 40
0.05859375
 40
0.0625
 40
0.06640625
 40
0.0703125
 40
0.078125
 40
0.09375
 40
0.109375
 40
0.1171875
 40
0.12109375
 40
0.125
 40
0.12890625
 40
0.1328125
 40
0.140625
 40
0.15625
 40
0.171875
 40
0.1796875
 40
0.18359375
 40
0.1875
 40
0.19140625
 40
0.1953125
 40
0.203125
 40
0.21875
 40
0.234375
 40
0.2421875
 40
0.24609375
 40
0.25
 40
0.25390625
 40
0.2578125
 40
0.265625
 40
0.28125
 40
0.296875
 40
0.3046875
 40
0.30859375
 40
0.3125
 40
0.31640625
 40
0.3203125
 40
0.328125
 40
0.34375
 40
0.359375
 40
0.3671875
 40
0.37109375
 40
0.375
 40
0.37890625
 40
0.3828125
 40
0.390625
 40
0.40625
 40
0.421875
 40
0.4296875
 40
0.43359375
 40
0.4375
 40
0.44140625
 40
0.4453125
 40
0.453125
 40
0.46875
 40
0.484375
 40
0.4921875
 40
0.49609375
 40
0.5
 40
0.50390625
 40
0.5078125
 40
0.515625
 40
0.53125
 40
0.546875
 40
0.5546875
 40
0.55859375
 40
0.5625
 40
0.56640625
 40
0.5703125
 40
0.578125
 40
0.59375
 40
0.609375
 40
0.6171875
 40
0.62109375
 40
0.625
 40
0.62890625
 40
0.6328125
 40
0.640625
 40
0.65625
 40
0.671875
 40
0.6796875
 40
0.68359375
 40
0.6875
 40
0.69140625
 40
0.6953125
 40
0.703125
 40
0.71875
 40
0.734375
 40
0.7421875
 40
0.74609375
 40
0.75
 40
0.75390625
 40
0.7578125
 40
0.765625
 40
0.78125
 40
0.796875
 40
0.8046875
 40
0.80859375
 40
0.8125
 40
0.81640625
 40
0.8203125
 40
0.828125
 40
0.84375
 40
0.859375
 40
0.8671875
 40
0.87109375
 40
0.875
 40
0.87890625
 40
0.8828125
 40
0.890625
 40
0.90625
 40
0.921875
 40
0.9296875
 40
0.93359375
 40
0.9375
 40
0.94140625
 40
0.9453125
 40
0.953125
 40
0.96875
 40
0.984375
 40
1.0
 40
1.0
 40
1.0
 40
1.0
 10
178.2334177915
 20
-2.8028950337
 30
0.0
 10
178.1570038615
 20
-2.7903136896
 30
0.0
 10
178.0041737339
 20
-2.7651848644
 30
0.0
 10
177.7749421484
 20
-2.7272884489
 30
0.0
 10
177.5838761434
 20
-2.6963007045
 30
0.0
 10
177.450207323
 20
-2.6734537096
 30
0.0
 10
177.3737043884
 20
-2.6622014871
 30
0.0
 10
177.3166673327
 20
-2.6486828747
 30
0.0
 10
177.2583300713
 20
-2.6545804429
 30
0.0
 10
177.1810003445
 20
-2.6556693856
 30
0.0
 10
177.0454645136
 20
-2.6607504592
 30
0.0
 10
176.8519318582
 20
-2.6661955223
 30
0.0
 10
176.6584370938
 20
-2.6728466129
 30
0.0
 10
176.5228482154
 20
-2.676239248
 30
0.0
 10
176.445601849
 20
-2.6799814513
 30
0.0
 10
176.3870088229
 20
-2.6777383334
 30
0.0
 10
176.3309323058
 20
-2.6947925195
 30
0.0
 10
176.2552853745
 20
-2.7107984152
 30
0.0
 10
176.1233170037
 20
-2.7419648687
 30
0.0
 10
175.9345376605
 20
-2.7846846015
 30
0.0
 10
175.7459826015
 20
-2.8286077355
 30
0.0
 10
175.6137002329
 20
-2.8580894272
 30
0.0
 10
175.5385467266
 20
-2.8767428058
 30
0.0
 10
175.4809562916
 20
-2.8856740329
 30
0.0
 10
175.4280488686
 20
-2.9139371386
 30
0.0
 10
175.3558710385
 20
-2.9448764929
 30
0.0
 10
175.2303325885
 20
-3.0021790477
 30
0.0
 10
175.0504980985
 20
-3.082258349
 30
0.0
 10
174.871167087
 20
-3.1634470729
 30
0.0
 10
174.7449237671
 20
-3.219196436
 30
0.0
 10
174.6738535896
 20
-3.25257652
 30
0.0
 10
174.617547687
 20
-3.2733510231
 30
0.0
 10
174.5727204308
 20
-3.3104061135
 30
0.0
 10
174.5089456105
 20
-3.3541326037
 30
0.0
 10
174.3992184396
 20
-3.4333150247
 30
0.0
 10
174.2413809358
 20
-3.5449247698
 30
0.0
 10
174.084302443
 20
-3.6574978198
 30
0.0
 10
173.9735126567
 20
-3.7353316139
 30
0.0
 10
173.9114076606
 20
-3.7811773749
 30
0.0
 10
173.86145708
 20
-3.8117301572
 30
0.0
 10
173.824392107
 20
-3.8569244397
 30
0.0
 10
173.7704759795
 20
-3.9120751876
 30
0.0
 10
173.678232847
 20
-4.010980848
 30
0.0
 10
173.5452310654
 20
-4.1509291719
 30
0.0
 10
173.4131135756
 20
-4.2917034949
 30
0.0
 10
173.3196324345
 20
-4.3894527566
 30
0.0
 10
173.2676617491
 20
-4.4464207024
 30
0.0
 10
173.2246278061
 20
-4.4860394913
 30
0.0
 10
173.1970940241
 20
-4.5375313498
 30
0.0
 10
173.1549740096
 20
-4.6020446762
 30
0.0
 10
173.0838006243
 20
-4.7168833457
 30
0.0
 10
172.9806628755
 20
-4.879841349
 30
0.0
 10
172.8785393676
 20
-5.043492406
 30
0.0
 10
172.8059460449
 20
-5.1573608003
 30
0.0
 10
172.7660573605
 20
-5.2233988448
 30
0.0
 10
172.7316774524
 20
-5.2702125908
 30
0.0
 10
172.7143545162
 20
-5.3274002909
 30
0.0
 10
172.685305673
 20
-5.4000316498
 30
0.0
 10
172.6372625428
 20
-5.5288262216
 30
0.0
 10
172.5670135919
 20
-5.7119062825
 30
0.0
 10
172.4979095191
 20
-5.8954166172
 30
0.0
 10
172.4482635594
 20
-6.0236088056
 30
0.0
 10
172.4217334482
 20
-6.0971867669
 30
0.0
 10
172.3966825843
 20
-6.1514701186
 30
0.0
 10
172.3913253382
 20
-6.2091913064
 30
0.0
 10
172.3773110661
 20
-6.2849536019
 30
0.0
 10
172.3560068375
 20
-6.4180977197
 30
0.0
 10
172.3237331084
 20
-6.6080000695
 30
0.0
 10
172.2926810894
 20
-6.7980496919
 30
0.0
 10
172.2696664665
 20
-6.9309876281
 30
0.0
 10
172.2583399569
 20
-7.0070739232
 30
0.0
 10
172.244736167
 20
-7.063801021
 30
0.0
 10
172.2506556561
 20
-7.1218177333
 30
0.0
 10
172.2517364592
 20
-7.1987237545
 30
0.0
 10
172.2568208041
 20
-7.3335163896
 30
0.0
 10
172.2622605345
 20
-7.5259881541
 30
0.0
 10
172.2689129535
 20
-7.7184220173
 30
0.0
 10
172.2722995343
 20
-7.8532677143
 30
0.0
 10
172.2760482525
 20
-7.9300903526
 30
0.0
 10
172.2737820928
 20
-7.988362899
 30
0.0
 10
172.2909199619
 20
-8.0441291976
 30
0.0
 10
172.3070001976
 20
-8.1193589229
 30
0.0
 10
172.3383142015
 20
-8.2505988733
 30
0.0
 10
172.3812347416
 20
-8.438336559
 30
0.0
 10
172.4253653507
 20
-8.6258509692
 30
0.0
 10
172.4549852579
 20
-8.7574035052
 30
0.0
 10
172.4737276456
 20
-8.8321420247
 30
0.0
 10
172.4826975483
 20
-8.8894154321
 30
0.0
 10
172.51110664
 20
-8.9420279474
 30
0.0
 10
172.5422032022
 20
-9.013804846
 30
0.0
 10
172.5997984059
 20
-9.1386453214
 30
0.0
 10
172.6802858766
 20
-9.3174803252
 30
0.0
 10
172.7618889712
 20
-9.4958144055
 30
0.0
 10
172.8179223016
 20
-9.6213561738
 30
0.0
 10
172.8514732361
 20
-9.6920310406
 30
0.0
 10
172.8723518672
 20
-9.7480247897
 30
0.0
 10
172.9096028332
 20
-9.7925997859
 30
0.0
 10
172.95355848
 20
-9.8560173615
 30
0.0
 10
173.0331569217
 20
-9.9651291577
 30
0.0
 10
173.1453524801
 20
-10.1220818911
 30
0.0
 10
173.2585167866
 20
-10.2782795946
 30
0.0
 10
173.336758981
 20
-10.3884484328
 30
0.0
 10
173.3828458736
 20
-10.4502049424
 30
0.0
 10
173.41355779
 20
-10.4998763911
 30
0.0
 10
173.4589941849
 20
-10.5367301299
 30
0.0
 10
173.5144387987
 20
-10.5903409203
 30
0.0
 10
173.6138722808
 20
-10.6820608325
 30
0.0
 10
173.7545670028
 20
-10.8143086884
 30
0.0
 10
173.8960924338
 20
-10.9456769447
 30
0.0
 10
173.9943629233
 20
-11.0386282964
 30
0.0
 10
174.0516350969
 20
-11.0903039675
 30
0.0
 10
174.0914642062
 20
-11.1330950041
 30
0.0
 10
174.1432345951
 20
-11.1604686013
 30
0.0
 10
174.2080954969
 20
-11.2023461728
 30
0.0
 10
174.3235535713
 20
-11.2731088215
 30
0.0
 10
174.4873901302
 20
-11.3756519964
 30
0.0
 10
174.6519237432
 20
-11.4771863717
 30
0.0
 10
174.7664059417
 20
-11.5493613398
 30
0.0
 10
174.8328003628
 20
-11.5890195522
 30
0.0
 10
174.8798656358
 20
-11.6232025466
 30
0.0
 10
174.9373650691
 20
-11.6404205139
 30
0.0
 10
175.0103914213
 20
-11.6692954063
 30
0.0
 10
175.1398833445
 20
-11.717069235
 30
0.0
 10
175.3239846639
 20
-11.7867599773
 30
0.0
 10
175.5452884007
 20
-11.8697675198
 30
0.0
 10
175.6927514341
 20
-11.9252242335
 30
0.0
 10
175.7664920497
 20
-11.9529377964
 30
0.0
  0
SPLINE
  5
294
100
AcDbEntity
  8
_21_KURVEN
100
AcDbSpline
 62
7
  6
CONTINUOUS
 70
0
 71
3
 72
9
 73
5
 74
0
 42
0.0000001
 43
0.0000001
 44
0.0000000001
 40
0.0
 40
0.0
 40
0.0
 40
0.0
 40
0.5
 40
1.0
 40
1.0
 40
1.0
 40
1.0
 10
171.3736976786
 20
-9.9585568995
 30
0.0
 10
171.3663134278
 20
-9.9882100004
 30
0.0
 10
171.3526716099
 20
-10.047909103
 30
0.0
 10
171.3483595445
 20
-10.1089783954
 30
0.0
 10
171.3467149217
 20
-10.1423219949
 30
0.0
  0
SPLINE
  5
295
100
AcDbEntity
  8
_21_KURVEN
100
AcDbSpline
 62
7
  6
CONTINUOUS
 70
0
 71
3
 72
9
 73
5
 74
0
 42
0.0000001
 43
0.0000001
 44
0.0000000001
 40
0.0
 40
0.0
 40
0.0
 40
0.0
 40
0.5
 40
1.0
 40
1.0
 40
1.0
 40
1.0
 10
171.3467149218
 20
-10.1423219905
 30
0.0
 10
171.3466415202
 20
-10.1450982719
 30
0.0
 10
171.3463673924
 20
-10.1562046141
 30
0.0
 10
171.34640517
 20
-10.1673141818
 30
0.0
 10
171.3464572267
 20
-10.1740897977
 30
0.0
  0
SPLINE
  5
296
100
AcDbEntity
  8
_21_KURVEN
100
AcDbSpline
 62
7
  6
CONTINUOUS
 70
0
 71
3
 72
9
 73
5
 74
0
 42
0.0000001
 43
0.0000001
 44
0.0000000001
 40
0.0
 40
0.0
 40
0.0
 40
0.0
 40
0.5
 40
1.0
 40
1.0
 40
1.0
 40
1.0
 10
171.3464572267
 20
-10.1740897987
 30
0.0
 10
171.3472767355
 20
-10.2018485684
 30
0.0
 10
171.3501637874
 20
-10.2629995752
 30
0.0
 10
171.3624100698
 20
-10.3229925236
 30
0.0
 10
171.3692041112
 20
-10.3532261799
 30
0.0
  0
SPLINE
  5
297
100
AcDbEntity
  8
_21_KURVEN
100
AcDbSpline
 62
7
  6
CONTINUOUS
 70
0
 71
3
 72
8
 73
4
 74
0
 42
0.0000001
 43
0.0000001
 44
0.0000000001
 40
0.0
 40
0.0
 40
0.0
 40
0.0
 40
1.0
 40
1.0
 40
1.0
 40
1.0
 10
171.3692041118
 20
-10.3532261822
 30
0.0
 10
171.3718899262
 20
-10.3640086775
 30
0.0
 10
171.3770282611
 20
-10.3829607088
 30
0.0
 10
171.3817640102
 20
-10.3985533878
 30
0.0
  0
SPLINE
  5
298
100
AcDbEntity
  8
_21_KURVEN
100
AcDbSpline
 62
7
  6
CONTINUOUS
 70
0
 71
3
 72
8
 73
4
 74
0
 42
0.0000001
 43
0.0000001
 44
0.0000000001
 40
0.0
 40
0.0
 40
0.0
 40
0.0
 40
1.0
 40
1.0
 40
1.0
 40
1.0
 10
171.3817640106
 20
-10.3985533892
 30
0.0
 10
171.3972958064
 20
-10.4460921872
 30
0.0
 10
171.4175897654
 20
-10.495034776
 30
0.0
 10
171.4433097625
 20
-10.5441735325
 30
0.0
  0
SPLINE
  5
299
100
AcDbEntity
  8
_21_KURVEN
100
AcDbSpline
 62
7
  6
CONTINUOUS
 70
0
 71
3
 72
8
 73
4
 74
0
 42
0.0000001
 43
0.0000001
 44
0.0000000001
 40
0.0
 40
0.0
 40
0.0
 40
0.0
 40
1.0
 40
1.0
 40
1.0
 40
1.0
 10
171.44330976
 20
-10.5441735279
 30
0.0
 10
171.4486729392
 20
-10.5539171953
 30
0.0
 10
171.4556208571
 20
-10.5660756652
 30
0.0
 10
171.4641965014
 20
-10.5801616634
 30
0.0
  0
SPLINE
  5
29A
100
AcDbEntity
  8
_21_KURVEN
100
AcDbSpline
 62
7
  6
CONTINUOUS
 70
0
 71
3
 72
8
 73
4
 74
0
 42
0.0000001
 43
0.0000001
 44
0.0000000001
 40
0.0
 40
0.0
 40
0.0
 40
0.0
 40
1.0
 40
1.0
 40
1.0
 40
1.0
 10
171.4641965011
 20
-10.580161663
 30
0.0
 10
171.4911196244
 20
-10.6223689806
 30
0.0
 10
171.5230118286
 20
-10.6647648444
 30
0.0
 10
171.5601931807
 20
-10.7059927107
 30
0.0
  0
SPLINE
  5
29B
100
AcDbEntity
  8
_21_KURVEN
100
AcDbSpline
 62
7
  6
CONTINUOUS
 70
0
 71
3
 72
8
 73
4
 74
0
 42
0.0000001
 43
0.0000001
 44
0.0000000001
 40
0.0
 40
0.0
 40
0.0
 40
0.0
 40
1.0
 40
1.0
 40
1.0
 40
1.0
 10
171.5601931776
 20
-10.7059927074
 30
0.0
 10
171.5716589285
 20
-10.7181412677
 30
0.0
 10
171.5833082623
 20
-10.7298623685
 30
0.0
 10
171.5956671742
 20
-10.7416517374
 30
0.0
  0
SPLINE
  5
29C
100
AcDbEntity
  8
_21_KURVEN
100
AcDbSpline
 62
7
  6
CONTINUOUS
 70
0
 71
3
 72
9
 73
5
 74
0
 42
0.0000001
 43
0.0000001
 44
0.0000000001
 40
0.0
 40
0.0
 40
0.0
 40
0.0
 40
0.5
 40
1.0
 40
1.0
 40
1.0
 40
1.0
 10
171.5956671755
 20
-10.7416517387
 30
0.0
 10
171.616253161
 20
-10.7604114809
 30
0.0
 10
171.6569849094
 20
-10.7965042423
 30
0.0
 10
171.707124895
 20
-10.8295033711
 30
0.0
 10
171.7330378528
 20
-10.8457326528
 30
0.0
  0
SPLINE
  5
29D
100
AcDbEntity
  8
_21_KURVEN
100
AcDbSpline
 62
7
  6
CONTINUOUS
 70
0
 71
3
 72
9
 73
5
 74
0
 42
0.0000001
 43
0.0000001
 44
0.0000000001
 40
0.0
 40
0.0
 40
0.0
 40
0.0
 40
0.5
 40
1.0
 40
1.0
 40
1.0
 40
1.0
 10
171.7330378571
 20
-10.8457326553
 30
0.0
 10
171.7645338955
 20
-10.8636743344
 30
0.0
 10
171.8309910095
 20
-10.8995470276
 30
0.0
 10
171.9030225582
 20
-10.9224283253
 30
0.0
 10
171.9392034854
 20
-10.9329853867
 30
0.0
  0
LINE
  5
29E
100
AcDbEntity
  8
_26_BEZUGSACHSEN
100
AcDbLine
 62
4
  6
CONTINUOUS
 10
182.2685768329
 20
-3.9031215864
 11
182.2738023884
 21
-3.8821907378
  0
SPLINE
  5
29F
100
AcDbEntity
  8
0
100
AcDbSpline
 62
4
  6
CONTINUOUS
 70
0
 71
3
 72
11
 73
7
 74
0
 42
0.0000001
 43
0.0000001
 44
0.0000000001
 40
0.0
 40
0.0
 40
0.0
 40
0.0
 40
0.2499399475
 40
0.49991505
 40
0.7499427364
 40
1.0
 40
1.0
 40
1.0
 40
1.0
 10
0.0
 20
0.0
 30
0.0
 10
0.0
 20
-0.4606528386
 30
0.0
 10
0.0762723683
 20
-1.3835916437
 30
0.0
 10
0.398583563
 20
-2.7319661432
 30
0.0
 10
0.8833710932
 20
-4.0293858919
 30
0.0
 10
1.2852028122
 20
-4.86007394
 30
0.0
 10
1.5
 20
-5.2678268764
 30
0.0
  0
LINE
  5
2A0
100
AcDbEntity
  8
_26_BEZUGSACHSEN
100
AcDbLine
 62
4
  6
CONTINUOUS
 10
169.12
 20
-9.7433041373
 11
171.2738842399
 21
-10.3287735854
  0
SPLINE
  5
2A1
100
AcDbEntity
  8
0
100
AcDbSpline
 62
4
  6
CONTINUOUS
 70
0
 71
3
 72
11
 73
7
 74
0
 42
0.0000001
 43
0.0000001
 44
0.0000000001
 40
0.0
 40
0.0
 40
0.0
 40
0.0
 40
0.2500572177
 40
0.5000849413
 40
0.7500600967
 40
1.0
 40
1.0
 40
1.0
 40
1.0
 10
1.5
 20
5.2678268764
 30
0.0
 10
1.2852028519
 20
4.8600740152
 30
0.0
 10
0.8833711185
 20
4.0293859934
 30
0.0
 10
0.3985835753
 20
2.7319661608
 30
0.0
 10
0.0762724048
 20
1.3835915721
 30
0.0
 10
-0.0
 20
0.4606527567
 30
0.0
 10
0.0
 20
0.0
 30
0.0
  0
LINE
  5
2A2
100
AcDbEntity
  8
_30_VOLUMEN
100
AcDbLine
 62
4
  6
CONTINUOUS
 10
166.7188132898
 20
-9.7431475291
 11
169.12
 21
-9.7433041373
  0
LINE
  5
2A3
100
AcDbEntity
  8
_30_VOLUMEN
100
AcDbLine
 62
4
  6
CONTINUOUS
 10
156.5913028789
 20
4.7762432936
 11
154.0456151029
 21
-4.7762432936
  0
LINE
  5
2A4
100
AcDbEntity
  8
_30_VOLUMEN
100
AcDbLine
 62
4
  6
CONTINUOUS
 10
173.9009381853
 20
9.4573167497
 11
170.46253019
 21
9.4558538118
  0
SPLINE
  5
2A5
100
AcDbEntity
  8
_30_VOLUMEN
100
AcDbSpline
 62
4
  6
CONTINUOUS
 70
0
 71
3
 72
15
 73
11
 74
0
 42
0.0000001
 43
0.0000001
 44
0.0000000001
 40
0.0
 40
0.0
 40
0.0
 40
0.0
 40
0.120557998
 40
0.2369797372
 40
0.3535065695
 40
0.4736471574
 40
0.5989970215
 40
0.7294162641
 40
0.8636777933
 40
1.0
 40
1.0
 40
1.0
 40
1.0
 10
156.5913028789
 20
4.7762432936
 30
0.0
 10
156.9333949573
 20
5.2869247046
 30
0.0
 10
157.6957998801
 20
6.2359144983
 30
0.0
 10
159.1032258884
 20
7.3831194075
 30
0.0
 10
160.7130352414
 20
8.2136258571
 30
0.0
 10
162.4789477229
 20
8.7722232177
 30
0.0
 10
164.3660455697
 20
9.1244780896
 30
0.0
 10
166.3453604498
 20
9.3298849349
 30
0.0
 10
168.3878051406
 20
9.4342540871
 30
0.0
 10
169.7674969713
 20
9.455550996
 30
0.0
 10
170.4625444072
 20
9.4558491521
 30
0.0
  0
SPLINE
  5
2A6
100
AcDbEntity
  8
_30_VOLUMEN
100
AcDbSpline
 62
4
  6
CONTINUOUS
 70
0
 71
3
 72
20
 73
16
 74
0
 42
0.0000001
 43
0.0000001
 44
0.0000000001
 40
0.0
 40
0.0
 40
0.0
 40
0.0
 40
0.1454556805
 40
0.2881312866
 40
0.4250499339
 40
0.4903411438
 40
0.552960292
 40
0.6125724193
 40
0.6690728231
 40
0.7228060356
 40
0.774817791
 40
0.8268537067
 40
0.8808812085
 40
0.9383977895
 40
1.0
 40
1.0
 40
1.0
 40
1.0
 10
166.7188139977
 20
-9.7431472205
 30
0.0
 10
165.9783705783
 20
-9.7430984949
 30
0.0
 10
164.5116007839
 20
-9.7401213845
 30
0.0
 10
162.3480975578
 20
-9.7126759541
 30
0.0
 10
160.5931648233
 20
-9.6357509532
 30
0.0
 10
159.2514220374
 20
-9.5000669094
 30
0.0
 10
158.3078465654
 20
-9.3510465314
 30
0.0
 10
157.4218990276
 20
-9.1383123354
 30
0.0
 10
156.6063142595
 20
-8.8442949953
 30
0.0
 10
155.8762951913
 20
-8.4495757995
 30
0.0
 10
155.2505996412
 20
-7.936821052
 30
0.0
 10
154.7491818947
 20
-7.2991540173
 30
0.0
 10
154.3826308441
 20
-6.5452304978
 30
0.0
 10
154.1463565657
 20
-5.6921901854
 30
0.0
 10
154.0690494607
 20
-5.0889530363
 30
0.0
 10
154.0456151029
 20
-4.7762432936
 30
0.0
  0
ELLIPSE
  5
2A7
100
AcDbEntity
  8
_30_VOLUMEN
100
AcDbEllipse
 62
4
  6
CONTINUOUS
 10
179.7967288501
 20
-12.1970646826
 30
0.0
 11
-0.5270384465
 21
0.6136674234
 31
0.0
 40
0.9872552194
 41
-4.1056402
 42
-2.5496965561
  0
ELLIPSE
  5
2A8
100
AcDbEntity
  8
_30_VOLUMEN
100
AcDbEllipse
 62
4
  6
CONTINUOUS
 10
172.1537582483
 20
-10.1602529419
 30
0.0
 11
0.7486798833
 21
0.3121964512
 31
0.0
 40
0.9818072716
 41
8.775224499
 42
10.3311681429
  0
ELLIPSE
  5
2A9
100
AcDbEntity
  8
_30_VOLUMEN
100
AcDbEllipse
 62
4
  6
CONTINUOUS
 10
174.203180589
 20
-2.5587680403
 30
0.0
 11
-0.5270384465
 21
0.6136674234
 31
0.0
 40
0.9872552194
 41
-0.9640475464
 42
0.5918960975
  0
ELLIPSE
  5
2AA
100
AcDbEntity
  8
_30_VOLUMEN
100
AcDbEllipse
 62
4
  6
CONTINUOUS
 10
181.8461511908
 20
-4.595579781
 30
0.0
 11
0.7486798833
 21
0.3121964512
 31
0.0
 40
0.9818072716
 41
5.6336318454
 42
7.1895754893
  0
ENDSEC
  0
SECTION
  2
OBJECTS
  0
DICTIONARY
  5
C
100
AcDbDictionary
280
0
281
1
  3
ACAD_GROUP
350
D
  3
ACAD_MLINESTYLE
350
17
  3
ACAD_LAYOUT
350
1A
  3
ACAD_PLOTSETTINGS
350
19
  3
ACAD_PLOTSTYLENAME
350
E
  0
DICTIONARY
  5
D
102
{ACAD_REACTORS
330
C
102
}
100
AcDbDictionary
280
0
281
1
  0
ACDBDICTIONARYWDFLT
  5
E
102
{ACAD_REACTORS
330
C
102
}
100
AcDbDictionary
281
1
  3
Normal
350
F
100
AcDbDictionaryWithDefault
340
F
  0
DICTIONARY
  5
17
102
{ACAD_REACTORS
330
C
102
}
100
AcDbDictionary
280
0
281
1
  3
Standard
350
18
  0
DICTIONARY
  5
19
102
{ACAD_REACTORS
330
C
102
}
100
AcDbDictionary
281
1
  0
DICTIONARY
  5
1A
102
{ACAD_REACTORS
330
C
102
}
100
AcDbDictionary
281
1
  3
Model
350
2AB
  3
Layout1
350
2AC
  0
ACDBPLACEHOLDER
  5
F
102
{ACAD_REACTORS
330
E
102
}
  0
MLINESTYLE
  5
18
102
{ACAD_REACTORS
330
17
102
}
100
AcDbMlineStyle
  2
STANDARD
 70
0
  3

 62
256
 51
90.0
 52
90.0
 71
2
 49
0.5
 62
256
  6
BYLAYER
 49
-0.5
 62
256
  6
BYLAYER
  0
LAYOUT
  5
2AB
102
{ACAD_REACTORS
330
1A
102
}
100
AcDbPlotSettings
  1

  2
none_device
  4
ISO_A3_(420.00_x_297.00_MM)
  6

 40
0.0
 41
0.0
 42
0.0
 43
0.0
 44
420.0
 45
297.0
 46
0.0
 47
0.0
 48
0.0
 49
0.0
140
0.0
141
0.0
142
1.0
143
1.0
 70
1024
 72
1
 73
0
 74
0
  7

 75
0
147
1.0
148
0.0
149
0.0
100
AcDbLayout
  1
Model
 70
0
 71
0
 10
0.0
 20
0.0
 11
420.0
 21
297.0
 12
0.0
 22
0.0
 32
0.0
 14
0.0
 24
0.0
 34
0.0
 15
0.0
 25
0.0
 35
0.0
146
0.0
 13
0.0
 23
0.0
 33
0.0
 16
1.0
 26
0.0
 36
0.0
 17
0.0
 27
1.0
 37
0.0
 76
0
330
20F
345
0
346
0
  0
LAYOUT
  5
2AC
102
{ACAD_REACTORS
330
1A
102
}
100
AcDbPlotSettings
  1

  2
none_device
  4
ISO_A3_(420.00_x_297.00_MM)
  6

 40
0.0
 41
0.0
 42
0.0
 43
0.0
 44
420.0
 45
297.0
 46
0.0
 47
0.0
 48
0.0
 49
0.0
140
0.0
141
0.0
142
1.0
143
1.0
 70
0
 72
1
 73
0
 74
0
  7

 75
0
147
1.0
148
0.0
149
0.0
100
AcDbLayout
  1
Layout1
 70
0
 71
1
 10
0.0
 20
0.0
 11
420.0
 21
297.0
 12
0.0
 22
0.0
 32
0.0
 14
0.0
 24
0.0
 34
0.0
 15
0.0
 25
0.0
 35
0.0
146
0.0
 13
0.0
 23
0.0
 33
0.0
 16
1.0
 26
0.0
 36
0.0
 17
0.0
 27
1.0
 37
0.0
 76
0
330
210
345
0
346
0
  0
ENDSEC
  0
EOF
