  0
SECTION
  2
HEADER
  9
$ACADVER
  1
AC1015
  9
$ACADMAINTVER
 70
     6
  9
$DWGCODEPAGE
  3
ANSI_1252
  9
$INSBASE
 10
0.0
 20
0.0
 30
0.0
  9
$EXTMIN
 10
0.0
 20
0.0
 30
0.0
  9
$EXTMAX
 10
297.0
 20
210.0
 30
0.0
  9
$LIMMIN
 10
0.0
 20
0.0
  9
$LIMMAX
 10
297.0
 20
210.0
  9
$ORTHOMODE
 70
     0
  9
$REGENMODE
 70
     1
  9
$FILLMODE
 70
     1
  9
$QTEXTMODE
 70
     0
  9
$MIRRTEXT
 70
     1
  9
$LTSCALE
 40
1.0
  9
$ATTMODE
 70
     1
  9
$TEXTSIZE
 40
3.5
  9
$TRACEWID
 40
1.0
  9
$TEXTSTYLE
  7
Standard
  9
$CLAYER
  8
0
  9
$CELTYPE
  6
ByLayer
  9
$CECOLOR
 62
   256
  9
$CELTSCALE
 40
1.0
  9
$DISPSILH
 70
     0
  9
$DIMSCALE
 40
1.0
  9
$DIMASZ
 40
3.302
  9
$DIMEXO
 40
1.0
  9
$DIMDLI
 40
3.75
  9
$DIMRND
 40
0.0
  9
$DIMDLE
 40
0.0
  9
$DIMEXE
 40
1.0
  9
$DIMTP
 40
0.0
  9
$DIMTM
 40
0.0
  9
$DIMTXT
 40
3.5
  9
$DIMCEN
 40
2.5
  9
$DIMTSZ
 40
0.0
  9
$DIMTOL
 70
     0
  9
$DIMLIM
 70
     0
  9
$DIMTIH
 70
     1
  9
$DIMTOH
 70
     1
  9
$DIMSE1
 70
     0
  9
$DIMSE2
 70
     0
  9
$DIMTAD
 70
     1
  9
$DIMZIN
 70
     0
  9
$DIMBLK
  1

  9
$DIMASO
 70
     1
  9
$DIMSHO
 70
     1
  9
$DIMPOST
  1

  9
$DIMAPOST
  1

  9
$DIMALT
 70
     0
  9
$DIMALTD
 70
     3
  9
$DIMALTF
 40
0.0393700787
  9
$DIMLFAC
 40
1.0
  9
$DIMTOFL
 70
     1
  9
$DIMTVP
 40
0.0
  9
$DIMTIX
 70
     0
  9
$DIMSOXD
 70
     0
  9
$DIMSAH
 70
     0
  9
$DIMBLK1
  1

  9
$DIMBLK2
  1

  9
$DIMSTYLE
  2
ISO-25
  9
$DIMCLRD
 70
     0
  9
$DIMCLRE
 70
     0
  9
$DIMCLRT
 70
     0
  9
$DIMTFAC
 40
1.0
  9
$DIMGAP
 40
1.524
  9
$DIMJUST
 70
     0
  9
$DIMSD1
 70
     0
  9
$DIMSD2
 70
     0
  9
$DIMTOLJ
 70
     0
  9
$DIMTZIN
 70
     0
  9
$DIMALTZ
 70
     0
  9
$DIMALTTZ
 70
     0
  9
$DIMUPT
 70
     0
  9
$DIMDEC
 70
     2
  9
$DIMTDEC
 70
     2
  9
$DIMALTU
 70
     2
  9
$DIMALTTD
 70
     3
  9
$DIMTXSTY
  7
Standard
  9
$DIMAUNIT
 70
     0
  9
$DIMADEC
 70
     2
  9
$DIMALTRND
 40
0.0
  9
$DIMAZIN
 70
     0
  9
$DIMDSEP
 70
    44
  9
$DIMATFIT
 70
     3
  9
$DIMFRAC
 70
     0
  9
$DIMLDRBLK
  1

  9
$DIMLUNIT
 70
     2
  9
$DIMLWD
 70
    -2
  9
$DIMLWE
 70
    -2
  9
$DIMTMOVE
 70
     0
  9
$LUNITS
 70
     2
  9
$LUPREC
 70
     2
  9
$SKETCHINC
 40
1.0
  9
$FILLETRAD
 40
10.0
  9
$AUNITS
 70
     0
  9
$AUPREC
 70
     2
  9
$MENU
  1
.
  9
$ELEVATION
 40
0.0
  9
$PELEVATION
 40
0.0
  9
$THICKNESS
 40
0.0
  9
$LIMCHECK
 70
     0
  9
$CHAMFERA
 40
0.0
  9
$CHAMFERB
 40
0.0
  9
$CHAMFERC
 40
0.0
  9
$CHAMFERD
 40
0.0
  9
$SKPOLY
 70
     0
  9
$TDCREATE
 40
2456798.600117709
  9
$TDUCREATE
 40
2456798.558451042
  9
$TDUPDATE
 40
2457031.607186759
  9
$TDUUPDATE
 40
2457031.565520092
  9
$TDINDWG
 40
0.0001947801
  9
$TDUSRTIMER
 40
2457031.565325533
  9
$USRTIMER
 70
     1
  9
$ANGBASE
 50
0.0
  9
$ANGDIR
 70
     0
  9
$PDMODE
 70
     0
  9
$PDSIZE
 40
-1.0
  9
$PLINEWID
 40
0.0
  9
$SPLFRAME
 70
     0
  9
$SPLINETYPE
 70
     6
  9
$SPLINESEGS
 70
     8
  9
$HANDSEED
  5
136
  9
$SURFTAB1
 70
     6
  9
$SURFTAB2
 70
     6
  9
$SURFTYPE
 70
     6
  9
$SURFU
 70
     6
  9
$SURFV
 70
     6
  9
$UCSBASE
  2

  9
$UCSNAME
  2

  9
$UCSORG
 10
0.0
 20
0.0
 30
0.0
  9
$UCSXDIR
 10
1.0
 20
0.0
 30
0.0
  9
$UCSYDIR
 10
0.0
 20
1.0
 30
0.0
  9
$UCSORTHOREF
  2

  9
$UCSORTHOVIEW
 70
     0
  9
$UCSORGTOP
 10
0.0
 20
0.0
 30
0.0
  9
$UCSORGBOTTOM
 10
0.0
 20
0.0
 30
0.0
  9
$UCSORGLEFT
 10
0.0
 20
0.0
 30
0.0
  9
$UCSORGRIGHT
 10
0.0
 20
0.0
 30
0.0
  9
$UCSORGFRONT
 10
0.0
 20
0.0
 30
0.0
  9
$UCSORGBACK
 10
0.0
 20
0.0
 30
0.0
  9
$PUCSBASE
  2

  9
$PUCSNAME
  2

  9
$PUCSORG
 10
0.0
 20
0.0
 30
0.0
  9
$PUCSXDIR
 10
1.0
 20
0.0
 30
0.0
  9
$PUCSYDIR
 10
0.0
 20
1.0
 30
0.0
  9
$PUCSORTHOREF
  2

  9
$PUCSORTHOVIEW
 70
     0
  9
$PUCSORGTOP
 10
0.0
 20
0.0
 30
0.0
  9
$PUCSORGBOTTOM
 10
0.0
 20
0.0
 30
0.0
  9
$PUCSORGLEFT
 10
0.0
 20
0.0
 30
0.0
  9
$PUCSORGRIGHT
 10
0.0
 20
0.0
 30
0.0
  9
$PUCSORGFRONT
 10
0.0
 20
0.0
 30
0.0
  9
$PUCSORGBACK
 10
0.0
 20
0.0
 30
0.0
  9
$USERI1
 70
     0
  9
$USERI2
 70
     0
  9
$USERI3
 70
     0
  9
$USERI4
 70
     0
  9
$USERI5
 70
     0
  9
$USERR1
 40
0.0
  9
$USERR2
 40
0.0
  9
$USERR3
 40
0.0
  9
$USERR4
 40
0.0
  9
$USERR5
 40
0.0
  9
$WORLDVIEW
 70
     1
  9
$SHADEDGE
 70
     3
  9
$SHADEDIF
 70
    70
  9
$TILEMODE
 70
     1
  9
$MAXACTVP
 70
    64
  9
$PINSBASE
 10
0.0
 20
0.0
 30
0.0
  9
$PLIMCHECK
 70
     0
  9
$PEXTMIN
 10
1.000000000000000E+20
 20
1.000000000000000E+20
 30
1.000000000000000E+20
  9
$PEXTMAX
 10
-1.000000000000000E+20
 20
-1.000000000000000E+20
 30
-1.000000000000000E+20
  9
$PLIMMIN
 10
0.0
 20
0.0
  9
$PLIMMAX
 10
0.0
 20
0.0
  9
$UNITMODE
 70
     0
  9
$VISRETAIN
 70
     1
  9
$PLINEGEN
 70
     0
  9
$PSLTSCALE
 70
     1
  9
$TREEDEPTH
 70
  3020
  9
$CMLSTYLE
  2
Standard
  9
$CMLJUST
 70
     0
  9
$CMLSCALE
 40
20.0
  9
$PROXYGRAPHICS
 70
     1
  9
$MEASUREMENT
 70
     1
  9
$CELWEIGHT
370
    -1
  9
$ENDCAPS
280
     0
  9
$JOINSTYLE
280
     0
  9
$LWDISPLAY
290
     1
  9
$INSUNITS
 70
     4
  9
$HYPERLINKBASE
  1

  9
$STYLESHEET
  1

  9
$XEDIT
290
     1
  9
$CEPSNTYPE
380
     0
  9
$PSTYLEMODE
290
     1
  9
$FINGERPRINTGUID
  2
{6C14C087-CCD4-4713-9BF4-38D454D27B45}
  9
$VERSIONGUID
  2
{FAEB1C32-E019-11D5-929B-00C0DF256EC4}
  9
$EXTNAMES
290
     1
  9
$PSVPSCALE
 40
0.0
  9
$OLESTARTUP
290
     0
  0
ENDSEC
  0
SECTION
  2
CLASSES
  0
CLASS
  1
ACDBDICTIONARYWDFLT
  2
AcDbDictionaryWithDefault
  3
ObjectDBX Classes
 90
        0
280
     0
281
     0
  0
CLASS
  1
VISUALSTYLE
  2
AcDbVisualStyle
  3
ObjectDBX Classes
 90
     4095
280
     0
281
     0
  0
CLASS
  1
MATERIAL
  2
AcDbMaterial
  3
ObjectDBX Classes
 90
     1153
280
     0
281
     0
  0
CLASS
  1
SCALE
  2
AcDbScale
  3
ObjectDBX Classes
 90
     1153
280
     0
281
     0
  0
CLASS
  1
SUN
  2
AcDbSun
  3
SCENEOE
 90
     1153
280
     0
281
     0
  0
CLASS
  1
ACDBPLACEHOLDER
  2
AcDbPlaceHolder
  3
ObjectDBX Classes
 90
        0
280
     0
281
     0
  0
CLASS
  1
LAYOUT
  2
AcDbLayout
  3
ObjectDBX Classes
 90
        0
280
     0
281
     0
  0
CLASS
  1
TABLESTYLE
  2
AcDbTableStyle
  3
ObjectDBX Classes
 90
     4095
280
     0
281
     0
  0
CLASS
  1
RASTERVARIABLES
  2
AcDbRasterVariables
  3
ISM
 90
        0
280
     0
281
     0
  0
ENDSEC
  0
SECTION
  2
TABLES
  0
TABLE
  2
VPORT
  5
8
330
0
100
AcDbSymbolTable
 70
     1
  0
VPORT
  5
29
330
8
100
AcDbSymbolTableRecord
100
AcDbViewportTableRecord
  2
*Active
 70
     0
 10
0.0
 20
0.0
 11
1.0
 21
1.0
 12
123.5409836065574
 22
20.01024590163935
 13
0.0
 23
0.0
 14
10.0
 24
10.0
 15
10.0
 25
10.0
 16
0.0
 26
0.0
 36
1.0
 17
0.0
 27
0.0
 37
0.0
 40
210.0
 41
1.497950819672131
 42
50.0
 43
0.0
 44
0.0
 50
0.0
 51
0.0
 71
    16
 72
  2000
 73
     1
 74
     3
 75
     0
 76
     0
 77
     0
 78
     0
281
     0
 65
     1
110
0.0
120
0.0
130
0.0
111
1.0
121
0.0
131
0.0
112
0.0
122
1.0
132
0.0
 79
     0
146
0.0
  0
ENDTAB
  0
TABLE
  2
LTYPE
  5
5
330
0
100
AcDbSymbolTable
 70
     6
  0
LTYPE
  5
14
330
5
100
AcDbSymbolTableRecord
100
AcDbLinetypeTableRecord
  2
ByBlock
 70
     0
  3

 72
    65
 73
     0
 40
0.0
  0
LTYPE
  5
15
330
5
100
AcDbSymbolTableRecord
100
AcDbLinetypeTableRecord
  2
ByLayer
 70
     0
  3

 72
    65
 73
     0
 40
0.0
  0
LTYPE
  5
16
330
5
100
AcDbSymbolTableRecord
100
AcDbLinetypeTableRecord
  2
Continuous
 70
     0
  3
Solid line
 72
    65
 73
     0
 40
0.0
  0
LTYPE
  5
6A
330
5
100
AcDbSymbolTableRecord
100
AcDbLinetypeTableRecord
  2
HIDDEN
 70
     0
  3
Hidden __ __ __ __ __ __ __ __ __ __ __ __ __ __
 72
    65
 73
     2
 40
1.905
 49
1.27
 74
     0
 49
-0.635
 74
     0
  0
LTYPE
  5
6B
330
5
100
AcDbSymbolTableRecord
100
AcDbLinetypeTableRecord
  2
PHANTOM
 70
     0
  3
Phantom ______  __  __  ______  __  __  ______
 72
    65
 73
     6
 40
12.7
 49
6.35
 74
     0
 49
-1.27
 74
     0
 49
1.27
 74
     0
 49
-1.27
 74
     0
 49
1.27
 74
     0
 49
-1.27
 74
     0
  0
LTYPE
  5
6C
330
5
100
AcDbSymbolTableRecord
100
AcDbLinetypeTableRecord
  2
CENTER
 70
     0
  3
Center ____ _ ____ _ ____ _ ____ _ ____ _ ____
 72
    65
 73
     4
 40
10.16
 49
6.35
 74
     0
 49
-1.27
 74
     0
 49
1.27
 74
     0
 49
-1.27
 74
     0
  0
LTYPE
  5
6D
330
5
100
AcDbSymbolTableRecord
100
AcDbLinetypeTableRecord
  2
CENTERX2
 70
     0
  3
Center (2x) ________  __  ________  __  _____
 72
    65
 73
     4
 40
20.32
 49
12.7
 74
     0
 49
-2.54
 74
     0
 49
2.54
 74
     0
 49
-2.54
 74
     0
  0
LTYPE
  5
6E
330
5
100
AcDbSymbolTableRecord
100
AcDbLinetypeTableRecord
  2
DOT2
 70
     0
  3
Dot (.5x) ........................................
 72
    65
 73
     2
 40
0.635
 49
0.0
 74
     0
 49
-0.635
 74
     0
  0
ENDTAB
  0
TABLE
  2
LAYER
  5
2
330
0
100
AcDbSymbolTable
 70
     5
  0
LAYER
  5
10
330
2
100
AcDbSymbolTableRecord
100
AcDbLayerTableRecord
  2
0
 70
     0
 62
     7
  6
Continuous
370
    -3
390
F
  0
LAYER
  5
6F
330
2
100
AcDbSymbolTableRecord
100
AcDbLayerTableRecord
  2
1
 70
     0
 62
   131
  6
Continuous
370
    40
390
F
  0
LAYER
  5
70
330
2
100
AcDbSymbolTableRecord
100
AcDbLayerTableRecord
  2
2
 70
     0
 62
     7
  6
Continuous
370
    15
390
F
  0
LAYER
  5
71
330
2
100
AcDbSymbolTableRecord
100
AcDbLayerTableRecord
  2
4
 70
     0
 62
   -51
  6
CENTERX2
370
    15
390
F
  0
LAYER
  5
129
330
2
100
AcDbSymbolTableRecord
100
AcDbLayerTableRecord
  2
Defpoints
 70
     0
 62
     7
  6
Continuous
290
     0
370
    -3
390
F
  0
ENDTAB
  0
TABLE
  2
STYLE
  5
3
330
0
100
AcDbSymbolTable
 70
     2
  0
STYLE
  5
11
330
3
100
AcDbSymbolTableRecord
100
AcDbTextStyleTableRecord
  2
Standard
 70
     0
 40
0.0
 41
1.0
 50
0.0
 71
     0
 42
3.5
  3
txt
  4

  0
STYLE
  5
BA
330
3
100
AcDbSymbolTableRecord
100
AcDbTextStyleTableRecord
  2
SLDTEXTSTYLE0
 70
     0
 40
0.0
 41
0.75
 50
0.0
 71
     0
 42
3.5
  3
TXT
  4

  0
ENDTAB
  0
TABLE
  2
VIEW
  5
6
330
0
100
AcDbSymbolTable
 70
     0
  0
ENDTAB
  0
TABLE
  2
UCS
  5
7
330
0
100
AcDbSymbolTable
 70
     0
  0
ENDTAB
  0
TABLE
  2
APPID
  5
9
330
0
100
AcDbSymbolTable
 70
     1
  0
APPID
  5
12
330
9
100
AcDbSymbolTableRecord
100
AcDbRegAppTableRecord
  2
ACAD
 70
     0
  0
ENDTAB
  0
TABLE
  2
DIMSTYLE
  5
A
330
0
100
AcDbSymbolTable
 70
     3
100
AcDbDimStyleTable
  0
DIMSTYLE
105
27
330
A
100
AcDbSymbolTableRecord
100
AcDbDimStyleTableRecord
  2
ISO-25
 70
     0
 41
2.5
 42
0.625
 43
3.75
 44
1.25
 73
     0
 74
     0
 77
     1
 78
     8
140
2.5
141
2.5
143
0.0393700787
147
0.625
171
     3
172
     1
178
     0
271
     2
272
     2
274
     3
278
    44
283
     0
284
     8
340
11
  0
DIMSTYLE
105
BB
102
{ACAD_REACTORS
330
B9
330
C5
330
DB
330
E5
102
}
330
A
100
AcDbSymbolTableRecord
100
AcDbDimStyleTableRecord
  2
SLDDIMSTYLE0
 70
     0
 41
3.302
 44
0.0
 45
0.000000001
 73
     0
 74
     0
 77
     1
 78
    12
 79
     3
140
3.5
147
0.875
173
     1
178
     0
271
     2
272
     2
276
     2
284
    12
340
BA
  0
DIMSTYLE
105
D1
102
{ACAD_REACTORS
330
D0
102
}
330
A
100
AcDbSymbolTableRecord
100
AcDbDimStyleTableRecord
  2
SLDDIMSTYLE1
 70
     0
 41
3.302
 44
0.0
 45
0.000000001
 73
     0
 74
     0
 77
     1
 78
    12
 79
     3
140
3.5
147
0.875
172
     1
173
     1
178
     0
271
     2
272
     2
276
     2
284
    12
289
     0
340
BA
  0
ENDTAB
  0
TABLE
  2
BLOCK_RECORD
  5
1
330
0
100
AcDbSymbolTable
 70
     8
  0
BLOCK_RECORD
  5
1F
330
1
100
AcDbSymbolTableRecord
100
AcDbBlockTableRecord
  2
*Model_Space
340
22
  0
BLOCK_RECORD
  5
1B
330
1
100
AcDbSymbolTableRecord
100
AcDbBlockTableRecord
  2
*Paper_Space
340
1E
  0
BLOCK_RECORD
  5
23
330
1
100
AcDbSymbolTableRecord
100
AcDbBlockTableRecord
  2
*Paper_Space0
340
26
  0
BLOCK_RECORD
  5
BC
330
1
100
AcDbSymbolTableRecord
100
AcDbBlockTableRecord
  2
_D
340
0
  0
BLOCK_RECORD
  5
C6
330
1
100
AcDbSymbolTableRecord
100
AcDbBlockTableRecord
  2
_D_1
340
0
  0
BLOCK_RECORD
  5
D2
330
1
100
AcDbSymbolTableRecord
100
AcDbBlockTableRecord
  2
_D_2
340
0
  0
BLOCK_RECORD
  5
DC
330
1
100
AcDbSymbolTableRecord
100
AcDbBlockTableRecord
  2
_D_3
340
0
  0
BLOCK_RECORD
  5
E6
330
1
100
AcDbSymbolTableRecord
100
AcDbBlockTableRecord
  2
_D_4
340
0
  0
BLOCK_RECORD
  5
EF
330
1
100
AcDbSymbolTableRecord
100
AcDbBlockTableRecord
  2
SW_CENTERMARKSYMBOL_0
340
0
102
{BLKREFS
331
FA
102
}
  0
BLOCK_RECORD
  5
FB
330
1
100
AcDbSymbolTableRecord
100
AcDbBlockTableRecord
  2
SW_CENTERMARKSYMBOL_1
340
0
102
{BLKREFS
331
106
102
}
  0
ENDTAB
  0
ENDSEC
  0
SECTION
  2
BLOCKS
  0
BLOCK
  5
20
330
1F
100
AcDbEntity
  8
0
100
AcDbBlockBegin
  2
*Model_Space
 70
     0
 10
0.0
 20
0.0
 30
0.0
  3
*Model_Space
  1
*Model_Space
  0
ENDBLK
  5
21
330
1F
100
AcDbEntity
  8
0
100
AcDbBlockEnd
  0
BLOCK
  5
1C
330
1B
100
AcDbEntity
 67
     1
  8
0
100
AcDbBlockBegin
  2
*Paper_Space
 70
     0
 10
0.0
 20
0.0
 30
0.0
  3
*Paper_Space
  1
*Paper_Space
  0
ENDBLK
  5
1D
330
1B
100
AcDbEntity
 67
     1
  8
0
100
AcDbBlockEnd
  0
BLOCK
  5
24
330
23
100
AcDbEntity
  8
0
100
AcDbBlockBegin
  2
*Paper_Space0
 70
     0
 10
0.0
 20
0.0
 30
0.0
  3
*Paper_Space0
  1
*Paper_Space0
  0
ENDBLK
  5
25
330
23
100
AcDbEntity
  8
0
100
AcDbBlockEnd
  0
BLOCK
  5
BD
330
BC
100
AcDbEntity
  8
0
100
AcDbBlockBegin
  2
_D
 70
     0
 10
0.0
 20
0.0
 30
0.0
  3
_D
  1
_D
  0
LINE
  5
BF
330
BC
100
AcDbEntity
  8
2
 62
     0
370
    -2
100
AcDbLine
 10
0.0027086782
 20
0.0605059343
 30
0.0
 11
0.0027086782000083
 21
35.1332954727
 31
0.0
  0
LINE
  5
C0
330
BC
100
AcDbEntity
  8
2
 62
     0
370
    -2
100
AcDbLine
 10
216.9027086782
 20
0.0605059343
 30
0.0
 11
216.9027086782
 21
35.1332954727
 31
0.0
  0
LINE
  5
C1
330
BC
100
AcDbEntity
  8
2
 62
     0
370
    -2
100
AcDbLine
 10
3.304708678200008
 20
35.1332954727
 30
0.0
 11
213.6007086782
 21
35.1332954727
 31
0.0
  0
SOLID
  5
C2
330
BC
100
AcDbEntity
  8
2
 62
     0
100
AcDbTrace
 10
3.304708678200008
 20
35.68362880603333
 30
0.0
 11
3.304708678200008
 21
34.58296213936666
 31
0.0
 12
0.0027086782000083
 22
35.1332954727
 32
0.0
 13
0.0027086782000083
 23
35.1332954727
 33
0.0
  0
SOLID
  5
C3
330
BC
100
AcDbEntity
  8
2
 62
     0
100
AcDbTrace
 10
213.6007086782
 20
34.58296213936666
 30
0.0
 11
213.6007086782
 21
35.68362880603333
 31
0.0
 12
216.9027086782
 22
35.1332954727
 32
0.0
 13
216.9027086782
 23
35.1332954727
 33
0.0
  0
MTEXT
  5
C4
330
BC
100
AcDbEntity
  8
2
 62
     0
100
AcDbMText
 10
108.4527086782
 20
39.5082954727
 30
0.0
 40
3.5
 41
0.0
 71
     2
 72
     1
  1
\A1;216.9
  7
SLDTEXTSTYLE0
 73
     1
 44
1.0
  0
POINT
  5
12A
330
BC
100
AcDbEntity
  8
Defpoints
 62
     0
100
AcDbPoint
 10
0.0027086782
 20
-0.0019940657
 30
0.0
  0
POINT
  5
12B
330
BC
100
AcDbEntity
  8
Defpoints
 62
     0
100
AcDbPoint
 10
216.9027086782
 20
-0.0019940657
 30
0.0
  0
POINT
  5
12C
330
BC
100
AcDbEntity
  8
Defpoints
 62
     0
100
AcDbPoint
 10
216.9027086782
 20
35.1332954727
 30
0.0
  0
ENDBLK
  5
BE
330
BC
100
AcDbEntity
  8
0
100
AcDbBlockEnd
  0
BLOCK
  5
C7
330
C6
100
AcDbEntity
  8
0
100
AcDbBlockBegin
  2
_D_1
 70
     0
 10
0.0
 20
0.0
 30
0.0
  3
_D_1
  1
_D_1
  0
LINE
  5
C9
330
C6
100
AcDbEntity
  8
2
 62
     0
370
    -2
100
AcDbLine
 10
0.9402086782000001
 20
-12.5019940657
 30
0.0
 11
-5.997291321800001
 21
-12.5019940657
 31
0.0
  0
LINE
  5
CA
330
C6
100
AcDbEntity
  8
2
 62
     0
370
    -2
100
AcDbLine
 10
0.9402086782000001
 20
12.4980059343
 30
0.0
 11
-5.997291321799999
 21
12.4980059343
 31
0.0
  0
LINE
  5
CB
330
C6
100
AcDbEntity
  8
2
 62
     0
370
    -2
100
AcDbLine
 10
-5.997291321800001
 20
-9.1999940657
 30
0.0
 11
-5.997291321799999
 21
9.1960059343
 31
0.0
  0
SOLID
  5
CC
330
C6
100
AcDbEntity
  8
2
 62
     0
100
AcDbTrace
 10
-6.547624655133334
 20
-9.1999940657
 30
0.0
 11
-5.446957988466667
 21
-9.1999940657
 31
0.0
 12
-5.997291321800001
 22
-12.5019940657
 32
0.0
 13
-5.997291321800001
 23
-12.5019940657
 33
0.0
  0
SOLID
  5
CD
330
C6
100
AcDbEntity
  8
2
 62
     0
100
AcDbTrace
 10
-5.446957988466665
 20
9.1960059343
 30
0.0
 11
-6.547624655133332
 21
9.1960059343
 31
0.0
 12
-5.997291321799999
 22
12.4980059343
 32
0.0
 13
-5.997291321799999
 23
12.4980059343
 33
0.0
  0
MTEXT
  5
CE
330
C6
100
AcDbEntity
  8
2
 62
     0
100
AcDbMText
 10
-10.3722913218
 20
-0.0019940656999997
 30
0.0
 40
3.5
 41
0.0
 71
     2
 72
     1
  1
\A1;%%c25
  7
SLDTEXTSTYLE0
 11
7.105427357601002E-17
 21
1.0
 31
0.0
 73
     1
 44
1.0
  0
POINT
  5
CF
330
C6
100
AcDbEntity
  8
Defpoints
 62
     0
100
AcDbPoint
 10
1.0027086782
 20
-12.5019940657
 30
0.0
  0
POINT
  5
12D
330
C6
100
AcDbEntity
  8
Defpoints
 62
     0
100
AcDbPoint
 10
1.0027086782
 20
12.4980059343
 30
0.0
  0
POINT
  5
12E
330
C6
100
AcDbEntity
  8
Defpoints
 62
     0
100
AcDbPoint
 10
-5.9972913218
 20
12.4980059343
 30
0.0
  0
ENDBLK
  5
C8
330
C6
100
AcDbEntity
  8
0
100
AcDbBlockEnd
  0
BLOCK
  5
D3
330
D2
100
AcDbEntity
  8
0
100
AcDbBlockBegin
  2
_D_2
 70
     0
 10
0.0
 20
0.0
 30
0.0
  3
_D_2
  1
_D_2
  0
LINE
  5
D5
330
D2
100
AcDbEntity
  8
2
 62
     0
370
    -2
100
AcDbLine
 10
200.0652086782
 20
16.9980059343
 30
0.0
 11
222.9027086782
 21
16.9980059343
 31
0.0
  0
LINE
  5
D6
330
D2
100
AcDbEntity
  8
2
 62
     0
370
    -2
100
AcDbLine
 10
216.9652086782
 20
-0.0019940657
 30
0.0
 11
222.9027086782
 21
-0.0019940656999999
 31
0.0
  0
LINE
  5
D7
330
D2
100
AcDbEntity
  8
2
 62
     0
370
    -2
100
AcDbLine
 10
222.9027086782
 20
13.6960059343
 30
0.0
 11
222.9027086782
 21
3.3000059343
 31
0.0
  0
SOLID
  5
D8
330
D2
100
AcDbEntity
  8
2
 62
     0
100
AcDbTrace
 10
223.4530420115333
 20
13.6960059343
 30
0.0
 11
222.3523753448667
 21
13.6960059343
 31
0.0
 12
222.9027086782
 22
16.9980059343
 32
0.0
 13
222.9027086782
 23
16.9980059343
 33
0.0
  0
SOLID
  5
D9
330
D2
100
AcDbEntity
  8
2
 62
     0
100
AcDbTrace
 10
222.3523753448667
 20
3.3000059343
 30
0.0
 11
223.4530420115333
 21
3.3000059343
 31
0.0
 12
222.9027086782
 22
-0.0019940656999999
 32
0.0
 13
222.9027086782
 23
-0.0019940656999999
 33
0.0
  0
MTEXT
  5
DA
330
D2
100
AcDbEntity
  8
2
 62
     0
100
AcDbMText
 10
218.5277086782
 20
8.4980059343
 30
0.0
 40
3.5
 41
0.0
 71
     2
 72
     1
  1
\A1;17
  7
SLDTEXTSTYLE0
 11
0.0
 21
1.0
 31
0.0
 73
     1
 44
1.0
  0
POINT
  5
12F
330
D2
100
AcDbEntity
  8
Defpoints
 62
     0
100
AcDbPoint
 10
200.0027086782
 20
16.9980059343
 30
0.0
  0
POINT
  5
130
330
D2
100
AcDbEntity
  8
Defpoints
 62
     0
100
AcDbPoint
 10
216.9027086782
 20
-0.0019940657
 30
0.0
  0
POINT
  5
131
330
D2
100
AcDbEntity
  8
Defpoints
 62
     0
100
AcDbPoint
 10
222.9027086782
 20
-0.0019940657000004
 30
0.0
  0
ENDBLK
  5
D4
330
D2
100
AcDbEntity
  8
0
100
AcDbBlockEnd
  0
BLOCK
  5
DD
330
DC
100
AcDbEntity
  8
0
100
AcDbBlockBegin
  2
_D_3
 70
     0
 10
0.0
 20
0.0
 30
0.0
  3
_D_3
  1
_D_3
  0
LINE
  5
DF
330
DC
100
AcDbEntity
  8
2
 62
     0
370
    -2
100
AcDbLine
 10
216.9027086782
 20
0.0605059343
 30
0.0
 11
216.9027086782
 21
23.1332954727
 31
0.0
  0
LINE
  5
E0
330
DC
100
AcDbEntity
  8
2
 62
     0
370
    -2
100
AcDbLine
 10
151.0427086782
 20
0.0605059343
 30
0.0
 11
151.0427086782
 21
23.1332954727
 31
0.0
  0
LINE
  5
E1
330
DC
100
AcDbEntity
  8
2
 62
     0
370
    -2
100
AcDbLine
 10
213.6007086782
 20
23.1332954727
 30
0.0
 11
154.3447086782
 21
23.1332954727
 31
0.0
  0
SOLID
  5
E2
330
DC
100
AcDbEntity
  8
2
 62
     0
100
AcDbTrace
 10
213.6007086782
 20
22.58296213936666
 30
0.0
 11
213.6007086782
 21
23.68362880603333
 31
0.0
 12
216.9027086782
 22
23.1332954727
 32
0.0
 13
216.9027086782
 23
23.1332954727
 33
0.0
  0
SOLID
  5
E3
330
DC
100
AcDbEntity
  8
2
 62
     0
100
AcDbTrace
 10
154.3447086782
 20
23.68362880603333
 30
0.0
 11
154.3447086782
 21
22.58296213936666
 31
0.0
 12
151.0427086782
 22
23.1332954727
 32
0.0
 13
151.0427086782
 23
23.1332954727
 33
0.0
  0
MTEXT
  5
E4
330
DC
100
AcDbEntity
  8
2
 62
     0
100
AcDbMText
 10
183.9727086782
 20
27.5082954727
 30
0.0
 40
3.5
 41
0.0
 71
     2
 72
     1
  1
\A1;65.86
  7
SLDTEXTSTYLE0
 73
     1
 44
1.0
  0
POINT
  5
132
330
DC
100
AcDbEntity
  8
Defpoints
 62
     0
100
AcDbPoint
 10
216.9027086782
 20
-0.0019940657
 30
0.0
  0
POINT
  5
133
330
DC
100
AcDbEntity
  8
Defpoints
 62
     0
100
AcDbPoint
 10
151.0427086782
 20
-0.0019940657
 30
0.0
  0
POINT
  5
134
330
DC
100
AcDbEntity
  8
Defpoints
 62
     0
100
AcDbPoint
 10
151.0427086782
 20
23.1332954727
 30
0.0
  0
ENDBLK
  5
DE
330
DC
100
AcDbEntity
  8
0
100
AcDbBlockEnd
  0
BLOCK
  5
E7
330
E6
100
AcDbEntity
  8
0
100
AcDbBlockBegin
  2
_D_4
 70
     0
 10
0.0
 20
0.0
 30
0.0
  3
_D_4
  1
_D_4
  0
SOLID
  5
E9
330
E6
100
AcDbEntity
  8
2
100
AcDbTrace
 10
0.0027086782
 20
29.1332954727
 30
0.0
 11
3.3047086782
 21
28.6252954727
 31
0.0
 12
3.3047086782
 22
29.6412954727
 32
0.0
 13
3.3047086782
 23
29.6412954727
 33
0.0
  0
SOLID
  5
EA
330
E6
100
AcDbEntity
  8
2
100
AcDbTrace
 10
200.0027086782
 20
29.1332954727
 30
0.0
 11
196.7007086782
 21
29.6412954727
 31
0.0
 12
196.7007086782
 22
28.6252954727
 32
0.0
 13
196.7007086782
 23
28.6252954727
 33
0.0
  0
LINE
  5
EB
330
E6
100
AcDbEntity
  8
2
100
AcDbLine
 10
0.0027086782
 20
0.9980059343
 30
0.0
 11
0.0027086782
 21
30.1332954727
 31
0.0
  0
LINE
  5
EC
330
E6
100
AcDbEntity
  8
2
100
AcDbLine
 10
200.0027086782
 20
0.9980059343
 30
0.0
 11
200.0027086782
 21
30.1332954727
 31
0.0
  0
LINE
  5
ED
330
E6
100
AcDbEntity
  8
2
100
AcDbLine
 10
0.0027086782
 20
29.1332954727
 30
0.0
 11
200.0027086782
 21
29.1332954727
 31
0.0
  0
MTEXT
  5
EE
330
E6
100
AcDbEntity
  8
2
100
AcDbMText
 10
96.1235420043
 20
33.6450323872
 30
0.0
 40
3.5
 41
0.0
 71
     1
 72
     1
  1
200
  7
SLDTEXTSTYLE0
 73
     1
 44
1.0
  0
ENDBLK
  5
E8
330
E6
100
AcDbEntity
  8
0
100
AcDbBlockEnd
  0
BLOCK
  5
F0
330
EF
100
AcDbEntity
  8
0
100
AcDbBlockBegin
  2
SW_CENTERMARKSYMBOL_0
 70
     0
 10
0.0
 20
0.0
 30
0.0
  3
SW_CENTERMARKSYMBOL_0
  1
SW_CENTERMARKSYMBOL_0
  0
LINE
  5
F2
330
EF
100
AcDbEntity
  8
4
 62
     0
100
AcDbLine
 10
0.0
 20
0.0
 30
0.0
 11
0.0
 21
2.5
 31
0.0
  0
LINE
  5
F3
330
EF
100
AcDbEntity
  8
4
 62
     0
100
AcDbLine
 10
0.0
 20
0.0
 30
0.0
 11
-2.5
 21
0.0
 31
0.0
  0
LINE
  5
F4
330
EF
100
AcDbEntity
  8
4
 62
     0
100
AcDbLine
 10
0.0
 20
0.0
 30
0.0
 11
0.0
 21
-2.5
 31
0.0
  0
LINE
  5
F5
330
EF
100
AcDbEntity
  8
4
 62
     0
100
AcDbLine
 10
0.0
 20
0.0
 30
0.0
 11
2.5
 21
0.0
 31
0.0
  0
LINE
  5
F6
330
EF
100
AcDbEntity
  8
4
 62
     0
100
AcDbLine
 10
0.0
 20
2.5
 30
0.0
 11
0.0
 21
4.7
 31
0.0
  0
LINE
  5
F7
330
EF
100
AcDbEntity
  8
4
 62
     0
100
AcDbLine
 10
-2.5
 20
0.0
 30
0.0
 11
-4.7
 21
0.0
 31
0.0
  0
LINE
  5
F8
330
EF
100
AcDbEntity
  8
4
 62
     0
100
AcDbLine
 10
0.0
 20
-2.5
 30
0.0
 11
0.0
 21
-4.7
 31
0.0
  0
LINE
  5
F9
330
EF
100
AcDbEntity
  8
4
 62
     0
100
AcDbLine
 10
2.5
 20
0.0
 30
0.0
 11
4.7
 21
0.0
 31
0.0
  0
ENDBLK
  5
F1
330
EF
100
AcDbEntity
  8
0
100
AcDbBlockEnd
  0
BLOCK
  5
FC
330
FB
100
AcDbEntity
  8
0
100
AcDbBlockBegin
  2
SW_CENTERMARKSYMBOL_1
 70
     0
 10
0.0
 20
0.0
 30
0.0
  3
SW_CENTERMARKSYMBOL_1
  1
SW_CENTERMARKSYMBOL_1
  0
LINE
  5
FE
330
FB
100
AcDbEntity
  8
4
 62
     0
100
AcDbLine
 10
0.0
 20
0.0
 30
0.0
 11
0.0
 21
2.5
 31
0.0
  0
LINE
  5
FF
330
FB
100
AcDbEntity
  8
4
 62
     0
100
AcDbLine
 10
0.0
 20
0.0
 30
0.0
 11
-2.5
 21
0.0
 31
0.0
  0
LINE
  5
100
330
FB
100
AcDbEntity
  8
4
 62
     0
100
AcDbLine
 10
0.0
 20
0.0
 30
0.0
 11
0.0
 21
-2.5
 31
0.0
  0
LINE
  5
101
330
FB
100
AcDbEntity
  8
4
 62
     0
100
AcDbLine
 10
0.0
 20
0.0
 30
0.0
 11
2.5
 21
0.0
 31
0.0
  0
LINE
  5
102
330
FB
100
AcDbEntity
  8
4
 62
     0
100
AcDbLine
 10
0.0
 20
2.5
 30
0.0
 11
0.0
 21
4.7
 31
0.0
  0
LINE
  5
103
330
FB
100
AcDbEntity
  8
4
 62
     0
100
AcDbLine
 10
-2.5
 20
0.0
 30
0.0
 11
-4.7
 21
0.0
 31
0.0
  0
LINE
  5
104
330
FB
100
AcDbEntity
  8
4
 62
     0
100
AcDbLine
 10
0.0
 20
-2.5
 30
0.0
 11
0.0
 21
-4.7
 31
0.0
  0
LINE
  5
105
330
FB
100
AcDbEntity
  8
4
 62
     0
100
AcDbLine
 10
2.5
 20
0.0
 30
0.0
 11
4.7
 21
0.0
 31
0.0
  0
ENDBLK
  5
FD
330
FB
100
AcDbEntity
  8
0
100
AcDbBlockEnd
  0
ENDSEC
  0
SECTION
  2
ENTITIES
  0
LINE
  5
72
330
1F
100
AcDbEntity
  8
0
  6
CENTERX2
 62
     7
100
AcDbLine
 10
0.0027086782
 20
-0.0019940657
 30
0.0
 11
216.9027086782
 21
-0.0019940657
 31
0.0
  0
POINT
  5
74
330
1F
100
AcDbEntity
  8
0
  6
Continuous
 62
     7
100
AcDbPoint
 10
0.0027086782
 20
-0.0019940657
 30
0.0
  0
POINT
  5
75
330
1F
100
AcDbEntity
  8
0
  6
Continuous
 62
     7
100
AcDbPoint
 10
151.0427086782
 20
-0.0019940657
 30
0.0
  0
POINT
  5
76
330
1F
100
AcDbEntity
  8
0
  6
Continuous
 62
     7
100
AcDbPoint
 10
216.9027086782
 20
-0.0019940657
 30
0.0
  0
POINT
  5
77
330
1F
100
AcDbEntity
  8
0
  6
Continuous
 62
     7
100
AcDbPoint
 10
200.0027086782
 20
-0.0019940657
 30
0.0
  0
POINT
  5
78
330
1F
100
AcDbEntity
  8
0
  6
Continuous
 62
     7
100
AcDbPoint
 10
190.2027086782
 20
-0.0019940657
 30
0.0
  0
POINT
  5
79
330
1F
100
AcDbEntity
  8
0
  6
Continuous
 62
     7
100
AcDbPoint
 10
192.1449836782
 20
-0.0019940657
 30
0.0
  0
POINT
  5
7A
330
1F
100
AcDbEntity
  8
0
  6
Continuous
 62
     7
100
AcDbPoint
 10
200.0027086782
 20
16.9980059343
 30
0.0
  0
SPLINE
  5
7B
330
1F
100
AcDbEntity
  8
1
  6
Continuous
370
    15
100
AcDbSpline
210
0.0
220
0.0
230
1.0
 70
     8
 71
     3
 72
     9
 73
     5
 74
     0
 42
0.000000001
 43
0.00000001
 40
0.0
 40
0.0
 40
0.0
 40
0.0
 40
0.4028959349337398
 40
1.0
 40
1.0
 40
1.0
 40
1.0
 10
206.0290167647389
 20
6.671674401609473
 30
0.0
 10
205.9328252264414
 20
6.627079865701979
 30
0.0
 10
205.6940748942662
 20
6.516394867316901
 30
0.0
 10
205.4305171186619
 20
6.492342797567912
 30
0.0
 10
205.2731456994687
 20
6.477981208947533
 30
0.0
  0
SPLINE
  5
7C
330
1F
100
AcDbEntity
  8
1
  6
Continuous
370
    15
100
AcDbSpline
210
0.0
220
0.0
230
1.0
 70
     8
 71
     3
 72
    10
 73
     6
 74
     0
 42
0.000000001
 43
0.00000001
 40
0.0
 40
0.0
 40
0.0
 40
0.0
 40
0.1856511514829386
 40
0.6424743256230897
 40
0.9999999999999999
 40
0.9999999999999999
 40
0.9999999999999999
 40
0.9999999999999999
 10
205.2731456994687
 20
6.477981208947533
 30
0.0
 10
205.1995008477814
 20
6.476560518955917
 30
0.0
 10
204.9446415267078
 20
6.471644003022716
 30
0.0
 10
204.5443042234615
 20
6.534358033596497
 30
0.0
 10
204.2546282738101
 20
6.679003792721863
 30
0.0
 10
204.1274510948425
 20
6.742507993251191
 30
0.0
  0
LINE
  5
7D
330
1F
100
AcDbEntity
  8
1
  6
Continuous
370
    15
100
AcDbLine
 10
200.4682129086
 20
7.2480059343
 30
0.0
 11
151.0427086782
 21
7.2480059343
 31
0.0
  0
LINE
  5
7E
330
1F
100
AcDbEntity
  8
1
  6
Continuous
370
    15
100
AcDbLine
 10
151.0427086782
 20
7.2480059343
 30
0.0
 11
145.7927086782
 21
12.4980059343
 31
0.0
  0
LINE
  5
7F
330
1F
100
AcDbEntity
  8
1
  6
Continuous
370
    15
100
AcDbLine
 10
151.0427086782
 20
-12.2519940657
 30
0.0
 11
207.8390333913
 21
-12.2519940657
 31
0.0
  0
LINE
  5
80
330
1F
100
AcDbEntity
  8
1
  6
Continuous
370
    15
100
AcDbLine
 10
1.0027086782
 20
12.4980059343
 30
0.0
 11
0.0027086782
 21
11.4980059343
 31
0.0
  0
LINE
  5
81
330
1F
100
AcDbEntity
  8
1
  6
Continuous
370
    15
100
AcDbLine
 10
0.0027086782
 20
-11.5019940657
 30
0.0
 11
1.0027086782
 21
-12.5019940657
 31
0.0
  0
LINE
  5
82
330
1F
100
AcDbEntity
  8
1
  6
Continuous
370
    15
100
AcDbLine
 10
145.807050563
 20
12.4980059343
 30
0.0
 11
1.0027086782
 21
12.4980059343
 31
0.0
  0
LINE
  5
83
330
1F
100
AcDbEntity
  8
1
  6
Continuous
370
    15
100
AcDbLine
 10
1.0027086782
 20
-12.5019940657
 30
0.0
 11
151.0427086782
 21
-12.5019940657
 31
0.0
  0
LINE
  5
84
330
1F
100
AcDbEntity
  8
1
  6
Continuous
370
    15
100
AcDbLine
 10
207.8390333913
 20
-12.2519940657
 30
0.0
 11
216.8027086782
 21
-6.8019940657
 31
0.0
  0
LINE
  5
85
330
1F
100
AcDbEntity
  8
1
  6
Continuous
370
    15
100
AcDbLine
 10
216.8027086782
 20
6.7980059343
 30
0.0
 11
209.8101906481
 21
11.0495235366
 31
0.0
  0
LINE
  5
86
330
1F
100
AcDbEntity
  8
1
  6
Continuous
370
    15
100
AcDbLine
 10
216.9027086782
 20
6.7980059343
 30
0.0
 11
216.8027086782
 21
6.7980059343
 31
0.0
  0
LINE
  5
87
330
1F
100
AcDbEntity
  8
1
  6
Continuous
370
    15
100
AcDbLine
 10
216.8027086782
 20
-6.8019940657
 30
0.0
 11
216.9027086782
 21
-6.8019940657
 31
0.0
  0
LINE
  5
88
330
1F
100
AcDbEntity
  8
1
  6
Continuous
370
    15
100
AcDbLine
 10
200.8846595688
 20
5.8994766395
 30
0.0
 11
209.089218428
 21
0.7922081982
 31
0.0
  0
ARC
  5
89
330
1F
100
AcDbEntity
  8
1
  6
Continuous
370
    15
100
AcDbCircle
 10
201.3050277806
 20
6.5759704073
 30
0.0
 40
0.7964629629584539
100
AcDbArc
 50
183.0477428822
 51
238.1434885411
  0
LINE
  5
8A
330
1F
100
AcDbEntity
  8
1
  6
Continuous
370
    15
100
AcDbLine
 10
200.0033598891
 20
16.1582394042
 30
0.0
 11
200.5096913524
 21
6.5336240115
 31
0.0
  0
ARC
  5
8B
330
1F
100
AcDbEntity
  8
1
  6
Continuous
370
    15
100
AcDbCircle
 10
200.8022267642
 20
16.1975845115
 30
0.0
 40
0.7998351840635077
100
AcDbArc
 50
57.9895173869
 51
182.819604328
  0
LINE
  5
8C
330
1F
100
AcDbEntity
  8
1
  6
Continuous
370
    15
100
AcDbLine
 10
209.4307577875
 20
11.7685372183
 30
0.0
 11
201.2261989283
 21
16.8758056596
 31
0.0
  0
ARC
  5
8D
330
1F
100
AcDbEntity
  8
1
  6
Continuous
370
    15
100
AcDbCircle
 10
209.0103895757
 20
11.0920434505
 30
0.0
 40
0.796462962954954
100
AcDbArc
 50
3.047742882100001
 51
58.14348854129999
  0
LINE
  5
8E
330
1F
100
AcDbEntity
  8
1
  6
Continuous
370
    15
100
AcDbLine
 10
210.3120574672
 20
1.5097744536
 30
0.0
 11
209.8057260039
 21
11.1343898463
 31
0.0
  0
ARC
  5
8F
330
1F
100
AcDbEntity
  8
1
  6
Continuous
370
    15
100
AcDbCircle
 10
209.5131905921
 20
1.4704293463
 30
0.0
 40
0.7998351840635267
100
AcDbArc
 50
237.9895173868
 51
2.819604328
  0
CIRCLE
  5
90
330
1F
100
AcDbEntity
  8
1
  6
Continuous
370
    15
100
AcDbCircle
 10
205.156834727
 20
8.8416041923
 30
0.0
 40
2.697386607364434
  0
ARC
  5
91
330
1F
100
AcDbEntity
  8
1
  6
Continuous
370
    15
100
AcDbCircle
 10
205.1573719445
 20
8.8120406479
 30
0.0
 40
2.667781113173361
100
AcDbArc
 50
235.010928111
 51
272.9991930488
  0
CIRCLE
  5
92
330
1F
100
AcDbEntity
  8
1
  6
Continuous
370
    15
100
AcDbCircle
 10
205.1568485252
 20
8.7344110797
 30
0.0
 40
2.409815745865846
  0
ARC
  5
93
330
1F
100
AcDbEntity
  8
1
  6
Continuous
370
    15
100
AcDbCircle
 10
205.1572814207
 20
8.6652958049
 30
0.0
 40
2.197165600375049
100
AcDbArc
 50
293.4840608855001
 51
241.9398931109
  0
ARC
  5
94
330
1F
100
AcDbEntity
  8
1
  6
Continuous
370
    15
100
AcDbCircle
 10
205.1613388511
 20
8.4832866014
 30
0.0
 40
2.196550140888766
100
AcDbArc
 50
2.3784846197
 51
93.09954161030001
  0
ARC
  5
95
330
1F
100
AcDbEntity
  8
1
  6
Continuous
370
    15
100
AcDbCircle
 10
205.1528169957
 20
8.4841390323
 30
0.0
 40
2.195254487428675
100
AcDbArc
 50
92.8786504043
 51
177.6423781098
  0
SPLINE
  5
96
330
1F
100
AcDbEntity
  8
1
  6
Continuous
370
    15
100
AcDbSpline
210
0.0
220
0.0
230
1.0
 70
     8
 71
     3
 72
    28
 73
    24
 74
     0
 42
0.000000001
 43
0.00000001
 40
0.0
 40
0.0
 40
0.0
 40
0.0
 40
0.1250000000000004
 40
0.1250000000000004
 40
0.1875000000000006
 40
0.1875000000000006
 40
0.2500000000000007
 40
0.2500000000000007
 40
0.3125000000000009
 40
0.3125000000000009
 40
0.3750000000000011
 40
0.3750000000000011
 40
0.4999999999999989
 40
0.4999999999999989
 40
0.6249999999999967
 40
0.6249999999999967
 40
0.6874999999999972
 40
0.6874999999999972
 40
0.7499999999999977
 40
0.7499999999999977
 40
0.8749999999999989
 40
0.8749999999999989
 40
1.0
 40
1.0
 40
1.0
 40
1.0
 10
173.9785499266802
 20
1.878686076419922
 30
0.0
 10
174.0877321469591
 20
2.592945765044611
 30
0.0
 10
174.2815219577564
 20
3.233256778529562
 30
0.0
 10
174.7355798332935
 20
4.088275530373666
 30
0.0
 10
174.9122155752492
 20
4.350864709076876
 30
0.0
 10
175.3126345314193
 20
4.82948699488608
 30
0.0
 10
175.5370468126559
 20
5.046715318575318
 30
0.0
 10
176.0354994957967
 20
5.441866337241579
 30
0.0
 10
176.3116619966087
 20
5.620710776848943
 30
0.0
 10
176.9011274161225
 20
5.936390890272284
 30
0.0
 10
177.2147526740474
 20
6.074069095843501
 30
0.0
 10
178.2092002103708
 20
6.438165388077122
 30
0.0
 10
178.9502436552872
 20
6.61648630142824
 30
0.0
 10
180.5033836981444
 20
6.880719246642506
 30
0.0
 10
181.3205233487689
 20
6.969176344790827
 30
0.0
 10
182.60043010814
 20
7.065440398625078
 30
0.0
 10
183.0380211901312
 20
7.091375516966917
 30
0.0
 10
183.9210732667676
 20
7.133678742727367
 30
0.0
 10
184.3657101541707
 20
7.150069850170157
 30
0.0
 10
185.7083659704694
 20
7.189593224662397
 30
0.0
 10
186.615071348969
 20
7.203403060134013
 30
0.0
 10
188.4503169970602
 20
7.220444164619455
 30
0.0
 10
189.3788689665314
 20
7.223610111859399
 30
0.0
 10
190.3185650144553
 20
7.2236101118594
 30
0.0
  0
LINE
  5
97
330
1F
100
AcDbEntity
  8
1
  6
Continuous
370
    15
100
AcDbLine
 10
151.0427086782
 20
1.8786860764
 30
0.0
 11
173.9785499267
 21
1.8786860764
 31
0.0
  0
LINE
  5
98
330
1F
100
AcDbEntity
  8
1
  6
Continuous
370
    15
100
AcDbLine
 10
151.0427086782
 20
1.8786860764
 30
0.0
 11
151.0427086782
 21
7.2480059343
 31
0.0
  0
ELLIPSE
  5
99
330
1F
100
AcDbEntity
  8
1
  6
Continuous
370
    15
100
AcDbEllipse
 10
201.2513381865
 20
-7.7519940657
 30
0.0
 11
-0.7831415502827213
 21
14.99999957579248
 31
0.0
210
0.0
220
0.0
230
1.0
 40
0.0045552224
 41
6.225906632889297
 42
6.28294748158189
  0
LINE
  5
9A
330
1F
100
AcDbEntity
  8
1
  6
Continuous
370
    15
100
AcDbLine
 10
190.3185650145
 20
7.2236101119
 30
0.0
 11
200.4733925853
 21
7.2236101119
 31
0.0
  0
SPLINE
  5
9B
330
1F
100
AcDbEntity
  8
1
  6
Continuous
370
    15
100
AcDbSpline
210
0.0
220
0.0
230
1.0
 70
     8
 71
     3
 72
    14
 73
    10
 74
     0
 42
0.000000001
 43
0.00000001
 40
0.0
 40
0.0
 40
0.0
 40
0.0
 40
0.1673837257640923
 40
0.3408819312833047
 40
0.4898985704376442
 40
0.6439988490531077
 40
0.7813289803533504
 40
0.9230514956461959
 40
0.9999999999999999
 40
0.9999999999999999
 40
0.9999999999999999
 40
0.9999999999999999
 10
148.9474847244764
 20
4.896985419857143
 30
0.0
 10
148.6353517281206
 20
5.597200447997708
 30
0.0
 10
147.9996836060895
 20
7.023209159516987
 30
0.0
 10
147.245057580053
 20
8.83106459169416
 30
0.0
 10
146.6415817601959
 20
10.32047027479896
 30
0.0
 10
146.2154305822934
 20
11.40261247285945
 30
0.0
 10
145.9369536641618
 20
12.12146991901122
 30
0.0
 10
145.8009569320833
 20
12.47644568806622
 30
0.0
 10
145.8054660720129
 20
12.46468100368265
 30
0.0
 10
145.8070528006707
 20
12.46054110956694
 30
0.0
  0
SPLINE
  5
9C
330
1F
100
AcDbEntity
  8
1
  6
Continuous
370
    15
100
AcDbSpline
210
0.0
220
0.0
230
1.0
 70
     8
 71
     3
 72
     8
 73
     4
 74
     0
 42
0.000000001
 43
0.00000001
 40
0.0
 40
0.0
 40
0.0
 40
0.0
 40
1.0
 40
1.0
 40
1.0
 40
1.0
 10
148.9474847244764
 20
4.896985419857137
 30
0.0
 10
149.6777700868339
 20
3.909997352255402
 30
0.0
 10
150.3821699525732
 20
2.907489934240791
 30
0.0
 10
151.0427086781506
 20
1.878686076419921
 30
0.0
  0
LINE
  5
9D
330
1F
100
AcDbEntity
  8
1
  6
Continuous
370
    15
100
AcDbLine
 10
190.3185650145
 20
7.2236101119
 30
0.0
 11
195.4659397337
 21
-11.986653866
 31
0.0
  0
SPLINE
  5
9E
330
1F
100
AcDbEntity
  8
1
  6
Continuous
370
    15
100
AcDbSpline
210
0.0
220
0.0
230
1.0
 70
     8
 71
     3
 72
    30
 73
    26
 74
     0
 42
0.000000001
 43
0.00000001
 40
0.0
 40
0.0
 40
0.0
 40
0.0
 40
0.0624999999999997
 40
0.0624999999999997
 40
0.1249999999999995
 40
0.1249999999999995
 40
0.1874999999999992
 40
0.1874999999999992
 40
0.2499999999999989
 40
0.2499999999999989
 40
0.3749999999999983
 40
0.3749999999999983
 40
0.4374999999999981
 40
0.4374999999999981
 40
0.4999999999999978
 40
0.4999999999999978
 40
0.6249999999999943
 40
0.6249999999999943
 40
0.6874999999999942
 40
0.6874999999999942
 40
0.7499999999999941
 40
0.7499999999999941
 40
0.874999999999997
 40
0.874999999999997
 40
1.0
 40
1.0
 40
1.0
 40
1.0
 10
175.9241732247315
 20
-4.222479819742643
 30
0.0
 10
176.1546773029726
 20
-4.647448147755757
 30
0.0
 10
176.4003647444031
 20
-5.06170105570847
 30
0.0
 10
176.9150948853595
 20
-5.850061657345862
 30
0.0
 10
177.1838457232351
 20
-6.224229079508397
 30
0.0
 10
177.7472155663903
 20
-6.934050118103591
 30
0.0
 10
178.0418381192641
 20
-7.269689793343337
 30
0.0
 10
178.6604708648629
 20
-7.903305650090295
 30
0.0
 10
178.986118559751
 20
-8.202446398383863
 30
0.0
 10
179.9950704947572
 20
-9.030592316055486
 30
0.0
 10
180.7128773156048
 20
-9.49437342063058
 30
0.0
 10
181.8676344716127
 20
-10.08109564138628
 30
0.0
 10
182.2670639573048
 20
-10.25902659386121
 30
0.0
 10
183.0858207960555
 20
-10.57915007454969
 30
0.0
 10
183.5039147576715
 20
-10.72107663051647
 30
0.0
 10
184.7849369636992
 20
-11.10101120850878
 30
0.0
 10
185.6745796158212
 20
-11.29346271254653
 30
0.0
 10
187.0648006804106
 20
-11.5188638465742
 30
0.0
 10
187.5383653698155
 20
-11.58340624767024
 30
0.0
 10
188.4910534905725
 20
-11.69374445954653
 30
0.0
 10
188.9716986858548
 20
-11.7398300126726
 30
0.0
 10
190.4264311569355
 20
-11.85683631909943
 30
0.0
 10
191.4132591413109
 20
-11.90696054595501
 30
0.0
 10
193.421434870704
 20
-11.97192110428749
 30
0.0
 10
194.4443756939269
 20
-11.98665386599969
 30
0.0
 10
195.4659397337111
 20
-11.98665386599969
 30
0.0
  0
ELLIPSE
  5
9F
330
1F
100
AcDbEntity
  8
1
  6
Continuous
370
    15
100
AcDbEllipse
 10
161.8998885634
 20
115.0266693659
 30
0.0
 11
61.47179822472506
 21
-229.4158742073022
 31
0.0
210
0.0
220
0.0
230
1.0
 40
0.0842074098
 41
5.205450064445768
 42
5.236285269707041
  0
LINE
  5
A0
330
1F
100
AcDbEntity
  8
1
  6
Continuous
370
    15
100
AcDbLine
 10
151.0427086782
 20
-4.2224798197
 30
0.0
 11
175.9241732247
 21
-4.2224798197
 31
0.0
  0
LINE
  5
A1
330
1F
100
AcDbEntity
  8
1
  6
Continuous
370
    15
100
AcDbLine
 10
195.4659397337
 20
-11.986653866
 30
0.0
 11
207.8390333913
 21
-11.986653866
 31
0.0
  0
LINE
  5
A2
330
1F
100
AcDbEntity
  8
1
  6
Continuous
370
    15
100
AcDbLine
 10
207.8390333913
 20
-11.986653866
 30
0.0
 11
207.8390333913
 21
-12.2519940657
 31
0.0
  0
LINE
  5
A3
330
1F
100
AcDbEntity
  8
1
  6
Continuous
370
    15
100
AcDbLine
 10
0.0027086782
 20
-0.0019940657
 30
0.0
 11
0.0027086782
 21
-11.5019940657
 31
0.0
  0
LINE
  5
A4
330
1F
100
AcDbEntity
  8
1
  6
Continuous
370
    15
100
AcDbLine
 10
0.0027086782
 20
11.4980059343
 30
0.0
 11
0.0027086782
 21
-0.0019940657
 31
0.0
  0
SPLINE
  5
A5
330
1F
100
AcDbEntity
  8
1
  6
Continuous
370
    15
100
AcDbSpline
210
0.0
220
0.0
230
1.0
 70
     8
 71
     3
 72
    14
 73
    10
 74
     0
 42
0.000000001
 43
0.00000001
 40
0.0
 40
0.0
 40
0.0
 40
0.0
 40
0.25
 40
0.25
 40
0.5
 40
0.5
 40
0.75
 40
0.75
 40
1.0
 40
1.0
 40
1.0
 40
1.0
 10
0.0027086781504843
 20
-0.001994065709176
 30
0.0
 10
0.0027086781504843
 20
-0.4230731425593874
 30
0.0
 10
0.0262165433524506
 20
-0.846035728966742
 30
0.0
 10
0.1168953666422206
 20
-1.678450222332858
 30
0.0
 10
0.1839821193375356
 20
-2.090322960703902
 30
0.0
 10
0.3570786008882543
 20
-2.906310617154164
 30
0.0
 10
0.4630719489504918
 20
-3.310428800123741
 30
0.0
 10
0.7090894450689986
 20
-4.111882415698308
 30
0.0
 10
0.8497155568155217
 20
-4.510603674789459
 30
0.0
 10
1.00270867815059
 20
-4.90097355127549
 30
0.0
  0
LINE
  5
A6
330
1F
100
AcDbEntity
  8
1
  6
Continuous
370
    15
100
AcDbLine
 10
1.0027086782
 20
-4.9009735513
 30
0.0
 11
1.0027086782
 21
-12.5019940657
 31
0.0
  0
LINE
  5
A7
330
1F
100
AcDbEntity
  8
1
  6
Continuous
370
    15
100
AcDbLine
 10
1.0027086782
 20
12.4980059343
 30
0.0
 11
1.0027086782
 21
4.8969854199
 31
0.0
  0
SPLINE
  5
A8
330
1F
100
AcDbEntity
  8
1
  6
Continuous
370
    15
100
AcDbSpline
210
0.0
220
0.0
230
1.0
 70
     8
 71
     3
 72
    12
 73
     8
 74
     0
 42
0.000000001
 43
0.00000001
 40
0.0
 40
0.0
 40
0.0
 40
0.0
 40
0.2499999999999999
 40
0.2499999999999999
 40
0.4999999999999999
 40
0.4999999999999999
 40
1.0
 40
1.0
 40
1.0
 40
1.0
 10
1.0027086781506
 20
4.89698541985716
 30
0.0
 10
0.8505484274494903
 20
4.508740655949201
 30
0.0
 10
0.7113659519986052
 20
4.114682867596078
 30
0.0
 10
0.4647017528151866
 20
3.312367842901571
 30
0.0
 10
0.3570905379144448
 20
2.902727649610962
 30
0.0
 10
0.0959934417665981
 20
1.670850062027642
 30
0.0
 10
0.0027086781504843
 20
0.8399810329357698
 30
0.0
 10
0.0027086781504843
 20
-0.001994065709176
 30
0.0
  0
LINE
  5
A9
330
1F
100
AcDbEntity
  8
1
  6
Continuous
370
    15
100
AcDbLine
 10
1.0027086782
 20
-4.9009735513
 30
0.0
 11
151.0427086782
 21
-4.9009735513
 31
0.0
  0
LINE
  5
AA
330
1F
100
AcDbEntity
  8
1
  6
Continuous
370
    15
100
AcDbLine
 10
151.0427086782
 20
-4.9009735513
 30
0.0
 11
151.0427086782
 21
-12.5019940657
 31
0.0
  0
LINE
  5
AB
330
1F
100
AcDbEntity
  8
1
  6
Continuous
370
    15
100
AcDbLine
 10
148.9474847245
 20
4.8969854199
 30
0.0
 11
1.0027086782
 21
4.8969854199
 31
0.0
  0
LINE
  5
AC
330
1F
100
AcDbEntity
  8
1
  6
Continuous
370
    15
100
AcDbLine
 10
151.0427086782
 20
-4.9009735513
 30
0.0
 11
151.0427086782
 21
-4.2224798197
 31
0.0
  0
SPLINE
  5
AD
330
1F
100
AcDbEntity
  8
1
  6
Continuous
370
    15
100
AcDbSpline
210
0.0
220
0.0
230
1.0
 70
     8
 71
     3
 72
     8
 73
     4
 74
     0
 42
0.000000001
 43
0.00000001
 40
0.0
 40
0.0
 40
0.0
 40
0.0
 40
1.0
 40
1.0
 40
1.0
 40
1.0
 10
207.839033391256
 20
-11.98665386599967
 30
0.0
 10
210.8318616712891
 20
-10.16050345271432
 30
0.0
 10
213.8238908398986
 20
-8.332900162455829
 30
0.0
 10
216.8027086781506
 20
-6.484225269753153
 30
0.0
  0
LINE
  5
AE
330
1F
100
AcDbEntity
  8
1
  6
Continuous
370
    15
100
AcDbLine
 10
216.8027086782
 20
-6.4842252698
 30
0.0
 11
216.8027086782
 21
-6.8019940657
 31
0.0
  0
LINE
  5
AF
330
1F
100
AcDbEntity
  8
1
  6
Continuous
370
    15
100
AcDbLine
 10
216.8027086782
 20
6.7980059343
 30
0.0
 11
216.8027086782
 21
6.7385053371
 31
0.0
  0
SPLINE
  5
B0
330
1F
100
AcDbEntity
  8
1
  6
Continuous
370
    15
100
AcDbSpline
210
0.0
220
0.0
230
1.0
 70
     8
 71
     3
 72
     8
 73
     4
 74
     0
 42
0.000000001
 43
0.00000001
 40
0.0
 40
0.0
 40
0.0
 40
0.0
 40
1.0
 40
1.0
 40
1.0
 40
1.0
 10
216.8027086781506
 20
6.738505337127244
 30
0.0
 10
214.478245875928
 20
8.18108298195961
 30
0.0
 10
212.145170735223
 20
9.610039348766087
 30
0.0
 10
209.8108598349183
 20
11.03680328051813
 30
0.0
  0
LINE
  5
B1
330
1F
100
AcDbEntity
  8
1
  6
Continuous
370
    15
100
AcDbLine
 10
209.8108598349
 20
11.0368032805
 30
0.0
 11
210.3120574672
 21
1.5097744536
 31
0.0
  0
LINE
  5
B2
330
1F
100
AcDbEntity
  8
1
  6
Continuous
370
    15
100
AcDbLine
 10
216.9027086782
 20
6.7385053371
 30
0.0
 11
216.8027086782
 21
6.7385053371
 31
0.0
  0
LINE
  5
B3
330
1F
100
AcDbEntity
  8
1
  6
Continuous
370
    15
100
AcDbLine
 10
216.9027086782
 20
-6.4842252698
 30
0.0
 11
216.9027086782
 21
6.7385053371
 31
0.0
  0
LINE
  5
B4
330
1F
100
AcDbEntity
  8
1
  6
Continuous
370
    15
100
AcDbLine
 10
216.8027086782
 20
-6.4842252698
 30
0.0
 11
216.9027086782
 21
-6.4842252698
 31
0.0
  0
LINE
  5
B5
330
1F
100
AcDbEntity
  8
1
  6
Continuous
370
    15
100
AcDbLine
 10
200.5096913524
 20
6.5336240115
 30
0.0
 11
200.4733925853
 21
7.2236101119
 31
0.0
  0
LINE
  5
B6
330
1F
100
AcDbEntity
  8
1
  6
Continuous
370
    15
100
AcDbLine
 10
216.9027086782
 20
-6.4842252698
 30
0.0
 11
216.9027086782
 21
-6.8019940657
 31
0.0
  0
LINE
  5
B7
330
1F
100
AcDbEntity
  8
1
  6
Continuous
370
    15
100
AcDbLine
 10
216.9027086782
 20
6.7980059343
 30
0.0
 11
216.9027086782
 21
6.7385053371
 31
0.0
  0
ARC
  5
B8
330
1F
100
AcDbEntity
  8
1
  6
Continuous
370
    15
100
AcDbCircle
 10
205.154036488
 20
8.8004046498
 30
0.0
 40
2.656338492188776
100
AcDbArc
 50
273.0841703853
 51
234.9259507746
  0
DIMENSION
  5
B9
330
1F
100
AcDbEntity
  8
2
 62
     7
100
AcDbDimension
  2
_D
 10
216.9027086782
 20
35.1332954727
 30
0.0
 11
108.4527086782
 21
35.1332954727
 31
0.0
 70
   160
  1
<>
 71
     2
 42
216.9
  3
SLDDIMSTYLE0
100
AcDbAlignedDimension
 13
0.0027086782
 23
-0.0019940657
 33
0.0
 14
216.9027086782
 24
-0.0019940657
 34
0.0
100
AcDbRotatedDimension
  0
DIMENSION
  5
C5
330
1F
100
AcDbEntity
  8
2
 62
     7
100
AcDbDimension
  2
_D_1
 10
-5.997291321799999
 20
12.4980059343
 30
0.0
 11
-5.9972913218
 21
-0.0019940657
 31
0.0
 70
   160
  1
%%c<>
 71
     2
 42
25.0
  3
SLDDIMSTYLE0
100
AcDbAlignedDimension
 13
1.0027086782
 23
-12.5019940657
 33
0.0
 14
1.0027086782
 24
12.4980059343
 34
0.0
 50
90.0
100
AcDbRotatedDimension
  0
DIMENSION
  5
D0
330
1F
100
AcDbEntity
  8
2
 62
     7
100
AcDbDimension
  2
_D_2
 10
222.9027086782
 20
-0.0019940656999999
 30
0.0
 11
222.9027086782
 21
8.4980059343
 31
0.0
 70
   160
  1
<>
 71
     2
 42
17.0
  3
SLDDIMSTYLE1
100
AcDbAlignedDimension
 13
200.0027086782
 23
16.9980059343
 33
0.0
 14
216.9027086782
 24
-0.0019940657
 34
0.0
 50
90.0
100
AcDbRotatedDimension
  0
DIMENSION
  5
DB
330
1F
100
AcDbEntity
  8
2
 62
     7
100
AcDbDimension
  2
_D_3
 10
151.0427086782
 20
23.1332954727
 30
0.0
 11
183.9727086782
 21
23.1332954727
 31
0.0
 70
   160
  1
<>
 71
     2
 42
65.86000000000001
  3
SLDDIMSTYLE0
100
AcDbAlignedDimension
 13
216.9027086782
 23
-0.0019940657
 33
0.0
 14
151.0427086782
 24
-0.0019940657
 34
0.0
100
AcDbRotatedDimension
  0
DIMENSION
  5
E5
330
1F
100
AcDbEntity
  8
2
100
AcDbDimension
  2
_D_4
 10
200.0027086782
 20
29.1332954727
 30
0.0
 11
100.0027086782
 21
29.1332954727
 31
0.0
 70
   160
  1
<>
 71
     2
 42
-1.0
  3
SLDDIMSTYLE0
100
AcDbAlignedDimension
 13
0.0027086782
 23
-0.0019940657
 33
0.0
 14
200.0027086782
 24
-0.0019940657
 34
0.0
100
AcDbRotatedDimension
  0
INSERT
  5
FA
330
1F
100
AcDbEntity
  8
4
 62
     2
100
AcDbBlockReference
  2
SW_CENTERMARKSYMBOL_0
 10
139.8836073308
 20
6.6862783167
 30
0.0
  0
INSERT
  5
106
330
1F
100
AcDbEntity
  8
4
 62
     2
100
AcDbBlockReference
  2
SW_CENTERMARKSYMBOL_1
 10
139.8836073308
 20
-11.6637216833
 30
0.0
  0
ENDSEC
  0
SECTION
  2
OBJECTS
  0
DICTIONARY
  5
C
330
0
100
AcDbDictionary
281
     1
  3
ACAD_GROUP
350
D
  3
ACAD_IMAGE_VARS
350
128
  3
ACAD_LAYOUT
350
1A
  3
ACAD_MLINESTYLE
350
17
  3
ACAD_PLOTSETTINGS
350
19
  3
ACAD_PLOTSTYLENAME
350
E
  3
ACAD_SCALELIST
350
47
  3
APPDATA
350
126
  3
DWGPROPS
350
135
  0
DICTIONARY
  5
D
102
{ACAD_REACTORS
330
C
102
}
330
C
100
AcDbDictionary
281
     1
  0
RASTERVARIABLES
  5
128
102
{ACAD_REACTORS
330
C
102
}
330
C
100
AcDbRasterVariables
 90
        0
 70
     1
 71
     1
 72
     1
  0
DICTIONARY
  5
1A
102
{ACAD_REACTORS
330
C
102
}
330
C
100
AcDbDictionary
281
     1
  3
Layout1
350
1E
  3
Layout2
350
26
  3
Model
350
22
  0
DICTIONARY
  5
17
102
{ACAD_REACTORS
330
C
102
}
330
C
100
AcDbDictionary
281
     1
  3
Standard
350
18
  0
DICTIONARY
  5
19
102
{ACAD_REACTORS
330
C
102
}
330
C
100
AcDbDictionary
281
     1
  0
ACDBDICTIONARYWDFLT
  5
E
102
{ACAD_REACTORS
330
C
102
}
330
C
100
AcDbDictionary
281
     1
  3
Normal
350
F
100
AcDbDictionaryWithDefault
340
F
  0
DICTIONARY
  5
47
102
{ACAD_REACTORS
330
C
102
}
330
C
100
AcDbDictionary
281
     1
  3
A0
350
48
  3
A1
350
49
  3
A2
350
4A
  3
A3
350
4B
  3
A4
350
4C
  3
A5
350
4D
  3
A6
350
4E
  3
A7
350
4F
  3
A8
350
50
  3
A9
350
51
  3
B0
350
52
  3
B1
350
53
  3
B2
350
54
  3
B3
350
55
  3
B4
350
56
  3
B5
350
57
  3
B6
350
58
  3
B7
350
59
  3
B8
350
5A
  3
B9
350
5B
  3
C0
350
5C
  3
C1
350
5D
  3
C2
350
5E
  3
C3
350
5F
  3
C4
350
60
  3
C5
350
61
  3
C6
350
62
  3
C7
350
63
  3
C8
350
64
  3
C9
350
65
  3
D0
350
66
  3
D1
350
67
  3
D2
350
68
  0
DICTIONARY
  5
126
102
{ACAD_REACTORS
330
C
102
}
330
C
100
AcDbDictionary
281
     1
  0
XRECORD
  5
135
102
{ACAD_REACTORS
330
C
102
}
330
C
100
AcDbXrecord
280
     1
  1
DWGPROPS COOKIE
  2

  3

  4

  6

  7

  8
piechottad
  9

300
=
301
=
302
=
303
=
304
=
305
=
306
=
307
=
308
=
309
=
 40
0.0
 41
2456798.558451042
 42
2457031.565520092
  1

 90
        0
  0
LAYOUT
  5
1E
102
{ACAD_REACTORS
330
1A
102
}
330
1A
100
AcDbPlotSettings
  1

  2
none_device
  4

  6

 40
0.0
 41
0.0
 42
0.0
 43
0.0
 44
0.0
 45
0.0
 46
0.0
 47
0.0
 48
0.0
 49
0.0
140
0.0
141
0.0
142
1.0
143
1.0
 70
   688
 72
     1
 73
     0
 74
     5
  7

 75
    16
147
1.0
148
0.0
149
0.0
100
AcDbLayout
  1
Layout1
 70
     1
 71
     1
 10
0.0
 20
0.0
 11
420.0
 21
297.0
 12
0.0
 22
0.0
 32
0.0
 14
1.000000000000000E+20
 24
1.000000000000000E+20
 34
1.000000000000000E+20
 15
-1.000000000000000E+20
 25
-1.000000000000000E+20
 35
-1.000000000000000E+20
146
0.0
 13
0.0
 23
0.0
 33
0.0
 16
1.0
 26
0.0
 36
0.0
 17
0.0
 27
1.0
 37
0.0
 76
     0
330
1B
  0
LAYOUT
  5
26
102
{ACAD_REACTORS
330
1A
102
}
330
1A
100
AcDbPlotSettings
  1

  2
none_device
  4

  6

 40
0.0
 41
0.0
 42
0.0
 43
0.0
 44
0.0
 45
0.0
 46
0.0
 47
0.0
 48
0.0
 49
0.0
140
0.0
141
0.0
142
1.0
143
1.0
 70
   688
 72
     1
 73
     0
 74
     5
  7

 75
    16
147
1.0
148
0.0
149
0.0
100
AcDbLayout
  1
Layout2
 70
     1
 71
     2
 10
0.0
 20
0.0
 11
0.0
 21
0.0
 12
0.0
 22
0.0
 32
0.0
 14
0.0
 24
0.0
 34
0.0
 15
0.0
 25
0.0
 35
0.0
146
0.0
 13
0.0
 23
0.0
 33
0.0
 16
1.0
 26
0.0
 36
0.0
 17
0.0
 27
1.0
 37
0.0
 76
     0
330
23
  0
LAYOUT
  5
22
102
{ACAD_REACTORS
330
1A
102
}
330
1A
100
AcDbPlotSettings
  1

  2
none_device
  4
Letter_(8.50_x_11.00_Inches)
  6

 40
6.35
 41
6.35
 42
6.35000508
 43
6.35000508
 44
215.9
 45
279.4
 46
0.0
 47
0.0
 48
0.0
 49
0.0
140
0.0
141
0.0
142
1.0
143
1.0
 70
  1712
 72
     1
 73
     0
 74
     0
  7

 75
     0
147
1.0
148
0.0
149
0.0
100
AcDbLayout
  1
Model
 70
     1
 71
     0
 10
0.0
 20
0.0
 11
297.0
 21
210.0
 12
0.0
 22
0.0
 32
0.0
 14
0.0
 24
0.0
 34
0.0
 15
297.0
 25
210.0
 35
0.0
146
0.0
 13
0.0
 23
0.0
 33
0.0
 16
1.0
 26
0.0
 36
0.0
 17
0.0
 27
1.0
 37
0.0
 76
     0
330
1F
331
29
  0
MLINESTYLE
  5
18
102
{ACAD_REACTORS
330
17
102
}
330
17
100
AcDbMlineStyle
  2
Standard
 70
     0
  3

 62
   256
 51
90.0
 52
90.0
 71
     2
 49
0.5
 62
   256
  6
BYLAYER
 49
-0.5
 62
   256
  6
BYLAYER
  0
ACDBPLACEHOLDER
  5
F
102
{ACAD_REACTORS
330
E
102
}
330
E
  0
SCALE
  5
48
102
{ACAD_REACTORS
330
47
102
}
330
47
100
AcDbScale
 70
     0
300
1:1
140
1.0
141
1.0
290
     1
  0
SCALE
  5
49
102
{ACAD_REACTORS
330
47
102
}
330
47
100
AcDbScale
 70
     0
300
1:2
140
1.0
141
2.0
290
     0
  0
SCALE
  5
4A
102
{ACAD_REACTORS
330
47
102
}
330
47
100
AcDbScale
 70
     0
300
1:4
140
1.0
141
4.0
290
     0
  0
SCALE
  5
4B
102
{ACAD_REACTORS
330
47
102
}
330
47
100
AcDbScale
 70
     0
300
1:5
140
1.0
141
5.0
290
     0
  0
SCALE
  5
4C
102
{ACAD_REACTORS
330
47
102
}
330
47
100
AcDbScale
 70
     0
300
1:8
140
1.0
141
8.0
290
     0
  0
SCALE
  5
4D
102
{ACAD_REACTORS
330
47
102
}
330
47
100
AcDbScale
 70
     0
300
1:10
140
1.0
141
10.0
290
     0
  0
SCALE
  5
4E
102
{ACAD_REACTORS
330
47
102
}
330
47
100
AcDbScale
 70
     0
300
1:16
140
1.0
141
16.0
290
     0
  0
SCALE
  5
4F
102
{ACAD_REACTORS
330
47
102
}
330
47
100
AcDbScale
 70
     0
300
1:20
140
1.0
141
20.0
290
     0
  0
SCALE
  5
50
102
{ACAD_REACTORS
330
47
102
}
330
47
100
AcDbScale
 70
     0
300
1:30
140
1.0
141
30.0
290
     0
  0
SCALE
  5
51
102
{ACAD_REACTORS
330
47
102
}
330
47
100
AcDbScale
 70
     0
300
1:40
140
1.0
141
40.0
290
     0
  0
SCALE
  5
52
102
{ACAD_REACTORS
330
47
102
}
330
47
100
AcDbScale
 70
     0
300
1:50
140
1.0
141
50.0
290
     0
  0
SCALE
  5
53
102
{ACAD_REACTORS
330
47
102
}
330
47
100
AcDbScale
 70
     0
300
1:100
140
1.0
141
100.0
290
     0
  0
SCALE
  5
54
102
{ACAD_REACTORS
330
47
102
}
330
47
100
AcDbScale
 70
     0
300
2:1
140
2.0
141
1.0
290
     0
  0
SCALE
  5
55
102
{ACAD_REACTORS
330
47
102
}
330
47
100
AcDbScale
 70
     0
300
4:1
140
4.0
141
1.0
290
     0
  0
SCALE
  5
56
102
{ACAD_REACTORS
330
47
102
}
330
47
100
AcDbScale
 70
     0
300
8:1
140
8.0
141
1.0
290
     0
  0
SCALE
  5
57
102
{ACAD_REACTORS
330
47
102
}
330
47
100
AcDbScale
 70
     0
300
10:1
140
10.0
141
1.0
290
     0
  0
SCALE
  5
58
102
{ACAD_REACTORS
330
47
102
}
330
47
100
AcDbScale
 70
     0
300
100:1
140
100.0
141
1.0
290
     0
  0
SCALE
  5
59
102
{ACAD_REACTORS
330
47
102
}
330
47
100
AcDbScale
 70
     0
300
1/128" = 1'-0"
140
0.0078125
141
12.0
290
     0
  0
SCALE
  5
5A
102
{ACAD_REACTORS
330
47
102
}
330
47
100
AcDbScale
 70
     0
300
1/64" = 1'-0"
140
0.015625
141
12.0
290
     0
  0
SCALE
  5
5B
102
{ACAD_REACTORS
330
47
102
}
330
47
100
AcDbScale
 70
     0
300
1/32" = 1'-0"
140
0.03125
141
12.0
290
     0
  0
SCALE
  5
5C
102
{ACAD_REACTORS
330
47
102
}
330
47
100
AcDbScale
 70
     0
300
1/16" = 1'-0"
140
0.0625
141
12.0
290
     0
  0
SCALE
  5
5D
102
{ACAD_REACTORS
330
47
102
}
330
47
100
AcDbScale
 70
     0
300
3/32" = 1'-0"
140
0.09375
141
12.0
290
     0
  0
SCALE
  5
5E
102
{ACAD_REACTORS
330
47
102
}
330
47
100
AcDbScale
 70
     0
300
1/8" = 1'-0"
140
0.125
141
12.0
290
     0
  0
SCALE
  5
5F
102
{ACAD_REACTORS
330
47
102
}
330
47
100
AcDbScale
 70
     0
300
3/16" = 1'-0"
140
0.1875
141
12.0
290
     0
  0
SCALE
  5
60
102
{ACAD_REACTORS
330
47
102
}
330
47
100
AcDbScale
 70
     0
300
1/4" = 1'-0"
140
0.25
141
12.0
290
     0
  0
SCALE
  5
61
102
{ACAD_REACTORS
330
47
102
}
330
47
100
AcDbScale
 70
     0
300
3/8" = 1'-0"
140
0.375
141
12.0
290
     0
  0
SCALE
  5
62
102
{ACAD_REACTORS
330
47
102
}
330
47
100
AcDbScale
 70
     0
300
1/2" = 1'-0"
140
0.5
141
12.0
290
     0
  0
SCALE
  5
63
102
{ACAD_REACTORS
330
47
102
}
330
47
100
AcDbScale
 70
     0
300
3/4" = 1'-0"
140
0.75
141
12.0
290
     0
  0
SCALE
  5
64
102
{ACAD_REACTORS
330
47
102
}
330
47
100
AcDbScale
 70
     0
300
1" = 1'-0"
140
1.0
141
12.0
290
     0
  0
SCALE
  5
65
102
{ACAD_REACTORS
330
47
102
}
330
47
100
AcDbScale
 70
     0
300
1-1/2" = 1'-0"
140
1.5
141
12.0
290
     0
  0
SCALE
  5
66
102
{ACAD_REACTORS
330
47
102
}
330
47
100
AcDbScale
 70
     0
300
3" = 1'-0"
140
3.0
141
12.0
290
     0
  0
SCALE
  5
67
102
{ACAD_REACTORS
330
47
102
}
330
47
100
AcDbScale
 70
     0
300
6" = 1'-0"
140
6.0
141
12.0
290
     0
  0
SCALE
  5
68
102
{ACAD_REACTORS
330
47
102
}
330
47
100
AcDbScale
 70
     0
300
1'-0" = 1'-0"
140
12.0
141
12.0
290
     0
  0
ENDSEC
  0
EOF
