  0
SECTION
  2
HEADER
  9
$ACADVER
  1
AC1021
  9
$ACADMAINTVER
 70
    25
  9
$DWGCODEPAGE
  3
ANSI_1252
  9
$INSBASE
 10
0.0
 20
0.0
 30
0.0
  9
$EXTMIN
 10
0.0
 20
0.0
 30
0.0
  9
$EXTMAX
 10
297.0
 20
210.0
 30
0.0
  9
$LIMMIN
 10
0.0
 20
0.0
  9
$LIMMAX
 10
297.0
 20
210.0
  9
$ORTHOMODE
 70
     0
  9
$REGENMODE
 70
     1
  9
$FILLMODE
 70
     1
  9
$QTEXTMODE
 70
     0
  9
$MIRRTEXT
 70
     1
  9
$LTSCALE
 40
1.0
  9
$ATTMODE
 70
     1
  9
$TEXTSIZE
 40
3.5
  9
$TRACEWID
 40
1.0
  9
$TEXTSTYLE
  7
Standard
  9
$CLAYER
  8
0
  9
$CELTYPE
  6
ByLayer
  9
$CECOLOR
 62
   256
  9
$CELTSCALE
 40
1.0
  9
$DISPSILH
 70
     0
  9
$DIMSCALE
 40
1.0
  9
$DIMASZ
 40
3.302
  9
$DIMEXO
 40
1.0
  9
$DIMDLI
 40
3.75
  9
$DIMRND
 40
0.0
  9
$DIMDLE
 40
0.0
  9
$DIMEXE
 40
1.0
  9
$DIMTP
 40
0.0
  9
$DIMTM
 40
0.0
  9
$DIMTXT
 40
3.5
  9
$DIMCEN
 40
2.5
  9
$DIMTSZ
 40
0.0
  9
$DIMTOL
 70
     0
  9
$DIMLIM
 70
     0
  9
$DIMTIH
 70
     1
  9
$DIMTOH
 70
     1
  9
$DIMSE1
 70
     0
  9
$DIMSE2
 70
     0
  9
$DIMTAD
 70
     1
  9
$DIMZIN
 70
     0
  9
$DIMBLK
  1

  9
$DIMASO
 70
     1
  9
$DIMSHO
 70
     1
  9
$DIMPOST
  1

  9
$DIMAPOST
  1

  9
$DIMALT
 70
     0
  9
$DIMALTD
 70
     3
  9
$DIMALTF
 40
0.0393700787
  9
$DIMLFAC
 40
1.0
  9
$DIMTOFL
 70
     1
  9
$DIMTVP
 40
0.0
  9
$DIMTIX
 70
     0
  9
$DIMSOXD
 70
     0
  9
$DIMSAH
 70
     0
  9
$DIMBLK1
  1

  9
$DIMBLK2
  1

  9
$DIMSTYLE
  2
ISO-25
  9
$DIMCLRD
 70
     0
  9
$DIMCLRE
 70
     0
  9
$DIMCLRT
 70
     0
  9
$DIMTFAC
 40
1.0
  9
$DIMGAP
 40
1.524
  9
$DIMJUST
 70
     0
  9
$DIMSD1
 70
     0
  9
$DIMSD2
 70
     0
  9
$DIMTOLJ
 70
     0
  9
$DIMTZIN
 70
     0
  9
$DIMALTZ
 70
     0
  9
$DIMALTTZ
 70
     0
  9
$DIMUPT
 70
     0
  9
$DIMDEC
 70
     2
  9
$DIMTDEC
 70
     2
  9
$DIMALTU
 70
     2
  9
$DIMALTTD
 70
     3
  9
$DIMTXSTY
  7
Standard
  9
$DIMAUNIT
 70
     0
  9
$DIMADEC
 70
     2
  9
$DIMALTRND
 40
0.0
  9
$DIMAZIN
 70
     0
  9
$DIMDSEP
 70
    44
  9
$DIMATFIT
 70
     3
  9
$DIMFRAC
 70
     0
  9
$DIMLDRBLK
  1

  9
$DIMLUNIT
 70
     2
  9
$DIMLWD
 70
    -2
  9
$DIMLWE
 70
    -2
  9
$DIMTMOVE
 70
     0
  9
$DIMFXL
 40
1.0
  9
$DIMFXLON
 70
     0
  9
$DIMJOGANG
 40
0.7853981634
  9
$DIMTFILL
 70
     0
  9
$DIMTFILLCLR
 70
     0
  9
$DIMARCSYM
 70
     0
  9
$DIMLTYPE
  6

  9
$DIMLTEX1
  6

  9
$DIMLTEX2
  6

  9
$LUNITS
 70
     2
  9
$LUPREC
 70
     2
  9
$SKETCHINC
 40
1.0
  9
$FILLETRAD
 40
10.0
  9
$AUNITS
 70
     0
  9
$AUPREC
 70
     2
  9
$MENU
  1
.
  9
$ELEVATION
 40
0.0
  9
$PELEVATION
 40
0.0
  9
$THICKNESS
 40
0.0
  9
$LIMCHECK
 70
     0
  9
$CHAMFERA
 40
10.0
  9
$CHAMFERB
 40
10.0
  9
$CHAMFERC
 40
20.0
  9
$CHAMFERD
 40
0.0
  9
$SKPOLY
 70
     0
  9
$TDCREATE
 40
2456507.533379086
  9
$TDUCREATE
 40
2456507.450045752
  9
$TDUPDATE
 40
2456507.533379641
  9
$TDUUPDATE
 40
2456507.450046308
  9
$TDINDWG
 40
0.0000000116
  9
$TDUSRTIMER
 40
0.0000000116
  9
$USRTIMER
 70
     1
  9
$ANGBASE
 50
0.0
  9
$ANGDIR
 70
     0
  9
$PDMODE
 70
     0
  9
$PDSIZE
 40
-1.0
  9
$PLINEWID
 40
0.0
  9
$SPLFRAME
 70
     0
  9
$SPLINETYPE
 70
     6
  9
$SPLINESEGS
 70
     8
  9
$HANDSEED
  5
F9
  9
$SURFTAB1
 70
     6
  9
$SURFTAB2
 70
     6
  9
$SURFTYPE
 70
     6
  9
$SURFU
 70
     6
  9
$SURFV
 70
     6
  9
$UCSBASE
  2

  9
$UCSNAME
  2

  9
$UCSORG
 10
0.0
 20
0.0
 30
0.0
  9
$UCSXDIR
 10
1.0
 20
0.0
 30
0.0
  9
$UCSYDIR
 10
0.0
 20
1.0
 30
0.0
  9
$UCSORTHOREF
  2

  9
$UCSORTHOVIEW
 70
     0
  9
$UCSORGTOP
 10
0.0
 20
0.0
 30
0.0
  9
$UCSORGBOTTOM
 10
0.0
 20
0.0
 30
0.0
  9
$UCSORGLEFT
 10
0.0
 20
0.0
 30
0.0
  9
$UCSORGRIGHT
 10
0.0
 20
0.0
 30
0.0
  9
$UCSORGFRONT
 10
0.0
 20
0.0
 30
0.0
  9
$UCSORGBACK
 10
0.0
 20
0.0
 30
0.0
  9
$PUCSBASE
  2

  9
$PUCSNAME
  2

  9
$PUCSORG
 10
0.0
 20
0.0
 30
0.0
  9
$PUCSXDIR
 10
1.0
 20
0.0
 30
0.0
  9
$PUCSYDIR
 10
0.0
 20
1.0
 30
0.0
  9
$PUCSORTHOREF
  2

  9
$PUCSORTHOVIEW
 70
     0
  9
$PUCSORGTOP
 10
0.0
 20
0.0
 30
0.0
  9
$PUCSORGBOTTOM
 10
0.0
 20
0.0
 30
0.0
  9
$PUCSORGLEFT
 10
0.0
 20
0.0
 30
0.0
  9
$PUCSORGRIGHT
 10
0.0
 20
0.0
 30
0.0
  9
$PUCSORGFRONT
 10
0.0
 20
0.0
 30
0.0
  9
$PUCSORGBACK
 10
0.0
 20
0.0
 30
0.0
  9
$USERI1
 70
     0
  9
$USERI2
 70
     0
  9
$USERI3
 70
     0
  9
$USERI4
 70
     0
  9
$USERI5
 70
     0
  9
$USERR1
 40
0.0
  9
$USERR2
 40
0.0
  9
$USERR3
 40
0.0
  9
$USERR4
 40
0.0
  9
$USERR5
 40
0.0
  9
$WORLDVIEW
 70
     1
  9
$SHADEDGE
 70
     3
  9
$SHADEDIF
 70
    70
  9
$TILEMODE
 70
     1
  9
$MAXACTVP
 70
    64
  9
$PINSBASE
 10
0.0
 20
0.0
 30
0.0
  9
$PLIMCHECK
 70
     0
  9
$PEXTMIN
 10
1.0000000000E+20
 20
1.0000000000E+20
 30
1.0000000000E+20
  9
$PEXTMAX
 10
-1.0000000000E+20
 20
-1.0000000000E+20
 30
-1.0000000000E+20
  9
$PLIMMIN
 10
0.0
 20
0.0
  9
$PLIMMAX
 10
420.0
 20
297.0
  9
$UNITMODE
 70
     0
  9
$VISRETAIN
 70
     1
  9
$PLINEGEN
 70
     0
  9
$PSLTSCALE
 70
     1
  9
$TREEDEPTH
 70
  3020
  9
$CMLSTYLE
  2
Standard
  9
$CMLJUST
 70
     0
  9
$CMLSCALE
 40
20.0
  9
$PROXYGRAPHICS
 70
     1
  9
$MEASUREMENT
 70
     1
  9
$CELWEIGHT
370
    -1
  9
$ENDCAPS
280
     0
  9
$JOINSTYLE
280
     0
  9
$LWDISPLAY
290
     1
  9
$INSUNITS
 70
     4
  9
$HYPERLINKBASE
  1

  9
$STYLESHEET
  1

  9
$XEDIT
290
     1
  9
$CEPSNTYPE
380
     0
  9
$PSTYLEMODE
290
     1
  9
$FINGERPRINTGUID
  2
{2F78A206-4859-44EE-870E-BC07D37F44A0}
  9
$VERSIONGUID
  2
{FAEB1C32-E019-11D5-929B-00C0DF256EC4}
  9
$EXTNAMES
290
     1
  9
$PSVPSCALE
 40
0.0
  9
$OLESTARTUP
290
     0
  9
$SORTENTS
280
   127
  9
$INDEXCTL
280
     0
  9
$HIDETEXT
280
     1
  9
$XCLIPFRAME
290
     0
  9
$HALOGAP
280
     0
  9
$OBSCOLOR
 70
   257
  9
$OBSLTYPE
280
     0
  9
$INTERSECTIONDISPLAY
280
     0
  9
$INTERSECTIONCOLOR
 70
   257
  9
$DIMASSOC
280
     2
  9
$PROJECTNAME
  1

  9
$CAMERADISPLAY
290
     0
  9
$LENSLENGTH
 40
50.0
  9
$CAMERAHEIGHT
 40
0.0
  9
$STEPSPERSEC
 40
2.0
  9
$STEPSIZE
 40
6.0
  9
$3DDWFPREC
 40
2.0
  9
$PSOLWIDTH
 40
5.0
  9
$PSOLHEIGHT
 40
80.0
  9
$LOFTANG1
 40
1.5707963268
  9
$LOFTANG2
 40
1.5707963268
  9
$LOFTMAG1
 40
0.0
  9
$LOFTMAG2
 40
0.0
  9
$LOFTPARAM
 70
     7
  9
$LOFTNORMALS
280
     1
  9
$LATITUDE
 40
37.795
  9
$LONGITUDE
 40
-122.394
  9
$NORTHDIRECTION
 40
0.0
  9
$TIMEZONE
 70
 -8000
  9
$LIGHTGLYPHDISPLAY
280
     1
  9
$TILEMODELIGHTSYNCH
280
     1
  9
$SOLIDHIST
280
     1
  9
$SHOWHIST
280
     1
  9
$DWFFRAME
280
     2
  9
$DGNFRAME
280
     2
  9
$REALWORLDSCALE
290
     1
  9
$INTERFERECOLOR
 62
   256
  9
$CSHADOW
280
     0
  9
$SHADOWPLANELOCATION
 40
0.0
  0
ENDSEC
  0
SECTION
  2
CLASSES
  0
CLASS
  1
ACDBDICTIONARYWDFLT
  2
AcDbDictionaryWithDefault
  3
ObjectDBX Classes
 90
        0
 91
        4
280
     0
281
     0
  0
CLASS
  1
VISUALSTYLE
  2
AcDbVisualStyle
  3
ObjectDBX Classes
 90
     4095
 91
        4
280
     0
281
     0
  0
CLASS
  1
MATERIAL
  2
AcDbMaterial
  3
ObjectDBX Classes
 90
     1153
 91
        4
280
     0
281
     0
  0
ENDSEC
  0
SECTION
  2
TABLES
  0
TABLE
  2
VPORT
  5
8
330
0
100
AcDbSymbolTable
 70
     1
  0
VPORT
  5
29
330
8
100
AcDbSymbolTableRecord
100
AcDbViewportTableRecord
  2
*Active
 70
     0
 10
0.0
 20
0.0
 11
1.0
 21
1.0
 12
148.5
 22
105.0
 13
0.0
 23
0.0
 14
10.0
 24
10.0
 15
10.0
 25
10.0
 16
0.0
 26
0.0
 36
1.0
 17
0.0
 27
0.0
 37
0.0
 40
210.0
 41
1.4142857143
 42
50.0
 43
0.0
 44
0.0
 50
0.0
 51
0.0
 71
     0
 72
  2000
 73
     1
 74
     3
 75
     0
 76
     0
 77
     0
 78
     0
281
     0
 65
     1
110
0.0
120
0.0
130
0.0
111
1.0
121
0.0
131
0.0
112
0.0
122
1.0
132
0.0
 79
     0
146
0.0
 60
     3
 61
     5
292
     1
282
     1
141
0.0
142
0.0
 63
   250
  0
ENDTAB
  0
TABLE
  2
LTYPE
  5
5
330
0
100
AcDbSymbolTable
 70
     8
  0
LTYPE
  5
14
330
5
100
AcDbSymbolTableRecord
100
AcDbLinetypeTableRecord
  2
ByBlock
 70
     0
  3

 72
    65
 73
     0
 40
0.0
  0
LTYPE
  5
15
330
5
100
AcDbSymbolTableRecord
100
AcDbLinetypeTableRecord
  2
ByLayer
 70
     0
  3

 72
    65
 73
     0
 40
0.0
  0
LTYPE
  5
16
330
5
100
AcDbSymbolTableRecord
100
AcDbLinetypeTableRecord
  2
Continuous
 70
     0
  3
Solid line
 72
    65
 73
     0
 40
0.0
  0
LTYPE
  5
3F
330
5
100
AcDbSymbolTableRecord
100
AcDbLinetypeTableRecord
  2
SLD-Durchgehend
 70
     0
  3
SolidWorks Line Style
 72
    65
 73
     0
 40
0.0
  0
LTYPE
  5
40
330
5
100
AcDbSymbolTableRecord
100
AcDbLinetypeTableRecord
  2
SLD-Gestrichelt
 70
     0
  3
SolidWorks Line Style
 72
    65
 73
     2
 40
1.905
 49
1.27
 74
     0
 49
-0.635
 74
     0
  0
LTYPE
  5
41
330
5
100
AcDbSymbolTableRecord
100
AcDbLinetypeTableRecord
  2
SLD-Phantom
 70
     0
  3
SolidWorks Line Style
 72
    65
 73
     6
 40
12.7
 49
6.35
 74
     0
 49
-1.27
 74
     0
 49
1.27
 74
     0
 49
-1.27
 74
     0
 49
1.27
 74
     0
 49
-1.27
 74
     0
  0
LTYPE
  5
42
330
5
100
AcDbSymbolTableRecord
100
AcDbLinetypeTableRecord
  2
SLD-Kette
 70
     0
  3
SolidWorks Line Style
 72
    65
 73
     4
 40
10.16
 49
6.35
 74
     0
 49
-1.27
 74
     0
 49
1.27
 74
     0
 49
-1.27
 74
     0
  0
LTYPE
  5
43
330
5
100
AcDbSymbolTableRecord
100
AcDbLinetypeTableRecord
  2
SLD-Punktstrich
 70
     0
  3
SolidWorks Line Style
 72
    65
 73
     4
 40
19.05
 49
15.24
 74
     0
 49
-1.27
 74
     0
 49
1.27
 74
     0
 49
-1.27
 74
     0
  0
LTYPE
  5
44
330
5
100
AcDbSymbolTableRecord
100
AcDbLinetypeTableRecord
  2
SLD-Naht
 70
     0
  3
SolidWorks Line Style
 72
    65
 73
     2
 40
0.635
 49
0.0
 74
     0
 49
-0.635
 74
     0
  0
LTYPE
  5
45
330
5
100
AcDbSymbolTableRecord
100
AcDbLinetypeTableRecord
  2
SLD-Dicke-Dünne-Kette
 70
     0
  3
SolidWorks Line Style
 72
    65
 73
     4
 40
10.16
 49
6.35
 74
     0
 49
-1.27
 74
     0
 49
1.27
 74
     0
 49
-1.27
 74
     0
  0
ENDTAB
  0
TABLE
  2
LAYER
  5
2
330
0
100
AcDbSymbolTable
 70
     3
  0
LAYER
  5
10
330
2
100
AcDbSymbolTableRecord
100
AcDbLayerTableRecord
  2
0
 70
     0
 62
     7
  6
Continuous
370
    -3
390
F
347
3E
  0
LAYER
  5
46
330
2
100
AcDbSymbolTableRecord
100
AcDbLayerTableRecord
  2
1
 70
     0
 62
     4
  6
Continuous
370
    -1
390
F
347
3E
  0
LAYER
  5
47
330
2
100
AcDbSymbolTableRecord
100
AcDbLayerTableRecord
  2
2
 70
     0
 62
     7
  6
SLD-Durchgehend
370
    -3
390
F
347
3E
  0
ENDTAB
  0
TABLE
  2
STYLE
  5
3
330
0
100
AcDbSymbolTable
 70
     2
  0
STYLE
  5
11
330
3
100
AcDbSymbolTableRecord
100
AcDbTextStyleTableRecord
  2
Standard
 70
     0
 40
0.0
 41
1.0
 50
0.0
 71
     0
 42
3.5
  3
txt
  4

  0
STYLE
  5
7C
330
3
100
AcDbSymbolTableRecord
100
AcDbTextStyleTableRecord
  2
SLDTEXTSTYLE0
 70
     0
 40
0.0
 41
0.75
 50
0.0
 71
     0
 42
0.2
  3
TXT
  4

  0
ENDTAB
  0
TABLE
  2
VIEW
  5
6
330
0
100
AcDbSymbolTable
 70
     0
  0
ENDTAB
  0
TABLE
  2
UCS
  5
7
330
0
100
AcDbSymbolTable
 70
     0
  0
ENDTAB
  0
TABLE
  2
APPID
  5
9
330
0
100
AcDbSymbolTable
 70
     1
  0
APPID
  5
12
330
9
100
AcDbSymbolTableRecord
100
AcDbRegAppTableRecord
  2
ACAD
 70
     0
  0
ENDTAB
  0
TABLE
  2
DIMSTYLE
  5
A
330
0
100
AcDbSymbolTable
 70
     4
100
AcDbDimStyleTable
  0
DIMSTYLE
105
27
330
A
100
AcDbSymbolTableRecord
100
AcDbDimStyleTableRecord
  2
ISO-25
 70
     0
 41
2.5
 42
0.625
 43
3.75
 44
1.25
 73
     0
 74
     0
 77
     1
 78
     8
140
2.5
141
2.5
143
0.0393700787
147
0.625
171
     3
172
     1
178
     0
271
     2
272
     2
274
     3
278
    44
283
     0
284
     8
340
11
  0
DIMSTYLE
105
7D
102
{ACAD_REACTORS
330
7B
330
87
330
9E
102
}
330
A
100
AcDbSymbolTableRecord
100
AcDbDimStyleTableRecord
  2
SLDDIMSTYLE0
 70
     0
 41
3.302
 44
0.0
 45
0.000000001
 73
     0
 74
     0
 77
     1
 78
    12
 79
     3
140
3.5
147
0.875
173
     1
178
     0
271
     2
272
     2
276
     2
284
    12
340
7C
  0
DIMSTYLE
105
92
102
{ACAD_REACTORS
330
91
330
DF
330
EB
102
}
330
A
100
AcDbSymbolTableRecord
100
AcDbDimStyleTableRecord
  2
SLDDIMSTYLE1
 70
     0
 41
3.302
 44
0.0
 45
0.000000001
 73
     0
 74
     0
 77
     1
 78
    12
 79
     3
140
3.5
147
0.875
172
     1
173
     1
178
     0
271
     2
272
     2
276
     2
284
    12
289
     0
340
7C
  0
DIMSTYLE
105
A9
102
{ACAD_REACTORS
330
A8
102
}
330
A
100
AcDbSymbolTableRecord
100
AcDbDimStyleTableRecord
  2
SLDDIMSTYLE2
 70
     0
 41
3.302
 44
0.0
 45
0.000000001
 73
     0
 74
     0
 77
     1
 78
    12
 79
     3
140
3.5
141
0.0
147
0.875
172
     1
173
     1
178
     0
271
     2
272
     2
276
     2
284
    12
340
7C
341
AA
343
AA
  0
ENDTAB
  0
TABLE
  2
BLOCK_RECORD
  5
1
330
0
100
AcDbSymbolTable
 70
     9
  0
BLOCK_RECORD
  5
1F
330
1
100
AcDbSymbolTableRecord
100
AcDbBlockTableRecord
  2
*Model_Space
340
22
 70
     0
280
     1
281
     0
  0
BLOCK_RECORD
  5
1B
330
1
100
AcDbSymbolTableRecord
100
AcDbBlockTableRecord
  2
*Paper_Space
340
1E
 70
     0
280
     1
281
     0
  0
BLOCK_RECORD
  5
23
330
1
100
AcDbSymbolTableRecord
100
AcDbBlockTableRecord
  2
*Paper_Space0
340
26
 70
     0
280
     1
281
     0
  0
BLOCK_RECORD
  5
7E
330
1
100
AcDbSymbolTableRecord
100
AcDbBlockTableRecord
  2
_D
340
0
 70
     0
280
     1
281
     0
  0
BLOCK_RECORD
  5
88
330
1
100
AcDbSymbolTableRecord
100
AcDbBlockTableRecord
  2
_D_1
340
0
 70
     0
280
     1
281
     0
  0
BLOCK_RECORD
  5
93
330
1
100
AcDbSymbolTableRecord
100
AcDbBlockTableRecord
  2
_D_2
340
0
 70
     0
280
     1
281
     0
  0
BLOCK_RECORD
  5
9F
330
1
100
AcDbSymbolTableRecord
100
AcDbBlockTableRecord
  2
_D_3
340
0
 70
     0
280
     1
281
     0
  0
BLOCK_RECORD
  5
AA
330
1
100
AcDbSymbolTableRecord
100
AcDbBlockTableRecord
  2
_NONE
340
0
 70
     0
280
     1
281
     0
  0
BLOCK_RECORD
  5
AD
330
1
100
AcDbSymbolTableRecord
100
AcDbBlockTableRecord
  2
_D_4
340
0
 70
     0
280
     1
281
     0
  0
BLOCK_RECORD
  5
E0
330
1
100
AcDbSymbolTableRecord
100
AcDbBlockTableRecord
  2
_D_5
340
0
 70
     0
280
     1
281
     0
  0
BLOCK_RECORD
  5
EC
330
1
100
AcDbSymbolTableRecord
100
AcDbBlockTableRecord
  2
_D_6
340
0
 70
     0
280
     1
281
     0
  0
ENDTAB
  0
ENDSEC
  0
SECTION
  2
BLOCKS
  0
BLOCK
  5
20
330
1F
100
AcDbEntity
  8
0
100
AcDbBlockBegin
  2
*Model_Space
 70
     0
 10
0.0
 20
0.0
 30
0.0
  3
*Model_Space
  1

  0
ENDBLK
  5
21
330
1F
100
AcDbEntity
  8
0
100
AcDbBlockEnd
  0
BLOCK
  5
1C
330
1B
100
AcDbEntity
 67
     1
  8
0
100
AcDbBlockBegin
  2
*Paper_Space
 70
     0
 10
0.0
 20
0.0
 30
0.0
  3
*Paper_Space
  1

  0
ENDBLK
  5
1D
330
1B
100
AcDbEntity
 67
     1
  8
0
100
AcDbBlockEnd
  0
BLOCK
  5
24
330
23
100
AcDbEntity
  8
0
100
AcDbBlockBegin
  2
*Paper_Space0
 70
     0
 10
0.0
 20
0.0
 30
0.0
  3
*Paper_Space0
  1

  0
ENDBLK
  5
25
330
23
100
AcDbEntity
  8
0
100
AcDbBlockEnd
  0
BLOCK
  5
7F
330
7E
100
AcDbEntity
  8
0
100
AcDbBlockBegin
  2
_D
 70
     0
 10
0.0
 20
0.0
 30
0.0
  3
_D
  1

  0
SOLID
  5
81
330
7E
100
AcDbEntity
  8
2
 62
     7
420
 16777215
100
AcDbTrace
 10
41.6981221453
 20
5.9998362224
 30
0.0
 11
41.1901221453
 21
2.6978362224
 31
0.0
 12
42.2061221453
 22
2.6978362224
 32
0.0
 13
42.2061221453
 23
2.6978362224
 33
0.0
  0
SOLID
  5
82
330
7E
100
AcDbEntity
  8
2
 62
     7
420
 16777215
100
AcDbTrace
 10
41.6981221453
 20
-19.0001637776
 30
0.0
 11
42.2061221453
 21
-15.6981637776
 31
0.0
 12
41.1901221453
 22
-15.6981637776
 32
0.0
 13
41.1901221453
 23
-15.6981637776
 33
0.0
  0
LINE
  5
83
330
7E
100
AcDbEntity
  8
2
 62
     7
420
 16777215
100
AcDbLine
 10
33.4981221453
 20
5.9998362224
 30
0.0
 11
42.6981221453
 21
5.9998362224
 31
0.0
  0
LINE
  5
84
330
7E
100
AcDbEntity
  8
2
 62
     7
420
 16777215
100
AcDbLine
 10
20.4981221453
 20
-19.0001637776
 30
0.0
 11
42.6981221453
 21
-19.0001637776
 31
0.0
  0
LINE
  5
85
330
7E
100
AcDbEntity
  8
2
 62
     7
420
 16777215
100
AcDbLine
 10
41.6981221453
 20
5.9998362224
 30
0.0
 11
41.6981221453
 21
-19.0001637776
 31
0.0
  0
MTEXT
  5
86
330
7E
100
AcDbEntity
  8
2
 62
     7
420
 16777215
100
AcDbMText
 10
37.1863852307
 20
-10.5081500586
 30
-5.4997908101
 40
3.5
 41
0.0
 46
0.0
 71
     1
 72
     1
  1
25
  7
SLDTEXTSTYLE0
 11
-7.044195017643634E-15
 21
1.0
 31
0.0
 73
     1
 44
1.0
  0
ENDBLK
  5
80
330
7E
100
AcDbEntity
  8
0
100
AcDbBlockEnd
  0
BLOCK
  5
89
330
88
100
AcDbEntity
  8
0
100
AcDbBlockBegin
  2
_D_1
 70
     0
 10
0.0
 20
0.0
 30
0.0
  3
_D_1
  1

  0
SOLID
  5
8B
330
88
100
AcDbEntity
  8
2
 62
     7
420
 16777215
100
AcDbTrace
 10
47.6981221453
 20
-19.0001637776
 30
0.0
 11
48.2061221453
 21
-15.6981637776
 31
0.0
 12
47.1901221453
 22
-15.6981637776
 32
0.0
 13
47.1901221453
 23
-15.6981637776
 33
0.0
  0
SOLID
  5
8C
330
88
100
AcDbEntity
  8
2
 62
     7
420
 16777215
100
AcDbTrace
 10
47.6981221453
 20
10.9998362224
 30
0.0
 11
47.1901221453
 21
7.6978362224
 31
0.0
 12
48.2061221453
 22
7.6978362224
 32
0.0
 13
48.2061221453
 23
7.6978362224
 33
0.0
  0
LINE
  5
8D
330
88
100
AcDbEntity
  8
2
 62
     7
420
 16777215
100
AcDbLine
 10
20.4981221453
 20
-19.0001637776
 30
0.0
 11
48.6981221453
 21
-19.0001637776
 31
0.0
  0
LINE
  5
8E
330
88
100
AcDbEntity
  8
2
 62
     7
420
 16777215
100
AcDbLine
 10
18.9460913592
 20
10.9998362224
 30
0.0
 11
48.6981221453
 21
10.9998362224
 31
0.0
  0
LINE
  5
8F
330
88
100
AcDbEntity
  8
2
 62
     7
420
 16777215
100
AcDbLine
 10
47.6981221453
 20
-19.0001637776
 30
0.0
 11
47.6981221453
 21
10.9998362224
 31
0.0
  0
MTEXT
  5
90
330
88
100
AcDbEntity
  8
2
 62
     7
420
 16777215
100
AcDbMText
 10
43.1863852307
 20
-8.0081500586
 30
-5.4997908101
 40
3.5
 41
0.0
 46
0.0
 71
     1
 72
     1
  1
30
  7
SLDTEXTSTYLE0
 11
6.123233995736766E-17
 21
1.0
 31
0.0
 73
     1
 44
1.0
  0
ENDBLK
  5
8A
330
88
100
AcDbEntity
  8
0
100
AcDbBlockEnd
  0
BLOCK
  5
94
330
93
100
AcDbEntity
  8
0
100
AcDbBlockBegin
  2
_D_2
 70
     0
 10
0.0
 20
0.0
 30
0.0
  3
_D_2
  1

  0
SOLID
  5
96
330
93
100
AcDbEntity
  8
2
 62
     7
420
 16777215
100
AcDbTrace
 10
32.4981221453
 20
-29.0001637776
 30
0.0
 11
35.8001221453
 21
-29.5081637776
 31
0.0
 12
35.8001221453
 22
-28.4921637776
 32
0.0
 13
35.8001221453
 23
-28.4921637776
 33
0.0
  0
SOLID
  5
97
330
93
100
AcDbEntity
  8
2
 62
     7
420
 16777215
100
AcDbTrace
 10
19.4981221453
 20
-29.0001637776
 30
0.0
 11
16.1961221453
 21
-28.4921637776
 31
0.0
 12
16.1961221453
 22
-29.5081637776
 32
0.0
 13
16.1961221453
 23
-29.5081637776
 33
0.0
  0
LINE
  5
98
330
93
100
AcDbEntity
  8
2
 62
     7
420
 16777215
100
AcDbLine
 10
32.4981221453
 20
4.9998362224
 30
0.0
 11
32.4981221453
 21
-30.0001637776
 31
0.0
  0
LINE
  5
99
330
93
100
AcDbEntity
  8
2
 62
     7
420
 16777215
100
AcDbLine
 10
19.4981221453
 20
-20.0001637776
 30
0.0
 11
19.4981221453
 21
-30.0001637776
 31
0.0
  0
LINE
  5
9A
330
93
100
AcDbEntity
  8
2
 62
     7
420
 16777215
100
AcDbLine
 10
32.4981221453
 20
-29.0001637776
 30
0.0
 11
38.8481221453
 21
-29.0001637776
 31
0.0
  0
LINE
  5
9B
330
93
100
AcDbEntity
  8
2
 62
     7
420
 16777215
100
AcDbLine
 10
32.4981221453
 20
-29.0001637776
 30
0.0
 11
19.4981221453
 21
-29.0001637776
 31
0.0
  0
LINE
  5
9C
330
93
100
AcDbEntity
  8
2
 62
     7
420
 16777215
100
AcDbLine
 10
19.4981221453
 20
-29.0001637776
 30
0.0
 11
13.1481221453
 21
-29.0001637776
 31
0.0
  0
MTEXT
  5
9D
330
93
100
AcDbEntity
  8
2
 62
     7
420
 16777215
100
AcDbMText
 10
21.9901358642
 20
-24.488426863
 30
-5.4997908101
 40
3.5
 41
0.0
 46
0.0
 71
     1
 72
     1
  1
13
  7
SLDTEXTSTYLE0
 73
     1
 44
1.0
  0
ENDBLK
  5
95
330
93
100
AcDbEntity
  8
0
100
AcDbBlockEnd
  0
BLOCK
  5
A0
330
9F
100
AcDbEntity
  8
0
100
AcDbBlockBegin
  2
_D_3
 70
     0
 10
0.0
 20
0.0
 30
0.0
  3
_D_3
  1

  0
SOLID
  5
A2
330
9F
100
AcDbEntity
  8
2
 62
     7
420
 16777215
100
AcDbTrace
 10
32.4981221453
 20
-35.0001637776
 30
0.0
 11
29.1961221453
 21
-34.4921637776
 31
0.0
 12
29.1961221453
 22
-35.5081637776
 32
0.0
 13
29.1961221453
 23
-35.5081637776
 33
0.0
  0
SOLID
  5
A3
330
9F
100
AcDbEntity
  8
2
 62
     7
420
 16777215
100
AcDbTrace
 10
-5.5018778547
 20
-35.0001637776
 30
0.0
 11
-2.1998778547
 21
-35.5081637776
 31
0.0
 12
-2.1998778547
 22
-34.4921637776
 32
0.0
 13
-2.1998778547
 23
-34.4921637776
 33
0.0
  0
LINE
  5
A4
330
9F
100
AcDbEntity
  8
2
 62
     7
420
 16777215
100
AcDbLine
 10
32.4981221453
 20
4.9998362224
 30
0.0
 11
32.4981221453
 21
-36.0001637776
 31
0.0
  0
LINE
  5
A5
330
9F
100
AcDbEntity
  8
2
 62
     7
420
 16777215
100
AcDbLine
 10
-5.5018778547
 20
-15.0001637776
 30
0.0
 11
-5.5018778547
 21
-36.0001637776
 31
0.0
  0
LINE
  5
A6
330
9F
100
AcDbEntity
  8
2
 62
     7
420
 16777215
100
AcDbLine
 10
32.4981221453
 20
-35.0001637776
 30
0.0
 11
-5.5018778547
 21
-35.0001637776
 31
0.0
  0
MTEXT
  5
A7
330
9F
100
AcDbEntity
  8
2
 62
     7
420
 16777215
100
AcDbMText
 10
9.4901358642
 20
-30.488426863
 30
-5.4997908101
 40
3.5
 41
0.0
 46
0.0
 71
     1
 72
     1
  1
38
  7
SLDTEXTSTYLE0
 73
     1
 44
1.0
  0
ENDBLK
  5
A1
330
9F
100
AcDbEntity
  8
0
100
AcDbBlockEnd
  0
BLOCK
  5
AB
330
AA
100
AcDbEntity
  8
0
100
AcDbBlockBegin
  2
_NONE
 70
     0
 10
0.0
 20
0.0
 30
0.0
  3
_NONE
  1

  0
ENDBLK
  5
AC
330
AA
100
AcDbEntity
  8
0
100
AcDbBlockEnd
  0
BLOCK
  5
AE
330
AD
100
AcDbEntity
  8
0
100
AcDbBlockBegin
  2
_D_4
 70
     0
 10
0.0
 20
0.0
 30
0.0
  3
_D_4
  1

  0
ARC
  5
B0
330
AD
100
AcDbEntity
  8
2
 62
     7
420
 16777215
100
AcDbCircle
 10
56.9981221453
 20
5.9998362224
 30
0.0
 40
37.49999999999999
100
AcDbArc
 50
43.4724745578
 51
189.6636003747
  0
SOLID
  5
B1
330
AD
100
AcDbEntity
  8
2
 62
     7
420
 16777215
100
AcDbTrace
 10
83.5146264398
 20
32.5163405169
 30
0.0
 11
86.2087032761
 21
34.4919968636
 31
0.0
 12
85.4902827864
 22
35.2104173533
 32
0.0
 13
85.4902827864
 23
35.2104173533
 33
0.0
  0
LINE
  5
B2
330
AD
100
AcDbEntity
  8
2
 62
     7
420
 16777215
100
AcDbLine
 10
83.5146264398
 20
32.5163405169
 30
0.0
 11
100.3476837518
 21
49.349397829
 31
0.0
  0
LINE
  5
B3
330
AD
100
AcDbEntity
  8
2
 62
     7
420
 16777215
100
AcDbLine
 10
83.5146264398
 20
32.5163405169
 30
0.0
 11
30.4816178508
 21
-20.5166680721
 31
0.0
  0
MTEXT
  5
B4
330
AD
100
AcDbEntity
  8
2
 62
     7
420
 16777215
100
AcDbMText
 10
87.7594358837
 20
43.1365108272
 30
-5.4997908101
 40
3.5
 41
0.0
 46
0.0
 71
     1
 72
     1
  1
%%c
  7
SLDTEXTSTYLE0
 11
0.7071067811865474
 21
0.7071067811865477
 31
0.0
 73
     1
 44
1.0
  0
MTEXT
  5
B5
330
AD
100
AcDbEntity
  8
2
 62
     7
420
 16777215
100
AcDbMText
 10
91.4540442235
 20
46.9067402444
 30
-5.4997908101
 40
3.5
 41
0.0
 46
0.0
 71
     1
 72
     1
  1
75
  7
SLDTEXTSTYLE0
 11
0.7071067811865474
 21
0.7071067811865477
 31
0.0
 73
     1
 44
1.0
  0
ENDBLK
  5
AF
330
AD
100
AcDbEntity
  8
0
100
AcDbBlockEnd
  0
BLOCK
  5
E1
330
E0
100
AcDbEntity
  8
0
100
AcDbBlockBegin
  2
_D_5
 70
     0
 10
0.0
 20
0.0
 30
0.0
  3
_D_5
  1

  0
SOLID
  5
E3
330
E0
100
AcDbEntity
  8
2
 62
     7
420
 16777215
100
AcDbTrace
 10
-15.3718778547
 20
-53.3150005157
 30
0.0
 11
-14.8638778547
 21
-50.0130005157
 31
0.0
 12
-15.8798778547
 22
-50.0130005157
 32
0.0
 13
-15.8798778547
 23
-50.0130005157
 33
0.0
  0
SOLID
  5
E4
330
E0
100
AcDbEntity
  8
2
 62
     7
420
 16777215
100
AcDbTrace
 10
-15.3718778547
 20
-59.2150005157
 30
0.0
 11
-15.8798778547
 21
-62.5170005157
 31
0.0
 12
-14.8638778547
 22
-62.5170005157
 32
0.0
 13
-14.8638778547
 23
-62.5170005157
 33
0.0
  0
LINE
  5
E5
330
E0
100
AcDbEntity
  8
2
 62
     7
420
 16777215
100
AcDbLine
 10
-6.3718778547
 20
-53.3150005157
 30
0.0
 11
-16.3718778547
 21
-53.3150005157
 31
0.0
  0
LINE
  5
E6
330
E0
100
AcDbEntity
  8
2
 62
     7
420
 16777215
100
AcDbLine
 10
-6.3718778547
 20
-59.2150005157
 30
0.0
 11
-16.3718778547
 21
-59.2150005157
 31
0.0
  0
LINE
  5
E7
330
E0
100
AcDbEntity
  8
2
 62
     7
420
 16777215
100
AcDbLine
 10
-15.3718778547
 20
-53.3150005157
 30
0.0
 11
-15.3718778547
 21
-46.9650005157
 31
0.0
  0
LINE
  5
E8
330
E0
100
AcDbEntity
  8
2
 62
     7
420
 16777215
100
AcDbLine
 10
-15.3718778547
 20
-53.3150005157
 30
0.0
 11
-15.3718778547
 21
-59.2150005157
 31
0.0
  0
LINE
  5
E9
330
E0
100
AcDbEntity
  8
2
 62
     7
420
 16777215
100
AcDbLine
 10
-15.3718778547
 20
-59.2150005157
 30
0.0
 11
-15.3718778547
 21
-77.3313201445
 31
0.0
  0
MTEXT
  5
EA
330
E0
100
AcDbEntity
  8
2
 62
     7
420
 16777215
100
AcDbMText
 10
-19.8836147693
 20
-77.3313201445
 30
1.1735079227
 40
3.5
 41
0.0
 46
0.0
 71
     1
 72
     1
  1
5,90
  7
SLDTEXTSTYLE0
 11
-7.044195017643634E-15
 21
1.0
 31
0.0
 73
     1
 44
1.0
  0
ENDBLK
  5
E2
330
E0
100
AcDbEntity
  8
0
100
AcDbBlockEnd
  0
BLOCK
  5
ED
330
EC
100
AcDbEntity
  8
0
100
AcDbBlockBegin
  2
_D_6
 70
     0
 10
0.0
 20
0.0
 30
0.0
  3
_D_6
  1

  0
SOLID
  5
EF
330
EC
100
AcDbEntity
  8
2
 62
     7
420
 16777215
100
AcDbTrace
 10
41.8281221453
 20
-55.3150005157
 30
0.0
 11
41.3201221453
 21
-58.6170005157
 31
0.0
 12
42.3361221453
 22
-58.6170005157
 32
0.0
 13
42.3361221453
 23
-58.6170005157
 33
0.0
  0
SOLID
  5
F0
330
EC
100
AcDbEntity
  8
2
 62
     7
420
 16777215
100
AcDbTrace
 10
41.8281221453
 20
-53.3150005157
 30
0.0
 11
42.3361221453
 21
-50.0130005157
 31
0.0
 12
41.3201221453
 22
-50.0130005157
 32
0.0
 13
41.3201221453
 23
-50.0130005157
 33
0.0
  0
LINE
  5
F1
330
EC
100
AcDbEntity
  8
2
 62
     7
420
 16777215
100
AcDbLine
 10
32.8281221453
 20
-55.3150005157
 30
0.0
 11
42.8281221453
 21
-55.3150005157
 31
0.0
  0
LINE
  5
F2
330
EC
100
AcDbEntity
  8
2
 62
     7
420
 16777215
100
AcDbLine
 10
32.8281221453
 20
-53.3150005157
 30
0.0
 11
42.8281221453
 21
-53.3150005157
 31
0.0
  0
LINE
  5
F3
330
EC
100
AcDbEntity
  8
2
 62
     7
420
 16777215
100
AcDbLine
 10
41.8281221453
 20
-55.3150005157
 30
0.0
 11
41.8281221453
 21
-61.6650005157
 31
0.0
  0
LINE
  5
F4
330
EC
100
AcDbEntity
  8
2
 62
     7
420
 16777215
100
AcDbLine
 10
41.8281221453
 20
-55.3150005157
 30
0.0
 11
41.8281221453
 21
-53.3150005157
 31
0.0
  0
LINE
  5
F5
330
EC
100
AcDbEntity
  8
2
 62
     7
420
 16777215
100
AcDbLine
 10
41.8281221453
 20
-53.3150005157
 30
0.0
 11
41.8281221453
 21
-41.6639587543
 31
0.0
  0
MTEXT
  5
F6
330
EC
100
AcDbEntity
  8
2
 62
     7
420
 16777215
100
AcDbMText
 10
37.3163852307
 20
-47.09381989
 30
1.1735079227
 40
3.5
 41
0.0
 46
0.0
 71
     1
 72
     1
  1
2
  7
SLDTEXTSTYLE0
 11
2.832769448823990E-16
 21
1.0
 31
0.0
 73
     1
 44
1.0
  0
ENDBLK
  5
EE
330
EC
100
AcDbEntity
  8
0
100
AcDbBlockEnd
  0
ENDSEC
  0
SECTION
  2
ENTITIES
  0
LINE
  5
48
330
1F
100
AcDbEntity
  8
0
  6
SLD-Punktstrich
 62
     7
100
AcDbLine
 10
-5.5018778547
 20
-0.0001637776
 30
0.0
 11
32.4981221453
 21
-0.0001637776
 31
0.0
  0
POINT
  5
49
330
1F
100
AcDbEntity
  8
1
 62
     4
420
    65535
100
AcDbPoint
 10
-5.5018778547
 20
-0.0001637776
 30
0.0
  0
POINT
  5
4A
330
1F
100
AcDbEntity
  8
1
 62
     4
420
    65535
100
AcDbPoint
 10
32.4981221453
 20
-0.0001637776
 30
0.0
  0
POINT
  5
4B
330
1F
100
AcDbEntity
  8
1
 62
     4
420
    65535
100
AcDbPoint
 10
32.4981221453
 20
-0.0001637776
 30
0.0
  0
POINT
  5
4C
330
1F
100
AcDbEntity
  8
1
 62
     4
420
    65535
100
AcDbPoint
 10
31.6981221453
 20
-0.0001637776
 30
0.0
  0
POINT
  5
4D
330
1F
100
AcDbEntity
  8
1
 62
     4
420
    65535
100
AcDbPoint
 10
32.4981221453
 20
5.9998362224
 30
0.0
  0
LINE
  5
4E
330
1F
100
AcDbEntity
  8
1
 62
     4
420
    65535
100
AcDbLine
 10
31.6981221453
 20
2.1144527139
 30
0.0
 11
19.2769449474
 21
-1.2137916853
 31
0.0
  0
LINE
  5
4F
330
1F
100
AcDbEntity
  8
1
 62
     4
420
    65535
100
AcDbLine
 10
18.5689039939
 20
2.7395342247
 30
0.0
 11
27.9300381307
 21
5.2478425569
 31
0.0
  0
CIRCLE
  5
50
330
1F
100
AcDbEntity
  8
1
 62
     4
420
    65535
100
AcDbCircle
 10
15.4981221453
 20
-8.5001637776
 30
0.0
 40
2.500000000000002
  0
LINE
  5
51
330
1F
100
AcDbEntity
  8
1
 62
     4
420
    65535
100
AcDbLine
 10
26.4981221453
 20
-19.0001637776
 30
0.0
 11
26.4981221453
 21
-15.8175880068
 31
0.0
  0
LINE
  5
52
330
1F
100
AcDbEntity
  8
1
 62
     4
420
    65535
100
AcDbLine
 10
26.4981221453
 20
-19.0001637776
 30
0.0
 11
19.4981221453
 21
-19.0001637776
 31
0.0
  0
LINE
  5
53
330
1F
100
AcDbEntity
  8
1
 62
     4
420
    65535
100
AcDbLine
 10
-5.5018778547
 20
-14.0001637776
 30
0.0
 11
-5.5018778547
 21
5.0538362224
 31
0.0
  0
LINE
  5
54
330
1F
100
AcDbEntity
  8
1
 62
     4
420
    65535
100
AcDbLine
 10
-5.5018778547
 20
5.0538362224
 30
0.0
 11
3.4981221453
 21
5.9997743398
 31
0.0
  0
LINE
  5
55
330
1F
100
AcDbEntity
  8
1
 62
     4
420
    65535
100
AcDbLine
 10
3.4981221453
 20
5.9997743398
 30
0.0
 11
3.4981221453
 21
10.9998362224
 31
0.0
  0
LINE
  5
56
330
1F
100
AcDbEntity
  8
1
 62
     4
420
    65535
100
AcDbLine
 10
3.4981221453
 20
10.9998362224
 30
0.0
 11
17.9460913592
 21
10.9998362224
 31
0.0
  0
ARC
  5
57
330
1F
100
AcDbEntity
  8
1
 62
     4
420
    65535
100
AcDbCircle
 10
32.4981221453
 20
24.7198362224
 30
0.0
 40
20.00000000000001
100
AcDbArc
 50
223.3143023147
 51
229.4583981265
  0
LINE
  5
58
330
1F
100
AcDbEntity
  8
1
 62
     4
420
    65535
100
AcDbLine
 10
19.4981221453
 20
5.9998362224
 30
0.0
 11
19.4981221453
 21
9.5211520689
 31
0.0
  0
ARC
  5
59
330
1F
100
AcDbEntity
  8
1
 62
     4
420
    65535
100
AcDbCircle
 10
56.9981221453
 20
5.9998362224
 30
0.0
 40
37.5
100
AcDbArc
 50
180.0
 51
184.0844594649
  0
LINE
  5
5A
330
1F
100
AcDbEntity
  8
1
 62
     4
420
    65535
100
AcDbLine
 10
19.586318488
 20
3.3269387568
 30
0.0
 11
19.5933669424
 21
3.3288273844
 31
0.0
  0
LINE
  5
5B
330
1F
100
AcDbEntity
  8
1
 62
     4
420
    65535
100
AcDbLine
 10
17.0433089247
 20
1.8587315008
 30
0.0
 11
19.586318488
 21
3.3269387568
 31
0.0
  0
LINE
  5
5C
330
1F
100
AcDbEntity
  8
1
 62
     4
420
    65535
100
AcDbLine
 10
19.2777146024
 20
-1.216664077
 30
0.0
 11
17.0433089247
 21
1.8587315008
 31
0.0
  0
LINE
  5
5D
330
1F
100
AcDbEntity
  8
1
 62
     4
420
    65535
100
AcDbLine
 10
19.7709903377
 20
-1.396201762
 30
0.0
 11
19.2777146024
 21
-1.216664077
 31
0.0
  0
LINE
  5
5E
330
1F
100
AcDbEntity
  8
1
 62
     4
420
    65535
100
AcDbLine
 10
20.2111761208
 20
-1.2782543369
 30
0.0
 11
19.7709903377
 21
-1.396201762
 31
0.0
  0
CIRCLE
  5
5F
330
1F
100
AcDbEntity
  8
1
 62
     4
420
    65535
100
AcDbCircle
 10
10.2481221453
 20
5.4998362224
 30
0.0
 40
2.500000000000001
  0
CIRCLE
  5
60
330
1F
100
AcDbEntity
  8
1
 62
     4
420
    65535
100
AcDbCircle
 10
-0.0018778547
 20
-0.0001637776
 30
0.0
 40
2.5
  0
LINE
  5
61
330
1F
100
AcDbEntity
  8
1
 62
     4
420
    65535
100
AcDbLine
 10
19.4981221453
 20
-14.0001637776
 30
0.0
 11
-5.5018778547
 21
-14.0001637776
 31
0.0
  0
LINE
  5
62
330
1F
100
AcDbEntity
  8
1
 62
     4
420
    65535
100
AcDbLine
 10
19.4981221453
 20
-19.0001637776
 30
0.0
 11
19.4981221453
 21
-14.0001637776
 31
0.0
  0
ARC
  5
63
330
1F
100
AcDbEntity
  8
1
 62
     4
420
    65535
100
AcDbCircle
 10
56.9981221453
 20
5.9998362224
 30
0.0
 40
37.49999999999999
100
AcDbArc
 50
191.191125817
 51
215.5771025511
  0
LINE
  5
64
330
1F
100
AcDbEntity
  8
1
 62
     4
420
    65535
100
AcDbLine
 10
21.4981221453
 20
8.0165431339
 30
0.0
 11
21.4981221453
 21
5.9998362224
 31
0.0
  0
LINE
  5
65
330
1F
100
AcDbEntity
  8
1
 62
     4
420
    65535
100
AcDbLine
 10
21.4981221453
 20
5.9998362224
 30
0.0
 11
19.4981221453
 21
5.9998362224
 31
0.0
  0
SPLINE
  5
66
330
1F
100
AcDbEntity
  8
1
 62
     4
420
    65535
100
AcDbSpline
210
0.0
220
0.0
230
1.0
 70
     8
 71
     3
 72
    20
 73
    16
 74
     0
 42
0.00000001
 43
0.00000001
 12
1.0
 22
0.0
 32
0.0
 13
1.0
 23
0.0
 33
0.0
 40
0.0
 40
0.0
 40
0.0
 40
0.0
 40
0.1249999999999998
 40
0.1249999999999998
 40
0.2499999999999997
 40
0.2499999999999997
 40
0.3749999999999995
 40
0.3749999999999995
 40
0.4999999999999993
 40
0.4999999999999993
 40
0.6249999999999991
 40
0.6249999999999991
 40
0.749999999999999
 40
0.749999999999999
 40
1.0
 40
1.0
 40
1.0
 40
1.0
 10
19.4981221453097
 20
9.521152068867648
 30
0.0
 10
19.49812214530969
 20
9.521152068867647
 30
0.0
 10
19.51458283092384
 20
9.507031605906452
 30
0.0
 10
19.57773876552685
 20
9.453356250014817
 30
0.0
 10
19.62472795942915
 20
9.413579564197194
 30
0.0
 10
19.74137242444417
 20
9.316229264579034
 30
0.0
 10
19.81239236369444
 20
9.257541506973752
 30
0.0
 10
19.96995110487068
 20
9.129607605078373
 30
0.0
 10
20.05681328908053
 20
9.060072529423977
 30
0.0
 10
20.24538861692495
 20
8.912088563156404
 30
0.0
 10
20.34688096871761
 20
8.833843866571456
 30
0.0
 10
20.55757239534604
 20
8.674877919874548
 30
0.0
 10
20.66756826545215
 20
8.5935213081093
 30
0.0
 10
21.01174305880692
 20
8.344756168818925
 30
0.0
 10
21.25037354008323
 20
8.179698665199096
 30
0.0
 10
21.4981221453097
 20
8.016543133948247
 30
0.0
  0
ARC
  5
67
330
1F
100
AcDbEntity
  8
1
 62
     4
420
    65535
100
AcDbCircle
 10
56.9981221453
 20
5.9998362224
 30
0.0
 40
35.49999999999999
100
AcDbArc
 50
180.0
 51
183.461284
  0
SPLINE
  5
68
330
1F
100
AcDbEntity
  8
1
 62
     4
420
    65535
100
AcDbSpline
210
0.0
220
0.0
230
1.0
 70
    24
 71
     3
 72
    17
 73
    13
 74
     0
 42
0.00000001
 43
0.00000001
 12
1.0
 22
0.0
 32
0.0
 13
1.0
 23
0.0
 33
0.0
 40
0.0
 40
0.0
 40
0.0
 40
0.0
 40
0.0127561660279516
 40
0.1078850143884812
 40
0.2194309348152639
 40
0.3341733431093041
 40
0.4464778554746918
 40
0.5619377670369424
 40
0.6761069237487345
 40
0.793472218260836
 40
0.8956320319595772
 40
0.9999999999999999
 40
0.9999999999999999
 40
0.9999999999999999
 40
0.9999999999999999
 10
19.60924868974608
 20
3.333082885784797
 30
0.0
 10
19.60999915346611
 20
3.333283971932528
 30
0.0
 10
19.61634618509424
 20
3.334984653931624
 30
0.0
 10
19.66783460241853
 20
3.348780933773218
 30
0.0
 10
19.77300219804983
 20
3.376960506092551
 30
0.0
 10
19.93696556071073
 20
3.42089435670583
 30
0.0
 10
20.14568874666099
 20
3.476821565822853
 30
0.0
 10
20.39260650824891
 20
3.542982980637234
 30
0.0
 10
20.67479563671084
 20
3.618595329721455
 30
0.0
 10
20.96943953859111
 20
3.697544925285026
 30
0.0
 10
21.26900040352285
 20
3.777812017127457
 30
0.0
 10
21.46422466892979
 20
3.830122201386203
 30
0.0
 10
21.56288045131959
 20
3.856556938606208
 30
0.0
  0
SPLINE
  5
69
330
1F
100
AcDbEntity
  8
1
 62
     4
420
    65535
100
AcDbSpline
210
0.0
220
0.0
230
1.0
 70
     8
 71
     3
 72
    18
 73
    14
 74
     0
 42
0.00000001
 43
0.00000001
 12
1.0
 22
0.0
 32
0.0
 13
1.0
 23
0.0
 33
0.0
 40
0.0
 40
0.0
 40
0.0
 40
0.0
 40
0.125
 40
0.125
 40
0.25
 40
0.25
 40
0.375
 40
0.375
 40
0.5
 40
0.5
 40
0.75
 40
0.75
 40
1.0
 40
1.0
 40
1.0
 40
1.0
 10
26.49812214530969
 20
-15.81758800683307
 30
0.0
 10
26.49812214530969
 20
-15.81758800683307
 30
0.0
 10
26.51175944518835
 20
-15.81321379255527
 30
0.0
 10
26.56504380860806
 20
-15.79610766326519
 30
0.0
 10
26.60543188672532
 20
-15.78313749691541
 30
0.0
 10
26.70957569450808
 20
-15.7496449380192
 30
0.0
 10
26.77310763796651
 20
-15.72919470863327
 30
0.0
 10
26.92272737088355
 20
-15.68094118388702
 30
0.0
 10
27.00845657273391
 20
-15.65325199326984
 30
0.0
 10
27.28819917574398
 20
-15.56269068464377
 30
0.0
 10
27.51060721147912
 20
-15.49042281249068
 30
0.0
 10
27.98545678186855
 20
-15.33518989432319
 30
0.0
 10
28.24445925376353
 20
-15.25005817538167
 30
0.0
 10
28.4981221453097
 20
-15.16617426607837
 30
0.0
  0
ARC
  5
6A
330
1F
100
AcDbEntity
  8
1
 62
     4
420
    65535
100
AcDbCircle
 10
56.9981221453
 20
5.9998362224
 30
0.0
 40
35.49999999999999
100
AcDbArc
 50
190.9761973538
 51
216.6000551391
  0
SPLINE
  5
6B
330
1F
100
AcDbEntity
  8
1
 62
     4
420
    65535
100
AcDbSpline
210
0.0
220
0.0
230
1.0
 70
    24
 71
     3
 72
    20
 73
    16
 74
     0
 42
0.00000001
 43
0.00000001
 12
1.0
 22
0.0
 32
0.0
 13
1.0
 23
0.0
 33
0.0
 40
0.0
 40
0.0
 40
0.0
 40
0.0
 40
0.1250000000000002
 40
0.1250000000000002
 40
0.2500000000000005
 40
0.2500000000000005
 40
0.3750000000000007
 40
0.3750000000000007
 40
0.5000000000000009
 40
0.5000000000000009
 40
0.625000000000001
 40
0.625000000000001
 40
0.7500000000000011
 40
0.7500000000000011
 40
1.0
 40
1.0
 40
1.0
 40
1.0
 10
22.14754610309064
 20
-0.7594055638500015
 30
0.0
 10
22.02086672924371
 20
-0.7933491997699645
 30
0.0
 10
21.89317614216792
 20
-0.8275637894579814
 30
0.0
 10
21.64608583857332
 20
-0.893771436763715
 30
0.0
 10
21.52526787780696
 20
-0.9261445117822393
 30
0.0
 10
21.28931192183401
 20
-0.9893687196345023
 30
0.0
 10
21.1778214455229
 20
-1.019242502725824
 30
0.0
 10
20.96814993522312
 20
-1.075423814586465
 30
0.0
 10
20.86888602459323
 20
-1.102021499277298
 30
0.0
 10
20.68927450219498
 20
-1.150148261655234
 30
0.0
 10
20.60922763878777
 20
-1.17159675406184
 30
0.0
 10
20.46843989558914
 20
-1.209320716156112
 30
0.0
 10
20.40753725563529
 20
-1.225639529348672
 30
0.0
 10
20.26217947488368
 20
-1.264588029314645
 30
0.0
 10
20.21117612079265
 20
-1.278254336854614
 30
0.0
 10
20.21117612079266
 20
-1.278254336854614
 30
0.0
  0
LINE
  5
6C
330
1F
100
AcDbEntity
  8
1
 62
     4
420
    65535
100
AcDbLine
 10
28.4981221453
 20
-15.1661742661
 30
0.0
 11
28.4981221453
 21
-19.0001637776
 31
0.0
  0
LINE
  5
6D
330
1F
100
AcDbEntity
  8
1
 62
     4
420
    65535
100
AcDbLine
 10
28.4981221453
 20
-19.0001637776
 30
0.0
 11
26.4981221453
 21
-19.0001637776
 31
0.0
  0
LINE
  5
6E
330
1F
100
AcDbEntity
  8
1
 62
     4
420
    65535
100
AcDbLine
 10
31.6981221453
 20
1.8135336447
 30
0.0
 11
31.6981221453
 21
-19.0001637776
 31
0.0
  0
LINE
  5
6F
330
1F
100
AcDbEntity
  8
1
 62
     4
420
    65535
100
AcDbLine
 10
31.6981221453
 20
1.8135336447
 30
0.0
 11
22.1532851946
 21
-0.7439977081
 31
0.0
  0
LINE
  5
70
330
1F
100
AcDbEntity
  8
1
 62
     4
420
    65535
100
AcDbLine
 10
20.1985019939
 20
-1.2677802881
 30
0.0
 11
19.7490412248
 21
-1.3882129382
 31
0.0
  0
LINE
  5
71
330
1F
100
AcDbEntity
  8
1
 62
     4
420
    65535
100
AcDbLine
 10
31.6981221453
 20
-19.0001637776
 30
0.0
 11
28.4981221453
 21
-19.0001637776
 31
0.0
  0
LINE
  5
72
330
1F
100
AcDbEntity
  8
1
 62
     4
420
    65535
100
AcDbLine
 10
19.5414897144
 20
3.3010568522
 30
0.0
 11
19.587627851
 21
3.3134195287
 31
0.0
  0
LINE
  5
73
330
1F
100
AcDbEntity
  8
1
 62
     4
420
    65535
100
AcDbLine
 10
21.5755545782
 20
3.8460828898
 30
0.0
 11
27.3508030025
 21
5.3935560412
 31
0.0
  0
ARC
  5
74
330
1F
100
AcDbEntity
  8
1
 62
     4
420
    65535
100
AcDbCircle
 10
32.4981221453
 20
24.7198362224
 30
0.0
 40
20.00000000000001
100
AcDbArc
 50
236.6329870308
 51
255.0861754223
  0
LINE
  5
75
330
1F
100
AcDbEntity
  8
1
 62
     4
420
    65535
100
AcDbLine
 10
19.308545603
 20
-1.2278856435
 30
0.0
 11
31.6981221453
 21
2.0918913855
 31
0.0
  0
LINE
  5
76
330
1F
100
AcDbEntity
  8
1
 62
     4
420
    65535
100
AcDbLine
 10
31.6981221453
 20
2.0918913855
 30
0.0
 11
31.6981221453
 21
1.8135336447
 31
0.0
  0
LINE
  5
77
330
1F
100
AcDbEntity
  8
1
 62
     4
420
    65535
100
AcDbLine
 10
18.6418233536
 20
2.7816342366
 30
0.0
 11
27.8865716236
 21
5.2587570698
 31
0.0
  0
ARC
  5
78
330
1F
100
AcDbEntity
  8
1
 62
     4
420
    65535
100
AcDbCircle
 10
32.4981221453
 20
24.7198362224
 30
0.0
 40
20.00000000000002
100
AcDbArc
 50
255.0861754223
 51
256.6689245037
  0
LINE
  5
79
330
1F
100
AcDbEntity
  8
1
 62
     4
420
    65535
100
AcDbLine
 10
31.6981221453
 20
2.1144527139
 30
0.0
 11
31.6981221453
 21
2.0918913855
 31
0.0
  0
SPLINE
  5
7A
330
1F
100
AcDbEntity
  8
1
 62
     4
420
    65535
100
AcDbSpline
210
0.0
220
0.0
230
1.0
 70
     8
 71
     3
 72
    10
 73
     6
 74
     0
 42
0.00000001
 43
0.00000001
 12
1.0
 22
0.0
 32
0.0
 13
1.0
 23
0.0
 33
0.0
 40
0.0
 40
0.0
 40
0.0
 40
0.0
 40
0.0651384074400877
 40
0.5371650746615688
 40
1.0
 40
1.0
 40
1.0
 40
1.0
 10
27.92984766527107
 20
5.248553383624863
 30
0.0
 10
27.93034136072285
 20
5.248437474297053
 30
0.0
 10
27.9344126293436
 20
5.247481625894033
 30
0.0
 10
27.91948647073204
 20
5.250976806084797
 30
0.0
 10
27.89747108611128
 20
5.256180703802493
 30
0.0
 10
27.88657162358298
 20
5.258757069791648
 30
0.0
  0
DIMENSION
  5
7B
330
1F
100
AcDbEntity
  8
2
 62
     7
420
 16777215
100
AcDbDimension
  2
_D
 10
41.6981221453
 20
-19.0001637776
 30
0.0
 11
41.6981221453
 21
-6.5001637776
 31
0.0
 70
   160
  1
<>
 71
     2
 42
-1.0
 73
     0
 74
     0
 75
     0
  3
SLDDIMSTYLE0
100
AcDbAlignedDimension
 13
32.4981221453
 23
5.9998362224
 33
0.0
 14
19.4981221453
 24
-19.0001637776
 34
0.0
 50
90.0
100
AcDbRotatedDimension
  0
DIMENSION
  5
87
330
1F
100
AcDbEntity
  8
2
 62
     7
420
 16777215
100
AcDbDimension
  2
_D_1
 10
47.6981221453
 20
10.9998362224
 30
0.0
 11
47.6981221453
 21
-4.0001637776
 31
0.0
 70
   160
  1
<>
 71
     2
 42
-1.0
 73
     0
 74
     0
 75
     0
  3
SLDDIMSTYLE0
100
AcDbAlignedDimension
 13
19.4981221453
 23
-19.0001637776
 33
0.0
 14
17.9460913592
 24
10.9998362224
 34
0.0
 50
90.0
100
AcDbRotatedDimension
  0
DIMENSION
  5
91
330
1F
100
AcDbEntity
  8
2
 62
     7
420
 16777215
100
AcDbDimension
  2
_D_2
 10
19.4981221453
 20
-29.0001637776
 30
0.0
 11
25.9981221453
 21
-29.0001637776
 31
0.0
 70
   160
  1
<>
 71
     2
 42
-1.0
 73
     0
 74
     0
 75
     0
  3
SLDDIMSTYLE1
100
AcDbAlignedDimension
 13
32.4981221453
 23
5.9998362224
 33
0.0
 14
19.4981221453
 24
-19.0001637776
 34
0.0
 50
0.0
100
AcDbRotatedDimension
  0
DIMENSION
  5
9E
330
1F
100
AcDbEntity
  8
2
 62
     7
420
 16777215
100
AcDbDimension
  2
_D_3
 10
-5.5018778547
 20
-35.0001637776
 30
0.0
 11
13.4981221453
 21
-35.0001637776
 31
0.0
 70
   160
  1
<>
 71
     2
 42
-1.0
 73
     0
 74
     0
 75
     0
  3
SLDDIMSTYLE0
100
AcDbAlignedDimension
 13
32.4981221453
 23
5.9998362224
 33
0.0
 14
-5.5018778547
 24
-14.0001637776
 34
0.0
100
AcDbRotatedDimension
  0
DIMENSION
  5
A8
330
1F
100
AcDbEntity
  8
2
 62
     7
420
 16777215
100
AcDbDimension
  2
_D_4
 10
30.4816178508
 20
-20.5166680721
 30
0.0
 11
95.6981321453
 21
44.6998462224
 31
0.0
 70
   163
  1
<>
 71
     1
 42
-1.0
 73
     0
 74
     0
 75
     0
  3
SLDDIMSTYLE2
100
AcDbDiametricDimension
 15
83.5146264398
 25
32.5163405169
 35
0.0
 40
0.0
  0
LINE
  5
B6
330
1F
100
AcDbEntity
  8
1
 62
     4
420
    65535
100
AcDbLine
 10
3.6281221453
 20
-59.2150005157
 30
0.0
 11
18.0760913592
 21
-59.2150005157
 31
0.0
  0
LINE
  5
B7
330
1F
100
AcDbEntity
  8
1
 62
     4
420
    65535
100
AcDbLine
 10
3.6281221453
 20
-53.3150005157
 30
0.0
 11
3.6281221453
 21
-59.2150005157
 31
0.0
  0
LINE
  5
B8
330
1F
100
AcDbEntity
  8
1
 62
     4
420
    65535
100
AcDbLine
 10
3.6281221453
 20
-53.3150005157
 30
0.0
 11
18.0760913592
 21
-53.3150005157
 31
0.0
  0
LINE
  5
B9
330
1F
100
AcDbEntity
  8
1
 62
     4
420
    65535
100
AcDbLine
 10
18.0760913592
 20
-53.3150005157
 30
0.0
 11
18.0760913592
 21
-59.2150005157
 31
0.0
  0
LINE
  5
BA
330
1F
100
AcDbEntity
  8
1
 62
     4
420
    65535
100
AcDbLine
 10
27.4808030025
 20
-55.3150005157
 30
0.0
 11
21.6281221453
 21
-55.3150005157
 31
0.0
  0
SPLINE
  5
BB
330
1F
100
AcDbEntity
  8
1
 62
     4
420
    65535
100
AcDbSpline
210
0.0
220
0.0
230
1.0
 70
     8
 71
     3
 72
    20
 73
    16
 74
     0
 42
0.00000001
 43
0.00000001
 12
1.0
 22
0.0
 32
0.0
 13
1.0
 23
0.0
 33
0.0
 40
0.0
 40
0.0
 40
0.0
 40
0.0
 40
0.1249999999999998
 40
0.1249999999999998
 40
0.2499999999999997
 40
0.2499999999999997
 40
0.3749999999999995
 40
0.3749999999999995
 40
0.4999999999999993
 40
0.4999999999999993
 40
0.6249999999999991
 40
0.6249999999999991
 40
0.749999999999999
 40
0.749999999999999
 40
1.0
 40
1.0
 40
1.0
 40
1.0
 10
19.62812214530969
 20
-57.31500051566736
 30
0.0
 10
19.62812214530969
 20
-57.16587176049233
 30
0.0
 10
19.64458283092383
 20
-57.02075278185235
 30
0.0
 10
19.70773876552684
 20
-56.73781976822043
 30
0.0
 10
19.75472795942914
 20
-56.60108219925013
 30
0.0
 10
19.87137242444416
 20
-56.34902144941078
 30
0.0
 10
19.94239236369442
 20
-56.23064561038424
 30
0.0
 10
20.09995110487067
 20
-56.01800254789727
 30
0.0
 10
20.18681328908052
 20
-55.92255672717276
 30
0.0
 10
20.37538861692494
 20
-55.75073403260811
 30
0.0
 10
20.4768809687176
 20
-55.67490332099551
 30
0.0
 10
20.68757239534603
 20
-55.5456387034608
 30
0.0
 10
20.79756826545214
 20
-55.49146662501148
 30
0.0
 10
21.14174305880691
 20
-55.35954205917163
 30
0.0
 10
21.38037354008322
 20
-55.31500051566736
 30
0.0
 10
21.6281221453097
 20
-55.31500051566736
 30
0.0
  0
LINE
  5
BC
330
1F
100
AcDbEntity
  8
1
 62
     4
420
    65535
100
AcDbLine
 10
19.6281221453
 20
-59.2150005157
 30
0.0
 11
19.6281221453
 21
-57.3150005157
 31
0.0
  0
LINE
  5
BD
330
1F
100
AcDbEntity
  8
1
 62
     4
420
    65535
100
AcDbLine
 10
19.6281221453
 20
-59.2150005157
 30
0.0
 11
18.0760913592
 21
-59.2150005157
 31
0.0
  0
ELLIPSE
  5
BE
330
1F
100
AcDbEntity
  8
1
 62
     4
420
    65535
100
AcDbEllipse
 10
32.6281221453
 20
-118.0120752501
 30
0.0
 11
5.544972300838092
 21
74.62735902980319
 31
0.0
210
0.0
220
0.0
230
1.0
 40
0.2574922187
 41
0.541224619129918
 42
0.5425663019085386
  0
ELLIPSE
  5
BF
330
1F
100
AcDbEntity
  8
1
 62
     4
420
    65535
100
AcDbEllipse
 10
32.6281221453
 20
-3.0578778814
 30
0.0
 11
-5.810653360432062
 21
58.05262406294506
 31
0.0
210
0.0
220
0.0
230
1.0
 40
0.3296543744
 41
2.58517215673669
 42
2.614138022218095
  0
SPLINE
  5
C0
330
1F
100
AcDbEntity
  8
1
 62
     4
420
    65535
100
AcDbSpline
210
0.0
220
0.0
230
1.0
 70
     8
 71
     3
 72
    10
 73
     6
 74
     0
 42
0.00000001
 43
0.00000001
 12
1.0
 22
0.0
 32
0.0
 13
1.0
 23
0.0
 33
0.0
 40
0.0
 40
0.0
 40
0.0
 40
0.0
 40
0.5
 40
0.5
 40
1.0
 40
1.0
 40
1.0
 40
1.0
 10
28.01657162358325
 20
-54.18477325388449
 30
0.0
 10
28.04349072347296
 20
-54.22290161067911
 30
0.0
 10
28.06130164331555
 20
-54.26784443924325
 30
0.0
 10
28.06142417913401
 20
-54.36164937662933
 30
0.0
 10
28.0435169326698
 20
-54.40706229780881
 30
0.0
 10
28.01657162358297
 20
-54.44522777745019
 30
0.0
  0
ELLIPSE
  5
C1
330
1F
100
AcDbEntity
  8
1
 62
     4
420
    65535
100
AcDbEllipse
 10
32.6281221453
 20
-105.5721231499
 30
0.0
 11
5.810653360432063
 21
58.05262406294506
 31
0.0
210
0.0
220
0.0
230
1.0
 40
0.3296543744
 41
0.5274546313716975
 42
0.5564204968531031
  0
ELLIPSE
  5
C2
330
1F
100
AcDbEntity
  8
1
 62
     4
420
    65535
100
AcDbEllipse
 10
32.6281221453
 20
9.3820742188
 30
0.0
 11
-5.544972300838087
 21
74.6273590298033
 31
0.0
210
0.0
220
0.0
230
1.0
 40
0.2574922187
 41
2.599026351681256
 42
2.600368034459875
  0
LINE
  5
C3
330
1F
100
AcDbEntity
  8
1
 62
     4
420
    65535
100
AcDbLine
 10
27.4808030025
 20
-53.3150005157
 30
0.0
 11
18.0760913592
 21
-53.3150005157
 31
0.0
  0
SPLINE
  5
C4
330
1F
100
AcDbEntity
  8
1
 62
     4
420
    65535
100
AcDbSpline
210
0.0
220
0.0
230
1.0
 70
     8
 71
     3
 72
    17
 73
    13
 74
     0
 42
0.00000001
 43
0.00000001
 12
1.0
 22
0.0
 32
0.0
 13
1.0
 23
0.0
 33
0.0
 40
0.0
 40
0.0
 40
0.0
 40
0.0
 40
0.0909283245495913
 40
0.1836799557817922
 40
0.2924384055600418
 40
0.4043134647476521
 40
0.513811549672945
 40
0.626386182120275
 40
0.7377023149645487
 40
0.8521347158992141
 40
0.951741612547692
 40
1.0
 40
1.0
 40
1.0
 40
1.0
 10
19.72336694243186
 20
-57.31500051566736
 30
0.0
 10
19.72692890263445
 20
-57.22374663318435
 30
0.0
 10
19.73412424793251
 20
-57.03940903340537
 30
0.0
 10
19.79568595331087
 20
-56.75168831363396
 30
0.0
 10
19.90363585984111
 20
-56.45668166545619
 30
0.0
 10
20.06679857665976
 20
-56.17001643922476
 30
0.0
 10
20.27573221802436
 20
-55.91243018140894
 30
0.0
 10
20.52260362174843
 20
-55.69461194698438
 30
0.0
 10
20.80476400493667
 20
-55.51863374164186
 30
0.0
 10
21.09956618919918
 20
-55.40075009615467
 30
0.0
 10
21.34793028829944
 20
-55.33725853739313
 30
0.0
 10
21.49110876323924
 20
-55.32939746193951
 30
0.0
 10
21.53783752963288
 20
-55.32683186429203
 30
0.0
  0
LINE
  5
C5
330
1F
100
AcDbEntity
  8
1
 62
     4
420
    65535
100
AcDbLine
 10
19.7233669424
 20
-57.3150005157
 30
0.0
 11
19.6281221453
 21
-57.3150005157
 31
0.0
  0
LINE
  5
C6
330
1F
100
AcDbEntity
  8
1
 62
     4
420
    65535
100
AcDbLine
 10
19.7233669424
 20
-57.3150005157
 30
0.0
 11
19.7233669424
 21
-59.2150005157
 31
0.0
  0
LINE
  5
C7
330
1F
100
AcDbEntity
  8
1
 62
     4
420
    65535
100
AcDbLine
 10
19.7233669424
 20
-59.2150005157
 30
0.0
 11
19.6281221453
 21
-59.2150005157
 31
0.0
  0
LINE
  5
C8
330
1F
100
AcDbEntity
  8
1
 62
     4
420
    65535
100
AcDbLine
 10
-5.3718778547
 20
-53.3150005157
 30
0.0
 11
-5.3718778547
 21
-59.2150005157
 31
0.0
  0
LINE
  5
C9
330
1F
100
AcDbEntity
  8
1
 62
     4
420
    65535
100
AcDbLine
 10
-5.3718778547
 20
-59.2150005157
 30
0.0
 11
3.6281221453
 21
-59.2150005157
 31
0.0
  0
LINE
  5
CA
330
1F
100
AcDbEntity
  8
1
 62
     4
420
    65535
100
AcDbLine
 10
-5.3718778547
 20
-53.3150005157
 30
0.0
 11
3.6281221453
 21
-53.3150005157
 31
0.0
  0
LINE
  5
CB
330
1F
100
AcDbEntity
  8
1
 62
     4
420
    65535
100
AcDbLine
 10
31.8281221453
 20
-54.1847732539
 30
0.0
 11
31.8281221453
 21
-54.4452277775
 31
0.0
  0
LINE
  5
CC
330
1F
100
AcDbEntity
  8
1
 62
     4
420
    65535
100
AcDbLine
 10
27.4548779059
 20
-53.3650005157
 30
0.0
 11
31.8281221453
 21
-53.3650005157
 31
0.0
  0
LINE
  5
CD
330
1F
100
AcDbEntity
  8
1
 62
     4
420
    65535
100
AcDbLine
 10
31.8281221453
 20
-53.3650005157
 30
0.0
 11
31.8281221453
 21
-54.1847732539
 31
0.0
  0
LINE
  5
CE
330
1F
100
AcDbEntity
  8
1
 62
     4
420
    65535
100
AcDbLine
 10
27.4548779059
 20
-55.2650005157
 30
0.0
 11
31.8281221453
 21
-55.2650005157
 31
0.0
  0
LINE
  5
CF
330
1F
100
AcDbEntity
  8
1
 62
     4
420
    65535
100
AcDbLine
 10
31.8281221453
 20
-54.4452277775
 30
0.0
 11
31.8281221453
 21
-55.2650005157
 31
0.0
  0
LINE
  5
D0
330
1F
100
AcDbEntity
  8
1
 62
     4
420
    65535
100
AcDbLine
 10
31.8281221453
 20
-53.3150005157
 30
0.0
 11
31.8281221453
 21
-53.3650005157
 31
0.0
  0
LINE
  5
D1
330
1F
100
AcDbEntity
  8
1
 62
     4
420
    65535
100
AcDbLine
 10
31.8281221453
 20
-53.3150005157
 30
0.0
 11
27.4808030025
 21
-53.3150005157
 31
0.0
  0
LINE
  5
D2
330
1F
100
AcDbEntity
  8
1
 62
     4
420
    65535
100
AcDbLine
 10
31.8281221453
 20
-55.3150005157
 30
0.0
 11
27.4808030025
 21
-55.3150005157
 31
0.0
  0
LINE
  5
D3
330
1F
100
AcDbEntity
  8
1
 62
     4
420
    65535
100
AcDbLine
 10
31.8281221453
 20
-55.2650005157
 30
0.0
 11
31.8281221453
 21
-55.3150005157
 31
0.0
  0
LINE
  5
D4
330
1F
100
AcDbEntity
  8
1
 62
     4
420
    65535
100
AcDbLine
 10
19.9009903377
 20
-59.2150005157
 30
0.0
 11
19.9009903377
 21
-56.4896089427
 31
0.0
  0
SPLINE
  5
D5
330
1F
100
AcDbEntity
  8
1
 62
     4
420
    65535
100
AcDbSpline
210
0.0
220
0.0
230
1.0
 70
     8
 71
     3
 72
    20
 73
    16
 74
     0
 42
0.00000001
 43
0.00000001
 12
1.0
 22
0.0
 32
0.0
 13
1.0
 23
0.0
 33
0.0
 40
0.0
 40
0.0
 40
0.0
 40
0.0
 40
0.1250000000000002
 40
0.1250000000000002
 40
0.2500000000000005
 40
0.2500000000000005
 40
0.3750000000000007
 40
0.3750000000000007
 40
0.5000000000000009
 40
0.5000000000000009
 40
0.625000000000001
 40
0.625000000000001
 40
0.7500000000000011
 40
0.7500000000000011
 40
1.0
 40
1.0
 40
1.0
 40
1.0
 10
22.27754610309063
 20
-55.31500051566734
 30
0.0
 10
22.15086672924371
 20
-55.31500051566734
 30
0.0
 10
22.02317614216792
 20
-55.32806445202275
 30
0.0
 10
21.77608583857331
 20
-55.37883999774861
 30
0.0
 10
21.65526787780695
 20
-55.41648397463023
 30
0.0
 10
21.419311921834
 20
-55.51729812583645
 30
0.0
 10
21.30782144552289
 20
-55.57894501341576
 30
0.0
 10
21.09814993522311
 20
-55.72339816628295
 30
0.0
 10
20.99888602459323
 20
-55.80730276900525
 30
0.0
 10
20.81927450219497
 20
-55.99260833349617
 30
0.0
 10
20.73922763878776
 20
-56.09324159159864
 30
0.0
 10
20.59843989558913
 20
-56.3102958473031
 30
0.0
 10
20.53753725563528
 20
-56.42772904844884
 30
0.0
 10
20.39217947488367
 20
-56.78949493703825
 30
0.0
 10
20.34117612079265
 20
-57.05174548255015
 30
0.0
 10
20.34117612079265
 20
-57.31500051566736
 30
0.0
  0
LINE
  5
D6
330
1F
100
AcDbEntity
  8
1
 62
     4
420
    65535
100
AcDbLine
 10
20.3411761208
 20
-59.2150005157
 30
0.0
 11
20.3411761208
 21
-57.3150005157
 31
0.0
  0
LINE
  5
D7
330
1F
100
AcDbEntity
  8
1
 62
     4
420
    65535
100
AcDbLine
 10
20.3411761208
 20
-59.2150005157
 30
0.0
 11
19.9009903377
 21
-59.2150005157
 31
0.0
  0
SPLINE
  5
D8
330
1F
100
AcDbEntity
  8
1
 62
     4
420
    65535
100
AcDbSpline
210
0.0
220
0.0
230
1.0
 70
     8
 71
     3
 72
    18
 73
    14
 74
     0
 42
0.00000001
 43
0.00000001
 12
1.0
 22
0.0
 32
0.0
 13
1.0
 23
0.0
 33
0.0
 40
0.0
 40
0.0
 40
0.0
 40
0.0
 40
0.125
 40
0.125
 40
0.25
 40
0.25
 40
0.375
 40
0.375
 40
0.5
 40
0.5
 40
0.75
 40
0.75
 40
1.0
 40
1.0
 40
1.0
 40
1.0
 10
26.62812214530969
 20
-57.31500051566735
 30
0.0
 10
26.62812214530969
 20
-57.17945099380252
 30
0.0
 10
26.64175944518835
 20
-57.04636600463309
 30
0.0
 10
26.69504380860805
 20
-56.78489729824006
 30
0.0
 10
26.73543188672531
 20
-56.6551201437878
 30
0.0
 10
26.83957569450807
 20
-56.41011371973262
 30
0.0
 10
26.9031076379665
 20
-56.29428627735201
 30
0.0
 10
27.05272737088355
 20
-56.07578144239785
 30
0.0
 10
27.1384565727339
 20
-55.97415660306854
 30
0.0
 10
27.41819917574397
 20
-55.70132456554582
 30
0.0
 10
27.64060721147911
 20
-55.55704385152448
 30
0.0
 10
28.11545678186855
 20
-55.3649308752005
 30
0.0
 10
28.37445925376352
 20
-55.31500051566736
 30
0.0
 10
28.62812214530969
 20
-55.31500051566736
 30
0.0
  0
LINE
  5
D9
330
1F
100
AcDbEntity
  8
1
 62
     4
420
    65535
100
AcDbLine
 10
26.6281221453
 20
-57.3150005157
 30
0.0
 11
20.3411761208
 21
-57.3150005157
 31
0.0
  0
LINE
  5
DA
330
1F
100
AcDbEntity
  8
1
 62
     4
420
    65535
100
AcDbLine
 10
19.9009903377
 20
-59.2150005157
 30
0.0
 11
19.7233669424
 21
-59.2150005157
 31
0.0
  0
LINE
  5
DB
330
1F
100
AcDbEntity
  8
1
 62
     4
420
    65535
100
AcDbLine
 10
26.6281221453
 20
-57.3150005157
 30
0.0
 11
26.6281221453
 21
-59.2150005157
 31
0.0
  0
LINE
  5
DC
330
1F
100
AcDbEntity
  8
1
 62
     4
420
    65535
100
AcDbLine
 10
26.6281221453
 20
-59.2150005157
 30
0.0
 11
20.3411761208
 21
-59.2150005157
 31
0.0
  0
LINE
  5
DD
330
1F
100
AcDbEntity
  8
1
 62
     4
420
    65535
100
AcDbLine
 10
28.0165716236
 20
-54.4452277775
 30
0.0
 11
31.8281221453
 21
-54.4452277775
 31
0.0
  0
LINE
  5
DE
330
1F
100
AcDbEntity
  8
1
 62
     4
420
    65535
100
AcDbLine
 10
28.0165716236
 20
-54.1847732539
 30
0.0
 11
31.8281221453
 21
-54.1847732539
 31
0.0
  0
DIMENSION
  5
DF
330
1F
100
AcDbEntity
  8
2
 62
     7
420
 16777215
100
AcDbDimension
  2
_D_5
 10
-15.3718778547
 20
-59.2150005157
 30
0.0
 11
-15.3718778547
 21
-71.3837507593
 31
0.0
 70
   160
  1
<>
 71
     2
 42
-1.0
 73
     0
 74
     0
 75
     0
  3
SLDDIMSTYLE1
100
AcDbAlignedDimension
 13
-5.3718778547
 23
-53.3150005157
 33
0.0
 14
-5.3718778547
 24
-59.2150005157
 34
0.0
 50
90.0
100
AcDbRotatedDimension
  0
DIMENSION
  5
EB
330
1F
100
AcDbEntity
  8
2
 62
     7
420
 16777215
100
AcDbDimension
  2
_D_6
 10
41.8281221453
 20
-53.3150005157
 30
0.0
 11
41.8281221453
 21
-44.3788893221
 31
0.0
 70
   160
  1
<>
 71
     2
 42
-1.0
 73
     0
 74
     0
 75
     0
  3
SLDDIMSTYLE1
100
AcDbAlignedDimension
 13
31.8281221453
 23
-55.3150005157
 33
0.0
 14
31.8281221453
 24
-53.3150005157
 34
0.0
 50
90.0
100
AcDbRotatedDimension
  0
ENDSEC
  0
SECTION
  2
OBJECTS
  0
DICTIONARY
  5
C
330
0
100
AcDbDictionary
281
     1
  3
ACAD_GROUP
350
D
  3
ACAD_LAYOUT
350
1A
  3
ACAD_MATERIAL
350
3B
  3
ACAD_MLEADERSTYLE
350
F8
  3
ACAD_MLINESTYLE
350
17
  3
ACAD_PLOTSETTINGS
350
19
  3
ACAD_PLOTSTYLENAME
350
E
  3
ACAD_TABLESTYLE
350
F7
  3
ACAD_VISUALSTYLE
350
2A
  0
DICTIONARY
  5
D
102
{ACAD_REACTORS
330
C
102
}
330
C
100
AcDbDictionary
281
     1
  0
DICTIONARY
  5
1A
102
{ACAD_REACTORS
330
C
102
}
330
C
100
AcDbDictionary
281
     1
  3
Layout1
350
1E
  3
Layout2
350
26
  3
Model
350
22
  0
DICTIONARY
  5
3B
102
{ACAD_REACTORS
330
C
102
}
330
C
100
AcDbDictionary
281
     1
  3
ByBlock
350
3D
  3
ByLayer
350
3C
  3
Global
350
3E
  0
DICTIONARY
  5
F8
102
{ACAD_REACTORS
330
C
102
}
330
C
100
AcDbDictionary
281
     1
  0
DICTIONARY
  5
17
102
{ACAD_REACTORS
330
C
102
}
330
C
100
AcDbDictionary
281
     1
  3
Standard
350
18
  0
DICTIONARY
  5
19
102
{ACAD_REACTORS
330
C
102
}
330
C
100
AcDbDictionary
281
     1
  0
ACDBDICTIONARYWDFLT
  5
E
102
{ACAD_REACTORS
330
C
102
}
330
C
100
AcDbDictionary
281
     1
  3
Normal
350
F
100
AcDbDictionaryWithDefault
340
F
  0
DICTIONARY
  5
F7
102
{ACAD_REACTORS
330
C
102
}
330
C
100
AcDbDictionary
281
     1
  0
DICTIONARY
  5
2A
102
{ACAD_REACTORS
330
C
102
}
330
C
100
AcDbDictionary
281
     1
  3
2dWireframe
350
2F
  3
3D Hidden
350
31
  3
3dWireframe
350
30
  3
Basic
350
32
  3
Brighten
350
36
  3
ColorChange
350
3A
  3
Conceptual
350
34
  3
Dim
350
35
  3
Facepattern
350
39
  3
Flat
350
2B
  3
FlatWithEdges
350
2C
  3
Gouraud
350
2D
  3
GouraudWithEdges
350
2E
  3
Linepattern
350
38
  3
Realistic
350
33
  3
Thicken
350
37
  0
LAYOUT
  5
1E
102
{ACAD_REACTORS
330
1A
102
}
330
1A
100
AcDbPlotSettings
  1

  2
none_device
  4

  6

 40
0.0
 41
0.0
 42
0.0
 43
0.0
 44
0.0
 45
0.0
 46
0.0
 47
0.0
 48
0.0
 49
0.0
140
0.0
141
0.0
142
1.0
143
1.0
 70
   688
 72
     0
 73
     0
 74
     5
  7

 75
    16
 76
     0
 77
     2
 78
   300
147
1.0
148
0.0
149
0.0
100
AcDbLayout
  1
Layout1
 70
     1
 71
     1
 10
0.0
 20
0.0
 11
420.0
 21
297.0
 12
0.0
 22
0.0
 32
0.0
 14
1.0000000000E+20
 24
1.0000000000E+20
 34
1.0000000000E+20
 15
-1.0000000000E+20
 25
-1.0000000000E+20
 35
-1.0000000000E+20
146
0.0
 13
0.0
 23
0.0
 33
0.0
 16
1.0
 26
0.0
 36
0.0
 17
0.0
 27
1.0
 37
0.0
 76
     0
330
1B
  0
LAYOUT
  5
26
102
{ACAD_REACTORS
330
1A
102
}
330
1A
100
AcDbPlotSettings
  1

  2
none_device
  4

  6

 40
0.0
 41
0.0
 42
0.0
 43
0.0
 44
0.0
 45
0.0
 46
0.0
 47
0.0
 48
0.0
 49
0.0
140
0.0
141
0.0
142
1.0
143
1.0
 70
   688
 72
     0
 73
     0
 74
     5
  7

 75
    16
 76
     0
 77
     2
 78
   300
147
1.0
148
0.0
149
0.0
100
AcDbLayout
  1
Layout2
 70
     1
 71
     2
 10
0.0
 20
0.0
 11
0.0
 21
0.0
 12
0.0
 22
0.0
 32
0.0
 14
0.0
 24
0.0
 34
0.0
 15
0.0
 25
0.0
 35
0.0
146
0.0
 13
0.0
 23
0.0
 33
0.0
 16
1.0
 26
0.0
 36
0.0
 17
0.0
 27
1.0
 37
0.0
 76
     0
330
23
  0
LAYOUT
  5
22
102
{ACAD_REACTORS
330
1A
102
}
330
1A
100
AcDbPlotSettings
  1

  2
none_device
  4

  6

 40
0.0
 41
0.0
 42
0.0
 43
0.0
 44
0.0
 45
0.0
 46
0.0
 47
0.0
 48
0.0
 49
0.0
140
0.0
141
0.0
142
1.0
143
1.0
 70
  1712
 72
     0
 73
     0
 74
     0
  7

 75
     0
 76
     0
 77
     2
 78
   300
147
1.0
148
0.0
149
0.0
100
AcDbLayout
  1
Model
 70
     1
 71
     0
 10
0.0
 20
0.0
 11
297.0
 21
210.0
 12
0.0
 22
0.0
 32
0.0
 14
0.0
 24
0.0
 34
0.0
 15
297.0
 25
210.0
 35
0.0
146
0.0
 13
0.0
 23
0.0
 33
0.0
 16
1.0
 26
0.0
 36
0.0
 17
0.0
 27
1.0
 37
0.0
 76
     0
330
1F
331
29
  0
MATERIAL
  5
3D
102
{ACAD_REACTORS
330
3B
102
}
330
3B
100
AcDbMaterial
  1
ByBlock
 72
     1
 94
      127
  0
MATERIAL
  5
3C
102
{ACAD_REACTORS
330
3B
102
}
330
3B
100
AcDbMaterial
  1
ByLayer
 72
     1
 94
      127
  0
MATERIAL
  5
3E
102
{ACAD_REACTORS
330
3B
102
}
330
3B
100
AcDbMaterial
  1
Global
 72
     1
 94
      127
  0
MLINESTYLE
  5
18
102
{ACAD_REACTORS
330
17
102
}
330
17
100
AcDbMlineStyle
  2
Standard
 70
     0
  3

 62
   256
 51
90.0
 52
90.0
 71
     2
 49
0.5
 62
   256
  6
BYLAYER
 49
-0.5
 62
   256
  6
BYLAYER
  0
ACDBPLACEHOLDER
  5
F
102
{ACAD_REACTORS
330
E
102
}
330
E
  0
VISUALSTYLE
  5
2F
102
{ACAD_REACTORS
330
2A
102
}
330
2A
100
AcDbVisualStyle
  2
2dWireframe
 70
     4
 71
     0
 72
     2
 73
     0
 90
        0
 40
-0.6
 41
-30.0
 62
     5
 63
     7
421
 16777215
 74
     1
 91
        4
 64
     7
 65
   257
 75
     1
175
     1
 42
1.0
 92
        0
 66
   257
 43
1.0
 76
     1
 77
     6
 78
     2
 67
     7
 79
     5
170
     0
171
     0
290
     0
174
     0
 93
        1
 44
0.0
173
     0
291
     0
 45
0.0
  0
VISUALSTYLE
  5
31
102
{ACAD_REACTORS
330
2A
102
}
330
2A
100
AcDbVisualStyle
  2
3D Hidden
 70
     6
 71
     1
 72
     2
 73
     2
 90
        0
 40
-0.6
 41
-30.0
 62
     5
 63
     7
421
 16777215
 74
     2
 91
        2
 64
     7
 65
   257
 75
     2
175
     1
 42
40.0
 92
        0
 66
   257
 43
1.0
 76
     1
 77
     6
 78
     2
 67
     7
 79
     3
170
     0
171
     0
290
     0
174
     0
 93
        1
 44
0.0
173
     0
291
     0
 45
0.0
  0
VISUALSTYLE
  5
30
102
{ACAD_REACTORS
330
2A
102
}
330
2A
100
AcDbVisualStyle
  2
3dWireframe
 70
     5
 71
     0
 72
     2
 73
     0
 90
        0
 40
-0.6
 41
-30.0
 62
     5
 63
     7
421
 16777215
 74
     1
 91
        4
 64
     7
 65
   257
 75
     1
175
     1
 42
1.0
 92
        0
 66
   257
 43
1.0
 76
     1
 77
     6
 78
     2
 67
     7
 79
     5
170
     0
171
     0
290
     0
174
     0
 93
        1
 44
0.0
173
     0
291
     0
 45
0.0
  0
VISUALSTYLE
  5
32
102
{ACAD_REACTORS
330
2A
102
}
330
2A
100
AcDbVisualStyle
  2
Basic
 70
     7
 71
     1
 72
     0
 73
     1
 90
        0
 40
-0.6
 41
-30.0
 62
     5
 63
     7
421
 16777215
 74
     0
 91
        4
 64
     7
 65
   257
 75
     1
175
     1
 42
1.0
 92
        8
 66
     7
 43
1.0
 76
     1
 77
     6
 78
     2
 67
     7
 79
     5
170
     0
171
     0
290
     0
174
     0
 93
        1
 44
0.0
173
     0
291
     1
 45
0.0
  0
VISUALSTYLE
  5
36
102
{ACAD_REACTORS
330
2A
102
}
330
2A
100
AcDbVisualStyle
  2
Brighten
 70
    12
 71
     2
 72
     2
 73
     0
 90
        0
 40
-0.6
 41
-30.0
 62
     5
 63
     7
421
 16777215
 74
     1
 91
        4
 64
     7
 65
   257
 75
     1
175
     1
 42
1.0
 92
        8
 66
     7
 43
1.0
 76
     1
 77
     6
 78
     2
 67
     7
 79
     5
170
     0
171
     0
290
     0
174
     0
 93
        1
 44
50.0
173
     0
291
     1
 45
0.0
  0
VISUALSTYLE
  5
3A
102
{ACAD_REACTORS
330
2A
102
}
330
2A
100
AcDbVisualStyle
  2
ColorChange
 70
    16
 71
     2
 72
     2
 73
     3
 90
        0
 40
-0.6
 41
-30.0
 62
     5
 63
     8
421
  8421504
 74
     1
 91
        4
 64
     7
 65
   257
 75
     1
175
     1
 42
1.0
 92
        8
 66
     8
424
  8421504
 43
1.0
 76
     1
 77
     6
 78
     2
 67
     7
 79
     5
170
     0
171
     0
290
     0
174
     0
 93
        1
 44
0.0
173
     0
291
     1
 45
0.0
  0
VISUALSTYLE
  5
34
102
{ACAD_REACTORS
330
2A
102
}
330
2A
100
AcDbVisualStyle
  2
Conceptual
 70
     9
 71
     3
 72
     2
 73
     0
 90
        0
 40
-0.6
 41
-30.0
 62
     5
 63
     7
421
 16777215
 74
     2
 91
        2
 64
     7
 65
   257
 75
     1
175
     1
 42
40.0
 92
        8
 66
     7
 43
1.0
 76
     1
 77
     6
 78
     2
 67
     7
 79
     3
170
     0
171
     0
290
     0
174
     0
 93
        1
 44
0.0
173
     0
291
     0
 45
0.0
  0
VISUALSTYLE
  5
35
102
{ACAD_REACTORS
330
2A
102
}
330
2A
100
AcDbVisualStyle
  2
Dim
 70
    11
 71
     2
 72
     2
 73
     0
 90
        0
 40
-0.6
 41
-30.0
 62
     5
 63
     7
421
 16777215
 74
     1
 91
        4
 64
     7
 65
   257
 75
     1
175
     1
 42
1.0
 92
        8
 66
     7
 43
1.0
 76
     1
 77
     6
 78
     2
 67
     7
 79
     5
170
     0
171
     0
290
     0
174
     0
 93
        1
 44
-50.0
173
     0
291
     1
 45
0.0
  0
VISUALSTYLE
  5
39
102
{ACAD_REACTORS
330
2A
102
}
330
2A
100
AcDbVisualStyle
  2
Facepattern
 70
    15
 71
     2
 72
     2
 73
     0
 90
        0
 40
-0.6
 41
-30.0
 62
     5
 63
     7
421
 16777215
 74
     1
 91
        4
 64
     7
 65
   257
 75
     1
175
     1
 42
1.0
 92
        8
 66
     7
 43
1.0
 76
     1
 77
     6
 78
     2
 67
     7
 79
     5
170
     0
171
     0
290
     0
174
     0
 93
        1
 44
0.0
173
     0
291
     1
 45
0.0
  0
VISUALSTYLE
  5
2B
102
{ACAD_REACTORS
330
2A
102
}
330
2A
100
AcDbVisualStyle
  2
Flat
 70
     0
 71
     2
 72
     1
 73
     1
 90
        2
 40
-0.6
 41
30.0
 62
     5
 63
     7
421
 16777215
 74
     0
 91
        4
 64
     7
 65
   257
 75
     1
175
     1
 42
1.0
 92
        8
 66
     7
 43
1.0
 76
     1
 77
     6
 78
     2
 67
     7
 79
     5
170
     0
171
     0
290
     0
174
     0
 93
       13
 44
0.0
173
     0
291
     1
 45
0.0
  0
VISUALSTYLE
  5
2C
102
{ACAD_REACTORS
330
2A
102
}
330
2A
100
AcDbVisualStyle
  2
FlatWithEdges
 70
     1
 71
     2
 72
     1
 73
     1
 90
        2
 40
-0.6
 41
30.0
 62
     5
 63
     7
421
 16777215
 74
     1
 91
        4
 64
     7
 65
   257
 75
     1
175
     1
 42
1.0
 92
        0
 66
   257
 43
1.0
 76
     1
 77
     6
 78
     2
 67
     7
 79
     5
170
     0
171
     0
290
     0
174
     0
 93
       13
 44
0.0
173
     0
291
     1
 45
0.0
  0
VISUALSTYLE
  5
2D
102
{ACAD_REACTORS
330
2A
102
}
330
2A
100
AcDbVisualStyle
  2
Gouraud
 70
     2
 71
     2
 72
     2
 73
     1
 90
        2
 40
-0.6
 41
30.0
 62
     5
 63
     7
421
 16777215
 74
     0
 91
        4
 64
     7
 65
   257
 75
     1
175
     1
 42
1.0
 92
        0
 66
     7
 43
1.0
 76
     1
 77
     6
 78
     2
 67
     7
 79
     5
170
     0
171
     0
290
     0
174
     0
 93
       13
 44
0.0
173
     0
291
     1
 45
0.0
  0
VISUALSTYLE
  5
2E
102
{ACAD_REACTORS
330
2A
102
}
330
2A
100
AcDbVisualStyle
  2
GouraudWithEdges
 70
     3
 71
     2
 72
     2
 73
     1
 90
        2
 40
-0.6
 41
30.0
 62
     5
 63
     7
421
 16777215
 74
     1
 91
        4
 64
     7
 65
   257
 75
     1
175
     1
 42
1.0
 92
        0
 66
   257
 43
1.0
 76
     1
 77
     6
 78
     2
 67
     7
 79
     5
170
     0
171
     0
290
     0
174
     0
 93
       13
 44
0.0
173
     0
291
     1
 45
0.0
  0
VISUALSTYLE
  5
38
102
{ACAD_REACTORS
330
2A
102
}
330
2A
100
AcDbVisualStyle
  2
Linepattern
 70
    14
 71
     2
 72
     2
 73
     0
 90
        0
 40
-0.6
 41
-30.0
 62
     5
 63
     7
421
 16777215
 74
     1
 91
        4
 64
     7
 65
   257
 75
     7
175
     7
 42
1.0
 92
        8
 66
     7
 43
1.0
 76
     1
 77
     6
 78
     2
 67
     7
 79
     5
170
     0
171
     0
290
     0
174
     0
 93
        1
 44
0.0
173
     0
291
     1
 45
0.0
  0
VISUALSTYLE
  5
33
102
{ACAD_REACTORS
330
2A
102
}
330
2A
100
AcDbVisualStyle
  2
Realistic
 70
     8
 71
     2
 72
     2
 73
     0
 90
        0
 40
-0.6
 41
-30.0
 62
     5
 63
     7
421
 16777215
 74
     1
 91
        0
 64
     7
 65
   257
 75
     1
175
     1
 42
1.0
 92
        8
 66
     8
424
  7895160
 43
1.0
 76
     1
 77
     6
 78
     2
 67
     7
 79
     5
170
     0
171
     0
290
     0
174
     0
 93
       13
 44
0.0
173
     0
291
     0
 45
0.0
  0
VISUALSTYLE
  5
37
102
{ACAD_REACTORS
330
2A
102
}
330
2A
100
AcDbVisualStyle
  2
Thicken
 70
    13
 71
     2
 72
     2
 73
     0
 90
        0
 40
-0.6
 41
-30.0
 62
     5
 63
     7
421
 16777215
 74
     1
 91
        4
 64
     7
 65
   257
 75
     1
175
     1
 42
1.0
 92
       12
 66
     7
 43
1.0
 76
     1
 77
     6
 78
     2
 67
     7
 79
     5
170
     0
171
     0
290
     0
174
     0
 93
        1
 44
0.0
173
     0
291
     1
 45
0.0
  0
ENDSEC
  0
EOF
