  0
SECTION
  2
HEADER
  9
$ACADVER
  1
AC1021
  9
$ACADMAINTVER
 70
    25
  9
$DWGCODEPAGE
  3
ANSI_1252
  9
$INSBASE
 10
0.0
 20
0.0
 30
0.0
  9
$EXTMIN
 10
0.0
 20
0.0
 30
0.0
  9
$EXTMAX
 10
297.0
 20
210.0
 30
0.0
  9
$LIMMIN
 10
0.0
 20
0.0
  9
$LIMMAX
 10
297.0
 20
210.0
  9
$ORTHOMODE
 70
     0
  9
$REGENMODE
 70
     1
  9
$FILLMODE
 70
     1
  9
$QTEXTMODE
 70
     0
  9
$MIRRTEXT
 70
     1
  9
$LTSCALE
 40
1.0
  9
$ATTMODE
 70
     1
  9
$TEXTSIZE
 40
3.5
  9
$TRACEWID
 40
1.0
  9
$TEXTSTYLE
  7
Standard
  9
$CLAYER
  8
0
  9
$CELTYPE
  6
ByLayer
  9
$CECOLOR
 62
   256
  9
$CELTSCALE
 40
1.0
  9
$DISPSILH
 70
     0
  9
$DIMSCALE
 40
1.0
  9
$DIMASZ
 40
3.302
  9
$DIMEXO
 40
1.0
  9
$DIMDLI
 40
3.75
  9
$DIMRND
 40
0.0
  9
$DIMDLE
 40
0.0
  9
$DIMEXE
 40
1.0
  9
$DIMTP
 40
0.0
  9
$DIMTM
 40
0.0
  9
$DIMTXT
 40
3.5
  9
$DIMCEN
 40
2.5
  9
$DIMTSZ
 40
0.0
  9
$DIMTOL
 70
     0
  9
$DIMLIM
 70
     0
  9
$DIMTIH
 70
     1
  9
$DIMTOH
 70
     1
  9
$DIMSE1
 70
     0
  9
$DIMSE2
 70
     0
  9
$DIMTAD
 70
     1
  9
$DIMZIN
 70
     0
  9
$DIMBLK
  1

  9
$DIMASO
 70
     1
  9
$DIMSHO
 70
     1
  9
$DIMPOST
  1

  9
$DIMAPOST
  1

  9
$DIMALT
 70
     0
  9
$DIMALTD
 70
     3
  9
$DIMALTF
 40
0.0393700787
  9
$DIMLFAC
 40
1.0
  9
$DIMTOFL
 70
     1
  9
$DIMTVP
 40
0.0
  9
$DIMTIX
 70
     0
  9
$DIMSOXD
 70
     0
  9
$DIMSAH
 70
     0
  9
$DIMBLK1
  1

  9
$DIMBLK2
  1

  9
$DIMSTYLE
  2
ISO-25
  9
$DIMCLRD
 70
     0
  9
$DIMCLRE
 70
     0
  9
$DIMCLRT
 70
     0
  9
$DIMTFAC
 40
1.0
  9
$DIMGAP
 40
1.524
  9
$DIMJUST
 70
     0
  9
$DIMSD1
 70
     0
  9
$DIMSD2
 70
     0
  9
$DIMTOLJ
 70
     0
  9
$DIMTZIN
 70
     0
  9
$DIMALTZ
 70
     0
  9
$DIMALTTZ
 70
     0
  9
$DIMUPT
 70
     0
  9
$DIMDEC
 70
     2
  9
$DIMTDEC
 70
     2
  9
$DIMALTU
 70
     2
  9
$DIMALTTD
 70
     3
  9
$DIMTXSTY
  7
Standard
  9
$DIMAUNIT
 70
     0
  9
$DIMADEC
 70
     2
  9
$DIMALTRND
 40
0.0
  9
$DIMAZIN
 70
     0
  9
$DIMDSEP
 70
    44
  9
$DIMATFIT
 70
     3
  9
$DIMFRAC
 70
     0
  9
$DIMLDRBLK
  1

  9
$DIMLUNIT
 70
     2
  9
$DIMLWD
 70
    -2
  9
$DIMLWE
 70
    -2
  9
$DIMTMOVE
 70
     0
  9
$DIMFXL
 40
1.0
  9
$DIMFXLON
 70
     0
  9
$DIMJOGANG
 40
0.7853981634
  9
$DIMTFILL
 70
     0
  9
$DIMTFILLCLR
 70
     0
  9
$DIMARCSYM
 70
     0
  9
$DIMLTYPE
  6

  9
$DIMLTEX1
  6

  9
$DIMLTEX2
  6

  9
$LUNITS
 70
     2
  9
$LUPREC
 70
     2
  9
$SKETCHINC
 40
1.0
  9
$FILLETRAD
 40
10.0
  9
$AUNITS
 70
     0
  9
$AUPREC
 70
     2
  9
$MENU
  1
.
  9
$ELEVATION
 40
0.0
  9
$PELEVATION
 40
0.0
  9
$THICKNESS
 40
0.0
  9
$LIMCHECK
 70
     0
  9
$CHAMFERA
 40
10.0
  9
$CHAMFERB
 40
10.0
  9
$CHAMFERC
 40
20.0
  9
$CHAMFERD
 40
0.0
  9
$SKPOLY
 70
     0
  9
$TDCREATE
 40
2456510.364305949
  9
$TDUCREATE
 40
2456510.280972616
  9
$TDUPDATE
 40
2456510.364306493
  9
$TDUUPDATE
 40
2456510.28097316
  9
$TDINDWG
 40
0.0000000116
  9
$TDUSRTIMER
 40
0.0000000116
  9
$USRTIMER
 70
     1
  9
$ANGBASE
 50
0.0
  9
$ANGDIR
 70
     0
  9
$PDMODE
 70
     0
  9
$PDSIZE
 40
-1.0
  9
$PLINEWID
 40
0.0
  9
$SPLFRAME
 70
     0
  9
$SPLINETYPE
 70
     6
  9
$SPLINESEGS
 70
     8
  9
$HANDSEED
  5
10D
  9
$SURFTAB1
 70
     6
  9
$SURFTAB2
 70
     6
  9
$SURFTYPE
 70
     6
  9
$SURFU
 70
     6
  9
$SURFV
 70
     6
  9
$UCSBASE
  2

  9
$UCSNAME
  2

  9
$UCSORG
 10
0.0
 20
0.0
 30
0.0
  9
$UCSXDIR
 10
1.0
 20
0.0
 30
0.0
  9
$UCSYDIR
 10
0.0
 20
1.0
 30
0.0
  9
$UCSORTHOREF
  2

  9
$UCSORTHOVIEW
 70
     0
  9
$UCSORGTOP
 10
0.0
 20
0.0
 30
0.0
  9
$UCSORGBOTTOM
 10
0.0
 20
0.0
 30
0.0
  9
$UCSORGLEFT
 10
0.0
 20
0.0
 30
0.0
  9
$UCSORGRIGHT
 10
0.0
 20
0.0
 30
0.0
  9
$UCSORGFRONT
 10
0.0
 20
0.0
 30
0.0
  9
$UCSORGBACK
 10
0.0
 20
0.0
 30
0.0
  9
$PUCSBASE
  2

  9
$PUCSNAME
  2

  9
$PUCSORG
 10
0.0
 20
0.0
 30
0.0
  9
$PUCSXDIR
 10
1.0
 20
0.0
 30
0.0
  9
$PUCSYDIR
 10
0.0
 20
1.0
 30
0.0
  9
$PUCSORTHOREF
  2

  9
$PUCSORTHOVIEW
 70
     0
  9
$PUCSORGTOP
 10
0.0
 20
0.0
 30
0.0
  9
$PUCSORGBOTTOM
 10
0.0
 20
0.0
 30
0.0
  9
$PUCSORGLEFT
 10
0.0
 20
0.0
 30
0.0
  9
$PUCSORGRIGHT
 10
0.0
 20
0.0
 30
0.0
  9
$PUCSORGFRONT
 10
0.0
 20
0.0
 30
0.0
  9
$PUCSORGBACK
 10
0.0
 20
0.0
 30
0.0
  9
$USERI1
 70
     0
  9
$USERI2
 70
     0
  9
$USERI3
 70
     0
  9
$USERI4
 70
     0
  9
$USERI5
 70
     0
  9
$USERR1
 40
0.0
  9
$USERR2
 40
0.0
  9
$USERR3
 40
0.0
  9
$USERR4
 40
0.0
  9
$USERR5
 40
0.0
  9
$WORLDVIEW
 70
     1
  9
$SHADEDGE
 70
     3
  9
$SHADEDIF
 70
    70
  9
$TILEMODE
 70
     1
  9
$MAXACTVP
 70
    64
  9
$PINSBASE
 10
0.0
 20
0.0
 30
0.0
  9
$PLIMCHECK
 70
     0
  9
$PEXTMIN
 10
1.0000000000E+20
 20
1.0000000000E+20
 30
1.0000000000E+20
  9
$PEXTMAX
 10
-1.0000000000E+20
 20
-1.0000000000E+20
 30
-1.0000000000E+20
  9
$PLIMMIN
 10
0.0
 20
0.0
  9
$PLIMMAX
 10
420.0
 20
297.0
  9
$UNITMODE
 70
     0
  9
$VISRETAIN
 70
     1
  9
$PLINEGEN
 70
     0
  9
$PSLTSCALE
 70
     1
  9
$TREEDEPTH
 70
  3020
  9
$CMLSTYLE
  2
Standard
  9
$CMLJUST
 70
     0
  9
$CMLSCALE
 40
20.0
  9
$PROXYGRAPHICS
 70
     1
  9
$MEASUREMENT
 70
     1
  9
$CELWEIGHT
370
    -1
  9
$ENDCAPS
280
     0
  9
$JOINSTYLE
280
     0
  9
$LWDISPLAY
290
     1
  9
$INSUNITS
 70
     4
  9
$HYPERLINKBASE
  1

  9
$STYLESHEET
  1

  9
$XEDIT
290
     1
  9
$CEPSNTYPE
380
     0
  9
$PSTYLEMODE
290
     1
  9
$FINGERPRINTGUID
  2
{2A1FB9E6-488D-4C90-A299-A04E8E536BDC}
  9
$VERSIONGUID
  2
{FAEB1C32-E019-11D5-929B-00C0DF256EC4}
  9
$EXTNAMES
290
     1
  9
$PSVPSCALE
 40
0.0
  9
$OLESTARTUP
290
     0
  9
$SORTENTS
280
   127
  9
$INDEXCTL
280
     0
  9
$HIDETEXT
280
     1
  9
$XCLIPFRAME
290
     0
  9
$HALOGAP
280
     0
  9
$OBSCOLOR
 70
   257
  9
$OBSLTYPE
280
     0
  9
$INTERSECTIONDISPLAY
280
     0
  9
$INTERSECTIONCOLOR
 70
   257
  9
$DIMASSOC
280
     2
  9
$PROJECTNAME
  1

  9
$CAMERADISPLAY
290
     0
  9
$LENSLENGTH
 40
50.0
  9
$CAMERAHEIGHT
 40
0.0
  9
$STEPSPERSEC
 40
2.0
  9
$STEPSIZE
 40
6.0
  9
$3DDWFPREC
 40
2.0
  9
$PSOLWIDTH
 40
5.0
  9
$PSOLHEIGHT
 40
80.0
  9
$LOFTANG1
 40
1.5707963268
  9
$LOFTANG2
 40
1.5707963268
  9
$LOFTMAG1
 40
0.0
  9
$LOFTMAG2
 40
0.0
  9
$LOFTPARAM
 70
     7
  9
$LOFTNORMALS
280
     1
  9
$LATITUDE
 40
37.795
  9
$LONGITUDE
 40
-122.394
  9
$NORTHDIRECTION
 40
0.0
  9
$TIMEZONE
 70
 -8000
  9
$LIGHTGLYPHDISPLAY
280
     1
  9
$TILEMODELIGHTSYNCH
280
     1
  9
$SOLIDHIST
280
     1
  9
$SHOWHIST
280
     1
  9
$DWFFRAME
280
     2
  9
$DGNFRAME
280
     2
  9
$REALWORLDSCALE
290
     1
  9
$INTERFERECOLOR
 62
   256
  9
$CSHADOW
280
     0
  9
$SHADOWPLANELOCATION
 40
0.0
  0
ENDSEC
  0
SECTION
  2
CLASSES
  0
CLASS
  1
ACDBDICTIONARYWDFLT
  2
AcDbDictionaryWithDefault
  3
ObjectDBX Classes
 90
        0
 91
        4
280
     0
281
     0
  0
CLASS
  1
VISUALSTYLE
  2
AcDbVisualStyle
  3
ObjectDBX Classes
 90
     4095
 91
        4
280
     0
281
     0
  0
CLASS
  1
MATERIAL
  2
AcDbMaterial
  3
ObjectDBX Classes
 90
     1153
 91
        4
280
     0
281
     0
  0
ENDSEC
  0
SECTION
  2
TABLES
  0
TABLE
  2
VPORT
  5
8
330
0
100
AcDbSymbolTable
 70
     1
  0
VPORT
  5
29
330
8
100
AcDbSymbolTableRecord
100
AcDbViewportTableRecord
  2
*Active
 70
     0
 10
0.0
 20
0.0
 11
1.0
 21
1.0
 12
148.5
 22
105.0
 13
0.0
 23
0.0
 14
10.0
 24
10.0
 15
10.0
 25
10.0
 16
0.0
 26
0.0
 36
1.0
 17
0.0
 27
0.0
 37
0.0
 40
210.0
 41
1.4142857143
 42
50.0
 43
0.0
 44
0.0
 50
0.0
 51
0.0
 71
     0
 72
  2000
 73
     1
 74
     3
 75
     0
 76
     0
 77
     0
 78
     0
281
     0
 65
     1
110
0.0
120
0.0
130
0.0
111
1.0
121
0.0
131
0.0
112
0.0
122
1.0
132
0.0
 79
     0
146
0.0
 60
     3
 61
     5
292
     1
282
     1
141
0.0
142
0.0
 63
   250
  0
ENDTAB
  0
TABLE
  2
LTYPE
  5
5
330
0
100
AcDbSymbolTable
 70
     8
  0
LTYPE
  5
14
330
5
100
AcDbSymbolTableRecord
100
AcDbLinetypeTableRecord
  2
ByBlock
 70
     0
  3

 72
    65
 73
     0
 40
0.0
  0
LTYPE
  5
15
330
5
100
AcDbSymbolTableRecord
100
AcDbLinetypeTableRecord
  2
ByLayer
 70
     0
  3

 72
    65
 73
     0
 40
0.0
  0
LTYPE
  5
16
330
5
100
AcDbSymbolTableRecord
100
AcDbLinetypeTableRecord
  2
Continuous
 70
     0
  3
Solid line
 72
    65
 73
     0
 40
0.0
  0
LTYPE
  5
3F
330
5
100
AcDbSymbolTableRecord
100
AcDbLinetypeTableRecord
  2
SLD-Durchgehend
 70
     0
  3
SolidWorks Line Style
 72
    65
 73
     0
 40
0.0
  0
LTYPE
  5
40
330
5
100
AcDbSymbolTableRecord
100
AcDbLinetypeTableRecord
  2
SLD-Gestrichelt
 70
     0
  3
SolidWorks Line Style
 72
    65
 73
     2
 40
1.905
 49
1.27
 74
     0
 49
-0.635
 74
     0
  0
LTYPE
  5
41
330
5
100
AcDbSymbolTableRecord
100
AcDbLinetypeTableRecord
  2
SLD-Phantom
 70
     0
  3
SolidWorks Line Style
 72
    65
 73
     6
 40
12.7
 49
6.35
 74
     0
 49
-1.27
 74
     0
 49
1.27
 74
     0
 49
-1.27
 74
     0
 49
1.27
 74
     0
 49
-1.27
 74
     0
  0
LTYPE
  5
42
330
5
100
AcDbSymbolTableRecord
100
AcDbLinetypeTableRecord
  2
SLD-Kette
 70
     0
  3
SolidWorks Line Style
 72
    65
 73
     4
 40
10.16
 49
6.35
 74
     0
 49
-1.27
 74
     0
 49
1.27
 74
     0
 49
-1.27
 74
     0
  0
LTYPE
  5
43
330
5
100
AcDbSymbolTableRecord
100
AcDbLinetypeTableRecord
  2
SLD-Punktstrich
 70
     0
  3
SolidWorks Line Style
 72
    65
 73
     4
 40
19.05
 49
15.24
 74
     0
 49
-1.27
 74
     0
 49
1.27
 74
     0
 49
-1.27
 74
     0
  0
LTYPE
  5
44
330
5
100
AcDbSymbolTableRecord
100
AcDbLinetypeTableRecord
  2
SLD-Naht
 70
     0
  3
SolidWorks Line Style
 72
    65
 73
     2
 40
0.635
 49
0.0
 74
     0
 49
-0.635
 74
     0
  0
LTYPE
  5
45
330
5
100
AcDbSymbolTableRecord
100
AcDbLinetypeTableRecord
  2
SLD-Dicke-Dünne-Kette
 70
     0
  3
SolidWorks Line Style
 72
    65
 73
     4
 40
10.16
 49
6.35
 74
     0
 49
-1.27
 74
     0
 49
1.27
 74
     0
 49
-1.27
 74
     0
  0
ENDTAB
  0
TABLE
  2
LAYER
  5
2
330
0
100
AcDbSymbolTable
 70
     3
  0
LAYER
  5
10
330
2
100
AcDbSymbolTableRecord
100
AcDbLayerTableRecord
  2
0
 70
     0
 62
     7
  6
Continuous
370
    -3
390
F
347
3E
  0
LAYER
  5
46
330
2
100
AcDbSymbolTableRecord
100
AcDbLayerTableRecord
  2
1
 70
     0
 62
     4
  6
Continuous
370
    -1
390
F
347
3E
  0
LAYER
  5
47
330
2
100
AcDbSymbolTableRecord
100
AcDbLayerTableRecord
  2
2
 70
     0
 62
     7
  6
SLD-Durchgehend
370
    -3
390
F
347
3E
  0
ENDTAB
  0
TABLE
  2
STYLE
  5
3
330
0
100
AcDbSymbolTable
 70
     2
  0
STYLE
  5
11
330
3
100
AcDbSymbolTableRecord
100
AcDbTextStyleTableRecord
  2
Standard
 70
     0
 40
0.0
 41
1.0
 50
0.0
 71
     0
 42
3.5
  3
txt
  4

  0
STYLE
  5
7C
330
3
100
AcDbSymbolTableRecord
100
AcDbTextStyleTableRecord
  2
SLDTEXTSTYLE0
 70
     0
 40
0.0
 41
0.75
 50
0.0
 71
     0
 42
0.2
  3
TXT
  4

  0
ENDTAB
  0
TABLE
  2
VIEW
  5
6
330
0
100
AcDbSymbolTable
 70
     0
  0
ENDTAB
  0
TABLE
  2
UCS
  5
7
330
0
100
AcDbSymbolTable
 70
     0
  0
ENDTAB
  0
TABLE
  2
APPID
  5
9
330
0
100
AcDbSymbolTable
 70
     1
  0
APPID
  5
12
330
9
100
AcDbSymbolTableRecord
100
AcDbRegAppTableRecord
  2
ACAD
 70
     0
  0
ENDTAB
  0
TABLE
  2
DIMSTYLE
  5
A
330
0
100
AcDbSymbolTable
 70
     4
100
AcDbDimStyleTable
  0
DIMSTYLE
105
27
330
A
100
AcDbSymbolTableRecord
100
AcDbDimStyleTableRecord
  2
ISO-25
 70
     0
 41
2.5
 42
0.625
 43
3.75
 44
1.25
 73
     0
 74
     0
 77
     1
 78
     8
140
2.5
141
2.5
143
0.0393700787
147
0.625
171
     3
172
     1
178
     0
271
     2
272
     2
274
     3
278
    44
283
     0
284
     8
340
11
  0
DIMSTYLE
105
7D
102
{ACAD_REACTORS
330
7B
330
A2
330
F3
330
FF
102
}
330
A
100
AcDbSymbolTableRecord
100
AcDbDimStyleTableRecord
  2
SLDDIMSTYLE0
 70
     0
 41
3.302
 44
0.0
 45
0.000000001
 73
     0
 74
     0
 77
     1
 78
    12
 79
     3
140
3.5
147
0.875
172
     1
173
     1
178
     0
271
     2
272
     2
276
     2
284
    12
289
     0
340
7C
  0
DIMSTYLE
105
8A
102
{ACAD_REACTORS
330
89
102
}
330
A
100
AcDbSymbolTableRecord
100
AcDbDimStyleTableRecord
  2
SLDDIMSTYLE1
 70
     0
 41
3.302
 44
0.0
 45
0.000000001
 73
     0
 74
     0
 77
     1
 78
    12
 79
     3
140
3.5
141
0.0
147
0.875
172
     1
173
     1
178
     0
271
     2
272
     2
276
     2
284
    12
340
7C
341
8B
343
8B
  0
DIMSTYLE
105
98
102
{ACAD_REACTORS
330
97
330
AE
102
}
330
A
100
AcDbSymbolTableRecord
100
AcDbDimStyleTableRecord
  2
SLDDIMSTYLE2
 70
     0
 41
3.302
 44
0.0
 45
0.000000001
 73
     0
 74
     0
 77
     1
 78
    12
 79
     3
140
3.5
147
0.875
173
     1
178
     0
271
     2
272
     2
276
     2
284
    12
340
7C
  0
ENDTAB
  0
TABLE
  2
BLOCK_RECORD
  5
1
330
0
100
AcDbSymbolTable
 70
    10
  0
BLOCK_RECORD
  5
1F
330
1
100
AcDbSymbolTableRecord
100
AcDbBlockTableRecord
  2
*Model_Space
340
22
 70
     0
280
     1
281
     0
  0
BLOCK_RECORD
  5
1B
330
1
100
AcDbSymbolTableRecord
100
AcDbBlockTableRecord
  2
*Paper_Space
340
1E
 70
     0
280
     1
281
     0
  0
BLOCK_RECORD
  5
23
330
1
100
AcDbSymbolTableRecord
100
AcDbBlockTableRecord
  2
*Paper_Space0
340
26
 70
     0
280
     1
281
     0
  0
BLOCK_RECORD
  5
7E
330
1
100
AcDbSymbolTableRecord
100
AcDbBlockTableRecord
  2
_D
340
0
 70
     0
280
     1
281
     0
  0
BLOCK_RECORD
  5
8B
330
1
100
AcDbSymbolTableRecord
100
AcDbBlockTableRecord
  2
_NONE
340
0
 70
     0
280
     1
281
     0
  0
BLOCK_RECORD
  5
8E
330
1
100
AcDbSymbolTableRecord
100
AcDbBlockTableRecord
  2
_D_1
340
0
 70
     0
280
     1
281
     0
  0
BLOCK_RECORD
  5
99
330
1
100
AcDbSymbolTableRecord
100
AcDbBlockTableRecord
  2
_D_2
340
0
 70
     0
280
     1
281
     0
  0
BLOCK_RECORD
  5
A3
330
1
100
AcDbSymbolTableRecord
100
AcDbBlockTableRecord
  2
_D_3
340
0
 70
     0
280
     1
281
     0
  0
BLOCK_RECORD
  5
AF
330
1
100
AcDbSymbolTableRecord
100
AcDbBlockTableRecord
  2
_D_4
340
0
 70
     0
280
     1
281
     0
  0
BLOCK_RECORD
  5
B8
330
1
100
AcDbSymbolTableRecord
100
AcDbBlockTableRecord
  2
SW_CENTERMARKSYMBOL_0
340
0
102
{BLKREFS
331
C3
102
}
 70
     0
280
     1
281
     0
  0
BLOCK_RECORD
  5
F4
330
1
100
AcDbSymbolTableRecord
100
AcDbBlockTableRecord
  2
_D_5
340
0
 70
     0
280
     1
281
     0
  0
BLOCK_RECORD
  5
100
330
1
100
AcDbSymbolTableRecord
100
AcDbBlockTableRecord
  2
_D_6
340
0
 70
     0
280
     1
281
     0
  0
ENDTAB
  0
ENDSEC
  0
SECTION
  2
BLOCKS
  0
BLOCK
  5
20
330
1F
100
AcDbEntity
  8
0
100
AcDbBlockBegin
  2
*Model_Space
 70
     0
 10
0.0
 20
0.0
 30
0.0
  3
*Model_Space
  1

  0
ENDBLK
  5
21
330
1F
100
AcDbEntity
  8
0
100
AcDbBlockEnd
  0
BLOCK
  5
1C
330
1B
100
AcDbEntity
 67
     1
  8
0
100
AcDbBlockBegin
  2
*Paper_Space
 70
     0
 10
0.0
 20
0.0
 30
0.0
  3
*Paper_Space
  1

  0
ENDBLK
  5
1D
330
1B
100
AcDbEntity
 67
     1
  8
0
100
AcDbBlockEnd
  0
BLOCK
  5
24
330
23
100
AcDbEntity
  8
0
100
AcDbBlockBegin
  2
*Paper_Space0
 70
     0
 10
0.0
 20
0.0
 30
0.0
  3
*Paper_Space0
  1

  0
ENDBLK
  5
25
330
23
100
AcDbEntity
  8
0
100
AcDbBlockEnd
  0
BLOCK
  5
7F
330
7E
100
AcDbEntity
  8
0
100
AcDbBlockBegin
  2
_D
 70
     0
 10
0.0
 20
0.0
 30
0.0
  3
_D
  1

  0
SOLID
  5
81
330
7E
100
AcDbEntity
  8
2
 62
     7
420
 16777215
100
AcDbTrace
 10
-28.5018778547
 20
-25.0001637776
 30
0.0
 11
-31.8038778547
 21
-24.4921637776
 31
0.0
 12
-31.8038778547
 22
-25.5081637776
 32
0.0
 13
-31.8038778547
 23
-25.5081637776
 33
0.0
  0
SOLID
  5
82
330
7E
100
AcDbEntity
  8
2
 62
     7
420
 16777215
100
AcDbTrace
 10
-15.5018778547
 20
-25.0001637776
 30
0.0
 11
-12.1998778547
 21
-25.5081637776
 31
0.0
 12
-12.1998778547
 22
-24.4921637776
 32
0.0
 13
-12.1998778547
 23
-24.4921637776
 33
0.0
  0
LINE
  5
83
330
7E
100
AcDbEntity
  8
2
 62
     7
420
 16777215
100
AcDbLine
 10
-28.5018778547
 20
3.9998362224
 30
0.0
 11
-28.5018778547
 21
-26.0001637776
 31
0.0
  0
LINE
  5
84
330
7E
100
AcDbEntity
  8
2
 62
     7
420
 16777215
100
AcDbLine
 10
-15.5018778547
 20
-16.0001637776
 30
0.0
 11
-15.5018778547
 21
-26.0001637776
 31
0.0
  0
LINE
  5
85
330
7E
100
AcDbEntity
  8
2
 62
     7
420
 16777215
100
AcDbLine
 10
-28.5018778547
 20
-25.0001637776
 30
0.0
 11
-34.8518778547
 21
-25.0001637776
 31
0.0
  0
LINE
  5
86
330
7E
100
AcDbEntity
  8
2
 62
     7
420
 16777215
100
AcDbLine
 10
-28.5018778547
 20
-25.0001637776
 30
0.0
 11
-15.5018778547
 21
-25.0001637776
 31
0.0
  0
LINE
  5
87
330
7E
100
AcDbEntity
  8
2
 62
     7
420
 16777215
100
AcDbLine
 10
-15.5018778547
 20
-25.0001637776
 30
0.0
 11
-9.1518778547
 21
-25.0001637776
 31
0.0
  0
MTEXT
  5
88
330
7E
100
AcDbEntity
  8
2
 62
     7
420
 16777215
100
AcDbMText
 10
-26.0098641358
 20
-20.488426863
 30
5.4997908101
 40
3.5
 41
0.0
 46
0.0
 71
     1
 72
     1
  1
13
  7
SLDTEXTSTYLE0
 73
     1
 44
1.0
  0
ENDBLK
  5
80
330
7E
100
AcDbEntity
  8
0
100
AcDbBlockEnd
  0
BLOCK
  5
8C
330
8B
100
AcDbEntity
  8
0
100
AcDbBlockBegin
  2
_NONE
 70
     0
 10
0.0
 20
0.0
 30
0.0
  3
_NONE
  1

  0
ENDBLK
  5
8D
330
8B
100
AcDbEntity
  8
0
100
AcDbBlockEnd
  0
BLOCK
  5
8F
330
8E
100
AcDbEntity
  8
0
100
AcDbBlockBegin
  2
_D_1
 70
     0
 10
0.0
 20
0.0
 30
0.0
  3
_D_1
  1

  0
ARC
  5
91
330
8E
100
AcDbEntity
  8
2
 62
     7
420
 16777215
100
AcDbCircle
 10
-45.5018778547
 20
4.9998362224
 30
0.0
 40
30.00000000000001
100
AcDbArc
 50
348.4108258397
 51
136.909152433
  0
SOLID
  5
92
330
8E
100
AcDbEntity
  8
2
 62
     7
420
 16777215
100
AcDbTrace
 10
-66.7150812903
 20
26.213039658
 30
0.0
 11
-68.6907376369
 21
28.9071164944
 31
0.0
 12
-69.4091581266
 22
28.1886960047
 32
0.0
 13
-69.4091581266
 23
28.1886960047
 33
0.0
  0
LINE
  5
93
330
8E
100
AcDbEntity
  8
2
 62
     7
420
 16777215
100
AcDbLine
 10
-66.7150812903
 20
26.213039658
 30
0.0
 11
-82.1408752252
 21
41.638833593
 31
0.0
  0
LINE
  5
94
330
8E
100
AcDbEntity
  8
2
 62
     7
420
 16777215
100
AcDbLine
 10
-66.7150812903
 20
26.213039658
 30
0.0
 11
-24.2886744191
 21
-16.2133672132
 31
0.0
  0
MTEXT
  5
95
330
8E
100
AcDbEntity
  8
2
 62
     7
420
 16777215
100
AcDbMText
 10
-78.954393817
 20
44.8253150012
 30
5.4997908101
 40
3.5
 41
0.0
 46
0.0
 71
     1
 72
     1
  1
%%c
  7
SLDTEXTSTYLE0
 11
0.7071067811865428
 21
-0.7071067811865522
 31
0.0
 73
     1
 44
1.0
  0
MTEXT
  5
96
330
8E
100
AcDbEntity
  8
2
 62
     7
420
 16777215
100
AcDbMText
 10
-75.1841643999
 20
41.1307066615
 30
5.4997908101
 40
3.5
 41
0.0
 46
0.0
 71
     1
 72
     1
  1
60
  7
SLDTEXTSTYLE0
 11
0.7071067811865428
 21
-0.7071067811865522
 31
0.0
 73
     1
 44
1.0
  0
ENDBLK
  5
90
330
8E
100
AcDbEntity
  8
0
100
AcDbBlockEnd
  0
BLOCK
  5
9A
330
99
100
AcDbEntity
  8
0
100
AcDbBlockBegin
  2
_D_2
 70
     0
 10
0.0
 20
0.0
 30
0.0
  3
_D_2
  1

  0
SOLID
  5
9C
330
99
100
AcDbEntity
  8
2
 62
     7
420
 16777215
100
AcDbTrace
 10
4.4981221453
 20
-37.0001637776
 30
0.0
 11
1.1961221453
 21
-36.4921637776
 31
0.0
 12
1.1961221453
 22
-37.5081637776
 32
0.0
 13
1.1961221453
 23
-37.5081637776
 33
0.0
  0
SOLID
  5
9D
330
99
100
AcDbEntity
  8
2
 62
     7
420
 16777215
100
AcDbTrace
 10
-28.5018778547
 20
-37.0001637776
 30
0.0
 11
-25.1998778547
 21
-37.5081637776
 31
0.0
 12
-25.1998778547
 22
-36.4921637776
 32
0.0
 13
-25.1998778547
 23
-36.4921637776
 33
0.0
  0
LINE
  5
9E
330
99
100
AcDbEntity
  8
2
 62
     7
420
 16777215
100
AcDbLine
 10
4.4981221453
 20
-12.0001637776
 30
0.0
 11
4.4981221453
 21
-38.0001637776
 31
0.0
  0
LINE
  5
9F
330
99
100
AcDbEntity
  8
2
 62
     7
420
 16777215
100
AcDbLine
 10
-28.5018778547
 20
3.9998362224
 30
0.0
 11
-28.5018778547
 21
-38.0001637776
 31
0.0
  0
LINE
  5
A0
330
99
100
AcDbEntity
  8
2
 62
     7
420
 16777215
100
AcDbLine
 10
4.4981221453
 20
-37.0001637776
 30
0.0
 11
-28.5018778547
 21
-37.0001637776
 31
0.0
  0
MTEXT
  5
A1
330
99
100
AcDbEntity
  8
2
 62
     7
420
 16777215
100
AcDbMText
 10
-16.0098641358
 20
-32.488426863
 30
5.4997908101
 40
3.5
 41
0.0
 46
0.0
 71
     1
 72
     1
  1
33
  7
SLDTEXTSTYLE0
 73
     1
 44
1.0
  0
ENDBLK
  5
9B
330
99
100
AcDbEntity
  8
0
100
AcDbBlockEnd
  0
BLOCK
  5
A4
330
A3
100
AcDbEntity
  8
0
100
AcDbBlockBegin
  2
_D_3
 70
     0
 10
0.0
 20
0.0
 30
0.0
  3
_D_3
  1

  0
SOLID
  5
A6
330
A3
100
AcDbEntity
  8
2
 62
     7
420
 16777215
100
AcDbTrace
 10
-37.7018778547
 20
-15.0001637776
 30
0.0
 11
-38.2098778547
 21
-18.3021637776
 31
0.0
 12
-37.1938778547
 22
-18.3021637776
 32
0.0
 13
-37.1938778547
 23
-18.3021637776
 33
0.0
  0
SOLID
  5
A7
330
A3
100
AcDbEntity
  8
2
 62
     7
420
 16777215
100
AcDbTrace
 10
-37.7018778547
 20
4.9998362224
 30
0.0
 11
-37.1938778547
 21
8.3018362224
 31
0.0
 12
-38.2098778547
 22
8.3018362224
 32
0.0
 13
-38.2098778547
 23
8.3018362224
 33
0.0
  0
LINE
  5
A8
330
A3
100
AcDbEntity
  8
2
 62
     7
420
 16777215
100
AcDbLine
 10
-16.5018778547
 20
-15.0001637776
 30
0.0
 11
-38.7018778547
 21
-15.0001637776
 31
0.0
  0
LINE
  5
A9
330
A3
100
AcDbEntity
  8
2
 62
     7
420
 16777215
100
AcDbLine
 10
-29.5018778547
 20
4.9998362224
 30
0.0
 11
-38.7018778547
 21
4.9998362224
 31
0.0
  0
LINE
  5
AA
330
A3
100
AcDbEntity
  8
2
 62
     7
420
 16777215
100
AcDbLine
 10
-37.7018778547
 20
-15.0001637776
 30
0.0
 11
-37.7018778547
 21
-21.3501637776
 31
0.0
  0
LINE
  5
AB
330
A3
100
AcDbEntity
  8
2
 62
     7
420
 16777215
100
AcDbLine
 10
-37.7018778547
 20
-15.0001637776
 30
0.0
 11
-37.7018778547
 21
4.9998362224
 31
0.0
  0
LINE
  5
AC
330
A3
100
AcDbEntity
  8
2
 62
     7
420
 16777215
100
AcDbLine
 10
-37.7018778547
 20
4.9998362224
 30
0.0
 11
-37.7018778547
 21
11.3498362224
 31
0.0
  0
MTEXT
  5
AD
330
A3
100
AcDbEntity
  8
2
 62
     7
420
 16777215
100
AcDbMText
 10
-42.2136147693
 20
-9.0081500586
 30
5.4997908101
 40
3.5
 41
0.0
 46
0.0
 71
     1
 72
     1
  1
20
  7
SLDTEXTSTYLE0
 11
6.123233995736766E-17
 21
1.0
 31
0.0
 73
     1
 44
1.0
  0
ENDBLK
  5
A5
330
A3
100
AcDbEntity
  8
0
100
AcDbBlockEnd
  0
BLOCK
  5
B0
330
AF
100
AcDbEntity
  8
0
100
AcDbBlockBegin
  2
_D_4
 70
     0
 10
0.0
 20
0.0
 30
0.0
  3
_D_4
  1

  0
SOLID
  5
B2
330
AF
100
AcDbEntity
  8
2
 62
     7
420
 16777215
100
AcDbTrace
 10
-43.7018778547
 20
-15.0001637776
 30
0.0
 11
-43.1938778547
 21
-11.6981637776
 31
0.0
 12
-44.2098778547
 22
-11.6981637776
 32
0.0
 13
-44.2098778547
 23
-11.6981637776
 33
0.0
  0
SOLID
  5
B3
330
AF
100
AcDbEntity
  8
2
 62
     7
420
 16777215
100
AcDbTrace
 10
-43.7018778547
 20
8.9998362224
 30
0.0
 11
-44.2098778547
 21
5.6978362224
 31
0.0
 12
-43.1938778547
 22
5.6978362224
 32
0.0
 13
-43.1938778547
 23
5.6978362224
 33
0.0
  0
LINE
  5
B4
330
AF
100
AcDbEntity
  8
2
 62
     7
420
 16777215
100
AcDbLine
 10
-16.5018778547
 20
-15.0001637776
 30
0.0
 11
-44.7018778547
 21
-15.0001637776
 31
0.0
  0
LINE
  5
B5
330
AF
100
AcDbEntity
  8
2
 62
     7
420
 16777215
100
AcDbLine
 10
-15.927903318
 20
8.9998362224
 30
0.0
 11
-44.7018778547
 21
8.9998362224
 31
0.0
  0
LINE
  5
B6
330
AF
100
AcDbEntity
  8
2
 62
     7
420
 16777215
100
AcDbLine
 10
-43.7018778547
 20
-15.0001637776
 30
0.0
 11
-43.7018778547
 21
8.9998362224
 31
0.0
  0
MTEXT
  5
B7
330
AF
100
AcDbEntity
  8
2
 62
     7
420
 16777215
100
AcDbMText
 10
-48.2136147693
 20
-7.0081500586
 30
5.4997908101
 40
3.5
 41
0.0
 46
0.0
 71
     1
 72
     1
  1
24
  7
SLDTEXTSTYLE0
 11
6.123233995736766E-17
 21
1.0
 31
0.0
 73
     1
 44
1.0
  0
ENDBLK
  5
B1
330
AF
100
AcDbEntity
  8
0
100
AcDbBlockEnd
  0
BLOCK
  5
B9
330
B8
100
AcDbEntity
  8
0
100
AcDbBlockBegin
  2
SW_CENTERMARKSYMBOL_0
 70
     0
 10
0.0
 20
0.0
 30
0.0
  3
SW_CENTERMARKSYMBOL_0
  1

  0
LINE
  5
BB
330
B8
100
AcDbEntity
  8
0
  6
SLD-Punktstrich
 62
     0
370
    15
100
AcDbLine
 10
0.0
 20
0.0
 30
0.0
 11
0.0
 21
2.5
 31
0.0
  0
LINE
  5
BC
330
B8
100
AcDbEntity
  8
0
  6
SLD-Punktstrich
 62
     0
370
    15
100
AcDbLine
 10
0.0
 20
0.0
 30
0.0
 11
-2.5
 21
0.0
 31
0.0
  0
LINE
  5
BD
330
B8
100
AcDbEntity
  8
0
  6
SLD-Punktstrich
 62
     0
370
    15
100
AcDbLine
 10
0.0
 20
0.0
 30
0.0
 11
0.0
 21
-2.5
 31
0.0
  0
LINE
  5
BE
330
B8
100
AcDbEntity
  8
0
  6
SLD-Punktstrich
 62
     0
370
    15
100
AcDbLine
 10
0.0
 20
0.0
 30
0.0
 11
2.5
 21
0.0
 31
0.0
  0
LINE
  5
BF
330
B8
100
AcDbEntity
  8
0
  6
SLD-Punktstrich
 62
     0
370
    15
100
AcDbLine
 10
0.0
 20
2.5
 30
0.0
 11
0.0
 21
4.5
 31
0.0
  0
LINE
  5
C0
330
B8
100
AcDbEntity
  8
0
  6
SLD-Punktstrich
 62
     0
370
    15
100
AcDbLine
 10
-2.5
 20
0.0
 30
0.0
 11
-4.5
 21
0.0
 31
0.0
  0
LINE
  5
C1
330
B8
100
AcDbEntity
  8
0
  6
SLD-Punktstrich
 62
     0
370
    15
100
AcDbLine
 10
0.0
 20
-2.5
 30
0.0
 11
0.0
 21
-4.5
 31
0.0
  0
LINE
  5
C2
330
B8
100
AcDbEntity
  8
0
  6
SLD-Punktstrich
 62
     0
370
    15
100
AcDbLine
 10
2.5
 20
0.0
 30
0.0
 11
4.5
 21
0.0
 31
0.0
  0
ENDBLK
  5
BA
330
B8
100
AcDbEntity
  8
0
100
AcDbBlockEnd
  0
BLOCK
  5
F5
330
F4
100
AcDbEntity
  8
0
100
AcDbBlockBegin
  2
_D_5
 70
     0
 10
0.0
 20
0.0
 30
0.0
  3
_D_5
  1

  0
SOLID
  5
F7
330
F4
100
AcDbEntity
  8
2
 62
     7
420
 16777215
100
AcDbTrace
 10
14.4981221453
 20
-58.6150005157
 30
0.0
 11
15.0061221453
 21
-55.3130005157
 31
0.0
 12
13.9901221453
 22
-55.3130005157
 32
0.0
 13
13.9901221453
 23
-55.3130005157
 33
0.0
  0
SOLID
  5
F8
330
F4
100
AcDbEntity
  8
2
 62
     7
420
 16777215
100
AcDbTrace
 10
14.4981221453
 20
-63.0150005157
 30
0.0
 11
13.9901221453
 21
-66.3170005157
 31
0.0
 12
15.0061221453
 22
-66.3170005157
 32
0.0
 13
15.0061221453
 23
-66.3170005157
 33
0.0
  0
LINE
  5
F9
330
F4
100
AcDbEntity
  8
2
 62
     7
420
 16777215
100
AcDbLine
 10
5.4981221453
 20
-58.6150005157
 30
0.0
 11
15.4981221453
 21
-58.6150005157
 31
0.0
  0
LINE
  5
FA
330
F4
100
AcDbEntity
  8
2
 62
     7
420
 16777215
100
AcDbLine
 10
5.4981221453
 20
-63.0150005157
 30
0.0
 11
15.4981221453
 21
-63.0150005157
 31
0.0
  0
LINE
  5
FB
330
F4
100
AcDbEntity
  8
2
 62
     7
420
 16777215
100
AcDbLine
 10
14.4981221453
 20
-58.6150005157
 30
0.0
 11
14.4981221453
 21
-52.2650005157
 31
0.0
  0
LINE
  5
FC
330
F4
100
AcDbEntity
  8
2
 62
     7
420
 16777215
100
AcDbLine
 10
14.4981221453
 20
-58.6150005157
 30
0.0
 11
14.4981221453
 21
-63.0150005157
 31
0.0
  0
LINE
  5
FD
330
F4
100
AcDbEntity
  8
2
 62
     7
420
 16777215
100
AcDbLine
 10
14.4981221453
 20
-63.0150005157
 30
0.0
 11
14.4981221453
 21
-81.1313201445
 31
0.0
  0
MTEXT
  5
FE
330
F4
100
AcDbEntity
  8
2
 62
     7
420
 16777215
100
AcDbMText
 10
9.9863852307
 20
-81.1313201445
 30
1.1735079227
 40
3.5
 41
0.0
 46
0.0
 71
     1
 72
     1
  1
4,40
  7
SLDTEXTSTYLE0
 11
-7.044195017643634E-15
 21
1.0
 31
0.0
 73
     1
 44
1.0
  0
ENDBLK
  5
F6
330
F4
100
AcDbEntity
  8
0
100
AcDbBlockEnd
  0
BLOCK
  5
101
330
100
100
AcDbEntity
  8
0
100
AcDbBlockBegin
  2
_D_6
 70
     0
 10
0.0
 20
0.0
 30
0.0
  3
_D_6
  1

  0
SOLID
  5
103
330
100
100
AcDbEntity
  8
2
 62
     7
420
 16777215
100
AcDbTrace
 10
-37.7018778547
 20
-58.6150005157
 30
0.0
 11
-37.1938778547
 21
-55.3130005157
 31
0.0
 12
-38.2098778547
 22
-55.3130005157
 32
0.0
 13
-38.2098778547
 23
-55.3130005157
 33
0.0
  0
SOLID
  5
104
330
100
100
AcDbEntity
  8
2
 62
     7
420
 16777215
100
AcDbTrace
 10
-37.7018778547
 20
-60.6150005157
 30
0.0
 11
-38.2098778547
 21
-63.9170005157
 31
0.0
 12
-37.1938778547
 22
-63.9170005157
 32
0.0
 13
-37.1938778547
 23
-63.9170005157
 33
0.0
  0
LINE
  5
105
330
100
100
AcDbEntity
  8
2
 62
     7
420
 16777215
100
AcDbLine
 10
-28.7018778547
 20
-58.6150005157
 30
0.0
 11
-38.7018778547
 21
-58.6150005157
 31
0.0
  0
LINE
  5
106
330
100
100
AcDbEntity
  8
2
 62
     7
420
 16777215
100
AcDbLine
 10
-28.7018778547
 20
-60.6150005157
 30
0.0
 11
-38.7018778547
 21
-60.6150005157
 31
0.0
  0
LINE
  5
107
330
100
100
AcDbEntity
  8
2
 62
     7
420
 16777215
100
AcDbLine
 10
-37.7018778547
 20
-58.6150005157
 30
0.0
 11
-37.7018778547
 21
-46.9639587543
 31
0.0
  0
LINE
  5
108
330
100
100
AcDbEntity
  8
2
 62
     7
420
 16777215
100
AcDbLine
 10
-37.7018778547
 20
-58.6150005157
 30
0.0
 11
-37.7018778547
 21
-60.6150005157
 31
0.0
  0
LINE
  5
109
330
100
100
AcDbEntity
  8
2
 62
     7
420
 16777215
100
AcDbLine
 10
-37.7018778547
 20
-60.6150005157
 30
0.0
 11
-37.7018778547
 21
-66.9650005157
 31
0.0
  0
MTEXT
  5
10A
330
100
100
AcDbEntity
  8
2
 62
     7
420
 16777215
100
AcDbMText
 10
-42.2136147693
 20
-52.39381989
 30
1.1735079227
 40
3.5
 41
0.0
 46
0.0
 71
     1
 72
     1
  1
2
  7
SLDTEXTSTYLE0
 11
-7.932373437343760E-15
 21
1.0
 31
0.0
 73
     1
 44
1.0
  0
ENDBLK
  5
102
330
100
100
AcDbEntity
  8
0
100
AcDbBlockEnd
  0
ENDSEC
  0
SECTION
  2
ENTITIES
  0
LINE
  5
48
330
1F
100
AcDbEntity
  8
0
  6
SLD-Punktstrich
 62
     7
100
AcDbLine
 10
4.4981221453
 20
-0.0001637776
 30
0.0
 11
-28.5018778547
 21
-0.0001637776
 31
0.0
  0
POINT
  5
49
330
1F
100
AcDbEntity
  8
1
 62
     4
420
    65535
100
AcDbPoint
 10
4.4981221453
 20
-0.0001637776
 30
0.0
  0
POINT
  5
4A
330
1F
100
AcDbEntity
  8
1
 62
     4
420
    65535
100
AcDbPoint
 10
-28.5018778547
 20
-0.0001637776
 30
0.0
  0
POINT
  5
4B
330
1F
100
AcDbEntity
  8
1
 62
     4
420
    65535
100
AcDbPoint
 10
-28.5018778547
 20
-0.0001637776
 30
0.0
  0
POINT
  5
4C
330
1F
100
AcDbEntity
  8
1
 62
     4
420
    65535
100
AcDbPoint
 10
-27.7018778547
 20
-0.0001637776
 30
0.0
  0
POINT
  5
4D
330
1F
100
AcDbEntity
  8
1
 62
     4
420
    65535
100
AcDbPoint
 10
-28.5018778547
 20
4.9998362224
 30
0.0
  0
LINE
  5
4E
330
1F
100
AcDbEntity
  8
1
 62
     4
420
    65535
100
AcDbLine
 10
-15.15681914
 20
-1.9819516568
 30
0.0
 11
-27.7018778547
 21
1.1458827781
 31
0.0
  0
LINE
  5
4F
330
1F
100
AcDbEntity
  8
1
 62
     4
420
    65535
100
AcDbLine
 10
-24.1276670998
 20
4.3791179183
 30
0.0
 11
-14.5178810751
 21
1.983129161
 31
0.0
  0
LINE
  5
50
330
1F
100
AcDbEntity
  8
1
 62
     4
420
    65535
100
AcDbLine
 10
-15.5018778547
 20
4.9998362224
 30
0.0
 11
-15.5018778547
 21
8.5095935059
 31
0.0
  0
ARC
  5
51
330
1F
100
AcDbEntity
  8
1
 62
     4
420
    65535
100
AcDbCircle
 10
-28.2018778547
 20
23.9598362224
 30
0.0
 40
20.00000000000001
100
AcDbArc
 50
309.4199844671
 51
311.5825725446
  0
LINE
  5
52
330
1F
100
AcDbEntity
  8
1
 62
     4
420
    65535
100
AcDbLine
 10
-2.5018778547
 20
8.9998362224
 30
0.0
 11
-14.927903318
 21
8.9998362224
 31
0.0
  0
LINE
  5
53
330
1F
100
AcDbEntity
  8
1
 62
     4
420
    65535
100
AcDbLine
 10
-2.5018778547
 20
5.0045658693
 30
0.0
 11
-2.5018778547
 21
8.9998362224
 31
0.0
  0
LINE
  5
54
330
1F
100
AcDbEntity
  8
1
 62
     4
420
    65535
100
AcDbLine
 10
4.4981221453
 20
4.2688362224
 30
0.0
 11
-2.5018778547
 21
5.0045658693
 31
0.0
  0
LINE
  5
55
330
1F
100
AcDbEntity
  8
1
 62
     4
420
    65535
100
AcDbLine
 10
4.4981221453
 20
-11.0001637776
 30
0.0
 11
4.4981221453
 21
4.2688362224
 31
0.0
  0
LINE
  5
56
330
1F
100
AcDbEntity
  8
1
 62
     4
420
    65535
100
AcDbLine
 10
-15.5018778547
 20
-11.0001637776
 30
0.0
 11
4.4981221453
 21
-11.0001637776
 31
0.0
  0
LINE
  5
57
330
1F
100
AcDbEntity
  8
1
 62
     4
420
    65535
100
AcDbLine
 10
-15.5018778547
 20
-15.0001637776
 30
0.0
 11
-15.5018778547
 21
-11.0001637776
 31
0.0
  0
LINE
  5
58
330
1F
100
AcDbEntity
  8
1
 62
     4
420
    65535
100
AcDbLine
 10
-21.5018778547
 20
-15.0001637776
 30
0.0
 11
-15.5018778547
 21
-15.0001637776
 31
0.0
  0
LINE
  5
59
330
1F
100
AcDbEntity
  8
1
 62
     4
420
    65535
100
AcDbLine
 10
-21.5018778547
 20
-15.0001637776
 30
0.0
 11
-21.5018778547
 21
-13.0001637776
 31
0.0
  0
ARC
  5
5A
330
1F
100
AcDbEntity
  8
1
 62
     4
420
    65535
100
AcDbCircle
 10
-45.5018778547
 20
4.9998362224
 30
0.0
 40
30.0
100
AcDbArc
 50
323.1301023542
 51
346.5016734067
  0
LINE
  5
5B
330
1F
100
AcDbEntity
  8
1
 62
     4
420
    65535
100
AcDbLine
 10
-16.3305757118
 20
-2.0026727058
 30
0.0
 11
-15.64760579
 21
-2.1729562325
 31
0.0
  0
LINE
  5
5C
330
1F
100
AcDbEntity
  8
1
 62
     4
420
    65535
100
AcDbLine
 10
-15.64760579
 20
-2.1729562325
 30
0.0
 11
-15.1575385476
 21
-1.9848370434
 31
0.0
  0
LINE
  5
5D
330
1F
100
AcDbEntity
  8
1
 62
     4
420
    65535
100
AcDbLine
 10
-15.1575385476
 20
-1.9848370434
 30
0.0
 11
-12.9771462343
 21
1.1290858928
 31
0.0
  0
LINE
  5
5E
330
1F
100
AcDbEntity
  8
1
 62
     4
420
    65535
100
AcDbLine
 10
-12.9771462343
 20
1.1290858928
 30
0.0
 11
-15.5453922347
 21
2.5526878973
 31
0.0
  0
LINE
  5
5F
330
1F
100
AcDbEntity
  8
1
 62
     4
420
    65535
100
AcDbLine
 10
-15.5453922347
 20
2.5526878973
 30
0.0
 11
-15.6007273853
 21
2.5664844998
 31
0.0
  0
ARC
  5
60
330
1F
100
AcDbEntity
  8
1
 62
     4
420
    65535
100
AcDbCircle
 10
-45.5018778547
 20
4.9998362224
 30
0.0
 40
30.0
100
AcDbArc
 50
355.3475294782
 51
0.0
  0
CIRCLE
  5
61
330
1F
100
AcDbEntity
  8
1
 62
     4
420
    65535
100
AcDbCircle
 10
-11.5018778547
 20
-6.5001637776
 30
0.0
 40
2.0
  0
CIRCLE
  5
62
330
1F
100
AcDbEntity
  8
1
 62
     4
420
    65535
100
AcDbCircle
 10
-8.4018778547
 20
4.4998362224
 30
0.0
 40
2.0
  0
CIRCLE
  5
63
330
1F
100
AcDbEntity
  8
1
 62
     4
420
    65535
100
AcDbCircle
 10
-0.0018778547
 20
-0.0001637776
 30
0.0
 40
2.0
  0
LINE
  5
64
330
1F
100
AcDbEntity
  8
1
 62
     4
420
    65535
100
AcDbLine
 10
-15.5018778547
 20
4.9998362224
 30
0.0
 11
-17.5018778547
 21
4.9998362224
 31
0.0
  0
LINE
  5
65
330
1F
100
AcDbEntity
  8
1
 62
     4
420
    65535
100
AcDbLine
 10
-17.5018778547
 20
4.9998362224
 30
0.0
 11
-17.5018778547
 21
7.0627950613
 31
0.0
  0
SPLINE
  5
66
330
1F
100
AcDbEntity
  8
1
 62
     4
420
    65535
100
AcDbSpline
210
0.0
220
0.0
230
1.0
 70
     8
 71
     3
 72
    20
 73
    16
 74
     0
 42
0.00000001
 43
0.00000001
 12
1.0
 22
0.0
 32
0.0
 13
1.0
 23
0.0
 33
0.0
 40
0.0
 40
0.0
 40
0.0
 40
0.0
 40
0.2500000000000009
 40
0.2500000000000009
 40
0.3750000000000011
 40
0.3750000000000011
 40
0.5000000000000008
 40
0.5000000000000008
 40
0.6250000000000007
 40
0.6250000000000007
 40
0.7500000000000004
 40
0.7500000000000004
 40
0.8750000000000002
 40
0.8750000000000002
 40
1.0
 40
1.0
 40
1.0
 40
1.0
 10
-17.50187785469031
 20
7.062795061335587
 30
0.0
 10
-17.2529281344298
 20
7.220441715645668
 30
0.0
 10
-17.0144564281383
 20
7.379145838782761
 30
0.0
 10
-16.67116427200967
 20
7.617802468414165
 30
0.0
 10
-16.55921516828713
 20
7.697445967458309
 30
0.0
 10
-16.34860335791155
 20
7.850310626113393
 30
0.0
 10
-16.2488136592494
 20
7.924309384217875
 30
0.0
 10
-16.06083335053667
 20
8.066161285917811
 30
0.0
 10
-15.971931134342
 20
8.134590890343508
 30
0.0
 10
-15.81439932878902
 20
8.257595542399008
 30
0.0
 10
-15.74493863210393
 20
8.312781440116726
 30
0.0
 10
-15.62759444140907
 20
8.406924765136694
 30
0.0
 10
-15.58162309580088
 20
8.444333589506853
 30
0.0
 10
-15.51866263778544
 20
8.495758367828062
 30
0.0
 10
-15.50187785469032
 20
8.509593505898232
 30
0.0
 10
-15.50187785469032
 20
8.509593505898232
 30
0.0
  0
SPLINE
  5
67
330
1F
100
AcDbEntity
  8
1
 62
     4
420
    65535
100
AcDbSpline
210
0.0
220
0.0
230
1.0
 70
     8
 71
     3
 72
    18
 73
    14
 74
     0
 42
0.00000001
 43
0.00000001
 12
1.0
 22
0.0
 32
0.0
 13
1.0
 23
0.0
 33
0.0
 40
0.0
 40
0.0
 40
0.0
 40
0.0
 40
0.1249999999999995
 40
0.1249999999999995
 40
0.2499999999999991
 40
0.2499999999999991
 40
0.3749999999999986
 40
0.3749999999999986
 40
0.4999999999999981
 40
0.4999999999999981
 40
0.749999999999999
 40
0.749999999999999
 40
1.0
 40
1.0
 40
1.0
 40
1.0
 10
-21.50187785469031
 20
-13.00016377756165
 30
0.0
 10
-21.50187785469031
 20
-13.00016377756165
 30
0.0
 10
-21.51557619495518
 20
-12.99559929816031
 30
0.0
 10
-21.56908726466692
 20
-12.97774889735688
 30
0.0
 10
-21.60964791330099
 20
-12.96421299794567
 30
0.0
 10
-21.71413883196623
 20
-12.92927901977026
 30
0.0
 10
-21.77786640106931
 20
-12.90794898446621
 30
0.0
 10
-21.92790677818932
 20
-12.85760722535646
 30
0.0
 10
-22.01373873944816
 20
-12.82875485957434
 30
0.0
 10
-22.29380830760641
 20
-12.73433409680327
 30
0.0
 10
-22.51615510384296
 20
-12.65902070596479
 30
0.0
 10
-22.99054145575617
 20
-12.49709470257969
 30
0.0
 10
-23.24885533529747
 20
-12.40831200842452
 30
0.0
 10
-23.50187785469032
 20
-12.32067185325043
 30
0.0
  0
ARC
  5
68
330
1F
100
AcDbEntity
  8
1
 62
     4
420
    65535
100
AcDbCircle
 10
-45.5018778547
 20
4.9998362224
 30
0.0
 40
28.0
100
AcDbArc
 50
321.7867892983
 51
346.5375082377
  0
SPLINE
  5
69
330
1F
100
AcDbEntity
  8
1
 62
     4
420
    65535
100
AcDbSpline
210
0.0
220
0.0
230
1.0
 70
    24
 71
     3
 72
    20
 73
    16
 74
     0
 42
0.00000001
 43
0.00000001
 12
1.0
 22
0.0
 32
0.0
 13
1.0
 23
0.0
 33
0.0
 40
0.0
 40
0.0
 40
0.0
 40
0.0
 40
0.125
 40
0.125
 40
0.25
 40
0.25
 40
0.375
 40
0.375
 40
0.5
 40
0.5
 40
0.625
 40
0.625
 40
0.75
 40
0.75
 40
1.0
 40
1.0
 40
1.0
 40
1.0
 10
-18.27124686835937
 20
-1.518809042206221
 30
0.0
 10
-18.14417864855532
 20
-1.550490707674805
 30
0.0
 10
-18.01601048725929
 20
-1.582446619358824
 30
0.0
 10
-17.76810676054409
 20
-1.644255960438108
 30
0.0
 10
-17.64693075614876
 20
-1.674468531606512
 30
0.0
 10
-17.41035035637635
 20
-1.733454650193607
 30
0.0
 10
-17.29852312988223
 20
-1.761336309238878
 30
0.0
 10
-17.08836890147891
 20
-1.813733643295729
 30
0.0
 10
-16.98891676493915
 20
-1.838529845877674
 30
0.0
 10
-16.80901234493847
 20
-1.883385055619103
 30
0.0
 10
-16.72886143415213
 20
-1.903368922131524
 30
0.0
 10
-16.58792763580821
 20
-1.938507664605719
 30
0.0
 10
-16.52699055719813
 20
-1.953700984714666
 30
0.0
 10
-16.38156879671021
 20
-1.989958701827061
 30
0.0
 10
-16.33057571184054
 20
-2.002672705836428
 30
0.0
 10
-16.33057571184053
 20
-2.002672705836428
 30
0.0
  0
ARC
  5
6A
330
1F
100
AcDbEntity
  8
1
 62
     4
420
    65535
100
AcDbCircle
 10
-45.5018778547
 20
4.9998362224
 30
0.0
 40
28.0
100
AcDbArc
 50
356.0218664195
 51
0.0
  0
SPLINE
  5
6B
330
1F
100
AcDbEntity
  8
1
 62
     4
420
    65535
100
AcDbSpline
210
0.0
220
0.0
230
1.0
 70
    24
 71
     3
 72
    20
 73
    16
 74
     0
 42
0.00000001
 43
0.00000001
 12
1.0
 22
0.0
 32
0.0
 13
1.0
 23
0.0
 33
0.0
 40
0.0
 40
0.0
 40
0.0
 40
0.0
 40
0.1250000000000013
 40
0.1250000000000013
 40
0.2500000000000023
 40
0.2500000000000023
 40
0.5000000000000031
 40
0.5000000000000031
 40
0.6250000000000023
 40
0.6250000000000023
 40
0.7500000000000016
 40
0.7500000000000016
 40
0.8750000000000008
 40
0.8750000000000008
 40
1.0
 40
1.0
 40
1.0
 40
1.0
 10
-15.60072738528414
 20
2.566484499827852
 30
0.0
 10
-15.60072738528414
 20
2.566484499827851
 30
0.0
 10
-15.61347457350861
 20
2.569662730809727
 30
0.0
 10
-15.66423373780872
 20
2.582318411870661
 30
0.0
 10
-15.70276438553343
 20
2.591925181316116
 30
0.0
 10
-15.85184033092607
 20
2.629093989052824
 30
0.0
 10
-15.99998597561837
 20
2.666030846773869
 30
0.0
 10
-16.27314440842039
 20
2.734136893284171
 30
0.0
 10
-16.37400105738748
 20
2.759283280144593
 30
0.0
 10
-16.58898192026821
 20
2.812884029336148
 30
0.0
 10
-16.70196820230863
 20
2.841054673385961
 30
0.0
 10
-16.93867532619781
 20
2.900072387844001
 30
0.0
 10
-17.06350525814081
 20
2.931195985470403
 30
0.0
 10
-17.31421551700749
 20
2.993705073605926
 30
0.0
 10
-17.44103675349255
 20
3.025325159216851
 30
0.0
 10
-17.56934106748323
 20
3.057315017580313
 30
0.0
  0
LINE
  5
6C
330
1F
100
AcDbEntity
  8
1
 62
     4
420
    65535
100
AcDbLine
 10
-23.5018778547
 20
-15.0001637776
 30
0.0
 11
-23.5018778547
 21
-12.3206718533
 31
0.0
  0
LINE
  5
6D
330
1F
100
AcDbEntity
  8
1
 62
     4
420
    65535
100
AcDbLine
 10
-21.5018778547
 20
-15.0001637776
 30
0.0
 11
-23.5018778547
 21
-15.0001637776
 31
0.0
  0
LINE
  5
6E
330
1F
100
AcDbEntity
  8
1
 62
     4
420
    65535
100
AcDbLine
 10
-27.7018778547
 20
-15.0001637776
 30
0.0
 11
-27.7018778547
 21
0.8463189517
 31
0.0
  0
LINE
  5
6F
330
1F
100
AcDbEntity
  8
1
 62
     4
420
    65535
100
AcDbLine
 10
-27.7018778547
 20
0.8463189517
 30
0.0
 11
-18.2712027288
 21
-1.505012443
 31
0.0
  0
LINE
  5
70
330
1F
100
AcDbEntity
  8
1
 62
     4
420
    65535
100
AcDbLine
 10
-16.3241375737
 20
-1.9904703095
 30
0.0
 11
-15.6257994442
 21
-2.1645855606
 31
0.0
  0
LINE
  5
71
330
1F
100
AcDbEntity
  8
1
 62
     4
420
    65535
100
AcDbLine
 10
-23.5018778547
 20
-15.0001637776
 30
0.0
 11
-27.7018778547
 21
-15.0001637776
 31
0.0
  0
LINE
  5
72
330
1F
100
AcDbEntity
  8
1
 62
     4
420
    65535
100
AcDbLine
 10
-15.5001185872
 20
2.5275923047
 30
0.0
 11
-15.6007715248
 21
2.5526879006
 31
0.0
  0
LINE
  5
73
330
1F
100
AcDbEntity
  8
1
 62
     4
420
    65535
100
AcDbLine
 10
-17.5757792056
 20
3.0451126212
 30
0.0
 11
-23.4963284441
 21
4.5212713386
 31
0.0
  0
ARC
  5
74
330
1F
100
AcDbEntity
  8
1
 62
     4
420
    65535
100
AcDbCircle
 10
-28.2018778547
 20
23.9598362224
 30
0.0
 40
20.00000000000001
100
AcDbArc
 50
283.6079792708
 51
302.3439114132
  0
LINE
  5
75
330
1F
100
AcDbEntity
  8
1
 62
     4
420
    65535
100
AcDbLine
 10
-14.5915240753
 20
2.0239501426
 30
0.0
 11
-24.0789106067
 21
4.3894212787
 31
0.0
  0
ARC
  5
76
330
1F
100
AcDbEntity
  8
1
 62
     4
420
    65535
100
AcDbCircle
 10
-28.2018778547
 20
23.9598362224
 30
0.0
 40
20.00000000000001
100
AcDbArc
 50
281.8967313506
 51
283.6079792708
  0
LINE
  5
77
330
1F
100
AcDbEntity
  8
1
 62
     4
420
    65535
100
AcDbLine
 10
-15.1881690092
 20
-1.9965949759
 30
0.0
 11
-27.7018778547
 21
1.1234230587
 31
0.0
  0
LINE
  5
78
330
1F
100
AcDbEntity
  8
1
 62
     4
420
    65535
100
AcDbLine
 10
-27.7018778547
 20
1.1234230587
 30
0.0
 11
-27.7018778547
 21
0.8463189517
 31
0.0
  0
LINE
  5
79
330
1F
100
AcDbEntity
  8
1
 62
     4
420
    65535
100
AcDbLine
 10
-27.7018778547
 20
1.1458827781
 30
0.0
 11
-27.7018778547
 21
1.1234230587
 31
0.0
  0
SPLINE
  5
7A
330
1F
100
AcDbEntity
  8
1
 62
     4
420
    65535
100
AcDbSpline
210
0.0
220
0.0
230
1.0
 70
     8
 71
     3
 72
     9
 73
     5
 74
     0
 42
0.00000001
 43
0.00000001
 12
1.0
 22
0.0
 32
0.0
 13
1.0
 23
0.0
 33
0.0
 40
0.0
 40
0.0
 40
0.0
 40
0.0
 40
0.4319498724860259
 40
1.0
 40
1.0
 40
1.0
 40
1.0
 10
-24.12764208643263
 20
4.379218241366903
 30
0.0
 10
-24.12568982959473
 20
4.379622203328948
 30
0.0
 10
-24.12117019210378
 20
4.380557408980752
 30
0.0
 10
-24.09421978746456
 20
4.386210206375974
 30
0.0
 10
-24.0789106066727
 20
4.38942127865714
 30
0.0
  0
DIMENSION
  5
7B
330
1F
100
AcDbEntity
  8
2
 62
     7
420
 16777215
100
AcDbDimension
  2
_D
 10
-15.5018778547
 20
-25.0001637776
 30
0.0
 11
-22.0018778547
 21
-25.0001637776
 31
0.0
 70
   160
  1
<>
 71
     2
 42
-1.0
 73
     0
 74
     0
 75
     0
  3
SLDDIMSTYLE0
100
AcDbAlignedDimension
 13
-28.5018778547
 23
4.9998362224
 33
0.0
 14
-15.5018778547
 24
-15.0001637776
 34
0.0
100
AcDbRotatedDimension
  0
DIMENSION
  5
89
330
1F
100
AcDbEntity
  8
2
 62
     7
420
 16777215
100
AcDbDimension
  2
_D_1
 10
-24.2886744191
 20
-16.2133672132
 30
0.0
 11
-77.5018678547
 21
36.9998462224
 31
0.0
 70
   163
  1
<>
 71
     1
 42
-1.0
 73
     0
 74
     0
 75
     0
  3
SLDDIMSTYLE1
100
AcDbDiametricDimension
 15
-66.7150812903
 25
26.213039658
 35
0.0
 40
0.0
  0
DIMENSION
  5
97
330
1F
100
AcDbEntity
  8
2
 62
     7
420
 16777215
100
AcDbDimension
  2
_D_2
 10
-28.5018778547
 20
-37.0001637776
 30
0.0
 11
-12.0018778547
 21
-37.0001637776
 31
0.0
 70
   160
  1
<>
 71
     2
 42
-1.0
 73
     0
 74
     0
 75
     0
  3
SLDDIMSTYLE2
100
AcDbAlignedDimension
 13
4.4981221453
 23
-11.0001637776
 33
0.0
 14
-28.5018778547
 24
4.9998362224
 34
0.0
100
AcDbRotatedDimension
  0
DIMENSION
  5
A2
330
1F
100
AcDbEntity
  8
2
 62
     7
420
 16777215
100
AcDbDimension
  2
_D_3
 10
-37.7018778547
 20
4.9998362224
 30
0.0
 11
-37.7018778547
 21
-5.0001637776
 31
0.0
 70
   160
  1
<>
 71
     2
 42
-1.0
 73
     0
 74
     0
 75
     0
  3
SLDDIMSTYLE0
100
AcDbAlignedDimension
 13
-15.5018778547
 23
-15.0001637776
 33
0.0
 14
-28.5018778547
 24
4.9998362224
 34
0.0
 50
90.0
100
AcDbRotatedDimension
  0
DIMENSION
  5
AE
330
1F
100
AcDbEntity
  8
2
 62
     7
420
 16777215
100
AcDbDimension
  2
_D_4
 10
-43.7018778547
 20
8.9998362224
 30
0.0
 11
-43.7018778547
 21
-3.0001637776
 31
0.0
 70
   160
  1
<>
 71
     2
 42
-1.0
 73
     0
 74
     0
 75
     0
  3
SLDDIMSTYLE2
100
AcDbAlignedDimension
 13
-15.5018778547
 23
-15.0001637776
 33
0.0
 14
-14.927903318
 24
8.9998362224
 34
0.0
 50
90.0
100
AcDbRotatedDimension
  0
INSERT
  5
C3
330
1F
100
AcDbEntity
  8
0
  6
SLD-Punktstrich
 62
   208
420
  4194368
370
    15
100
AcDbBlockReference
  2
SW_CENTERMARKSYMBOL_0
 10
-0.0018778547
 20
-0.0001637776
 30
0.0
  0
LINE
  5
C4
330
1F
100
AcDbEntity
  8
1
 62
     4
420
    65535
100
AcDbLine
 10
-14.927903318
 20
-63.0150005157
 30
0.0
 11
-14.927903318
 21
-58.6150005157
 31
0.0
  0
LINE
  5
C5
330
1F
100
AcDbEntity
  8
1
 62
     4
420
    65535
100
AcDbLine
 10
-15.5018778547
 20
-63.0150005157
 30
0.0
 11
-14.927903318
 21
-63.0150005157
 31
0.0
  0
LINE
  5
C6
330
1F
100
AcDbEntity
  8
1
 62
     4
420
    65535
100
AcDbLine
 10
-15.5018778547
 20
-62.6150005157
 30
0.0
 11
-15.5018778547
 21
-63.0150005157
 31
0.0
  0
SPLINE
  5
C7
330
1F
100
AcDbEntity
  8
1
 62
     4
420
    65535
100
AcDbSpline
210
0.0
220
0.0
230
1.0
 70
     8
 71
     3
 72
    20
 73
    16
 74
     0
 42
0.00000001
 43
0.00000001
 12
1.0
 22
0.0
 32
0.0
 13
1.0
 23
0.0
 33
0.0
 40
0.0
 40
0.0
 40
0.0
 40
0.0
 40
0.2500000000000009
 40
0.2500000000000009
 40
0.3750000000000011
 40
0.3750000000000011
 40
0.5000000000000008
 40
0.5000000000000008
 40
0.6250000000000007
 40
0.6250000000000007
 40
0.7500000000000004
 40
0.7500000000000004
 40
0.8750000000000002
 40
0.8750000000000002
 40
1.0
 40
1.0
 40
1.0
 40
1.0
 10
-17.50187785469031
 20
-60.61500051566736
 30
0.0
 10
-17.2529281344298
 20
-60.61500051566736
 30
0.0
 10
-17.0144564281383
 20
-60.65987784982094
 30
0.0
 10
-16.67116427200967
 20
-60.79155980784544
 30
0.0
 10
-16.55921516828713
 20
-60.84676031551761
 30
0.0
 10
-16.34860335791155
 20
-60.97632901690923
 30
0.0
 10
-16.2488136592494
 20
-61.05103146623916
 30
0.0
 10
-16.06083335053667
 20
-61.22231971860226
 30
0.0
 10
-15.971931134342
 20
-61.32007281463811
 30
0.0
 10
-15.81439932878902
 20
-61.53333931981191
 30
0.0
 10
-15.74493863210393
 20
-61.64921788012396
 30
0.0
 10
-15.62759444140907
 20
-61.90321879513894
 30
0.0
 10
-15.58162309580088
 20
-62.0375881762246
 30
0.0
 10
-15.51866263778544
 20
-62.31895870744558
 30
0.0
 10
-15.50187785469031
 20
-62.46683287724574
 30
0.0
 10
-15.50187785469031
 20
-62.61500051566736
 30
0.0
  0
LINE
  5
C8
330
1F
100
AcDbEntity
  8
1
 62
     4
420
    65535
100
AcDbLine
 10
-17.5018778547
 20
-60.6150005157
 30
0.0
 11
-23.4963284441
 21
-60.6150005157
 31
0.0
  0
ELLIPSE
  5
C9
330
1F
100
AcDbEntity
  8
1
 62
     4
420
    65535
100
AcDbEllipse
 10
-28.2018778547
 20
5.5273186221
 30
0.0
 11
5.186675067554591
 21
74.62894317158289
 31
0.0
210
0.0
220
0.0
230
1.0
 40
0.2588239154
 41
3.64142898749751
 42
3.642872496149881
  0
ELLIPSE
  5
CA
330
1F
100
AcDbEntity
  8
1
 62
     4
420
    65535
100
AcDbEllipse
 10
-28.2018778547
 20
-111.9967848262
 30
0.0
 11
-5.438461105902456
 21
58.05622973738799
 31
0.0
210
0.0
220
0.0
230
1.0
 40
0.3315127425
 41
5.7688469314777
 42
5.800157350656542
  0
SPLINE
  5
CB
330
1F
100
AcDbEntity
  8
1
 62
     4
420
    65535
100
AcDbSpline
210
0.0
220
0.0
230
1.0
 70
     8
 71
     3
 72
    10
 73
     6
 74
     0
 42
0.00000001
 43
0.00000001
 12
1.0
 22
0.0
 32
0.0
 13
1.0
 23
0.0
 33
0.0
 40
0.0
 40
0.0
 40
0.0
 40
0.0
 40
0.5
 40
0.5
 40
1.0
 40
1.0
 40
1.0
 40
1.0
 10
-24.07891060667266
 20
-59.48477325388446
 30
0.0
 10
-24.10782340662947
 20
-59.52225170556913
 30
0.0
 10
-24.12787964905223
 20
-59.56712743450793
 30
0.0
 10
-24.12787019538373
 20
-59.66290863983202
 30
0.0
 10
-24.10780716360246
 20
-59.70777038092123
 30
0.0
 10
-24.0789106066727
 20
-59.74522777745021
 30
0.0
  0
ELLIPSE
  5
CC
330
1F
100
AcDbEntity
  8
1
 62
     4
420
    65535
100
AcDbEllipse
 10
-28.2018778547
 20
-7.2332162051
 30
0.0
 11
5.438461105902459
 21
58.05622973738797
 31
0.0
210
0.0
220
0.0
230
1.0
 40
0.3315127425
 41
3.624620610112906
 42
3.655931029291746
  0
ELLIPSE
  5
CD
330
1F
100
AcDbEntity
  8
1
 62
     4
420
    65535
100
AcDbEllipse
 10
-28.2018778547
 20
-124.7573196535
 30
0.0
 11
-5.186675067554582
 21
74.62894317158305
 31
0.0
210
0.0
220
0.0
230
1.0
 40
0.2588239154
 41
5.781905464619584
 42
5.783348973271953
  0
LINE
  5
CE
330
1F
100
AcDbEntity
  8
1
 62
     4
420
    65535
100
AcDbLine
 10
-23.4963284441
 20
-58.6150005157
 30
0.0
 11
-14.927903318
 21
-58.6150005157
 31
0.0
  0
LINE
  5
CF
330
1F
100
AcDbEntity
  8
1
 62
     4
420
    65535
100
AcDbLine
 10
-14.927903318
 20
-58.6150005157
 30
0.0
 11
-2.5018778547
 21
-58.6150005157
 31
0.0
  0
LINE
  5
D0
330
1F
100
AcDbEntity
  8
1
 62
     4
420
    65535
100
AcDbLine
 10
-2.5018778547
 20
-63.0150005157
 30
0.0
 11
-14.927903318
 21
-63.0150005157
 31
0.0
  0
LINE
  5
D1
330
1F
100
AcDbEntity
  8
1
 62
     4
420
    65535
100
AcDbLine
 10
-2.5018778547
 20
-58.6150005157
 30
0.0
 11
-2.5018778547
 21
-63.0150005157
 31
0.0
  0
LINE
  5
D2
330
1F
100
AcDbEntity
  8
1
 62
     4
420
    65535
100
AcDbLine
 10
4.4981221453
 20
-58.6150005157
 30
0.0
 11
4.4981221453
 21
-63.0150005157
 31
0.0
  0
LINE
  5
D3
330
1F
100
AcDbEntity
  8
1
 62
     4
420
    65535
100
AcDbLine
 10
4.4981221453
 20
-63.0150005157
 30
0.0
 11
-2.5018778547
 21
-63.0150005157
 31
0.0
  0
LINE
  5
D4
330
1F
100
AcDbEntity
  8
1
 62
     4
420
    65535
100
AcDbLine
 10
-2.5018778547
 20
-58.6150005157
 30
0.0
 11
4.4981221453
 21
-58.6150005157
 31
0.0
  0
LINE
  5
D5
330
1F
100
AcDbEntity
  8
1
 62
     4
420
    65535
100
AcDbLine
 10
-15.5018778547
 20
-62.6150005157
 30
0.0
 11
-15.6007273853
 21
-62.6150005157
 31
0.0
  0
SPLINE
  5
D6
330
1F
100
AcDbEntity
  8
1
 62
     4
420
    65535
100
AcDbSpline
210
0.0
220
0.0
230
1.0
 70
     8
 71
     3
 72
    16
 73
    12
 74
     0
 42
0.00000001
 43
0.00000001
 12
1.0
 22
0.0
 32
0.0
 13
1.0
 23
0.0
 33
0.0
 40
0.0
 40
0.0
 40
0.0
 40
0.0
 40
0.0967541022526139
 40
0.1954501231283473
 40
0.3110518237791928
 40
0.4299768164844546
 40
0.5461539074631305
 40
0.6656226294589124
 40
0.7832165511754947
 40
0.9041320253077705
 40
1.0
 40
1.0
 40
1.0
 40
1.0
 10
-15.60072738528413
 20
-62.61500051566736
 30
0.0
 10
-15.60432424506712
 20
-62.52328127988956
 30
0.0
 10
-15.61159015598037
 20
-62.33800194280053
 30
0.0
 10
-15.67374207865394
 20
-62.04892942437706
 30
0.0
 10
-15.78270585012461
 20
-61.75265754830622
 30
0.0
 10
-15.94730230034262
 20
-61.46504710563937
 30
0.0
 10
-16.15805266882633
 20
-61.20701981262285
 30
0.0
 10
-16.40657084300379
 20
-60.98904052637691
 30
0.0
 10
-16.69047566449667
 20
-60.81540174341168
 30
0.0
 10
-16.97767121292011
 20
-60.6965405439113
 30
0.0
 10
-17.17370276140341
 20
-60.65811223765861
 30
0.0
 10
-17.26039363946989
 20
-60.64111811789867
 30
0.0
  0
LINE
  5
D7
330
1F
100
AcDbEntity
  8
1
 62
     4
420
    65535
100
AcDbLine
 10
-15.6007273853
 20
-63.0150005157
 30
0.0
 11
-15.6007273853
 21
-62.6150005157
 31
0.0
  0
LINE
  5
D8
330
1F
100
AcDbEntity
  8
1
 62
     4
420
    65535
100
AcDbLine
 10
-15.6007273853
 20
-63.0150005157
 30
0.0
 11
-15.5018778547
 21
-63.0150005157
 31
0.0
  0
LINE
  5
D9
330
1F
100
AcDbEntity
  8
1
 62
     4
420
    65535
100
AcDbLine
 10
-27.7018778547
 20
-59.4847732539
 30
0.0
 11
-27.7018778547
 21
-59.7452277775
 31
0.0
  0
LINE
  5
DA
330
1F
100
AcDbEntity
  8
1
 62
     4
420
    65535
100
AcDbLine
 10
-27.7018778547
 20
-58.6844523115
 30
0.0
 11
-27.6942168951
 21
-58.6650005157
 31
0.0
  0
LINE
  5
DB
330
1F
100
AcDbEntity
  8
1
 62
     4
420
    65535
100
AcDbLine
 10
-23.4682736197
 20
-58.6650005157
 30
0.0
 11
-27.6942168951
 21
-58.6650005157
 31
0.0
  0
LINE
  5
DC
330
1F
100
AcDbEntity
  8
1
 62
     4
420
    65535
100
AcDbLine
 10
-27.7018778547
 20
-58.6844523115
 30
0.0
 11
-27.7018778547
 21
-59.4847732539
 31
0.0
  0
LINE
  5
DD
330
1F
100
AcDbEntity
  8
1
 62
     4
420
    65535
100
AcDbLine
 10
-23.4682736197
 20
-60.5650005157
 30
0.0
 11
-27.6942168951
 21
-60.5650005157
 31
0.0
  0
LINE
  5
DE
330
1F
100
AcDbEntity
  8
1
 62
     4
420
    65535
100
AcDbLine
 10
-27.6942168951
 20
-60.5650005157
 30
0.0
 11
-27.7018778547
 21
-60.5455487198
 31
0.0
  0
LINE
  5
DF
330
1F
100
AcDbEntity
  8
1
 62
     4
420
    65535
100
AcDbLine
 10
-27.7018778547
 20
-59.7452277775
 30
0.0
 11
-27.7018778547
 21
-60.5455487198
 31
0.0
  0
LINE
  5
E0
330
1F
100
AcDbEntity
  8
1
 62
     4
420
    65535
100
AcDbLine
 10
-27.6942168951
 20
-58.6650005157
 30
0.0
 11
-27.7018778547
 21
-58.6400040215
 31
0.0
  0
LINE
  5
E1
330
1F
100
AcDbEntity
  8
1
 62
     4
420
    65535
100
AcDbLine
 10
-27.7018778547
 20
-58.6150005157
 30
0.0
 11
-27.7018778547
 21
-58.6400040215
 31
0.0
  0
LINE
  5
E2
330
1F
100
AcDbEntity
  8
1
 62
     4
420
    65535
100
AcDbLine
 10
-27.7018778547
 20
-58.6150005157
 30
0.0
 11
-23.4963284441
 21
-58.6150005157
 31
0.0
  0
LINE
  5
E3
330
1F
100
AcDbEntity
  8
1
 62
     4
420
    65535
100
AcDbLine
 10
-27.7018778547
 20
-60.5899970098
 30
0.0
 11
-27.6942168951
 21
-60.5650005157
 31
0.0
  0
LINE
  5
E4
330
1F
100
AcDbEntity
  8
1
 62
     4
420
    65535
100
AcDbLine
 10
-27.7018778547
 20
-60.6150005157
 30
0.0
 11
-23.4963284441
 21
-60.6150005157
 31
0.0
  0
LINE
  5
E5
330
1F
100
AcDbEntity
  8
1
 62
     4
420
    65535
100
AcDbLine
 10
-27.7018778547
 20
-60.5899970098
 30
0.0
 11
-27.7018778547
 21
-60.6150005157
 31
0.0
  0
LINE
  5
E6
330
1F
100
AcDbEntity
  8
1
 62
     4
420
    65535
100
AcDbLine
 10
-27.7018778547
 20
-58.6844523115
 30
0.0
 11
-27.7018778547
 21
-58.6400040215
 31
0.0
  0
LINE
  5
E7
330
1F
100
AcDbEntity
  8
1
 62
     4
420
    65535
100
AcDbLine
 10
-27.7018778547
 20
-60.5899970098
 30
0.0
 11
-27.7018778547
 21
-60.5455487198
 31
0.0
  0
LINE
  5
E8
330
1F
100
AcDbEntity
  8
1
 62
     4
420
    65535
100
AcDbLine
 10
-16.3305757118
 20
-62.6150005157
 30
0.0
 11
-21.5018778547
 21
-62.6150005157
 31
0.0
  0
SPLINE
  5
E9
330
1F
100
AcDbEntity
  8
1
 62
     4
420
    65535
100
AcDbSpline
210
0.0
220
0.0
230
1.0
 70
     8
 71
     3
 72
    18
 73
    14
 74
     0
 42
0.00000001
 43
0.00000001
 12
1.0
 22
0.0
 32
0.0
 13
1.0
 23
0.0
 33
0.0
 40
0.0
 40
0.0
 40
0.0
 40
0.0
 40
0.1249999999999995
 40
0.1249999999999995
 40
0.2499999999999991
 40
0.2499999999999991
 40
0.3749999999999986
 40
0.3749999999999986
 40
0.4999999999999981
 40
0.4999999999999981
 40
0.749999999999999
 40
0.749999999999999
 40
1.0
 40
1.0
 40
1.0
 40
1.0
 10
-21.50187785469031
 20
-62.61500051566736
 30
0.0
 10
-21.50187785469031
 20
-62.47914463270649
 30
0.0
 10
-21.51557619495518
 20
-62.34577535877279
 30
0.0
 10
-21.56908726466692
 20
-62.08377833645372
 30
0.0
 10
-21.60964791330099
 20
-61.95376307518642
 30
0.0
 10
-21.71413883196623
 20
-61.70849166826787
 30
0.0
 10
-21.77786640106931
 20
-61.59257167684014
 30
0.0
 10
-21.92790677818932
 20
-61.37395608736502
 30
0.0
 10
-22.01373873944816
 20
-61.2724619539262
 30
0.0
 10
-22.29380830760641
 20
-60.99993419080286
 30
0.0
 10
-22.51615510384296
 20
-60.85608732749854
 30
0.0
 10
-22.99054145575617
 20
-60.66462618437161
 30
0.0
 10
-23.24885533529747
 20
-60.61500051566735
 30
0.0
 10
-23.50187785469032
 20
-60.61500051566736
 30
0.0
  0
SPLINE
  5
EA
330
1F
100
AcDbEntity
  8
1
 62
     4
420
    65535
100
AcDbSpline
210
0.0
220
0.0
230
1.0
 70
     8
 71
     3
 72
    20
 73
    16
 74
     0
 42
0.00000001
 43
0.00000001
 12
1.0
 22
0.0
 32
0.0
 13
1.0
 23
0.0
 33
0.0
 40
0.0
 40
0.0
 40
0.0
 40
0.0
 40
0.125
 40
0.125
 40
0.25
 40
0.25
 40
0.375
 40
0.375
 40
0.5
 40
0.5
 40
0.625
 40
0.625
 40
0.75
 40
0.75
 40
1.0
 40
1.0
 40
1.0
 40
1.0
 10
-18.27124686835937
 20
-60.61500051566734
 30
0.0
 10
-18.14417864855532
 20
-60.61500051566734
 30
0.0
 10
-18.01601048725929
 20
-60.6280993721825
 30
0.0
 10
-17.76810676054409
 20
-60.67899901232771
 30
0.0
 10
-17.64693075614876
 20
-60.71672613034479
 30
0.0
 10
-17.41035035637635
 20
-60.81770751473171
 30
0.0
 10
-17.29852312988223
 20
-60.87948005845254
 30
0.0
 10
-17.08836890147891
 20
-61.02411983119084
 30
0.0
 10
-16.98891676493915
 20
-61.1081020987359
 30
0.0
 10
-16.80901234493847
 20
-61.29351191032097
 30
0.0
 10
-16.72886143415213
 20
-61.39417216707587
 30
0.0
 10
-16.58792763580821
 20
-61.61121298652346
 30
0.0
 10
-16.52699055719813
 20
-61.72859021578647
 30
0.0
 10
-16.38156879671021
 20
-62.09010517644391
 30
0.0
 10
-16.33057571184054
 20
-62.35205923687035
 30
0.0
 10
-16.33057571184053
 20
-62.61500051566736
 30
0.0
  0
LINE
  5
EB
330
1F
100
AcDbEntity
  8
1
 62
     4
420
    65535
100
AcDbLine
 10
-15.64760579
 20
-63.0150005157
 30
0.0
 11
-15.64760579
 21
-62.2041847183
 31
0.0
  0
LINE
  5
EC
330
1F
100
AcDbEntity
  8
1
 62
     4
420
    65535
100
AcDbLine
 10
-16.3305757118
 20
-62.6150005157
 30
0.0
 11
-16.3305757118
 21
-63.0150005157
 31
0.0
  0
LINE
  5
ED
330
1F
100
AcDbEntity
  8
1
 62
     4
420
    65535
100
AcDbLine
 10
-16.3305757118
 20
-63.0150005157
 30
0.0
 11
-15.64760579
 21
-63.0150005157
 31
0.0
  0
LINE
  5
EE
330
1F
100
AcDbEntity
  8
1
 62
     4
420
    65535
100
AcDbLine
 10
-15.64760579
 20
-63.0150005157
 30
0.0
 11
-15.6007273853
 21
-63.0150005157
 31
0.0
  0
LINE
  5
EF
330
1F
100
AcDbEntity
  8
1
 62
     4
420
    65535
100
AcDbLine
 10
-21.5018778547
 20
-62.6150005157
 30
0.0
 11
-21.5018778547
 21
-63.0150005157
 31
0.0
  0
LINE
  5
F0
330
1F
100
AcDbEntity
  8
1
 62
     4
420
    65535
100
AcDbLine
 10
-21.5018778547
 20
-63.0150005157
 30
0.0
 11
-16.3305757118
 21
-63.0150005157
 31
0.0
  0
LINE
  5
F1
330
1F
100
AcDbEntity
  8
1
 62
     4
420
    65535
100
AcDbLine
 10
-24.0789106067
 20
-59.4847732539
 30
0.0
 11
-27.7018778547
 21
-59.4847732539
 31
0.0
  0
LINE
  5
F2
330
1F
100
AcDbEntity
  8
1
 62
     4
420
    65535
100
AcDbLine
 10
-24.0789106067
 20
-59.7452277775
 30
0.0
 11
-27.7018778547
 21
-59.7452277775
 31
0.0
  0
DIMENSION
  5
F3
330
1F
100
AcDbEntity
  8
2
 62
     7
420
 16777215
100
AcDbDimension
  2
_D_5
 10
14.4981221453
 20
-63.0150005157
 30
0.0
 11
14.4981221453
 21
-75.1837507593
 31
0.0
 70
   160
  1
<>
 71
     2
 42
-1.0
 73
     0
 74
     0
 75
     0
  3
SLDDIMSTYLE0
100
AcDbAlignedDimension
 13
4.4981221453
 23
-58.6150005157
 33
0.0
 14
4.4981221453
 24
-63.0150005157
 34
0.0
 50
90.0
100
AcDbRotatedDimension
  0
DIMENSION
  5
FF
330
1F
100
AcDbEntity
  8
2
 62
     7
420
 16777215
100
AcDbDimension
  2
_D_6
 10
-37.7018778547
 20
-60.6150005157
 30
0.0
 11
-37.7018778547
 21
-49.6788893221
 31
0.0
 70
   160
  1
<>
 71
     2
 42
-1.0
 73
     0
 74
     0
 75
     0
  3
SLDDIMSTYLE0
100
AcDbAlignedDimension
 13
-27.7018778547
 23
-58.6150005157
 33
0.0
 14
-27.7018778547
 24
-60.6150005157
 34
0.0
 50
90.0
100
AcDbRotatedDimension
  0
ENDSEC
  0
SECTION
  2
OBJECTS
  0
DICTIONARY
  5
C
330
0
100
AcDbDictionary
281
     1
  3
ACAD_GROUP
350
D
  3
ACAD_LAYOUT
350
1A
  3
ACAD_MATERIAL
350
3B
  3
ACAD_MLEADERSTYLE
350
10C
  3
ACAD_MLINESTYLE
350
17
  3
ACAD_PLOTSETTINGS
350
19
  3
ACAD_PLOTSTYLENAME
350
E
  3
ACAD_TABLESTYLE
350
10B
  3
ACAD_VISUALSTYLE
350
2A
  0
DICTIONARY
  5
D
102
{ACAD_REACTORS
330
C
102
}
330
C
100
AcDbDictionary
281
     1
  0
DICTIONARY
  5
1A
102
{ACAD_REACTORS
330
C
102
}
330
C
100
AcDbDictionary
281
     1
  3
Layout1
350
1E
  3
Layout2
350
26
  3
Model
350
22
  0
DICTIONARY
  5
3B
102
{ACAD_REACTORS
330
C
102
}
330
C
100
AcDbDictionary
281
     1
  3
ByBlock
350
3D
  3
ByLayer
350
3C
  3
Global
350
3E
  0
DICTIONARY
  5
10C
102
{ACAD_REACTORS
330
C
102
}
330
C
100
AcDbDictionary
281
     1
  0
DICTIONARY
  5
17
102
{ACAD_REACTORS
330
C
102
}
330
C
100
AcDbDictionary
281
     1
  3
Standard
350
18
  0
DICTIONARY
  5
19
102
{ACAD_REACTORS
330
C
102
}
330
C
100
AcDbDictionary
281
     1
  0
ACDBDICTIONARYWDFLT
  5
E
102
{ACAD_REACTORS
330
C
102
}
330
C
100
AcDbDictionary
281
     1
  3
Normal
350
F
100
AcDbDictionaryWithDefault
340
F
  0
DICTIONARY
  5
10B
102
{ACAD_REACTORS
330
C
102
}
330
C
100
AcDbDictionary
281
     1
  0
DICTIONARY
  5
2A
102
{ACAD_REACTORS
330
C
102
}
330
C
100
AcDbDictionary
281
     1
  3
2dWireframe
350
2F
  3
3D Hidden
350
31
  3
3dWireframe
350
30
  3
Basic
350
32
  3
Brighten
350
36
  3
ColorChange
350
3A
  3
Conceptual
350
34
  3
Dim
350
35
  3
Facepattern
350
39
  3
Flat
350
2B
  3
FlatWithEdges
350
2C
  3
Gouraud
350
2D
  3
GouraudWithEdges
350
2E
  3
Linepattern
350
38
  3
Realistic
350
33
  3
Thicken
350
37
  0
LAYOUT
  5
1E
102
{ACAD_REACTORS
330
1A
102
}
330
1A
100
AcDbPlotSettings
  1

  2
none_device
  4

  6

 40
0.0
 41
0.0
 42
0.0
 43
0.0
 44
0.0
 45
0.0
 46
0.0
 47
0.0
 48
0.0
 49
0.0
140
0.0
141
0.0
142
1.0
143
1.0
 70
   688
 72
     0
 73
     0
 74
     5
  7

 75
    16
 76
     0
 77
     2
 78
   300
147
1.0
148
0.0
149
0.0
100
AcDbLayout
  1
Layout1
 70
     1
 71
     1
 10
0.0
 20
0.0
 11
420.0
 21
297.0
 12
0.0
 22
0.0
 32
0.0
 14
1.0000000000E+20
 24
1.0000000000E+20
 34
1.0000000000E+20
 15
-1.0000000000E+20
 25
-1.0000000000E+20
 35
-1.0000000000E+20
146
0.0
 13
0.0
 23
0.0
 33
0.0
 16
1.0
 26
0.0
 36
0.0
 17
0.0
 27
1.0
 37
0.0
 76
     0
330
1B
  0
LAYOUT
  5
26
102
{ACAD_REACTORS
330
1A
102
}
330
1A
100
AcDbPlotSettings
  1

  2
none_device
  4

  6

 40
0.0
 41
0.0
 42
0.0
 43
0.0
 44
0.0
 45
0.0
 46
0.0
 47
0.0
 48
0.0
 49
0.0
140
0.0
141
0.0
142
1.0
143
1.0
 70
   688
 72
     0
 73
     0
 74
     5
  7

 75
    16
 76
     0
 77
     2
 78
   300
147
1.0
148
0.0
149
0.0
100
AcDbLayout
  1
Layout2
 70
     1
 71
     2
 10
0.0
 20
0.0
 11
0.0
 21
0.0
 12
0.0
 22
0.0
 32
0.0
 14
0.0
 24
0.0
 34
0.0
 15
0.0
 25
0.0
 35
0.0
146
0.0
 13
0.0
 23
0.0
 33
0.0
 16
1.0
 26
0.0
 36
0.0
 17
0.0
 27
1.0
 37
0.0
 76
     0
330
23
  0
LAYOUT
  5
22
102
{ACAD_REACTORS
330
1A
102
}
330
1A
100
AcDbPlotSettings
  1

  2
none_device
  4

  6

 40
0.0
 41
0.0
 42
0.0
 43
0.0
 44
0.0
 45
0.0
 46
0.0
 47
0.0
 48
0.0
 49
0.0
140
0.0
141
0.0
142
1.0
143
1.0
 70
  1712
 72
     0
 73
     0
 74
     0
  7

 75
     0
 76
     0
 77
     2
 78
   300
147
1.0
148
0.0
149
0.0
100
AcDbLayout
  1
Model
 70
     1
 71
     0
 10
0.0
 20
0.0
 11
297.0
 21
210.0
 12
0.0
 22
0.0
 32
0.0
 14
0.0
 24
0.0
 34
0.0
 15
297.0
 25
210.0
 35
0.0
146
0.0
 13
0.0
 23
0.0
 33
0.0
 16
1.0
 26
0.0
 36
0.0
 17
0.0
 27
1.0
 37
0.0
 76
     0
330
1F
331
29
  0
MATERIAL
  5
3D
102
{ACAD_REACTORS
330
3B
102
}
330
3B
100
AcDbMaterial
  1
ByBlock
 72
     1
 94
      127
  0
MATERIAL
  5
3C
102
{ACAD_REACTORS
330
3B
102
}
330
3B
100
AcDbMaterial
  1
ByLayer
 72
     1
 94
      127
  0
MATERIAL
  5
3E
102
{ACAD_REACTORS
330
3B
102
}
330
3B
100
AcDbMaterial
  1
Global
 72
     1
 94
      127
  0
MLINESTYLE
  5
18
102
{ACAD_REACTORS
330
17
102
}
330
17
100
AcDbMlineStyle
  2
Standard
 70
     0
  3

 62
   256
 51
90.0
 52
90.0
 71
     2
 49
0.5
 62
   256
  6
BYLAYER
 49
-0.5
 62
   256
  6
BYLAYER
  0
ACDBPLACEHOLDER
  5
F
102
{ACAD_REACTORS
330
E
102
}
330
E
  0
VISUALSTYLE
  5
2F
102
{ACAD_REACTORS
330
2A
102
}
330
2A
100
AcDbVisualStyle
  2
2dWireframe
 70
     4
 71
     0
 72
     2
 73
     0
 90
        0
 40
-0.6
 41
-30.0
 62
     5
 63
     7
421
 16777215
 74
     1
 91
        4
 64
     7
 65
   257
 75
     1
175
     1
 42
1.0
 92
        0
 66
   257
 43
1.0
 76
     1
 77
     6
 78
     2
 67
     7
 79
     5
170
     0
171
     0
290
     0
174
     0
 93
        1
 44
0.0
173
     0
291
     0
 45
0.0
  0
VISUALSTYLE
  5
31
102
{ACAD_REACTORS
330
2A
102
}
330
2A
100
AcDbVisualStyle
  2
3D Hidden
 70
     6
 71
     1
 72
     2
 73
     2
 90
        0
 40
-0.6
 41
-30.0
 62
     5
 63
     7
421
 16777215
 74
     2
 91
        2
 64
     7
 65
   257
 75
     2
175
     1
 42
40.0
 92
        0
 66
   257
 43
1.0
 76
     1
 77
     6
 78
     2
 67
     7
 79
     3
170
     0
171
     0
290
     0
174
     0
 93
        1
 44
0.0
173
     0
291
     0
 45
0.0
  0
VISUALSTYLE
  5
30
102
{ACAD_REACTORS
330
2A
102
}
330
2A
100
AcDbVisualStyle
  2
3dWireframe
 70
     5
 71
     0
 72
     2
 73
     0
 90
        0
 40
-0.6
 41
-30.0
 62
     5
 63
     7
421
 16777215
 74
     1
 91
        4
 64
     7
 65
   257
 75
     1
175
     1
 42
1.0
 92
        0
 66
   257
 43
1.0
 76
     1
 77
     6
 78
     2
 67
     7
 79
     5
170
     0
171
     0
290
     0
174
     0
 93
        1
 44
0.0
173
     0
291
     0
 45
0.0
  0
VISUALSTYLE
  5
32
102
{ACAD_REACTORS
330
2A
102
}
330
2A
100
AcDbVisualStyle
  2
Basic
 70
     7
 71
     1
 72
     0
 73
     1
 90
        0
 40
-0.6
 41
-30.0
 62
     5
 63
     7
421
 16777215
 74
     0
 91
        4
 64
     7
 65
   257
 75
     1
175
     1
 42
1.0
 92
        8
 66
     7
 43
1.0
 76
     1
 77
     6
 78
     2
 67
     7
 79
     5
170
     0
171
     0
290
     0
174
     0
 93
        1
 44
0.0
173
     0
291
     1
 45
0.0
  0
VISUALSTYLE
  5
36
102
{ACAD_REACTORS
330
2A
102
}
330
2A
100
AcDbVisualStyle
  2
Brighten
 70
    12
 71
     2
 72
     2
 73
     0
 90
        0
 40
-0.6
 41
-30.0
 62
     5
 63
     7
421
 16777215
 74
     1
 91
        4
 64
     7
 65
   257
 75
     1
175
     1
 42
1.0
 92
        8
 66
     7
 43
1.0
 76
     1
 77
     6
 78
     2
 67
     7
 79
     5
170
     0
171
     0
290
     0
174
     0
 93
        1
 44
50.0
173
     0
291
     1
 45
0.0
  0
VISUALSTYLE
  5
3A
102
{ACAD_REACTORS
330
2A
102
}
330
2A
100
AcDbVisualStyle
  2
ColorChange
 70
    16
 71
     2
 72
     2
 73
     3
 90
        0
 40
-0.6
 41
-30.0
 62
     5
 63
     8
421
  8421504
 74
     1
 91
        4
 64
     7
 65
   257
 75
     1
175
     1
 42
1.0
 92
        8
 66
     8
424
  8421504
 43
1.0
 76
     1
 77
     6
 78
     2
 67
     7
 79
     5
170
     0
171
     0
290
     0
174
     0
 93
        1
 44
0.0
173
     0
291
     1
 45
0.0
  0
VISUALSTYLE
  5
34
102
{ACAD_REACTORS
330
2A
102
}
330
2A
100
AcDbVisualStyle
  2
Conceptual
 70
     9
 71
     3
 72
     2
 73
     0
 90
        0
 40
-0.6
 41
-30.0
 62
     5
 63
     7
421
 16777215
 74
     2
 91
        2
 64
     7
 65
   257
 75
     1
175
     1
 42
40.0
 92
        8
 66
     7
 43
1.0
 76
     1
 77
     6
 78
     2
 67
     7
 79
     3
170
     0
171
     0
290
     0
174
     0
 93
        1
 44
0.0
173
     0
291
     0
 45
0.0
  0
VISUALSTYLE
  5
35
102
{ACAD_REACTORS
330
2A
102
}
330
2A
100
AcDbVisualStyle
  2
Dim
 70
    11
 71
     2
 72
     2
 73
     0
 90
        0
 40
-0.6
 41
-30.0
 62
     5
 63
     7
421
 16777215
 74
     1
 91
        4
 64
     7
 65
   257
 75
     1
175
     1
 42
1.0
 92
        8
 66
     7
 43
1.0
 76
     1
 77
     6
 78
     2
 67
     7
 79
     5
170
     0
171
     0
290
     0
174
     0
 93
        1
 44
-50.0
173
     0
291
     1
 45
0.0
  0
VISUALSTYLE
  5
39
102
{ACAD_REACTORS
330
2A
102
}
330
2A
100
AcDbVisualStyle
  2
Facepattern
 70
    15
 71
     2
 72
     2
 73
     0
 90
        0
 40
-0.6
 41
-30.0
 62
     5
 63
     7
421
 16777215
 74
     1
 91
        4
 64
     7
 65
   257
 75
     1
175
     1
 42
1.0
 92
        8
 66
     7
 43
1.0
 76
     1
 77
     6
 78
     2
 67
     7
 79
     5
170
     0
171
     0
290
     0
174
     0
 93
        1
 44
0.0
173
     0
291
     1
 45
0.0
  0
VISUALSTYLE
  5
2B
102
{ACAD_REACTORS
330
2A
102
}
330
2A
100
AcDbVisualStyle
  2
Flat
 70
     0
 71
     2
 72
     1
 73
     1
 90
        2
 40
-0.6
 41
30.0
 62
     5
 63
     7
421
 16777215
 74
     0
 91
        4
 64
     7
 65
   257
 75
     1
175
     1
 42
1.0
 92
        8
 66
     7
 43
1.0
 76
     1
 77
     6
 78
     2
 67
     7
 79
     5
170
     0
171
     0
290
     0
174
     0
 93
       13
 44
0.0
173
     0
291
     1
 45
0.0
  0
VISUALSTYLE
  5
2C
102
{ACAD_REACTORS
330
2A
102
}
330
2A
100
AcDbVisualStyle
  2
FlatWithEdges
 70
     1
 71
     2
 72
     1
 73
     1
 90
        2
 40
-0.6
 41
30.0
 62
     5
 63
     7
421
 16777215
 74
     1
 91
        4
 64
     7
 65
   257
 75
     1
175
     1
 42
1.0
 92
        0
 66
   257
 43
1.0
 76
     1
 77
     6
 78
     2
 67
     7
 79
     5
170
     0
171
     0
290
     0
174
     0
 93
       13
 44
0.0
173
     0
291
     1
 45
0.0
  0
VISUALSTYLE
  5
2D
102
{ACAD_REACTORS
330
2A
102
}
330
2A
100
AcDbVisualStyle
  2
Gouraud
 70
     2
 71
     2
 72
     2
 73
     1
 90
        2
 40
-0.6
 41
30.0
 62
     5
 63
     7
421
 16777215
 74
     0
 91
        4
 64
     7
 65
   257
 75
     1
175
     1
 42
1.0
 92
        0
 66
     7
 43
1.0
 76
     1
 77
     6
 78
     2
 67
     7
 79
     5
170
     0
171
     0
290
     0
174
     0
 93
       13
 44
0.0
173
     0
291
     1
 45
0.0
  0
VISUALSTYLE
  5
2E
102
{ACAD_REACTORS
330
2A
102
}
330
2A
100
AcDbVisualStyle
  2
GouraudWithEdges
 70
     3
 71
     2
 72
     2
 73
     1
 90
        2
 40
-0.6
 41
30.0
 62
     5
 63
     7
421
 16777215
 74
     1
 91
        4
 64
     7
 65
   257
 75
     1
175
     1
 42
1.0
 92
        0
 66
   257
 43
1.0
 76
     1
 77
     6
 78
     2
 67
     7
 79
     5
170
     0
171
     0
290
     0
174
     0
 93
       13
 44
0.0
173
     0
291
     1
 45
0.0
  0
VISUALSTYLE
  5
38
102
{ACAD_REACTORS
330
2A
102
}
330
2A
100
AcDbVisualStyle
  2
Linepattern
 70
    14
 71
     2
 72
     2
 73
     0
 90
        0
 40
-0.6
 41
-30.0
 62
     5
 63
     7
421
 16777215
 74
     1
 91
        4
 64
     7
 65
   257
 75
     7
175
     7
 42
1.0
 92
        8
 66
     7
 43
1.0
 76
     1
 77
     6
 78
     2
 67
     7
 79
     5
170
     0
171
     0
290
     0
174
     0
 93
        1
 44
0.0
173
     0
291
     1
 45
0.0
  0
VISUALSTYLE
  5
33
102
{ACAD_REACTORS
330
2A
102
}
330
2A
100
AcDbVisualStyle
  2
Realistic
 70
     8
 71
     2
 72
     2
 73
     0
 90
        0
 40
-0.6
 41
-30.0
 62
     5
 63
     7
421
 16777215
 74
     1
 91
        0
 64
     7
 65
   257
 75
     1
175
     1
 42
1.0
 92
        8
 66
     8
424
  7895160
 43
1.0
 76
     1
 77
     6
 78
     2
 67
     7
 79
     5
170
     0
171
     0
290
     0
174
     0
 93
       13
 44
0.0
173
     0
291
     0
 45
0.0
  0
VISUALSTYLE
  5
37
102
{ACAD_REACTORS
330
2A
102
}
330
2A
100
AcDbVisualStyle
  2
Thicken
 70
    13
 71
     2
 72
     2
 73
     0
 90
        0
 40
-0.6
 41
-30.0
 62
     5
 63
     7
421
 16777215
 74
     1
 91
        4
 64
     7
 65
   257
 75
     1
175
     1
 42
1.0
 92
       12
 66
     7
 43
1.0
 76
     1
 77
     6
 78
     2
 67
     7
 79
     5
170
     0
171
     0
290
     0
174
     0
 93
        1
 44
0.0
173
     0
291
     1
 45
0.0
  0
ENDSEC
  0
EOF
