  0
SECTION
  2
HEADER
  9
$ACADVER
  1
AC1021
  9
$ACADMAINTVER
 70
    25
  9
$DWGCODEPAGE
  3
ANSI_1252
  9
$INSBASE
 10
0.0
 20
0.0
 30
0.0
  9
$EXTMIN
 10
0.0
 20
0.0
 30
0.0
  9
$EXTMAX
 10
297.0
 20
210.0
 30
0.0
  9
$LIMMIN
 10
0.0
 20
0.0
  9
$LIMMAX
 10
297.0
 20
210.0
  9
$ORTHOMODE
 70
     0
  9
$REGENMODE
 70
     1
  9
$FILLMODE
 70
     1
  9
$QTEXTMODE
 70
     0
  9
$MIRRTEXT
 70
     1
  9
$LTSCALE
 40
1.0
  9
$ATTMODE
 70
     1
  9
$TEXTSIZE
 40
3.5
  9
$TRACEWID
 40
1.0
  9
$TEXTSTYLE
  7
Standard
  9
$CLAYER
  8
0
  9
$CELTYPE
  6
ByLayer
  9
$CECOLOR
 62
   256
  9
$CELTSCALE
 40
1.0
  9
$DISPSILH
 70
     0
  9
$DIMSCALE
 40
1.0
  9
$DIMASZ
 40
3.302
  9
$DIMEXO
 40
1.0
  9
$DIMDLI
 40
3.75
  9
$DIMRND
 40
0.0
  9
$DIMDLE
 40
0.0
  9
$DIMEXE
 40
1.0
  9
$DIMTP
 40
0.0
  9
$DIMTM
 40
0.0
  9
$DIMTXT
 40
3.5
  9
$DIMCEN
 40
2.5
  9
$DIMTSZ
 40
0.0
  9
$DIMTOL
 70
     0
  9
$DIMLIM
 70
     0
  9
$DIMTIH
 70
     1
  9
$DIMTOH
 70
     1
  9
$DIMSE1
 70
     0
  9
$DIMSE2
 70
     0
  9
$DIMTAD
 70
     1
  9
$DIMZIN
 70
     0
  9
$DIMBLK
  1

  9
$DIMASO
 70
     1
  9
$DIMSHO
 70
     1
  9
$DIMPOST
  1

  9
$DIMAPOST
  1

  9
$DIMALT
 70
     0
  9
$DIMALTD
 70
     3
  9
$DIMALTF
 40
0.0393700787
  9
$DIMLFAC
 40
1.0
  9
$DIMTOFL
 70
     1
  9
$DIMTVP
 40
0.0
  9
$DIMTIX
 70
     0
  9
$DIMSOXD
 70
     0
  9
$DIMSAH
 70
     0
  9
$DIMBLK1
  1

  9
$DIMBLK2
  1

  9
$DIMSTYLE
  2
ISO-25
  9
$DIMCLRD
 70
     0
  9
$DIMCLRE
 70
     0
  9
$DIMCLRT
 70
     0
  9
$DIMTFAC
 40
1.0
  9
$DIMGAP
 40
1.524
  9
$DIMJUST
 70
     0
  9
$DIMSD1
 70
     0
  9
$DIMSD2
 70
     0
  9
$DIMTOLJ
 70
     0
  9
$DIMTZIN
 70
     0
  9
$DIMALTZ
 70
     0
  9
$DIMALTTZ
 70
     0
  9
$DIMUPT
 70
     0
  9
$DIMDEC
 70
     2
  9
$DIMTDEC
 70
     2
  9
$DIMALTU
 70
     2
  9
$DIMALTTD
 70
     3
  9
$DIMTXSTY
  7
Standard
  9
$DIMAUNIT
 70
     0
  9
$DIMADEC
 70
     2
  9
$DIMALTRND
 40
0.0
  9
$DIMAZIN
 70
     0
  9
$DIMDSEP
 70
    44
  9
$DIMATFIT
 70
     3
  9
$DIMFRAC
 70
     0
  9
$DIMLDRBLK
  1

  9
$DIMLUNIT
 70
     2
  9
$DIMLWD
 70
    -2
  9
$DIMLWE
 70
    -2
  9
$DIMTMOVE
 70
     0
  9
$DIMFXL
 40
1.0
  9
$DIMFXLON
 70
     0
  9
$DIMJOGANG
 40
0.7853981634
  9
$DIMTFILL
 70
     0
  9
$DIMTFILLCLR
 70
     0
  9
$DIMARCSYM
 70
     0
  9
$DIMLTYPE
  6

  9
$DIMLTEX1
  6

  9
$DIMLTEX2
  6

  9
$LUNITS
 70
     2
  9
$LUPREC
 70
     2
  9
$SKETCHINC
 40
1.0
  9
$FILLETRAD
 40
10.0
  9
$AUNITS
 70
     0
  9
$AUPREC
 70
     2
  9
$MENU
  1
.
  9
$ELEVATION
 40
0.0
  9
$PELEVATION
 40
0.0
  9
$THICKNESS
 40
0.0
  9
$LIMCHECK
 70
     0
  9
$CHAMFERA
 40
10.0
  9
$CHAMFERB
 40
10.0
  9
$CHAMFERC
 40
20.0
  9
$CHAMFERD
 40
0.0
  9
$SKPOLY
 70
     0
  9
$TDCREATE
 40
2456540.355658565
  9
$TDUCREATE
 40
2456540.272325232
  9
$TDUPDATE
 40
2456540.355659051
  9
$TDUUPDATE
 40
2456540.272325717
  9
$TDINDWG
 40
0.0000000116
  9
$TDUSRTIMER
 40
0.0000000116
  9
$USRTIMER
 70
     1
  9
$ANGBASE
 50
0.0
  9
$ANGDIR
 70
     0
  9
$PDMODE
 70
     0
  9
$PDSIZE
 40
-1.0
  9
$PLINEWID
 40
0.0
  9
$SPLFRAME
 70
     0
  9
$SPLINETYPE
 70
     6
  9
$SPLINESEGS
 70
     8
  9
$HANDSEED
  5
E8
  9
$SURFTAB1
 70
     6
  9
$SURFTAB2
 70
     6
  9
$SURFTYPE
 70
     6
  9
$SURFU
 70
     6
  9
$SURFV
 70
     6
  9
$UCSBASE
  2

  9
$UCSNAME
  2

  9
$UCSORG
 10
0.0
 20
0.0
 30
0.0
  9
$UCSXDIR
 10
1.0
 20
0.0
 30
0.0
  9
$UCSYDIR
 10
0.0
 20
1.0
 30
0.0
  9
$UCSORTHOREF
  2

  9
$UCSORTHOVIEW
 70
     0
  9
$UCSORGTOP
 10
0.0
 20
0.0
 30
0.0
  9
$UCSORGBOTTOM
 10
0.0
 20
0.0
 30
0.0
  9
$UCSORGLEFT
 10
0.0
 20
0.0
 30
0.0
  9
$UCSORGRIGHT
 10
0.0
 20
0.0
 30
0.0
  9
$UCSORGFRONT
 10
0.0
 20
0.0
 30
0.0
  9
$UCSORGBACK
 10
0.0
 20
0.0
 30
0.0
  9
$PUCSBASE
  2

  9
$PUCSNAME
  2

  9
$PUCSORG
 10
0.0
 20
0.0
 30
0.0
  9
$PUCSXDIR
 10
1.0
 20
0.0
 30
0.0
  9
$PUCSYDIR
 10
0.0
 20
1.0
 30
0.0
  9
$PUCSORTHOREF
  2

  9
$PUCSORTHOVIEW
 70
     0
  9
$PUCSORGTOP
 10
0.0
 20
0.0
 30
0.0
  9
$PUCSORGBOTTOM
 10
0.0
 20
0.0
 30
0.0
  9
$PUCSORGLEFT
 10
0.0
 20
0.0
 30
0.0
  9
$PUCSORGRIGHT
 10
0.0
 20
0.0
 30
0.0
  9
$PUCSORGFRONT
 10
0.0
 20
0.0
 30
0.0
  9
$PUCSORGBACK
 10
0.0
 20
0.0
 30
0.0
  9
$USERI1
 70
     0
  9
$USERI2
 70
     0
  9
$USERI3
 70
     0
  9
$USERI4
 70
     0
  9
$USERI5
 70
     0
  9
$USERR1
 40
0.0
  9
$USERR2
 40
0.0
  9
$USERR3
 40
0.0
  9
$USERR4
 40
0.0
  9
$USERR5
 40
0.0
  9
$WORLDVIEW
 70
     1
  9
$SHADEDGE
 70
     3
  9
$SHADEDIF
 70
    70
  9
$TILEMODE
 70
     1
  9
$MAXACTVP
 70
    64
  9
$PINSBASE
 10
0.0
 20
0.0
 30
0.0
  9
$PLIMCHECK
 70
     0
  9
$PEXTMIN
 10
1.0000000000E+20
 20
1.0000000000E+20
 30
1.0000000000E+20
  9
$PEXTMAX
 10
-1.0000000000E+20
 20
-1.0000000000E+20
 30
-1.0000000000E+20
  9
$PLIMMIN
 10
0.0
 20
0.0
  9
$PLIMMAX
 10
420.0
 20
297.0
  9
$UNITMODE
 70
     0
  9
$VISRETAIN
 70
     1
  9
$PLINEGEN
 70
     0
  9
$PSLTSCALE
 70
     1
  9
$TREEDEPTH
 70
  3020
  9
$CMLSTYLE
  2
Standard
  9
$CMLJUST
 70
     0
  9
$CMLSCALE
 40
20.0
  9
$PROXYGRAPHICS
 70
     1
  9
$MEASUREMENT
 70
     1
  9
$CELWEIGHT
370
    -1
  9
$ENDCAPS
280
     0
  9
$JOINSTYLE
280
     0
  9
$LWDISPLAY
290
     1
  9
$INSUNITS
 70
     4
  9
$HYPERLINKBASE
  1

  9
$STYLESHEET
  1

  9
$XEDIT
290
     1
  9
$CEPSNTYPE
380
     0
  9
$PSTYLEMODE
290
     1
  9
$FINGERPRINTGUID
  2
{75FA07FA-DBD3-4D5B-876C-3828C7C20533}
  9
$VERSIONGUID
  2
{FAEB1C32-E019-11D5-929B-00C0DF256EC4}
  9
$EXTNAMES
290
     1
  9
$PSVPSCALE
 40
0.0
  9
$OLESTARTUP
290
     0
  9
$SORTENTS
280
   127
  9
$INDEXCTL
280
     0
  9
$HIDETEXT
280
     1
  9
$XCLIPFRAME
290
     0
  9
$HALOGAP
280
     0
  9
$OBSCOLOR
 70
   257
  9
$OBSLTYPE
280
     0
  9
$INTERSECTIONDISPLAY
280
     0
  9
$INTERSECTIONCOLOR
 70
   257
  9
$DIMASSOC
280
     2
  9
$PROJECTNAME
  1

  9
$CAMERADISPLAY
290
     0
  9
$LENSLENGTH
 40
50.0
  9
$CAMERAHEIGHT
 40
0.0
  9
$STEPSPERSEC
 40
2.0
  9
$STEPSIZE
 40
6.0
  9
$3DDWFPREC
 40
2.0
  9
$PSOLWIDTH
 40
5.0
  9
$PSOLHEIGHT
 40
80.0
  9
$LOFTANG1
 40
1.5707963268
  9
$LOFTANG2
 40
1.5707963268
  9
$LOFTMAG1
 40
0.0
  9
$LOFTMAG2
 40
0.0
  9
$LOFTPARAM
 70
     7
  9
$LOFTNORMALS
280
     1
  9
$LATITUDE
 40
37.795
  9
$LONGITUDE
 40
-122.394
  9
$NORTHDIRECTION
 40
0.0
  9
$TIMEZONE
 70
 -8000
  9
$LIGHTGLYPHDISPLAY
280
     1
  9
$TILEMODELIGHTSYNCH
280
     1
  9
$SOLIDHIST
280
     1
  9
$SHOWHIST
280
     1
  9
$DWFFRAME
280
     2
  9
$DGNFRAME
280
     2
  9
$REALWORLDSCALE
290
     1
  9
$INTERFERECOLOR
 62
   256
  9
$CSHADOW
280
     0
  9
$SHADOWPLANELOCATION
 40
0.0
  0
ENDSEC
  0
SECTION
  2
CLASSES
  0
CLASS
  1
ACDBDICTIONARYWDFLT
  2
AcDbDictionaryWithDefault
  3
ObjectDBX Classes
 90
        0
 91
        4
280
     0
281
     0
  0
CLASS
  1
VISUALSTYLE
  2
AcDbVisualStyle
  3
ObjectDBX Classes
 90
     4095
 91
        4
280
     0
281
     0
  0
CLASS
  1
MATERIAL
  2
AcDbMaterial
  3
ObjectDBX Classes
 90
     1153
 91
        4
280
     0
281
     0
  0
ENDSEC
  0
SECTION
  2
TABLES
  0
TABLE
  2
VPORT
  5
8
330
0
100
AcDbSymbolTable
 70
     1
  0
VPORT
  5
29
330
8
100
AcDbSymbolTableRecord
100
AcDbViewportTableRecord
  2
*Active
 70
     0
 10
0.0
 20
0.0
 11
1.0
 21
1.0
 12
148.5
 22
105.0
 13
0.0
 23
0.0
 14
10.0
 24
10.0
 15
10.0
 25
10.0
 16
0.0
 26
0.0
 36
1.0
 17
0.0
 27
0.0
 37
0.0
 40
210.0
 41
1.4142857143
 42
50.0
 43
0.0
 44
0.0
 50
0.0
 51
0.0
 71
     0
 72
  2000
 73
     1
 74
     3
 75
     0
 76
     0
 77
     0
 78
     0
281
     0
 65
     1
110
0.0
120
0.0
130
0.0
111
1.0
121
0.0
131
0.0
112
0.0
122
1.0
132
0.0
 79
     0
146
0.0
 60
     3
 61
     5
292
     1
282
     1
141
0.0
142
0.0
 63
   250
  0
ENDTAB
  0
TABLE
  2
LTYPE
  5
5
330
0
100
AcDbSymbolTable
 70
     8
  0
LTYPE
  5
14
330
5
100
AcDbSymbolTableRecord
100
AcDbLinetypeTableRecord
  2
ByBlock
 70
     0
  3

 72
    65
 73
     0
 40
0.0
  0
LTYPE
  5
15
330
5
100
AcDbSymbolTableRecord
100
AcDbLinetypeTableRecord
  2
ByLayer
 70
     0
  3

 72
    65
 73
     0
 40
0.0
  0
LTYPE
  5
16
330
5
100
AcDbSymbolTableRecord
100
AcDbLinetypeTableRecord
  2
Continuous
 70
     0
  3
Solid line
 72
    65
 73
     0
 40
0.0
  0
LTYPE
  5
3F
330
5
100
AcDbSymbolTableRecord
100
AcDbLinetypeTableRecord
  2
SLD-Durchgehend
 70
     0
  3
SolidWorks Line Style
 72
    65
 73
     0
 40
0.0
  0
LTYPE
  5
40
330
5
100
AcDbSymbolTableRecord
100
AcDbLinetypeTableRecord
  2
SLD-Gestrichelt
 70
     0
  3
SolidWorks Line Style
 72
    65
 73
     2
 40
1.905
 49
1.27
 74
     0
 49
-0.635
 74
     0
  0
LTYPE
  5
41
330
5
100
AcDbSymbolTableRecord
100
AcDbLinetypeTableRecord
  2
SLD-Phantom
 70
     0
  3
SolidWorks Line Style
 72
    65
 73
     6
 40
12.7
 49
6.35
 74
     0
 49
-1.27
 74
     0
 49
1.27
 74
     0
 49
-1.27
 74
     0
 49
1.27
 74
     0
 49
-1.27
 74
     0
  0
LTYPE
  5
42
330
5
100
AcDbSymbolTableRecord
100
AcDbLinetypeTableRecord
  2
SLD-Kette
 70
     0
  3
SolidWorks Line Style
 72
    65
 73
     4
 40
10.16
 49
6.35
 74
     0
 49
-1.27
 74
     0
 49
1.27
 74
     0
 49
-1.27
 74
     0
  0
LTYPE
  5
43
330
5
100
AcDbSymbolTableRecord
100
AcDbLinetypeTableRecord
  2
SLD-Punktstrich
 70
     0
  3
SolidWorks Line Style
 72
    65
 73
     4
 40
19.05
 49
15.24
 74
     0
 49
-1.27
 74
     0
 49
1.27
 74
     0
 49
-1.27
 74
     0
  0
LTYPE
  5
44
330
5
100
AcDbSymbolTableRecord
100
AcDbLinetypeTableRecord
  2
SLD-Naht
 70
     0
  3
SolidWorks Line Style
 72
    65
 73
     2
 40
0.635
 49
0.0
 74
     0
 49
-0.635
 74
     0
  0
LTYPE
  5
45
330
5
100
AcDbSymbolTableRecord
100
AcDbLinetypeTableRecord
  2
SLD-Dicke-Dünne-Kette
 70
     0
  3
SolidWorks Line Style
 72
    65
 73
     4
 40
10.16
 49
6.35
 74
     0
 49
-1.27
 74
     0
 49
1.27
 74
     0
 49
-1.27
 74
     0
  0
ENDTAB
  0
TABLE
  2
LAYER
  5
2
330
0
100
AcDbSymbolTable
 70
     3
  0
LAYER
  5
10
330
2
100
AcDbSymbolTableRecord
100
AcDbLayerTableRecord
  2
0
 70
     0
 62
     7
  6
Continuous
370
    -3
390
F
347
3E
  0
LAYER
  5
46
330
2
100
AcDbSymbolTableRecord
100
AcDbLayerTableRecord
  2
1
 70
     0
 62
     4
  6
Continuous
370
    -1
390
F
347
3E
  0
LAYER
  5
47
330
2
100
AcDbSymbolTableRecord
100
AcDbLayerTableRecord
  2
2
 70
     0
 62
     7
  6
SLD-Durchgehend
370
    -3
390
F
347
3E
  0
ENDTAB
  0
TABLE
  2
STYLE
  5
3
330
0
100
AcDbSymbolTable
 70
     2
  0
STYLE
  5
11
330
3
100
AcDbSymbolTableRecord
100
AcDbTextStyleTableRecord
  2
Standard
 70
     0
 40
0.0
 41
1.0
 50
0.0
 71
     0
 42
3.5
  3
txt
  4

  0
STYLE
  5
73
330
3
100
AcDbSymbolTableRecord
100
AcDbTextStyleTableRecord
  2
SLDTEXTSTYLE0
 70
     0
 40
0.0
 41
0.75
 50
0.0
 71
     0
 42
0.2
  3
TXT
  4

  0
ENDTAB
  0
TABLE
  2
VIEW
  5
6
330
0
100
AcDbSymbolTable
 70
     0
  0
ENDTAB
  0
TABLE
  2
UCS
  5
7
330
0
100
AcDbSymbolTable
 70
     0
  0
ENDTAB
  0
TABLE
  2
APPID
  5
9
330
0
100
AcDbSymbolTable
 70
     1
  0
APPID
  5
12
330
9
100
AcDbSymbolTableRecord
100
AcDbRegAppTableRecord
  2
ACAD
 70
     0
  0
ENDTAB
  0
TABLE
  2
DIMSTYLE
  5
A
330
0
100
AcDbSymbolTable
 70
     4
100
AcDbDimStyleTable
  0
DIMSTYLE
105
27
330
A
100
AcDbSymbolTableRecord
100
AcDbDimStyleTableRecord
  2
ISO-25
 70
     0
 41
2.5
 42
0.625
 43
3.75
 44
1.25
 73
     0
 74
     0
 77
     1
 78
     8
140
2.5
141
2.5
143
0.0393700787
147
0.625
171
     3
172
     1
178
     0
271
     2
272
     2
274
     3
278
    44
283
     0
284
     8
340
11
  0
DIMSTYLE
105
74
102
{ACAD_REACTORS
330
72
330
7E
330
88
330
92
102
}
330
A
100
AcDbSymbolTableRecord
100
AcDbDimStyleTableRecord
  2
SLDDIMSTYLE0
 70
     0
 41
3.302
 44
0.0
 45
0.000000001
 73
     0
 74
     0
 77
     1
 78
    12
 79
     3
140
3.5
147
0.875
173
     1
178
     0
271
     2
272
     2
276
     2
284
    12
340
73
  0
DIMSTYLE
105
9D
102
{ACAD_REACTORS
330
9C
102
}
330
A
100
AcDbSymbolTableRecord
100
AcDbDimStyleTableRecord
  2
SLDDIMSTYLE1
 70
     0
 41
3.302
 44
0.0
 45
0.000000001
 73
     0
 74
     0
 77
     1
 78
    12
 79
     3
140
3.5
141
0.0
147
0.875
172
     1
173
     1
178
     0
271
     2
272
     2
276
     2
284
    12
340
73
341
9E
343
9E
  0
DIMSTYLE
105
CE
102
{ACAD_REACTORS
330
CD
330
DA
102
}
330
A
100
AcDbSymbolTableRecord
100
AcDbDimStyleTableRecord
  2
SLDDIMSTYLE2
 70
     0
 41
3.302
 44
0.0
 45
0.000000001
 73
     0
 74
     0
 77
     1
 78
    12
 79
     3
140
3.5
147
0.875
172
     1
173
     1
178
     0
271
     2
272
     2
276
     2
284
    12
289
     0
340
73
  0
ENDTAB
  0
TABLE
  2
BLOCK_RECORD
  5
1
330
0
100
AcDbSymbolTable
 70
    10
  0
BLOCK_RECORD
  5
1F
330
1
100
AcDbSymbolTableRecord
100
AcDbBlockTableRecord
  2
*Model_Space
340
22
 70
     0
280
     1
281
     0
  0
BLOCK_RECORD
  5
1B
330
1
100
AcDbSymbolTableRecord
100
AcDbBlockTableRecord
  2
*Paper_Space
340
1E
 70
     0
280
     1
281
     0
  0
BLOCK_RECORD
  5
23
330
1
100
AcDbSymbolTableRecord
100
AcDbBlockTableRecord
  2
*Paper_Space0
340
26
 70
     0
280
     1
281
     0
  0
BLOCK_RECORD
  5
75
330
1
100
AcDbSymbolTableRecord
100
AcDbBlockTableRecord
  2
_D
340
0
 70
     0
280
     1
281
     0
  0
BLOCK_RECORD
  5
7F
330
1
100
AcDbSymbolTableRecord
100
AcDbBlockTableRecord
  2
_D_1
340
0
 70
     0
280
     1
281
     0
  0
BLOCK_RECORD
  5
89
330
1
100
AcDbSymbolTableRecord
100
AcDbBlockTableRecord
  2
_D_2
340
0
 70
     0
280
     1
281
     0
  0
BLOCK_RECORD
  5
93
330
1
100
AcDbSymbolTableRecord
100
AcDbBlockTableRecord
  2
_D_3
340
0
 70
     0
280
     1
281
     0
  0
BLOCK_RECORD
  5
9E
330
1
100
AcDbSymbolTableRecord
100
AcDbBlockTableRecord
  2
_NONE
340
0
 70
     0
280
     1
281
     0
  0
BLOCK_RECORD
  5
A1
330
1
100
AcDbSymbolTableRecord
100
AcDbBlockTableRecord
  2
_D_4
340
0
 70
     0
280
     1
281
     0
  0
BLOCK_RECORD
  5
AA
330
1
100
AcDbSymbolTableRecord
100
AcDbBlockTableRecord
  2
SW_CENTERMARKSYMBOL_0
340
0
102
{BLKREFS
331
B5
102
}
 70
     0
280
     1
281
     0
  0
BLOCK_RECORD
  5
CF
330
1
100
AcDbSymbolTableRecord
100
AcDbBlockTableRecord
  2
_D_5
340
0
 70
     0
280
     1
281
     0
  0
BLOCK_RECORD
  5
DB
330
1
100
AcDbSymbolTableRecord
100
AcDbBlockTableRecord
  2
_D_6
340
0
 70
     0
280
     1
281
     0
  0
ENDTAB
  0
ENDSEC
  0
SECTION
  2
BLOCKS
  0
BLOCK
  5
20
330
1F
100
AcDbEntity
  8
0
100
AcDbBlockBegin
  2
*Model_Space
 70
     0
 10
0.0
 20
0.0
 30
0.0
  3
*Model_Space
  1

  0
ENDBLK
  5
21
330
1F
100
AcDbEntity
  8
0
100
AcDbBlockEnd
  0
BLOCK
  5
1C
330
1B
100
AcDbEntity
 67
     1
  8
0
100
AcDbBlockBegin
  2
*Paper_Space
 70
     0
 10
0.0
 20
0.0
 30
0.0
  3
*Paper_Space
  1

  0
ENDBLK
  5
1D
330
1B
100
AcDbEntity
 67
     1
  8
0
100
AcDbBlockEnd
  0
BLOCK
  5
24
330
23
100
AcDbEntity
  8
0
100
AcDbBlockBegin
  2
*Paper_Space0
 70
     0
 10
0.0
 20
0.0
 30
0.0
  3
*Paper_Space0
  1

  0
ENDBLK
  5
25
330
23
100
AcDbEntity
  8
0
100
AcDbBlockEnd
  0
BLOCK
  5
76
330
75
100
AcDbEntity
  8
0
100
AcDbBlockBegin
  2
_D
 70
     0
 10
0.0
 20
0.0
 30
0.0
  3
_D
  1

  0
SOLID
  5
78
330
75
100
AcDbEntity
  8
2
 62
     7
420
 16777215
100
AcDbTrace
 10
-46.5018778547
 20
-29.0001637776
 30
0.0
 11
-43.1998778547
 21
-29.5081637776
 31
0.0
 12
-43.1998778547
 22
-28.4921637776
 32
0.0
 13
-43.1998778547
 23
-28.4921637776
 33
0.0
  0
SOLID
  5
79
330
75
100
AcDbEntity
  8
2
 62
     7
420
 16777215
100
AcDbTrace
 10
-19.5018778547
 20
-29.0001637776
 30
0.0
 11
-22.8038778547
 21
-28.4921637776
 31
0.0
 12
-22.8038778547
 22
-29.5081637776
 32
0.0
 13
-22.8038778547
 23
-29.5081637776
 33
0.0
  0
LINE
  5
7A
330
75
100
AcDbEntity
  8
2
 62
     7
420
 16777215
100
AcDbLine
 10
-46.5018778547
 20
4.9998362224
 30
0.0
 11
-46.5018778547
 21
-30.0001637776
 31
0.0
  0
LINE
  5
7B
330
75
100
AcDbEntity
  8
2
 62
     7
420
 16777215
100
AcDbLine
 10
-19.5018778547
 20
-20.0001637776
 30
0.0
 11
-19.5018778547
 21
-30.0001637776
 31
0.0
  0
LINE
  5
7C
330
75
100
AcDbEntity
  8
2
 62
     7
420
 16777215
100
AcDbLine
 10
-46.5018778547
 20
-29.0001637776
 30
0.0
 11
-19.5018778547
 21
-29.0001637776
 31
0.0
  0
MTEXT
  5
7D
330
75
100
AcDbEntity
  8
2
 62
     7
420
 16777215
100
AcDbMText
 10
-37.0098641358
 20
-24.488426863
 30
5.4997908101
 40
3.5
 41
0.0
 46
0.0
 71
     1
 72
     1
  1
27
  7
SLDTEXTSTYLE0
 73
     1
 44
1.0
  0
ENDBLK
  5
77
330
75
100
AcDbEntity
  8
0
100
AcDbBlockEnd
  0
BLOCK
  5
80
330
7F
100
AcDbEntity
  8
0
100
AcDbBlockBegin
  2
_D_1
 70
     0
 10
0.0
 20
0.0
 30
0.0
  3
_D_1
  1

  0
SOLID
  5
82
330
7F
100
AcDbEntity
  8
2
 62
     7
420
 16777215
100
AcDbTrace
 10
5.4981221453
 20
-41.0001637776
 30
0.0
 11
2.1961221453
 21
-40.4921637776
 31
0.0
 12
2.1961221453
 22
-41.5081637776
 32
0.0
 13
2.1961221453
 23
-41.5081637776
 33
0.0
  0
SOLID
  5
83
330
7F
100
AcDbEntity
  8
2
 62
     7
420
 16777215
100
AcDbTrace
 10
-46.5018778547
 20
-41.0001637776
 30
0.0
 11
-43.1998778547
 21
-41.5081637776
 31
0.0
 12
-43.1998778547
 22
-40.4921637776
 32
0.0
 13
-43.1998778547
 23
-40.4921637776
 33
0.0
  0
LINE
  5
84
330
7F
100
AcDbEntity
  8
2
 62
     7
420
 16777215
100
AcDbLine
 10
5.4981221453
 20
-15.0001637776
 30
0.0
 11
5.4981221453
 21
-42.0001637776
 31
0.0
  0
LINE
  5
85
330
7F
100
AcDbEntity
  8
2
 62
     7
420
 16777215
100
AcDbLine
 10
-46.5018778547
 20
4.9998362224
 30
0.0
 11
-46.5018778547
 21
-42.0001637776
 31
0.0
  0
LINE
  5
86
330
7F
100
AcDbEntity
  8
2
 62
     7
420
 16777215
100
AcDbLine
 10
5.4981221453
 20
-41.0001637776
 30
0.0
 11
-46.5018778547
 21
-41.0001637776
 31
0.0
  0
MTEXT
  5
87
330
7F
100
AcDbEntity
  8
2
 62
     7
420
 16777215
100
AcDbMText
 10
-24.5098641358
 20
-36.488426863
 30
5.4997908101
 40
3.5
 41
0.0
 46
0.0
 71
     1
 72
     1
  1
52
  7
SLDTEXTSTYLE0
 73
     1
 44
1.0
  0
ENDBLK
  5
81
330
7F
100
AcDbEntity
  8
0
100
AcDbBlockEnd
  0
BLOCK
  5
8A
330
89
100
AcDbEntity
  8
0
100
AcDbBlockBegin
  2
_D_2
 70
     0
 10
0.0
 20
0.0
 30
0.0
  3
_D_2
  1

  0
SOLID
  5
8C
330
89
100
AcDbEntity
  8
2
 62
     7
420
 16777215
100
AcDbTrace
 10
-55.2318778547
 20
-19.0001637776
 30
0.0
 11
-54.7238778547
 21
-15.6981637776
 31
0.0
 12
-55.7398778547
 22
-15.6981637776
 32
0.0
 13
-55.7398778547
 23
-15.6981637776
 33
0.0
  0
SOLID
  5
8D
330
89
100
AcDbEntity
  8
2
 62
     7
420
 16777215
100
AcDbTrace
 10
-55.2318778547
 20
5.9998362224
 30
0.0
 11
-55.7398778547
 21
2.6978362224
 31
0.0
 12
-54.7238778547
 22
2.6978362224
 32
0.0
 13
-54.7238778547
 23
2.6978362224
 33
0.0
  0
LINE
  5
8E
330
89
100
AcDbEntity
  8
2
 62
     7
420
 16777215
100
AcDbLine
 10
-20.5018778547
 20
-19.0001637776
 30
0.0
 11
-56.2318778547
 21
-19.0001637776
 31
0.0
  0
LINE
  5
8F
330
89
100
AcDbEntity
  8
2
 62
     7
420
 16777215
100
AcDbLine
 10
-47.5018778547
 20
5.9998362224
 30
0.0
 11
-56.2318778547
 21
5.9998362224
 31
0.0
  0
LINE
  5
90
330
89
100
AcDbEntity
  8
2
 62
     7
420
 16777215
100
AcDbLine
 10
-55.2318778547
 20
-19.0001637776
 30
0.0
 11
-55.2318778547
 21
5.9998362224
 31
0.0
  0
MTEXT
  5
91
330
89
100
AcDbEntity
  8
2
 62
     7
420
 16777215
100
AcDbMText
 10
-59.7436147693
 20
-10.5081500586
 30
5.4997908101
 40
3.5
 41
0.0
 46
0.0
 71
     1
 72
     1
  1
25
  7
SLDTEXTSTYLE0
 11
6.123233995736766E-17
 21
1.0
 31
0.0
 73
     1
 44
1.0
  0
ENDBLK
  5
8B
330
89
100
AcDbEntity
  8
0
100
AcDbBlockEnd
  0
BLOCK
  5
94
330
93
100
AcDbEntity
  8
0
100
AcDbBlockBegin
  2
_D_3
 70
     0
 10
0.0
 20
0.0
 30
0.0
  3
_D_3
  1

  0
SOLID
  5
96
330
93
100
AcDbEntity
  8
2
 62
     7
420
 16777215
100
AcDbTrace
 10
-61.2318778547
 20
-19.0001637776
 30
0.0
 11
-60.7238778547
 21
-15.6981637776
 31
0.0
 12
-61.7398778547
 22
-15.6981637776
 32
0.0
 13
-61.7398778547
 23
-15.6981637776
 33
0.0
  0
SOLID
  5
97
330
93
100
AcDbEntity
  8
2
 62
     7
420
 16777215
100
AcDbTrace
 10
-61.2318778547
 20
10.9998362224
 30
0.0
 11
-61.7398778547
 21
7.6978362224
 31
0.0
 12
-60.7238778547
 22
7.6978362224
 32
0.0
 13
-60.7238778547
 23
7.6978362224
 33
0.0
  0
LINE
  5
98
330
93
100
AcDbEntity
  8
2
 62
     7
420
 16777215
100
AcDbLine
 10
-20.5018778547
 20
-19.0001637776
 30
0.0
 11
-62.2318778547
 21
-19.0001637776
 31
0.0
  0
LINE
  5
99
330
93
100
AcDbEntity
  8
2
 62
     7
420
 16777215
100
AcDbLine
 10
-20.4918778547
 20
10.9998362224
 30
0.0
 11
-62.2318778547
 21
10.9998362224
 31
0.0
  0
LINE
  5
9A
330
93
100
AcDbEntity
  8
2
 62
     7
420
 16777215
100
AcDbLine
 10
-61.2318778547
 20
-19.0001637776
 30
0.0
 11
-61.2318778547
 21
10.9998362224
 31
0.0
  0
MTEXT
  5
9B
330
93
100
AcDbEntity
  8
2
 62
     7
420
 16777215
100
AcDbMText
 10
-65.7436147693
 20
-8.0081500586
 30
5.4997908101
 40
3.5
 41
0.0
 46
0.0
 71
     1
 72
     1
  1
30
  7
SLDTEXTSTYLE0
 11
6.123233995736766E-17
 21
1.0
 31
0.0
 73
     1
 44
1.0
  0
ENDBLK
  5
95
330
93
100
AcDbEntity
  8
0
100
AcDbBlockEnd
  0
BLOCK
  5
9F
330
9E
100
AcDbEntity
  8
0
100
AcDbBlockBegin
  2
_NONE
 70
     0
 10
0.0
 20
0.0
 30
0.0
  3
_NONE
  1

  0
ENDBLK
  5
A0
330
9E
100
AcDbEntity
  8
0
100
AcDbBlockEnd
  0
BLOCK
  5
A2
330
A1
100
AcDbEntity
  8
0
100
AcDbBlockBegin
  2
_D_4
 70
     0
 10
0.0
 20
0.0
 30
0.0
  3
_D_4
  1

  0
ARC
  5
A4
330
A1
100
AcDbEntity
  8
2
 62
     7
420
 16777215
100
AcDbCircle
 10
-56.9918778547
 20
5.9998362224
 30
0.0
 40
37.49999999999999
100
AcDbArc
 50
1.5275254422
 51
136.5275254422
  0
SOLID
  5
A5
330
A1
100
AcDbEntity
  8
2
 62
     7
420
 16777215
100
AcDbTrace
 10
-83.5083821492
 20
32.5163405169
 30
0.0
 11
-85.4840384958
 21
35.2104173533
 31
0.0
 12
-86.2024589855
 22
34.4919968636
 32
0.0
 13
-86.2024589855
 23
34.4919968636
 33
0.0
  0
LINE
  5
A6
330
A1
100
AcDbEntity
  8
2
 62
     7
420
 16777215
100
AcDbLine
 10
-83.5083821492
 20
32.5163405169
 30
0.0
 11
-100.6418281154
 21
49.6497864832
 31
0.0
  0
LINE
  5
A7
330
A1
100
AcDbEntity
  8
2
 62
     7
420
 16777215
100
AcDbLine
 10
-83.5083821492
 20
32.5163405169
 30
0.0
 11
-30.4753735602
 21
-20.5166680721
 31
0.0
  0
MTEXT
  5
A8
330
A1
100
AcDbEntity
  8
2
 62
     7
420
 16777215
100
AcDbMText
 10
-97.4541079215
 20
52.8375066771
 30
5.4997908101
 40
3.5
 41
0.0
 46
0.0
 71
     1
 72
     1
  1
%%c
  7
SLDTEXTSTYLE0
 11
0.7071067811865428
 21
-0.7071067811865522
 31
0.0
 73
     1
 44
1.0
  0
MTEXT
  5
A9
330
A1
100
AcDbEntity
  8
2
 62
     7
420
 16777215
100
AcDbMText
 10
-93.6838785043
 20
49.1428983374
 30
5.4997908101
 40
3.5
 41
0.0
 46
0.0
 71
     1
 72
     1
  1
75
  7
SLDTEXTSTYLE0
 11
0.7071067811865428
 21
-0.7071067811865522
 31
0.0
 73
     1
 44
1.0
  0
ENDBLK
  5
A3
330
A1
100
AcDbEntity
  8
0
100
AcDbBlockEnd
  0
BLOCK
  5
AB
330
AA
100
AcDbEntity
  8
0
100
AcDbBlockBegin
  2
SW_CENTERMARKSYMBOL_0
 70
     0
 10
0.0
 20
0.0
 30
0.0
  3
SW_CENTERMARKSYMBOL_0
  1

  0
LINE
  5
AD
330
AA
100
AcDbEntity
  8
0
  6
SLD-Punktstrich
 62
     0
370
    15
100
AcDbLine
 10
0.0
 20
0.0
 30
0.0
 11
0.0
 21
2.5
 31
0.0
  0
LINE
  5
AE
330
AA
100
AcDbEntity
  8
0
  6
SLD-Punktstrich
 62
     0
370
    15
100
AcDbLine
 10
0.0
 20
0.0
 30
0.0
 11
-2.5
 21
0.0
 31
0.0
  0
LINE
  5
AF
330
AA
100
AcDbEntity
  8
0
  6
SLD-Punktstrich
 62
     0
370
    15
100
AcDbLine
 10
0.0
 20
0.0
 30
0.0
 11
0.0
 21
-2.5
 31
0.0
  0
LINE
  5
B0
330
AA
100
AcDbEntity
  8
0
  6
SLD-Punktstrich
 62
     0
370
    15
100
AcDbLine
 10
0.0
 20
0.0
 30
0.0
 11
2.5
 21
0.0
 31
0.0
  0
LINE
  5
B1
330
AA
100
AcDbEntity
  8
0
  6
SLD-Punktstrich
 62
     0
370
    15
100
AcDbLine
 10
0.0
 20
2.5
 30
0.0
 11
0.0
 21
5.0
 31
0.0
  0
LINE
  5
B2
330
AA
100
AcDbEntity
  8
0
  6
SLD-Punktstrich
 62
     0
370
    15
100
AcDbLine
 10
-2.5
 20
0.0
 30
0.0
 11
-5.0
 21
0.0
 31
0.0
  0
LINE
  5
B3
330
AA
100
AcDbEntity
  8
0
  6
SLD-Punktstrich
 62
     0
370
    15
100
AcDbLine
 10
0.0
 20
-2.5
 30
0.0
 11
0.0
 21
-5.0
 31
0.0
  0
LINE
  5
B4
330
AA
100
AcDbEntity
  8
0
  6
SLD-Punktstrich
 62
     0
370
    15
100
AcDbLine
 10
2.5
 20
0.0
 30
0.0
 11
5.0
 21
0.0
 31
0.0
  0
ENDBLK
  5
AC
330
AA
100
AcDbEntity
  8
0
100
AcDbBlockEnd
  0
BLOCK
  5
D0
330
CF
100
AcDbEntity
  8
0
100
AcDbBlockBegin
  2
_D_5
 70
     0
 10
0.0
 20
0.0
 30
0.0
  3
_D_5
  1

  0
SOLID
  5
D2
330
CF
100
AcDbEntity
  8
2
 62
     7
420
 16777215
100
AcDbTrace
 10
15.4981221453
 20
-69.1828428941
 30
0.0
 11
16.0061221453
 21
-65.8808428941
 31
0.0
 12
14.9901221453
 22
-65.8808428941
 32
0.0
 13
14.9901221453
 23
-65.8808428941
 33
0.0
  0
SOLID
  5
D3
330
CF
100
AcDbEntity
  8
2
 62
     7
420
 16777215
100
AcDbTrace
 10
15.4981221453
 20
-75.0828428941
 30
0.0
 11
14.9901221453
 21
-78.3848428941
 31
0.0
 12
16.0061221453
 22
-78.3848428941
 32
0.0
 13
16.0061221453
 23
-78.3848428941
 33
0.0
  0
LINE
  5
D4
330
CF
100
AcDbEntity
  8
2
 62
     7
420
 16777215
100
AcDbLine
 10
6.4981221453
 20
-69.1828428941
 30
0.0
 11
16.4981221453
 21
-69.1828428941
 31
0.0
  0
LINE
  5
D5
330
CF
100
AcDbEntity
  8
2
 62
     7
420
 16777215
100
AcDbLine
 10
6.4981221453
 20
-75.0828428941
 30
0.0
 11
16.4981221453
 21
-75.0828428941
 31
0.0
  0
LINE
  5
D6
330
CF
100
AcDbEntity
  8
2
 62
     7
420
 16777215
100
AcDbLine
 10
15.4981221453
 20
-69.1828428941
 30
0.0
 11
15.4981221453
 21
-51.0665232653
 31
0.0
  0
LINE
  5
D7
330
CF
100
AcDbEntity
  8
2
 62
     7
420
 16777215
100
AcDbLine
 10
15.4981221453
 20
-69.1828428941
 30
0.0
 11
15.4981221453
 21
-75.0828428941
 31
0.0
  0
LINE
  5
D8
330
CF
100
AcDbEntity
  8
2
 62
     7
420
 16777215
100
AcDbLine
 10
15.4981221453
 20
-75.0828428941
 30
0.0
 11
15.4981221453
 21
-81.4328428941
 31
0.0
  0
MTEXT
  5
D9
330
CF
100
AcDbEntity
  8
2
 62
     7
420
 16777215
100
AcDbMText
 10
10.9863852307
 20
-62.9616620356
 30
1.1735079227
 40
3.5
 41
0.0
 46
0.0
 71
     1
 72
     1
  1
5,90
  7
SLDTEXTSTYLE0
 11
-7.044195017643634E-15
 21
1.0
 31
0.0
 73
     1
 44
1.0
  0
ENDBLK
  5
D1
330
CF
100
AcDbEntity
  8
0
100
AcDbBlockEnd
  0
BLOCK
  5
DC
330
DB
100
AcDbEntity
  8
0
100
AcDbBlockBegin
  2
_D_6
 70
     0
 10
0.0
 20
0.0
 30
0.0
  3
_D_6
  1

  0
SOLID
  5
DE
330
DB
100
AcDbEntity
  8
2
 62
     7
420
 16777215
100
AcDbTrace
 10
-55.2318778547
 20
-73.1828428941
 30
0.0
 11
-55.7398778547
 21
-76.4848428941
 31
0.0
 12
-54.7238778547
 22
-76.4848428941
 32
0.0
 13
-54.7238778547
 23
-76.4848428941
 33
0.0
  0
SOLID
  5
DF
330
DB
100
AcDbEntity
  8
2
 62
     7
420
 16777215
100
AcDbTrace
 10
-55.2318778547
 20
-69.1828428941
 30
0.0
 11
-54.7238778547
 21
-65.8808428941
 31
0.0
 12
-55.7398778547
 22
-65.8808428941
 32
0.0
 13
-55.7398778547
 23
-65.8808428941
 33
0.0
  0
LINE
  5
E0
330
DB
100
AcDbEntity
  8
2
 62
     7
420
 16777215
100
AcDbLine
 10
-46.2318778547
 20
-73.1828428941
 30
0.0
 11
-56.2318778547
 21
-73.1828428941
 31
0.0
  0
LINE
  5
E1
330
DB
100
AcDbEntity
  8
2
 62
     7
420
 16777215
100
AcDbLine
 10
-46.2318778547
 20
-69.1828428941
 30
0.0
 11
-56.2318778547
 21
-69.1828428941
 31
0.0
  0
LINE
  5
E2
330
DB
100
AcDbEntity
  8
2
 62
     7
420
 16777215
100
AcDbLine
 10
-55.2318778547
 20
-73.1828428941
 30
0.0
 11
-55.2318778547
 21
-79.5328428941
 31
0.0
  0
LINE
  5
E3
330
DB
100
AcDbEntity
  8
2
 62
     7
420
 16777215
100
AcDbLine
 10
-55.2318778547
 20
-73.1828428941
 30
0.0
 11
-55.2318778547
 21
-69.1828428941
 31
0.0
  0
LINE
  5
E4
330
DB
100
AcDbEntity
  8
2
 62
     7
420
 16777215
100
AcDbLine
 10
-55.2318778547
 20
-69.1828428941
 30
0.0
 11
-55.2318778547
 21
-57.5318011326
 31
0.0
  0
MTEXT
  5
E5
330
DB
100
AcDbEntity
  8
2
 62
     7
420
 16777215
100
AcDbMText
 10
-59.7436147693
 20
-62.9616622684
 30
1.1735079227
 40
3.5
 41
0.0
 46
0.0
 71
     1
 72
     1
  1
4
  7
SLDTEXTSTYLE0
 11
6.123233995736766E-17
 21
1.0
 31
0.0
 73
     1
 44
1.0
  0
ENDBLK
  5
DD
330
DB
100
AcDbEntity
  8
0
100
AcDbBlockEnd
  0
ENDSEC
  0
SECTION
  2
ENTITIES
  0
LINE
  5
48
330
1F
100
AcDbEntity
  8
0
  6
SLD-Punktstrich
 62
     7
100
AcDbLine
 10
5.4981221453
 20
-0.0001637776
 30
0.0
 11
-46.5018778547
 21
-0.0001637776
 31
0.0
  0
POINT
  5
49
330
1F
100
AcDbEntity
  8
1
 62
     4
420
    65535
100
AcDbPoint
 10
5.4981221453
 20
-0.0001637776
 30
0.0
  0
POINT
  5
4A
330
1F
100
AcDbEntity
  8
1
 62
     4
420
    65535
100
AcDbPoint
 10
-46.5018778547
 20
-0.0001637776
 30
0.0
  0
POINT
  5
4B
330
1F
100
AcDbEntity
  8
1
 62
     4
420
    65535
100
AcDbPoint
 10
-46.5018778547
 20
-0.0001637776
 30
0.0
  0
POINT
  5
4C
330
1F
100
AcDbEntity
  8
1
 62
     4
420
    65535
100
AcDbPoint
 10
-45.2318778547
 20
-0.0001637776
 30
0.0
  0
POINT
  5
4D
330
1F
100
AcDbEntity
  8
1
 62
     4
420
    65535
100
AcDbPoint
 10
-46.5018778547
 20
5.9998362224
 30
0.0
  0
LINE
  5
4E
330
1F
100
AcDbEntity
  8
1
 62
     4
420
    65535
100
AcDbLine
 10
-34.0938654105
 20
-4.6641920955
 30
0.0
 11
-45.2318778547
 21
-1.0452324755
 31
0.0
  0
LINE
  5
4F
330
1F
100
AcDbEntity
  8
1
 62
     4
420
    65535
100
AcDbLine
 10
-41.2750657903
 20
5.5753481817
 30
0.0
 11
-34.4826316534
 21
1.6537345043
 31
0.0
  0
LINE
  5
50
330
1F
100
AcDbEntity
  8
1
 62
     4
420
    65535
100
AcDbLine
 10
-28.4993762902
 20
-19.0001637776
 30
0.0
 11
-28.4993762902
 21
-15.1804605633
 31
0.0
  0
SPLINE
  5
51
330
1F
100
AcDbEntity
  8
1
 62
     4
420
    65535
100
AcDbSpline
210
0.0
220
0.0
230
1.0
 70
     8
 71
     3
 72
    20
 73
    16
 74
     0
 42
0.00000001
 43
0.00000001
 12
1.0
 22
0.0
 32
0.0
 13
1.0
 23
0.0
 33
0.0
 40
0.0
 40
0.0
 40
0.0
 40
0.0
 40
0.1249999999999995
 40
0.1249999999999995
 40
0.249999999999999
 40
0.249999999999999
 40
0.3749999999999985
 40
0.3749999999999985
 40
0.499999999999998
 40
0.499999999999998
 40
0.749999999999999
 40
0.749999999999999
 40
0.8749999999999994
 40
0.8749999999999994
 40
1.0
 40
1.0
 40
1.0
 40
1.0
 10
-26.50187785469031
 20
-15.83156089272585
 30
0.0
 10
-26.50844349803193
 20
-15.82945268317875
 30
0.0
 10
-26.5276795583941
 20
-15.82327678059311
 30
0.0
 10
-26.5902330636198
 20
-15.803174143101
 30
0.0
 10
-26.63426657256763
 20
-15.78901693079581
 30
0.0
 10
-26.74390523576756
 20
-15.75371492846892
 30
0.0
 10
-26.80915687101811
 20
-15.73268413540346
 30
0.0
 10
-26.95996705204501
 20
-15.68398452866572
 30
0.0
 10
-27.04584505526176
 20
-15.65621089986027
 30
0.0
 10
-27.32305286594168
 20
-15.56635525411071
 30
0.0
 10
-27.54079797689454
 20
-15.4955107467219
 30
0.0
 10
-27.88688207452713
 20
-15.38224894709927
 30
0.0
 10
-28.00678873632724
 20
-15.3429065828774
 30
0.0
 10
-28.25148965588023
 20
-15.26238293647648
 30
0.0
 10
-28.37660283162773
 20
-15.22109115704526
 30
0.0
 10
-28.49937629023413
 20
-15.18046056334054
 30
0.0
  0
LINE
  5
52
330
1F
100
AcDbEntity
  8
1
 62
     4
420
    65535
100
AcDbLine
 10
-26.5018778547
 20
-19.0001637776
 30
0.0
 11
-26.5018778547
 21
-15.8315608927
 31
0.0
  0
LINE
  5
53
330
1F
100
AcDbEntity
  8
1
 62
     4
420
    65535
100
AcDbLine
 10
-26.5018778547
 20
-19.0001637776
 30
0.0
 11
-28.4993762902
 21
-19.0001637776
 31
0.0
  0
ARC
  5
54
330
1F
100
AcDbEntity
  8
1
 62
     4
420
    65535
100
AcDbCircle
 10
-56.9918778547
 20
5.9998362224
 30
0.0
 40
37.5
100
AcDbArc
 50
324.3966443788
 51
0.0
  0
ARC
  5
55
330
1F
100
AcDbEntity
  8
1
 62
     4
420
    65535
100
AcDbCircle
 10
-56.9918778547
 20
5.9998362224
 30
0.0
 40
35.50250156445618
100
AcDbArc
 50
323.3742199954
 51
0.0
  0
LINE
  5
56
330
1F
100
AcDbEntity
  8
1
 62
     4
420
    65535
100
AcDbLine
 10
-19.4918778547
 20
5.9998362224
 30
0.0
 11
-21.4893762902
 21
5.9998362224
 31
0.0
  0
LINE
  5
57
330
1F
100
AcDbEntity
  8
1
 62
     4
420
    65535
100
AcDbLine
 10
-19.4918778547
 20
5.9998362224
 30
0.0
 11
-19.4918778547
 21
10.9998362224
 31
0.0
  0
CIRCLE
  5
58
330
1F
100
AcDbEntity
  8
1
 62
     4
420
    65535
100
AcDbCircle
 10
-0.0018778547
 20
-0.0001637776
 30
0.0
 40
2.5
  0
CIRCLE
  5
59
330
1F
100
AcDbEntity
  8
1
 62
     4
420
    65535
100
AcDbCircle
 10
-10.2518778547
 20
5.4998362224
 30
0.0
 40
2.500000000000001
  0
CIRCLE
  5
5A
330
1F
100
AcDbEntity
  8
1
 62
     4
420
    65535
100
AcDbCircle
 10
-15.5018778547
 20
-8.5001637776
 30
0.0
 40
2.5
  0
LINE
  5
5B
330
1F
100
AcDbEntity
  8
1
 62
     4
420
    65535
100
AcDbLine
 10
-26.5018778547
 20
-19.0001637776
 30
0.0
 11
-19.5018778547
 21
-19.0001637776
 31
0.0
  0
LINE
  5
5C
330
1F
100
AcDbEntity
  8
1
 62
     4
420
    65535
100
AcDbLine
 10
-19.5018778547
 20
-19.0001637776
 30
0.0
 11
-19.5018778547
 21
-14.0001637776
 31
0.0
  0
LINE
  5
5D
330
1F
100
AcDbEntity
  8
1
 62
     4
420
    65535
100
AcDbLine
 10
-19.5018778547
 20
-14.0001637776
 30
0.0
 11
5.4981221453
 21
-14.0001637776
 31
0.0
  0
LINE
  5
5E
330
1F
100
AcDbEntity
  8
1
 62
     4
420
    65535
100
AcDbLine
 10
5.4981221453
 20
-14.0001637776
 30
0.0
 11
5.4981221453
 21
5.0538362224
 31
0.0
  0
LINE
  5
5F
330
1F
100
AcDbEntity
  8
1
 62
     4
420
    65535
100
AcDbLine
 10
5.4981221453
 20
5.0538362224
 30
0.0
 11
-3.5018778547
 21
5.9997743398
 31
0.0
  0
LINE
  5
60
330
1F
100
AcDbEntity
  8
1
 62
     4
420
    65535
100
AcDbLine
 10
-3.5018778547
 20
5.9997743398
 30
0.0
 11
-3.5018778547
 21
10.9998362224
 31
0.0
  0
LINE
  5
61
330
1F
100
AcDbEntity
  8
1
 62
     4
420
    65535
100
AcDbLine
 10
-3.5018778547
 20
10.9998362224
 30
0.0
 11
-19.4918778547
 21
10.9998362224
 31
0.0
  0
LINE
  5
62
330
1F
100
AcDbEntity
  8
1
 62
     4
420
    65535
100
AcDbLine
 10
-21.4893762902
 20
5.9998362224
 30
0.0
 11
-21.4893762902
 21
10.9998362224
 31
0.0
  0
LINE
  5
63
330
1F
100
AcDbEntity
  8
1
 62
     4
420
    65535
100
AcDbLine
 10
-21.4893762902
 20
10.9998362224
 30
0.0
 11
-19.4918778547
 21
10.9998362224
 31
0.0
  0
LINE
  5
64
330
1F
100
AcDbEntity
  8
1
 62
     4
420
    65535
100
AcDbLine
 10
-33.7296724015
 20
-4.4786264889
 30
0.0
 11
-34.9325791019
 21
-5.0915380661
 31
0.0
  0
LINE
  5
65
330
1F
100
AcDbEntity
  8
1
 62
     4
420
    65535
100
AcDbLine
 10
-34.5842012448
 20
2.4809524435
 30
0.0
 11
-33.7296724015
 21
-4.4786264889
 31
0.0
  0
LINE
  5
66
330
1F
100
AcDbEntity
  8
1
 62
     4
420
    65535
100
AcDbLine
 10
-34.5842012448
 20
2.4809524435
 30
0.0
 11
-40.2737620964
 21
5.7658219328
 31
0.0
  0
ARC
  5
67
330
1F
100
AcDbEntity
  8
1
 62
     4
420
    65535
100
AcDbCircle
 10
-46.3218778547
 20
35.1498362224
 30
0.0
 40
30.00000000000001
100
AcDbArc
 50
281.6307640062
 51
306.3897446775
  0
LINE
  5
68
330
1F
100
AcDbEntity
  8
1
 62
     4
420
    65535
100
AcDbLine
 10
-45.2318778547
 20
-1.745093044
 30
0.0
 11
-34.9325791019
 21
-5.0915380661
 31
0.0
  0
LINE
  5
69
330
1F
100
AcDbEntity
  8
1
 62
     4
420
    65535
100
AcDbLine
 10
-45.2318778547
 20
-19.0001637776
 30
0.0
 11
-45.2318778547
 21
-1.745093044
 31
0.0
  0
LINE
  5
6A
330
1F
100
AcDbEntity
  8
1
 62
     4
420
    65535
100
AcDbLine
 10
-28.4993762902
 20
-19.0001637776
 30
0.0
 11
-45.2318778547
 21
-19.0001637776
 31
0.0
  0
LINE
  5
6B
330
1F
100
AcDbEntity
  8
1
 62
     4
420
    65535
100
AcDbLine
 10
-28.5236335593
 20
10.9998362224
 30
0.0
 11
-21.4893762902
 21
10.9998362224
 31
0.0
  0
ARC
  5
6C
330
1F
100
AcDbEntity
  8
1
 62
     4
420
    65535
100
AcDbCircle
 10
-46.3218778547
 20
35.1498362224
 30
0.0
 40
30.00000000000001
100
AcDbArc
 50
279.7446104122
 51
281.6307640062
  0
LINE
  5
6D
330
1F
100
AcDbEntity
  8
1
 62
     4
420
    65535
100
AcDbLine
 10
-41.2441739827
 20
5.5826766803
 30
0.0
 11
-34.485957133
 21
1.6808183629
 31
0.0
  0
LINE
  5
6E
330
1F
100
AcDbEntity
  8
1
 62
     4
420
    65535
100
AcDbLine
 10
-34.1213256504
 20
-4.6781837866
 30
0.0
 11
-45.2318778547
 21
-1.0681465394
 31
0.0
  0
LINE
  5
6F
330
1F
100
AcDbEntity
  8
1
 62
     4
420
    65535
100
AcDbLine
 10
-45.2318778547
 20
-1.0681465394
 30
0.0
 11
-45.2318778547
 21
-1.745093044
 31
0.0
  0
LINE
  5
70
330
1F
100
AcDbEntity
  8
1
 62
     4
420
    65535
100
AcDbLine
 10
-45.2318778547
 20
-1.0452324755
 30
0.0
 11
-45.2318778547
 21
-1.0681465394
 31
0.0
  0
SPLINE
  5
71
330
1F
100
AcDbEntity
  8
1
 62
     4
420
    65535
100
AcDbSpline
210
0.0
220
0.0
230
1.0
 70
     8
 71
     3
 72
     9
 73
     5
 74
     0
 42
0.00000001
 43
0.00000001
 12
1.0
 22
0.0
 32
0.0
 13
1.0
 23
0.0
 33
0.0
 40
0.0
 40
0.0
 40
0.0
 40
0.0
 40
0.3464765402186574
 40
1.0
 40
1.0
 40
1.0
 40
1.0
 10
-41.27375929660097
 20
5.577611095241294
 30
0.0
 10
-41.27456966855221
 20
5.577472294604843
 30
0.0
 10
-41.27690856269703
 20
5.577071688444431
 30
0.0
 10
-41.25711169813654
 20
5.580461414699232
 30
0.0
 10
-41.24417398271617
 20
5.582676680328982
 30
0.0
  0
DIMENSION
  5
72
330
1F
100
AcDbEntity
  8
2
 62
     7
420
 16777215
100
AcDbDimension
  2
_D
 10
-19.5018778547
 20
-29.0001637776
 30
0.0
 11
-33.0018778547
 21
-29.0001637776
 31
0.0
 70
   160
  1
<>
 71
     2
 42
-1.0
 73
     0
 74
     0
 75
     0
  3
SLDDIMSTYLE0
100
AcDbAlignedDimension
 13
-46.5018778547
 23
5.9998362224
 33
0.0
 14
-19.5018778547
 24
-19.0001637776
 34
0.0
100
AcDbRotatedDimension
  0
DIMENSION
  5
7E
330
1F
100
AcDbEntity
  8
2
 62
     7
420
 16777215
100
AcDbDimension
  2
_D_1
 10
-46.5018778547
 20
-41.0001637776
 30
0.0
 11
-20.5018778547
 21
-41.0001637776
 31
0.0
 70
   160
  1
<>
 71
     2
 42
-1.0
 73
     0
 74
     0
 75
     0
  3
SLDDIMSTYLE0
100
AcDbAlignedDimension
 13
5.4981221453
 23
-14.0001637776
 33
0.0
 14
-46.5018778547
 24
5.9998362224
 34
0.0
100
AcDbRotatedDimension
  0
DIMENSION
  5
88
330
1F
100
AcDbEntity
  8
2
 62
     7
420
 16777215
100
AcDbDimension
  2
_D_2
 10
-55.2318778547
 20
5.9998362224
 30
0.0
 11
-55.2318778547
 21
-6.5001637776
 31
0.0
 70
   160
  1
<>
 71
     2
 42
-1.0
 73
     0
 74
     0
 75
     0
  3
SLDDIMSTYLE0
100
AcDbAlignedDimension
 13
-19.5018778547
 23
-19.0001637776
 33
0.0
 14
-46.5018778547
 24
5.9998362224
 34
0.0
 50
90.0
100
AcDbRotatedDimension
  0
DIMENSION
  5
92
330
1F
100
AcDbEntity
  8
2
 62
     7
420
 16777215
100
AcDbDimension
  2
_D_3
 10
-61.2318778547
 20
10.9998362224
 30
0.0
 11
-61.2318778547
 21
-4.0001637776
 31
0.0
 70
   160
  1
<>
 71
     2
 42
-1.0
 73
     0
 74
     0
 75
     0
  3
SLDDIMSTYLE0
100
AcDbAlignedDimension
 13
-19.5018778547
 23
-19.0001637776
 33
0.0
 14
-19.4918778547
 24
10.9998362224
 34
0.0
 50
90.0
100
AcDbRotatedDimension
  0
DIMENSION
  5
9C
330
1F
100
AcDbEntity
  8
2
 62
     7
420
 16777215
100
AcDbDimension
  2
_D_4
 10
-30.4753735602
 20
-20.5166680721
 30
0.0
 11
-95.9918678547
 21
44.9998462224
 31
0.0
 70
   163
  1
<>
 71
     1
 42
-1.0
 73
     0
 74
     0
 75
     0
  3
SLDDIMSTYLE1
100
AcDbDiametricDimension
 15
-83.5083821492
 25
32.5163405169
 35
0.0
 40
0.0
  0
INSERT
  5
B5
330
1F
100
AcDbEntity
  8
0
  6
SLD-Punktstrich
 62
   208
420
  4194368
370
    15
100
AcDbBlockReference
  2
SW_CENTERMARKSYMBOL_0
 10
-0.0018778547
 20
-0.0001637776
 30
0.0
  0
LINE
  5
B6
330
1F
100
AcDbEntity
  8
1
 62
     4
420
    65535
100
AcDbLine
 10
-28.5236335593
 20
-73.1828428941
 30
0.0
 11
-28.5236335593
 21
-69.1828428941
 31
0.0
  0
LINE
  5
B7
330
1F
100
AcDbEntity
  8
1
 62
     4
420
    65535
100
AcDbLine
 10
-3.5018778547
 20
-75.0828428941
 30
0.0
 11
-19.4918778547
 21
-75.0828428941
 31
0.0
  0
ARC
  5
B8
330
1F
100
AcDbEntity
  8
1
 62
     4
420
    65535
100
AcDbCircle
 10
-21.4893762902
 20
-75.1828428941
 30
0.0
 40
2.0
100
AcDbArc
 50
2.8659839826
 51
90.0
  0
LINE
  5
B9
330
1F
100
AcDbEntity
  8
1
 62
     4
420
    65535
100
AcDbLine
 10
-28.5236335593
 20
-73.1828428941
 30
0.0
 11
-21.4893762902
 21
-73.1828428941
 31
0.0
  0
LINE
  5
BA
330
1F
100
AcDbEntity
  8
1
 62
     4
420
    65535
100
AcDbLine
 10
-28.5236335593
 20
-69.1828428941
 30
0.0
 11
-3.5018778547
 21
-69.1828428941
 31
0.0
  0
LINE
  5
BB
330
1F
100
AcDbEntity
  8
1
 62
     4
420
    65535
100
AcDbLine
 10
-3.5018778547
 20
-69.1828428941
 30
0.0
 11
-3.5018778547
 21
-75.0828428941
 31
0.0
  0
ELLIPSE
  5
BC
330
1F
100
AcDbEntity
  8
1
 62
     4
420
    65535
100
AcDbEllipse
 10
-46.3218778547
 20
-4.0610109659
 30
0.0
 11
16.38942733036667
 21
86.9976349269473
 31
0.0
210
0.0
220
0.0
230
1.0
 40
0.2888286423
 41
3.889625599410224
 42
3.922545189823443
  0
LINE
  5
BD
330
1F
100
AcDbEntity
  8
1
 62
     4
420
    65535
100
AcDbLine
 10
-28.5236335593
 20
-73.1828428941
 30
0.0
 11
-40.2737620964
 21
-73.1828428941
 31
0.0
  0
ELLIPSE
  5
BE
330
1F
100
AcDbEntity
  8
1
 62
     4
420
    65535
100
AcDbEllipse
 10
-46.3218778547
 20
-138.3046748222
 30
0.0
 11
-16.38942733036668
 21
86.9976349269473
 31
0.0
210
0.0
220
0.0
230
1.0
 40
0.2888286423
 41
5.502232770945991
 42
5.53515236135921
  0
SPLINE
  5
BF
330
1F
100
AcDbEntity
  8
1
 62
     4
420
    65535
100
AcDbSpline
210
0.0
220
0.0
230
1.0
 70
     8
 71
     3
 72
    10
 73
     6
 74
     0
 42
0.00000001
 43
0.00000001
 12
1.0
 22
0.0
 32
0.0
 13
1.0
 23
0.0
 33
0.0
 40
0.0
 40
0.0
 40
0.0
 40
0.0
 40
0.5000000000000024
 40
0.5000000000000024
 40
1.0
 40
1.0
 40
1.0
 40
1.0
 10
-41.24417398271546
 20
-71.05261563227602
 30
0.0
 10
-41.26553165855343
 20
-71.09285431788584
 30
0.0
 10
-41.27779038606161
 20
-71.1377721169607
 30
0.0
 10
-41.2777957956658
 20
-71.22788256380905
 30
0.0
 10
-41.26553361664309
 20
-71.2728277811169
 30
0.0
 10
-41.24417398271617
 20
-71.31307015584188
 30
0.0
  0
LINE
  5
C0
330
1F
100
AcDbEntity
  8
1
 62
     4
420
    65535
100
AcDbLine
 10
-40.2737620964
 20
-69.1828428941
 30
0.0
 11
-28.5236335593
 21
-69.1828428941
 31
0.0
  0
SPLINE
  5
C1
330
1F
100
AcDbEntity
  8
1
 62
     4
420
    65535
100
AcDbSpline
210
0.0
220
0.0
230
1.0
 70
     8
 71
     3
 72
    20
 73
    16
 74
     0
 42
0.00000001
 43
0.00000001
 12
1.0
 22
0.0
 32
0.0
 13
1.0
 23
0.0
 33
0.0
 40
0.0
 40
0.0
 40
0.0
 40
0.0
 40
0.1249999999999995
 40
0.1249999999999995
 40
0.249999999999999
 40
0.249999999999999
 40
0.3749999999999985
 40
0.3749999999999985
 40
0.499999999999998
 40
0.499999999999998
 40
0.749999999999999
 40
0.749999999999999
 40
0.8749999999999994
 40
0.8749999999999994
 40
1.0
 40
1.0
 40
1.0
 40
1.0
 10
-26.50187785469031
 20
-75.08284289405886
 30
0.0
 10
-26.50844349803193
 20
-74.9516942710265
 30
0.0
 10
-26.5276795583941
 20
-74.82356709276706
 30
0.0
 10
-26.5902330636198
 20
-74.5730566659304
 30
0.0
 10
-26.63426657256763
 20
-74.44936128292784
 30
0.0
 10
-26.74390523576756
 20
-74.21591429807495
 30
0.0
 10
-26.80915687101811
 20
-74.10604542433943
 30
0.0
 10
-26.95996705204501
 20
-73.89966181826827
 30
0.0
 10
-27.04584505526176
 20
-73.80329521133926
 30
0.0
 10
-27.32305286594168
 20
-73.5458081842222
 30
0.0
 10
-27.54079797689454
 20
-73.41013669141523
 30
0.0
 10
-27.88688207452713
 20
-73.27491450136445
 30
0.0
 10
-28.00678873632724
 20
-73.24045819148094
 30
0.0
 10
-28.25148965588023
 20
-73.19436280927516
 30
0.0
 10
-28.37660283162773
 20
-73.18284289405885
 30
0.0
 10
-28.49937629023413
 20
-73.18284289405885
 30
0.0
  0
LINE
  5
C2
330
1F
100
AcDbEntity
  8
1
 62
     4
420
    65535
100
AcDbLine
 10
-26.5018778547
 20
-75.0828428941
 30
0.0
 11
-19.4918778547
 21
-75.0828428941
 31
0.0
  0
LINE
  5
C3
330
1F
100
AcDbEntity
  8
1
 62
     4
420
    65535
100
AcDbLine
 10
5.4981221453
 20
-69.1828428941
 30
0.0
 11
5.4981221453
 21
-75.0828428941
 31
0.0
  0
LINE
  5
C4
330
1F
100
AcDbEntity
  8
1
 62
     4
420
    65535
100
AcDbLine
 10
5.4981221453
 20
-75.0828428941
 30
0.0
 11
-3.5018778547
 21
-75.0828428941
 31
0.0
  0
LINE
  5
C5
330
1F
100
AcDbEntity
  8
1
 62
     4
420
    65535
100
AcDbLine
 10
-3.5018778547
 20
-69.1828428941
 30
0.0
 11
5.4981221453
 21
-69.1828428941
 31
0.0
  0
LINE
  5
C6
330
1F
100
AcDbEntity
  8
1
 62
     4
420
    65535
100
AcDbLine
 10
-45.2318778547
 20
-71.0526156323
 30
0.0
 11
-45.2318778547
 21
-71.3130701558
 31
0.0
  0
LINE
  5
C7
330
1F
100
AcDbEntity
  8
1
 62
     4
420
    65535
100
AcDbLine
 10
-45.2318778547
 20
-69.1828428941
 30
0.0
 11
-45.2318778547
 21
-71.0526156323
 31
0.0
  0
LINE
  5
C8
330
1F
100
AcDbEntity
  8
1
 62
     4
420
    65535
100
AcDbLine
 10
-45.2318778547
 20
-69.1828428941
 30
0.0
 11
-40.2737620964
 21
-69.1828428941
 31
0.0
  0
LINE
  5
C9
330
1F
100
AcDbEntity
  8
1
 62
     4
420
    65535
100
AcDbLine
 10
-45.2318778547
 20
-71.3130701558
 30
0.0
 11
-45.2318778547
 21
-73.1828428941
 31
0.0
  0
LINE
  5
CA
330
1F
100
AcDbEntity
  8
1
 62
     4
420
    65535
100
AcDbLine
 10
-45.2318778547
 20
-73.1828428941
 30
0.0
 11
-40.2737620964
 21
-73.1828428941
 31
0.0
  0
LINE
  5
CB
330
1F
100
AcDbEntity
  8
1
 62
     4
420
    65535
100
AcDbLine
 10
-41.2441739827
 20
-71.0526156323
 30
0.0
 11
-45.2318778547
 21
-71.0526156323
 31
0.0
  0
LINE
  5
CC
330
1F
100
AcDbEntity
  8
1
 62
     4
420
    65535
100
AcDbLine
 10
-41.2441739827
 20
-71.3130701558
 30
0.0
 11
-45.2318778547
 21
-71.3130701558
 31
0.0
  0
DIMENSION
  5
CD
330
1F
100
AcDbEntity
  8
2
 62
     7
420
 16777215
100
AcDbDimension
  2
_D_5
 10
15.4981221453
 20
-75.0828428941
 30
0.0
 11
15.4981221453
 21
-57.0140926504
 31
0.0
 70
   160
  1
<>
 71
     2
 42
-1.0
 73
     0
 74
     0
 75
     0
  3
SLDDIMSTYLE2
100
AcDbAlignedDimension
 13
5.4981221453
 23
-69.1828428941
 33
0.0
 14
5.4981221453
 24
-75.0828428941
 34
0.0
 50
90.0
100
AcDbRotatedDimension
  0
DIMENSION
  5
DA
330
1F
100
AcDbEntity
  8
2
 62
     7
420
 16777215
100
AcDbDimension
  2
_D_6
 10
-55.2318778547
 20
-69.1828428941
 30
0.0
 11
-55.2318778547
 21
-60.2467317005
 31
0.0
 70
   160
  1
<>
 71
     2
 42
-1.0
 73
     0
 74
     0
 75
     0
  3
SLDDIMSTYLE2
100
AcDbAlignedDimension
 13
-45.2318778547
 23
-73.1828428941
 33
0.0
 14
-45.2318778547
 24
-69.1828428941
 34
0.0
 50
90.0
100
AcDbRotatedDimension
  0
ENDSEC
  0
SECTION
  2
OBJECTS
  0
DICTIONARY
  5
C
330
0
100
AcDbDictionary
281
     1
  3
ACAD_GROUP
350
D
  3
ACAD_LAYOUT
350
1A
  3
ACAD_MATERIAL
350
3B
  3
ACAD_MLEADERSTYLE
350
E7
  3
ACAD_MLINESTYLE
350
17
  3
ACAD_PLOTSETTINGS
350
19
  3
ACAD_PLOTSTYLENAME
350
E
  3
ACAD_TABLESTYLE
350
E6
  3
ACAD_VISUALSTYLE
350
2A
  0
DICTIONARY
  5
D
102
{ACAD_REACTORS
330
C
102
}
330
C
100
AcDbDictionary
281
     1
  0
DICTIONARY
  5
1A
102
{ACAD_REACTORS
330
C
102
}
330
C
100
AcDbDictionary
281
     1
  3
Layout1
350
1E
  3
Layout2
350
26
  3
Model
350
22
  0
DICTIONARY
  5
3B
102
{ACAD_REACTORS
330
C
102
}
330
C
100
AcDbDictionary
281
     1
  3
ByBlock
350
3D
  3
ByLayer
350
3C
  3
Global
350
3E
  0
DICTIONARY
  5
E7
102
{ACAD_REACTORS
330
C
102
}
330
C
100
AcDbDictionary
281
     1
  0
DICTIONARY
  5
17
102
{ACAD_REACTORS
330
C
102
}
330
C
100
AcDbDictionary
281
     1
  3
Standard
350
18
  0
DICTIONARY
  5
19
102
{ACAD_REACTORS
330
C
102
}
330
C
100
AcDbDictionary
281
     1
  0
ACDBDICTIONARYWDFLT
  5
E
102
{ACAD_REACTORS
330
C
102
}
330
C
100
AcDbDictionary
281
     1
  3
Normal
350
F
100
AcDbDictionaryWithDefault
340
F
  0
DICTIONARY
  5
E6
102
{ACAD_REACTORS
330
C
102
}
330
C
100
AcDbDictionary
281
     1
  0
DICTIONARY
  5
2A
102
{ACAD_REACTORS
330
C
102
}
330
C
100
AcDbDictionary
281
     1
  3
2dWireframe
350
2F
  3
3D Hidden
350
31
  3
3dWireframe
350
30
  3
Basic
350
32
  3
Brighten
350
36
  3
ColorChange
350
3A
  3
Conceptual
350
34
  3
Dim
350
35
  3
Facepattern
350
39
  3
Flat
350
2B
  3
FlatWithEdges
350
2C
  3
Gouraud
350
2D
  3
GouraudWithEdges
350
2E
  3
Linepattern
350
38
  3
Realistic
350
33
  3
Thicken
350
37
  0
LAYOUT
  5
1E
102
{ACAD_REACTORS
330
1A
102
}
330
1A
100
AcDbPlotSettings
  1

  2
none_device
  4

  6

 40
0.0
 41
0.0
 42
0.0
 43
0.0
 44
0.0
 45
0.0
 46
0.0
 47
0.0
 48
0.0
 49
0.0
140
0.0
141
0.0
142
1.0
143
1.0
 70
   688
 72
     0
 73
     0
 74
     5
  7

 75
    16
 76
     0
 77
     2
 78
   300
147
1.0
148
0.0
149
0.0
100
AcDbLayout
  1
Layout1
 70
     1
 71
     1
 10
0.0
 20
0.0
 11
420.0
 21
297.0
 12
0.0
 22
0.0
 32
0.0
 14
1.0000000000E+20
 24
1.0000000000E+20
 34
1.0000000000E+20
 15
-1.0000000000E+20
 25
-1.0000000000E+20
 35
-1.0000000000E+20
146
0.0
 13
0.0
 23
0.0
 33
0.0
 16
1.0
 26
0.0
 36
0.0
 17
0.0
 27
1.0
 37
0.0
 76
     0
330
1B
  0
LAYOUT
  5
26
102
{ACAD_REACTORS
330
1A
102
}
330
1A
100
AcDbPlotSettings
  1

  2
none_device
  4

  6

 40
0.0
 41
0.0
 42
0.0
 43
0.0
 44
0.0
 45
0.0
 46
0.0
 47
0.0
 48
0.0
 49
0.0
140
0.0
141
0.0
142
1.0
143
1.0
 70
   688
 72
     0
 73
     0
 74
     5
  7

 75
    16
 76
     0
 77
     2
 78
   300
147
1.0
148
0.0
149
0.0
100
AcDbLayout
  1
Layout2
 70
     1
 71
     2
 10
0.0
 20
0.0
 11
0.0
 21
0.0
 12
0.0
 22
0.0
 32
0.0
 14
0.0
 24
0.0
 34
0.0
 15
0.0
 25
0.0
 35
0.0
146
0.0
 13
0.0
 23
0.0
 33
0.0
 16
1.0
 26
0.0
 36
0.0
 17
0.0
 27
1.0
 37
0.0
 76
     0
330
23
  0
LAYOUT
  5
22
102
{ACAD_REACTORS
330
1A
102
}
330
1A
100
AcDbPlotSettings
  1

  2
none_device
  4

  6

 40
0.0
 41
0.0
 42
0.0
 43
0.0
 44
0.0
 45
0.0
 46
0.0
 47
0.0
 48
0.0
 49
0.0
140
0.0
141
0.0
142
1.0
143
1.0
 70
  1712
 72
     0
 73
     0
 74
     0
  7

 75
     0
 76
     0
 77
     2
 78
   300
147
1.0
148
0.0
149
0.0
100
AcDbLayout
  1
Model
 70
     1
 71
     0
 10
0.0
 20
0.0
 11
297.0
 21
210.0
 12
0.0
 22
0.0
 32
0.0
 14
0.0
 24
0.0
 34
0.0
 15
297.0
 25
210.0
 35
0.0
146
0.0
 13
0.0
 23
0.0
 33
0.0
 16
1.0
 26
0.0
 36
0.0
 17
0.0
 27
1.0
 37
0.0
 76
     0
330
1F
331
29
  0
MATERIAL
  5
3D
102
{ACAD_REACTORS
330
3B
102
}
330
3B
100
AcDbMaterial
  1
ByBlock
 72
     1
 94
      127
  0
MATERIAL
  5
3C
102
{ACAD_REACTORS
330
3B
102
}
330
3B
100
AcDbMaterial
  1
ByLayer
 72
     1
 94
      127
  0
MATERIAL
  5
3E
102
{ACAD_REACTORS
330
3B
102
}
330
3B
100
AcDbMaterial
  1
Global
 72
     1
 94
      127
  0
MLINESTYLE
  5
18
102
{ACAD_REACTORS
330
17
102
}
330
17
100
AcDbMlineStyle
  2
Standard
 70
     0
  3

 62
   256
 51
90.0
 52
90.0
 71
     2
 49
0.5
 62
   256
  6
BYLAYER
 49
-0.5
 62
   256
  6
BYLAYER
  0
ACDBPLACEHOLDER
  5
F
102
{ACAD_REACTORS
330
E
102
}
330
E
  0
VISUALSTYLE
  5
2F
102
{ACAD_REACTORS
330
2A
102
}
330
2A
100
AcDbVisualStyle
  2
2dWireframe
 70
     4
 71
     0
 72
     2
 73
     0
 90
        0
 40
-0.6
 41
-30.0
 62
     5
 63
     7
421
 16777215
 74
     1
 91
        4
 64
     7
 65
   257
 75
     1
175
     1
 42
1.0
 92
        0
 66
   257
 43
1.0
 76
     1
 77
     6
 78
     2
 67
     7
 79
     5
170
     0
171
     0
290
     0
174
     0
 93
        1
 44
0.0
173
     0
291
     0
 45
0.0
  0
VISUALSTYLE
  5
31
102
{ACAD_REACTORS
330
2A
102
}
330
2A
100
AcDbVisualStyle
  2
3D Hidden
 70
     6
 71
     1
 72
     2
 73
     2
 90
        0
 40
-0.6
 41
-30.0
 62
     5
 63
     7
421
 16777215
 74
     2
 91
        2
 64
     7
 65
   257
 75
     2
175
     1
 42
40.0
 92
        0
 66
   257
 43
1.0
 76
     1
 77
     6
 78
     2
 67
     7
 79
     3
170
     0
171
     0
290
     0
174
     0
 93
        1
 44
0.0
173
     0
291
     0
 45
0.0
  0
VISUALSTYLE
  5
30
102
{ACAD_REACTORS
330
2A
102
}
330
2A
100
AcDbVisualStyle
  2
3dWireframe
 70
     5
 71
     0
 72
     2
 73
     0
 90
        0
 40
-0.6
 41
-30.0
 62
     5
 63
     7
421
 16777215
 74
     1
 91
        4
 64
     7
 65
   257
 75
     1
175
     1
 42
1.0
 92
        0
 66
   257
 43
1.0
 76
     1
 77
     6
 78
     2
 67
     7
 79
     5
170
     0
171
     0
290
     0
174
     0
 93
        1
 44
0.0
173
     0
291
     0
 45
0.0
  0
VISUALSTYLE
  5
32
102
{ACAD_REACTORS
330
2A
102
}
330
2A
100
AcDbVisualStyle
  2
Basic
 70
     7
 71
     1
 72
     0
 73
     1
 90
        0
 40
-0.6
 41
-30.0
 62
     5
 63
     7
421
 16777215
 74
     0
 91
        4
 64
     7
 65
   257
 75
     1
175
     1
 42
1.0
 92
        8
 66
     7
 43
1.0
 76
     1
 77
     6
 78
     2
 67
     7
 79
     5
170
     0
171
     0
290
     0
174
     0
 93
        1
 44
0.0
173
     0
291
     1
 45
0.0
  0
VISUALSTYLE
  5
36
102
{ACAD_REACTORS
330
2A
102
}
330
2A
100
AcDbVisualStyle
  2
Brighten
 70
    12
 71
     2
 72
     2
 73
     0
 90
        0
 40
-0.6
 41
-30.0
 62
     5
 63
     7
421
 16777215
 74
     1
 91
        4
 64
     7
 65
   257
 75
     1
175
     1
 42
1.0
 92
        8
 66
     7
 43
1.0
 76
     1
 77
     6
 78
     2
 67
     7
 79
     5
170
     0
171
     0
290
     0
174
     0
 93
        1
 44
50.0
173
     0
291
     1
 45
0.0
  0
VISUALSTYLE
  5
3A
102
{ACAD_REACTORS
330
2A
102
}
330
2A
100
AcDbVisualStyle
  2
ColorChange
 70
    16
 71
     2
 72
     2
 73
     3
 90
        0
 40
-0.6
 41
-30.0
 62
     5
 63
     8
421
  8421504
 74
     1
 91
        4
 64
     7
 65
   257
 75
     1
175
     1
 42
1.0
 92
        8
 66
     8
424
  8421504
 43
1.0
 76
     1
 77
     6
 78
     2
 67
     7
 79
     5
170
     0
171
     0
290
     0
174
     0
 93
        1
 44
0.0
173
     0
291
     1
 45
0.0
  0
VISUALSTYLE
  5
34
102
{ACAD_REACTORS
330
2A
102
}
330
2A
100
AcDbVisualStyle
  2
Conceptual
 70
     9
 71
     3
 72
     2
 73
     0
 90
        0
 40
-0.6
 41
-30.0
 62
     5
 63
     7
421
 16777215
 74
     2
 91
        2
 64
     7
 65
   257
 75
     1
175
     1
 42
40.0
 92
        8
 66
     7
 43
1.0
 76
     1
 77
     6
 78
     2
 67
     7
 79
     3
170
     0
171
     0
290
     0
174
     0
 93
        1
 44
0.0
173
     0
291
     0
 45
0.0
  0
VISUALSTYLE
  5
35
102
{ACAD_REACTORS
330
2A
102
}
330
2A
100
AcDbVisualStyle
  2
Dim
 70
    11
 71
     2
 72
     2
 73
     0
 90
        0
 40
-0.6
 41
-30.0
 62
     5
 63
     7
421
 16777215
 74
     1
 91
        4
 64
     7
 65
   257
 75
     1
175
     1
 42
1.0
 92
        8
 66
     7
 43
1.0
 76
     1
 77
     6
 78
     2
 67
     7
 79
     5
170
     0
171
     0
290
     0
174
     0
 93
        1
 44
-50.0
173
     0
291
     1
 45
0.0
  0
VISUALSTYLE
  5
39
102
{ACAD_REACTORS
330
2A
102
}
330
2A
100
AcDbVisualStyle
  2
Facepattern
 70
    15
 71
     2
 72
     2
 73
     0
 90
        0
 40
-0.6
 41
-30.0
 62
     5
 63
     7
421
 16777215
 74
     1
 91
        4
 64
     7
 65
   257
 75
     1
175
     1
 42
1.0
 92
        8
 66
     7
 43
1.0
 76
     1
 77
     6
 78
     2
 67
     7
 79
     5
170
     0
171
     0
290
     0
174
     0
 93
        1
 44
0.0
173
     0
291
     1
 45
0.0
  0
VISUALSTYLE
  5
2B
102
{ACAD_REACTORS
330
2A
102
}
330
2A
100
AcDbVisualStyle
  2
Flat
 70
     0
 71
     2
 72
     1
 73
     1
 90
        2
 40
-0.6
 41
30.0
 62
     5
 63
     7
421
 16777215
 74
     0
 91
        4
 64
     7
 65
   257
 75
     1
175
     1
 42
1.0
 92
        8
 66
     7
 43
1.0
 76
     1
 77
     6
 78
     2
 67
     7
 79
     5
170
     0
171
     0
290
     0
174
     0
 93
       13
 44
0.0
173
     0
291
     1
 45
0.0
  0
VISUALSTYLE
  5
2C
102
{ACAD_REACTORS
330
2A
102
}
330
2A
100
AcDbVisualStyle
  2
FlatWithEdges
 70
     1
 71
     2
 72
     1
 73
     1
 90
        2
 40
-0.6
 41
30.0
 62
     5
 63
     7
421
 16777215
 74
     1
 91
        4
 64
     7
 65
   257
 75
     1
175
     1
 42
1.0
 92
        0
 66
   257
 43
1.0
 76
     1
 77
     6
 78
     2
 67
     7
 79
     5
170
     0
171
     0
290
     0
174
     0
 93
       13
 44
0.0
173
     0
291
     1
 45
0.0
  0
VISUALSTYLE
  5
2D
102
{ACAD_REACTORS
330
2A
102
}
330
2A
100
AcDbVisualStyle
  2
Gouraud
 70
     2
 71
     2
 72
     2
 73
     1
 90
        2
 40
-0.6
 41
30.0
 62
     5
 63
     7
421
 16777215
 74
     0
 91
        4
 64
     7
 65
   257
 75
     1
175
     1
 42
1.0
 92
        0
 66
     7
 43
1.0
 76
     1
 77
     6
 78
     2
 67
     7
 79
     5
170
     0
171
     0
290
     0
174
     0
 93
       13
 44
0.0
173
     0
291
     1
 45
0.0
  0
VISUALSTYLE
  5
2E
102
{ACAD_REACTORS
330
2A
102
}
330
2A
100
AcDbVisualStyle
  2
GouraudWithEdges
 70
     3
 71
     2
 72
     2
 73
     1
 90
        2
 40
-0.6
 41
30.0
 62
     5
 63
     7
421
 16777215
 74
     1
 91
        4
 64
     7
 65
   257
 75
     1
175
     1
 42
1.0
 92
        0
 66
   257
 43
1.0
 76
     1
 77
     6
 78
     2
 67
     7
 79
     5
170
     0
171
     0
290
     0
174
     0
 93
       13
 44
0.0
173
     0
291
     1
 45
0.0
  0
VISUALSTYLE
  5
38
102
{ACAD_REACTORS
330
2A
102
}
330
2A
100
AcDbVisualStyle
  2
Linepattern
 70
    14
 71
     2
 72
     2
 73
     0
 90
        0
 40
-0.6
 41
-30.0
 62
     5
 63
     7
421
 16777215
 74
     1
 91
        4
 64
     7
 65
   257
 75
     7
175
     7
 42
1.0
 92
        8
 66
     7
 43
1.0
 76
     1
 77
     6
 78
     2
 67
     7
 79
     5
170
     0
171
     0
290
     0
174
     0
 93
        1
 44
0.0
173
     0
291
     1
 45
0.0
  0
VISUALSTYLE
  5
33
102
{ACAD_REACTORS
330
2A
102
}
330
2A
100
AcDbVisualStyle
  2
Realistic
 70
     8
 71
     2
 72
     2
 73
     0
 90
        0
 40
-0.6
 41
-30.0
 62
     5
 63
     7
421
 16777215
 74
     1
 91
        0
 64
     7
 65
   257
 75
     1
175
     1
 42
1.0
 92
        8
 66
     8
424
  7895160
 43
1.0
 76
     1
 77
     6
 78
     2
 67
     7
 79
     5
170
     0
171
     0
290
     0
174
     0
 93
       13
 44
0.0
173
     0
291
     0
 45
0.0
  0
VISUALSTYLE
  5
37
102
{ACAD_REACTORS
330
2A
102
}
330
2A
100
AcDbVisualStyle
  2
Thicken
 70
    13
 71
     2
 72
     2
 73
     0
 90
        0
 40
-0.6
 41
-30.0
 62
     5
 63
     7
421
 16777215
 74
     1
 91
        4
 64
     7
 65
   257
 75
     1
175
     1
 42
1.0
 92
       12
 66
     7
 43
1.0
 76
     1
 77
     6
 78
     2
 67
     7
 79
     5
170
     0
171
     0
290
     0
174
     0
 93
        1
 44
0.0
173
     0
291
     1
 45
0.0
  0
ENDSEC
  0
EOF
