  0
SECTION
  2
HEADER
  9
$ACADVER
  1
AC1021
  9
$ACADMAINTVER
 70
    25
  9
$DWGCODEPAGE
  3
ANSI_1252
  9
$INSBASE
 10
0.0
 20
0.0
 30
0.0
  9
$EXTMIN
 10
0.0
 20
0.0
 30
0.0
  9
$EXTMAX
 10
297.0
 20
210.0
 30
0.0
  9
$LIMMIN
 10
0.0
 20
0.0
  9
$LIMMAX
 10
297.0
 20
210.0
  9
$ORTHOMODE
 70
     0
  9
$REGENMODE
 70
     1
  9
$FILLMODE
 70
     1
  9
$QTEXTMODE
 70
     0
  9
$MIRRTEXT
 70
     1
  9
$LTSCALE
 40
1.0
  9
$ATTMODE
 70
     1
  9
$TEXTSIZE
 40
3.5
  9
$TRACEWID
 40
1.0
  9
$TEXTSTYLE
  7
Standard
  9
$CLAYER
  8
0
  9
$CELTYPE
  6
ByLayer
  9
$CECOLOR
 62
   256
  9
$CELTSCALE
 40
1.0
  9
$DISPSILH
 70
     0
  9
$DIMSCALE
 40
1.0
  9
$DIMASZ
 40
3.302
  9
$DIMEXO
 40
1.0
  9
$DIMDLI
 40
3.75
  9
$DIMRND
 40
0.0
  9
$DIMDLE
 40
0.0
  9
$DIMEXE
 40
1.0
  9
$DIMTP
 40
0.0
  9
$DIMTM
 40
0.0
  9
$DIMTXT
 40
3.5
  9
$DIMCEN
 40
2.5
  9
$DIMTSZ
 40
0.0
  9
$DIMTOL
 70
     0
  9
$DIMLIM
 70
     0
  9
$DIMTIH
 70
     1
  9
$DIMTOH
 70
     1
  9
$DIMSE1
 70
     0
  9
$DIMSE2
 70
     0
  9
$DIMTAD
 70
     1
  9
$DIMZIN
 70
     0
  9
$DIMBLK
  1

  9
$DIMASO
 70
     1
  9
$DIMSHO
 70
     1
  9
$DIMPOST
  1

  9
$DIMAPOST
  1

  9
$DIMALT
 70
     0
  9
$DIMALTD
 70
     3
  9
$DIMALTF
 40
0.0393700787
  9
$DIMLFAC
 40
1.0
  9
$DIMTOFL
 70
     1
  9
$DIMTVP
 40
0.0
  9
$DIMTIX
 70
     0
  9
$DIMSOXD
 70
     0
  9
$DIMSAH
 70
     0
  9
$DIMBLK1
  1

  9
$DIMBLK2
  1

  9
$DIMSTYLE
  2
ISO-25
  9
$DIMCLRD
 70
     0
  9
$DIMCLRE
 70
     0
  9
$DIMCLRT
 70
     0
  9
$DIMTFAC
 40
1.0
  9
$DIMGAP
 40
1.524
  9
$DIMJUST
 70
     0
  9
$DIMSD1
 70
     0
  9
$DIMSD2
 70
     0
  9
$DIMTOLJ
 70
     0
  9
$DIMTZIN
 70
     0
  9
$DIMALTZ
 70
     0
  9
$DIMALTTZ
 70
     0
  9
$DIMUPT
 70
     0
  9
$DIMDEC
 70
     2
  9
$DIMTDEC
 70
     2
  9
$DIMALTU
 70
     2
  9
$DIMALTTD
 70
     3
  9
$DIMTXSTY
  7
Standard
  9
$DIMAUNIT
 70
     0
  9
$DIMADEC
 70
     2
  9
$DIMALTRND
 40
0.0
  9
$DIMAZIN
 70
     0
  9
$DIMDSEP
 70
    44
  9
$DIMATFIT
 70
     3
  9
$DIMFRAC
 70
     0
  9
$DIMLDRBLK
  1

  9
$DIMLUNIT
 70
     2
  9
$DIMLWD
 70
    -2
  9
$DIMLWE
 70
    -2
  9
$DIMTMOVE
 70
     0
  9
$DIMFXL
 40
1.0
  9
$DIMFXLON
 70
     0
  9
$DIMJOGANG
 40
0.7853981634
  9
$DIMTFILL
 70
     0
  9
$DIMTFILLCLR
 70
     0
  9
$DIMARCSYM
 70
     0
  9
$DIMLTYPE
  6

  9
$DIMLTEX1
  6

  9
$DIMLTEX2
  6

  9
$LUNITS
 70
     2
  9
$LUPREC
 70
     2
  9
$SKETCHINC
 40
1.0
  9
$FILLETRAD
 40
10.0
  9
$AUNITS
 70
     0
  9
$AUPREC
 70
     2
  9
$MENU
  1
.
  9
$ELEVATION
 40
0.0
  9
$PELEVATION
 40
0.0
  9
$THICKNESS
 40
0.0
  9
$LIMCHECK
 70
     0
  9
$CHAMFERA
 40
10.0
  9
$CHAMFERB
 40
10.0
  9
$CHAMFERC
 40
20.0
  9
$CHAMFERD
 40
0.0
  9
$SKPOLY
 70
     0
  9
$TDCREATE
 40
2456512.629794988
  9
$TDUCREATE
 40
2456512.546461655
  9
$TDUPDATE
 40
2456512.62979544
  9
$TDUUPDATE
 40
2456512.546462107
  9
$TDINDWG
 40
0.0000000116
  9
$TDUSRTIMER
 40
0.0000000116
  9
$USRTIMER
 70
     1
  9
$ANGBASE
 50
0.0
  9
$ANGDIR
 70
     0
  9
$PDMODE
 70
     0
  9
$PDSIZE
 40
-1.0
  9
$PLINEWID
 40
0.0
  9
$SPLFRAME
 70
     0
  9
$SPLINETYPE
 70
     6
  9
$SPLINESEGS
 70
     8
  9
$HANDSEED
  5
DB
  9
$SURFTAB1
 70
     6
  9
$SURFTAB2
 70
     6
  9
$SURFTYPE
 70
     6
  9
$SURFU
 70
     6
  9
$SURFV
 70
     6
  9
$UCSBASE
  2

  9
$UCSNAME
  2

  9
$UCSORG
 10
0.0
 20
0.0
 30
0.0
  9
$UCSXDIR
 10
1.0
 20
0.0
 30
0.0
  9
$UCSYDIR
 10
0.0
 20
1.0
 30
0.0
  9
$UCSORTHOREF
  2

  9
$UCSORTHOVIEW
 70
     0
  9
$UCSORGTOP
 10
0.0
 20
0.0
 30
0.0
  9
$UCSORGBOTTOM
 10
0.0
 20
0.0
 30
0.0
  9
$UCSORGLEFT
 10
0.0
 20
0.0
 30
0.0
  9
$UCSORGRIGHT
 10
0.0
 20
0.0
 30
0.0
  9
$UCSORGFRONT
 10
0.0
 20
0.0
 30
0.0
  9
$UCSORGBACK
 10
0.0
 20
0.0
 30
0.0
  9
$PUCSBASE
  2

  9
$PUCSNAME
  2

  9
$PUCSORG
 10
0.0
 20
0.0
 30
0.0
  9
$PUCSXDIR
 10
1.0
 20
0.0
 30
0.0
  9
$PUCSYDIR
 10
0.0
 20
1.0
 30
0.0
  9
$PUCSORTHOREF
  2

  9
$PUCSORTHOVIEW
 70
     0
  9
$PUCSORGTOP
 10
0.0
 20
0.0
 30
0.0
  9
$PUCSORGBOTTOM
 10
0.0
 20
0.0
 30
0.0
  9
$PUCSORGLEFT
 10
0.0
 20
0.0
 30
0.0
  9
$PUCSORGRIGHT
 10
0.0
 20
0.0
 30
0.0
  9
$PUCSORGFRONT
 10
0.0
 20
0.0
 30
0.0
  9
$PUCSORGBACK
 10
0.0
 20
0.0
 30
0.0
  9
$USERI1
 70
     0
  9
$USERI2
 70
     0
  9
$USERI3
 70
     0
  9
$USERI4
 70
     0
  9
$USERI5
 70
     0
  9
$USERR1
 40
0.0
  9
$USERR2
 40
0.0
  9
$USERR3
 40
0.0
  9
$USERR4
 40
0.0
  9
$USERR5
 40
0.0
  9
$WORLDVIEW
 70
     1
  9
$SHADEDGE
 70
     3
  9
$SHADEDIF
 70
    70
  9
$TILEMODE
 70
     1
  9
$MAXACTVP
 70
    64
  9
$PINSBASE
 10
0.0
 20
0.0
 30
0.0
  9
$PLIMCHECK
 70
     0
  9
$PEXTMIN
 10
1.0000000000E+20
 20
1.0000000000E+20
 30
1.0000000000E+20
  9
$PEXTMAX
 10
-1.0000000000E+20
 20
-1.0000000000E+20
 30
-1.0000000000E+20
  9
$PLIMMIN
 10
0.0
 20
0.0
  9
$PLIMMAX
 10
420.0
 20
297.0
  9
$UNITMODE
 70
     0
  9
$VISRETAIN
 70
     1
  9
$PLINEGEN
 70
     0
  9
$PSLTSCALE
 70
     1
  9
$TREEDEPTH
 70
  3020
  9
$CMLSTYLE
  2
Standard
  9
$CMLJUST
 70
     0
  9
$CMLSCALE
 40
20.0
  9
$PROXYGRAPHICS
 70
     1
  9
$MEASUREMENT
 70
     1
  9
$CELWEIGHT
370
    -1
  9
$ENDCAPS
280
     0
  9
$JOINSTYLE
280
     0
  9
$LWDISPLAY
290
     1
  9
$INSUNITS
 70
     4
  9
$HYPERLINKBASE
  1

  9
$STYLESHEET
  1

  9
$XEDIT
290
     1
  9
$CEPSNTYPE
380
     0
  9
$PSTYLEMODE
290
     1
  9
$FINGERPRINTGUID
  2
{A49DC78B-27F1-424F-A8A1-DD599649B0A8}
  9
$VERSIONGUID
  2
{FAEB1C32-E019-11D5-929B-00C0DF256EC4}
  9
$EXTNAMES
290
     1
  9
$PSVPSCALE
 40
0.0
  9
$OLESTARTUP
290
     0
  9
$SORTENTS
280
   127
  9
$INDEXCTL
280
     0
  9
$HIDETEXT
280
     1
  9
$XCLIPFRAME
290
     0
  9
$HALOGAP
280
     0
  9
$OBSCOLOR
 70
   257
  9
$OBSLTYPE
280
     0
  9
$INTERSECTIONDISPLAY
280
     0
  9
$INTERSECTIONCOLOR
 70
   257
  9
$DIMASSOC
280
     2
  9
$PROJECTNAME
  1

  9
$CAMERADISPLAY
290
     0
  9
$LENSLENGTH
 40
50.0
  9
$CAMERAHEIGHT
 40
0.0
  9
$STEPSPERSEC
 40
2.0
  9
$STEPSIZE
 40
6.0
  9
$3DDWFPREC
 40
2.0
  9
$PSOLWIDTH
 40
5.0
  9
$PSOLHEIGHT
 40
80.0
  9
$LOFTANG1
 40
1.5707963268
  9
$LOFTANG2
 40
1.5707963268
  9
$LOFTMAG1
 40
0.0
  9
$LOFTMAG2
 40
0.0
  9
$LOFTPARAM
 70
     7
  9
$LOFTNORMALS
280
     1
  9
$LATITUDE
 40
37.795
  9
$LONGITUDE
 40
-122.394
  9
$NORTHDIRECTION
 40
0.0
  9
$TIMEZONE
 70
 -8000
  9
$LIGHTGLYPHDISPLAY
280
     1
  9
$TILEMODELIGHTSYNCH
280
     1
  9
$SOLIDHIST
280
     1
  9
$SHOWHIST
280
     1
  9
$DWFFRAME
280
     2
  9
$DGNFRAME
280
     2
  9
$REALWORLDSCALE
290
     1
  9
$INTERFERECOLOR
 62
   256
  9
$CSHADOW
280
     0
  9
$SHADOWPLANELOCATION
 40
0.0
  0
ENDSEC
  0
SECTION
  2
CLASSES
  0
CLASS
  1
ACDBDICTIONARYWDFLT
  2
AcDbDictionaryWithDefault
  3
ObjectDBX Classes
 90
        0
 91
        4
280
     0
281
     0
  0
CLASS
  1
VISUALSTYLE
  2
AcDbVisualStyle
  3
ObjectDBX Classes
 90
     4095
 91
        4
280
     0
281
     0
  0
CLASS
  1
MATERIAL
  2
AcDbMaterial
  3
ObjectDBX Classes
 90
     1153
 91
        4
280
     0
281
     0
  0
ENDSEC
  0
SECTION
  2
TABLES
  0
TABLE
  2
VPORT
  5
8
330
0
100
AcDbSymbolTable
 70
     1
  0
VPORT
  5
29
330
8
100
AcDbSymbolTableRecord
100
AcDbViewportTableRecord
  2
*Active
 70
     0
 10
0.0
 20
0.0
 11
1.0
 21
1.0
 12
148.5
 22
105.0
 13
0.0
 23
0.0
 14
10.0
 24
10.0
 15
10.0
 25
10.0
 16
0.0
 26
0.0
 36
1.0
 17
0.0
 27
0.0
 37
0.0
 40
210.0
 41
1.4142857143
 42
50.0
 43
0.0
 44
0.0
 50
0.0
 51
0.0
 71
     0
 72
  2000
 73
     1
 74
     3
 75
     0
 76
     0
 77
     0
 78
     0
281
     0
 65
     1
110
0.0
120
0.0
130
0.0
111
1.0
121
0.0
131
0.0
112
0.0
122
1.0
132
0.0
 79
     0
146
0.0
 60
     3
 61
     5
292
     1
282
     1
141
0.0
142
0.0
 63
   250
  0
ENDTAB
  0
TABLE
  2
LTYPE
  5
5
330
0
100
AcDbSymbolTable
 70
     8
  0
LTYPE
  5
14
330
5
100
AcDbSymbolTableRecord
100
AcDbLinetypeTableRecord
  2
ByBlock
 70
     0
  3

 72
    65
 73
     0
 40
0.0
  0
LTYPE
  5
15
330
5
100
AcDbSymbolTableRecord
100
AcDbLinetypeTableRecord
  2
ByLayer
 70
     0
  3

 72
    65
 73
     0
 40
0.0
  0
LTYPE
  5
16
330
5
100
AcDbSymbolTableRecord
100
AcDbLinetypeTableRecord
  2
Continuous
 70
     0
  3
Solid line
 72
    65
 73
     0
 40
0.0
  0
LTYPE
  5
3F
330
5
100
AcDbSymbolTableRecord
100
AcDbLinetypeTableRecord
  2
SLD-Durchgehend
 70
     0
  3
SolidWorks Line Style
 72
    65
 73
     0
 40
0.0
  0
LTYPE
  5
40
330
5
100
AcDbSymbolTableRecord
100
AcDbLinetypeTableRecord
  2
SLD-Gestrichelt
 70
     0
  3
SolidWorks Line Style
 72
    65
 73
     2
 40
1.905
 49
1.27
 74
     0
 49
-0.635
 74
     0
  0
LTYPE
  5
41
330
5
100
AcDbSymbolTableRecord
100
AcDbLinetypeTableRecord
  2
SLD-Phantom
 70
     0
  3
SolidWorks Line Style
 72
    65
 73
     6
 40
12.7
 49
6.35
 74
     0
 49
-1.27
 74
     0
 49
1.27
 74
     0
 49
-1.27
 74
     0
 49
1.27
 74
     0
 49
-1.27
 74
     0
  0
LTYPE
  5
42
330
5
100
AcDbSymbolTableRecord
100
AcDbLinetypeTableRecord
  2
SLD-Kette
 70
     0
  3
SolidWorks Line Style
 72
    65
 73
     4
 40
10.16
 49
6.35
 74
     0
 49
-1.27
 74
     0
 49
1.27
 74
     0
 49
-1.27
 74
     0
  0
LTYPE
  5
43
330
5
100
AcDbSymbolTableRecord
100
AcDbLinetypeTableRecord
  2
SLD-Punktstrich
 70
     0
  3
SolidWorks Line Style
 72
    65
 73
     4
 40
19.05
 49
15.24
 74
     0
 49
-1.27
 74
     0
 49
1.27
 74
     0
 49
-1.27
 74
     0
  0
LTYPE
  5
44
330
5
100
AcDbSymbolTableRecord
100
AcDbLinetypeTableRecord
  2
SLD-Naht
 70
     0
  3
SolidWorks Line Style
 72
    65
 73
     2
 40
0.635
 49
0.0
 74
     0
 49
-0.635
 74
     0
  0
LTYPE
  5
45
330
5
100
AcDbSymbolTableRecord
100
AcDbLinetypeTableRecord
  2
SLD-Dicke-Dünne-Kette
 70
     0
  3
SolidWorks Line Style
 72
    65
 73
     4
 40
10.16
 49
6.35
 74
     0
 49
-1.27
 74
     0
 49
1.27
 74
     0
 49
-1.27
 74
     0
  0
ENDTAB
  0
TABLE
  2
LAYER
  5
2
330
0
100
AcDbSymbolTable
 70
     3
  0
LAYER
  5
10
330
2
100
AcDbSymbolTableRecord
100
AcDbLayerTableRecord
  2
0
 70
     0
 62
     7
  6
Continuous
370
    -3
390
F
347
3E
  0
LAYER
  5
46
330
2
100
AcDbSymbolTableRecord
100
AcDbLayerTableRecord
  2
1
 70
     0
 62
     4
  6
Continuous
370
    -1
390
F
347
3E
  0
LAYER
  5
47
330
2
100
AcDbSymbolTableRecord
100
AcDbLayerTableRecord
  2
2
 70
     0
 62
     7
  6
SLD-Durchgehend
370
    -3
390
F
347
3E
  0
ENDTAB
  0
TABLE
  2
STYLE
  5
3
330
0
100
AcDbSymbolTable
 70
     2
  0
STYLE
  5
11
330
3
100
AcDbSymbolTableRecord
100
AcDbTextStyleTableRecord
  2
Standard
 70
     0
 40
0.0
 41
1.0
 50
0.0
 71
     0
 42
3.5
  3
txt
  4

  0
STYLE
  5
7C
330
3
100
AcDbSymbolTableRecord
100
AcDbTextStyleTableRecord
  2
SLDTEXTSTYLE0
 70
     0
 40
0.0
 41
0.75
 50
0.0
 71
     0
 42
0.2
  3
TXT
  4

  0
ENDTAB
  0
TABLE
  2
VIEW
  5
6
330
0
100
AcDbSymbolTable
 70
     0
  0
ENDTAB
  0
TABLE
  2
UCS
  5
7
330
0
100
AcDbSymbolTable
 70
     0
  0
ENDTAB
  0
TABLE
  2
APPID
  5
9
330
0
100
AcDbSymbolTable
 70
     1
  0
APPID
  5
12
330
9
100
AcDbSymbolTableRecord
100
AcDbRegAppTableRecord
  2
ACAD
 70
     0
  0
ENDTAB
  0
TABLE
  2
DIMSTYLE
  5
A
330
0
100
AcDbSymbolTable
 70
     3
100
AcDbDimStyleTable
  0
DIMSTYLE
105
27
330
A
100
AcDbSymbolTableRecord
100
AcDbDimStyleTableRecord
  2
ISO-25
 70
     0
 41
2.5
 42
0.625
 43
3.75
 44
1.25
 73
     0
 74
     0
 77
     1
 78
     8
140
2.5
141
2.5
143
0.0393700787
147
0.625
171
     3
172
     1
178
     0
271
     2
272
     2
274
     3
278
    44
283
     0
284
     8
340
11
  0
DIMSTYLE
105
7D
102
{ACAD_REACTORS
330
7B
330
C1
330
CD
102
}
330
A
100
AcDbSymbolTableRecord
100
AcDbDimStyleTableRecord
  2
SLDDIMSTYLE0
 70
     0
 41
3.302
 44
0.0
 45
0.000000001
 73
     0
 74
     0
 77
     1
 78
    12
 79
     3
140
3.5
147
0.875
172
     1
173
     1
178
     0
271
     2
272
     2
276
     2
284
    12
289
     0
340
7C
  0
DIMSTYLE
105
8A
102
{ACAD_REACTORS
330
89
330
94
102
}
330
A
100
AcDbSymbolTableRecord
100
AcDbDimStyleTableRecord
  2
SLDDIMSTYLE1
 70
     0
 41
3.302
 44
0.0
 45
0.000000001
 73
     0
 74
     0
 77
     1
 78
    12
 79
     3
140
3.5
147
0.875
173
     1
178
     0
271
     2
272
     2
276
     2
284
    12
340
7C
  0
ENDTAB
  0
TABLE
  2
BLOCK_RECORD
  5
1
330
0
100
AcDbSymbolTable
 70
     6
  0
BLOCK_RECORD
  5
1F
330
1
100
AcDbSymbolTableRecord
100
AcDbBlockTableRecord
  2
*Model_Space
340
22
 70
     0
280
     1
281
     0
  0
BLOCK_RECORD
  5
1B
330
1
100
AcDbSymbolTableRecord
100
AcDbBlockTableRecord
  2
*Paper_Space
340
1E
 70
     0
280
     1
281
     0
  0
BLOCK_RECORD
  5
23
330
1
100
AcDbSymbolTableRecord
100
AcDbBlockTableRecord
  2
*Paper_Space0
340
26
 70
     0
280
     1
281
     0
  0
BLOCK_RECORD
  5
7E
330
1
100
AcDbSymbolTableRecord
100
AcDbBlockTableRecord
  2
_D
340
0
 70
     0
280
     1
281
     0
  0
BLOCK_RECORD
  5
8B
330
1
100
AcDbSymbolTableRecord
100
AcDbBlockTableRecord
  2
_D_1
340
0
 70
     0
280
     1
281
     0
  0
BLOCK_RECORD
  5
95
330
1
100
AcDbSymbolTableRecord
100
AcDbBlockTableRecord
  2
_D_2
340
0
 70
     0
280
     1
281
     0
  0
BLOCK_RECORD
  5
C2
330
1
100
AcDbSymbolTableRecord
100
AcDbBlockTableRecord
  2
_D_3
340
0
 70
     0
280
     1
281
     0
  0
BLOCK_RECORD
  5
CE
330
1
100
AcDbSymbolTableRecord
100
AcDbBlockTableRecord
  2
_D_4
340
0
 70
     0
280
     1
281
     0
  0
ENDTAB
  0
ENDSEC
  0
SECTION
  2
BLOCKS
  0
BLOCK
  5
20
330
1F
100
AcDbEntity
  8
0
100
AcDbBlockBegin
  2
*Model_Space
 70
     0
 10
0.0
 20
0.0
 30
0.0
  3
*Model_Space
  1

  0
ENDBLK
  5
21
330
1F
100
AcDbEntity
  8
0
100
AcDbBlockEnd
  0
BLOCK
  5
1C
330
1B
100
AcDbEntity
 67
     1
  8
0
100
AcDbBlockBegin
  2
*Paper_Space
 70
     0
 10
0.0
 20
0.0
 30
0.0
  3
*Paper_Space
  1

  0
ENDBLK
  5
1D
330
1B
100
AcDbEntity
 67
     1
  8
0
100
AcDbBlockEnd
  0
BLOCK
  5
24
330
23
100
AcDbEntity
  8
0
100
AcDbBlockBegin
  2
*Paper_Space0
 70
     0
 10
0.0
 20
0.0
 30
0.0
  3
*Paper_Space0
  1

  0
ENDBLK
  5
25
330
23
100
AcDbEntity
  8
0
100
AcDbBlockEnd
  0
BLOCK
  5
7F
330
7E
100
AcDbEntity
  8
0
100
AcDbBlockBegin
  2
_D
 70
     0
 10
0.0
 20
0.0
 30
0.0
  3
_D
  1

  0
SOLID
  5
81
330
7E
100
AcDbEntity
  8
2
 62
     7
420
 16777215
100
AcDbTrace
 10
14.9981221453
 20
-33.9401637776
 30
0.0
 11
11.6961221453
 21
-33.4321637776
 31
0.0
 12
11.6961221453
 22
-34.4481637776
 32
0.0
 13
11.6961221453
 23
-34.4481637776
 33
0.0
  0
SOLID
  5
82
330
7E
100
AcDbEntity
  8
2
 62
     7
420
 16777215
100
AcDbTrace
 10
39.4981221453
 20
-33.9401637776
 30
0.0
 11
42.8001221453
 21
-34.4481637776
 31
0.0
 12
42.8001221453
 22
-33.4321637776
 32
0.0
 13
42.8001221453
 23
-33.4321637776
 33
0.0
  0
LINE
  5
83
330
7E
100
AcDbEntity
  8
2
 62
     7
420
 16777215
100
AcDbLine
 10
14.9981221453
 20
-24.9001637776
 30
0.0
 11
14.9981221453
 21
-34.9401637776
 31
0.0
  0
LINE
  5
84
330
7E
100
AcDbEntity
  8
2
 62
     7
420
 16777215
100
AcDbLine
 10
39.4981221453
 20
-3.0001637776
 30
0.0
 11
39.4981221453
 21
-34.9401637776
 31
0.0
  0
LINE
  5
85
330
7E
100
AcDbEntity
  8
2
 62
     7
420
 16777215
100
AcDbLine
 10
14.9981221453
 20
-33.9401637776
 30
0.0
 11
8.6481221453
 21
-33.9401637776
 31
0.0
  0
LINE
  5
86
330
7E
100
AcDbEntity
  8
2
 62
     7
420
 16777215
100
AcDbLine
 10
14.9981221453
 20
-33.9401637776
 30
0.0
 11
39.4981221453
 21
-33.9401637776
 31
0.0
  0
LINE
  5
87
330
7E
100
AcDbEntity
  8
2
 62
     7
420
 16777215
100
AcDbLine
 10
39.4981221453
 20
-33.9401637776
 30
0.0
 11
45.8481221453
 21
-33.9401637776
 31
0.0
  0
MTEXT
  5
88
330
7E
100
AcDbEntity
  8
2
 62
     7
420
 16777215
100
AcDbMText
 10
20.007497047
 20
-29.428426863
 30
-5.4997908101
 40
3.5
 41
0.0
 46
0.0
 71
     1
 72
     1
  1
24,50
  7
SLDTEXTSTYLE0
 73
     1
 44
1.0
  0
ENDBLK
  5
80
330
7E
100
AcDbEntity
  8
0
100
AcDbBlockEnd
  0
BLOCK
  5
8C
330
8B
100
AcDbEntity
  8
0
100
AcDbBlockBegin
  2
_D_1
 70
     0
 10
0.0
 20
0.0
 30
0.0
  3
_D_1
  1

  0
SOLID
  5
8E
330
8B
100
AcDbEntity
  8
2
 62
     7
420
 16777215
100
AcDbTrace
 10
-7.5018778547
 20
-45.9401637776
 30
0.0
 11
-4.1998778547
 21
-46.4481637776
 31
0.0
 12
-4.1998778547
 22
-45.4321637776
 32
0.0
 13
-4.1998778547
 23
-45.4321637776
 33
0.0
  0
SOLID
  5
8F
330
8B
100
AcDbEntity
  8
2
 62
     7
420
 16777215
100
AcDbTrace
 10
39.4981221453
 20
-45.9401637776
 30
0.0
 11
36.1961221453
 21
-45.4321637776
 31
0.0
 12
36.1961221453
 22
-46.4481637776
 32
0.0
 13
36.1961221453
 23
-46.4481637776
 33
0.0
  0
LINE
  5
90
330
8B
100
AcDbEntity
  8
2
 62
     7
420
 16777215
100
AcDbLine
 10
-7.5018778547
 20
-1.0001637776
 30
0.0
 11
-7.5018778547
 21
-46.9401637776
 31
0.0
  0
LINE
  5
91
330
8B
100
AcDbEntity
  8
2
 62
     7
420
 16777215
100
AcDbLine
 10
39.4981221453
 20
-1.0001637776
 30
0.0
 11
39.4981221453
 21
-46.9401637776
 31
0.0
  0
LINE
  5
92
330
8B
100
AcDbEntity
  8
2
 62
     7
420
 16777215
100
AcDbLine
 10
-7.5018778547
 20
-45.9401637776
 30
0.0
 11
39.4981221453
 21
-45.9401637776
 31
0.0
  0
MTEXT
  5
93
330
8B
100
AcDbEntity
  8
2
 62
     7
420
 16777215
100
AcDbMText
 10
11.9901358642
 20
-41.428426863
 30
-5.4997908101
 40
3.5
 41
0.0
 46
0.0
 71
     1
 72
     1
  1
47
  7
SLDTEXTSTYLE0
 73
     1
 44
1.0
  0
ENDBLK
  5
8D
330
8B
100
AcDbEntity
  8
0
100
AcDbBlockEnd
  0
BLOCK
  5
96
330
95
100
AcDbEntity
  8
0
100
AcDbBlockBegin
  2
_D_2
 70
     0
 10
0.0
 20
0.0
 30
0.0
  3
_D_2
  1

  0
SOLID
  5
98
330
95
100
AcDbEntity
  8
2
 62
     7
420
 16777215
100
AcDbTrace
 10
48.4606604722
 20
15.7098362224
 30
0.0
 11
47.9526604722
 21
12.4078362224
 31
0.0
 12
48.9686604722
 22
12.4078362224
 32
0.0
 13
48.9686604722
 23
12.4078362224
 33
0.0
  0
SOLID
  5
99
330
95
100
AcDbEntity
  8
2
 62
     7
420
 16777215
100
AcDbTrace
 10
48.4606604722
 20
-23.9001637776
 30
0.0
 11
48.9686604722
 21
-20.5981637776
 31
0.0
 12
47.9526604722
 22
-20.5981637776
 32
0.0
 13
47.9526604722
 23
-20.5981637776
 33
0.0
  0
LINE
  5
9A
330
95
100
AcDbEntity
  8
2
 62
     7
420
 16777215
100
AcDbLine
 10
11.6958077148
 20
15.7098362224
 30
0.0
 11
49.4606604722
 21
15.7098362224
 31
0.0
  0
LINE
  5
9B
330
95
100
AcDbEntity
  8
2
 62
     7
420
 16777215
100
AcDbLine
 10
39.5281221453
 20
-23.9001637776
 30
0.0
 11
49.4606604722
 21
-23.9001637776
 31
0.0
  0
LINE
  5
9C
330
95
100
AcDbEntity
  8
2
 62
     7
420
 16777215
100
AcDbLine
 10
48.4606604722
 20
15.7098362224
 30
0.0
 11
48.4606604722
 21
-23.9001637776
 31
0.0
  0
MTEXT
  5
9D
330
95
100
AcDbEntity
  8
2
 62
     7
420
 16777215
100
AcDbMText
 10
43.9489235576
 20
-11.3357888759
 30
-5.4997908101
 40
3.5
 41
0.0
 46
0.0
 71
     1
 72
     1
  1
39,61
  7
SLDTEXTSTYLE0
 11
-7.044195017643634E-15
 21
1.0
 31
0.0
 73
     1
 44
1.0
  0
ENDBLK
  5
97
330
95
100
AcDbEntity
  8
0
100
AcDbBlockEnd
  0
BLOCK
  5
C3
330
C2
100
AcDbEntity
  8
0
100
AcDbBlockBegin
  2
_D_3
 70
     0
 10
0.0
 20
0.0
 30
0.0
  3
_D_3
  1

  0
SOLID
  5
C5
330
C2
100
AcDbEntity
  8
2
 62
     7
420
 16777215
100
AcDbTrace
 10
-17.1027100396
 20
-61.2422238542
 30
0.0
 11
-16.5947100396
 21
-57.9402238542
 31
0.0
 12
-17.6107100396
 22
-57.9402238542
 32
0.0
 13
-17.6107100396
 23
-57.9402238542
 33
0.0
  0
SOLID
  5
C6
330
C2
100
AcDbEntity
  8
2
 62
     7
420
 16777215
100
AcDbTrace
 10
-17.1027100396
 20
-67.1422238542
 30
0.0
 11
-17.6107100396
 21
-70.4442238542
 31
0.0
 12
-16.5947100396
 22
-70.4442238542
 32
0.0
 13
-16.5947100396
 23
-70.4442238542
 33
0.0
  0
LINE
  5
C7
330
C2
100
AcDbEntity
  8
2
 62
     7
420
 16777215
100
AcDbLine
 10
-8.1027100396
 20
-61.2422238542
 30
0.0
 11
-18.1027100396
 21
-61.2422238542
 31
0.0
  0
LINE
  5
C8
330
C2
100
AcDbEntity
  8
2
 62
     7
420
 16777215
100
AcDbLine
 10
-8.1027100396
 20
-67.1422238542
 30
0.0
 11
-18.1027100396
 21
-67.1422238542
 31
0.0
  0
LINE
  5
C9
330
C2
100
AcDbEntity
  8
2
 62
     7
420
 16777215
100
AcDbLine
 10
-17.1027100396
 20
-61.2422238542
 30
0.0
 11
-17.1027100396
 21
-54.8922238542
 31
0.0
  0
LINE
  5
CA
330
C2
100
AcDbEntity
  8
2
 62
     7
420
 16777215
100
AcDbLine
 10
-17.1027100396
 20
-61.2422238542
 30
0.0
 11
-17.1027100396
 21
-67.1422238542
 31
0.0
  0
LINE
  5
CB
330
C2
100
AcDbEntity
  8
2
 62
     7
420
 16777215
100
AcDbLine
 10
-17.1027100396
 20
-67.1422238542
 30
0.0
 11
-17.1027100396
 21
-85.258543483
 31
0.0
  0
MTEXT
  5
CC
330
C2
100
AcDbEntity
  8
2
 62
     7
420
 16777215
100
AcDbMText
 10
-21.6144469542
 20
-85.258543483
 30
1.1735079227
 40
3.5
 41
0.0
 46
0.0
 71
     1
 72
     1
  1
5,90
  7
SLDTEXTSTYLE0
 11
-7.044195017643634E-15
 21
1.0
 31
0.0
 73
     1
 44
1.0
  0
ENDBLK
  5
C4
330
C2
100
AcDbEntity
  8
0
100
AcDbBlockEnd
  0
BLOCK
  5
CF
330
CE
100
AcDbEntity
  8
0
100
AcDbBlockBegin
  2
_D_4
 70
     0
 10
0.0
 20
0.0
 30
0.0
  3
_D_4
  1

  0
SOLID
  5
D1
330
CE
100
AcDbEntity
  8
2
 62
     7
420
 16777215
100
AcDbTrace
 10
48.8598282872
 20
-61.2422238542
 30
0.0
 11
49.3678282872
 21
-57.9402238542
 31
0.0
 12
48.3518282872
 22
-57.9402238542
 32
0.0
 13
48.3518282872
 23
-57.9402238542
 33
0.0
  0
SOLID
  5
D2
330
CE
100
AcDbEntity
  8
2
 62
     7
420
 16777215
100
AcDbTrace
 10
48.8598282872
 20
-65.4422238542
 30
0.0
 11
48.3518282872
 21
-68.7442238542
 31
0.0
 12
49.3678282872
 22
-68.7442238542
 32
0.0
 13
49.3678282872
 23
-68.7442238542
 33
0.0
  0
LINE
  5
D3
330
CE
100
AcDbEntity
  8
2
 62
     7
420
 16777215
100
AcDbLine
 10
39.6441484845
 20
-61.2422238542
 30
0.0
 11
49.8598282872
 21
-61.2422238542
 31
0.0
  0
LINE
  5
D4
330
CE
100
AcDbEntity
  8
2
 62
     7
420
 16777215
100
AcDbLine
 10
39.6441484845
 20
-65.4422238542
 30
0.0
 11
49.8598282872
 21
-65.4422238542
 31
0.0
  0
LINE
  5
D5
330
CE
100
AcDbEntity
  8
2
 62
     7
420
 16777215
100
AcDbLine
 10
48.8598282872
 20
-61.2422238542
 30
0.0
 11
48.8598282872
 21
-43.1259042253
 31
0.0
  0
LINE
  5
D6
330
CE
100
AcDbEntity
  8
2
 62
     7
420
 16777215
100
AcDbLine
 10
48.8598282872
 20
-61.2422238542
 30
0.0
 11
48.8598282872
 21
-65.4422238542
 31
0.0
  0
LINE
  5
D7
330
CE
100
AcDbEntity
  8
2
 62
     7
420
 16777215
100
AcDbLine
 10
48.8598282872
 20
-65.4422238542
 30
0.0
 11
48.8598282872
 21
-71.7922238542
 31
0.0
  0
MTEXT
  5
D8
330
CE
100
AcDbEntity
  8
2
 62
     7
420
 16777215
100
AcDbMText
 10
44.3480913727
 20
-55.0210429957
 30
1.1735079227
 40
3.5
 41
0.0
 46
0.0
 71
     1
 72
     1
  1
4,20
  7
SLDTEXTSTYLE0
 11
-6.156016597943509E-15
 21
1.0
 31
0.0
 73
     1
 44
1.0
  0
ENDBLK
  5
D0
330
CE
100
AcDbEntity
  8
0
100
AcDbBlockEnd
  0
ENDSEC
  0
SECTION
  2
ENTITIES
  0
LINE
  5
48
330
1F
100
AcDbEntity
  8
0
  6
SLD-Punktstrich
 62
     7
100
AcDbLine
 10
-7.5018778547
 20
-0.0001637776
 30
0.0
 11
39.4981221453
 21
-0.0001637776
 31
0.0
  0
LINE
  5
49
330
1F
100
AcDbEntity
  8
0
  6
SLD-Durchgehend
 62
     7
100
AcDbLine
 10
38.5281221453
 20
-23.9001637776
 30
0.0
 11
14.9981221453
 21
-23.9001637776
 31
0.0
  0
LINE
  5
4A
330
1F
100
AcDbEntity
  8
0
  6
SLD-Durchgehend
 62
     7
100
AcDbLine
 10
5.4981221453
 20
15.7098362224
 30
0.0
 11
10.6958077148
 21
15.7098362224
 31
0.0
  0
POINT
  5
4B
330
1F
100
AcDbEntity
  8
1
 62
     4
420
    65535
100
AcDbPoint
 10
-7.5018778547
 20
-0.0001637776
 30
0.0
  0
POINT
  5
4C
330
1F
100
AcDbEntity
  8
1
 62
     4
420
    65535
100
AcDbPoint
 10
39.4981221453
 20
-0.0001637776
 30
0.0
  0
POINT
  5
4D
330
1F
100
AcDbEntity
  8
1
 62
     4
420
    65535
100
AcDbPoint
 10
39.4981221453
 20
-0.0001637776
 30
0.0
  0
POINT
  5
4E
330
1F
100
AcDbEntity
  8
1
 62
     4
420
    65535
100
AcDbPoint
 10
38.5281221453
 20
-0.0001637776
 30
0.0
  0
POINT
  5
4F
330
1F
100
AcDbEntity
  8
1
 62
     4
420
    65535
100
AcDbPoint
 10
39.4981221453
 20
-2.0001637776
 30
0.0
  0
POINT
  5
50
330
1F
100
AcDbEntity
  8
1
 62
     4
420
    65535
100
AcDbPoint
 10
38.5281221453
 20
-23.9001637776
 30
0.0
  0
POINT
  5
51
330
1F
100
AcDbEntity
  8
1
 62
     4
420
    65535
100
AcDbPoint
 10
14.9981221453
 20
-23.9001637776
 30
0.0
  0
POINT
  5
52
330
1F
100
AcDbEntity
  8
1
 62
     4
420
    65535
100
AcDbPoint
 10
5.4981221453
 20
15.7098362224
 30
0.0
  0
POINT
  5
53
330
1F
100
AcDbEntity
  8
1
 62
     4
420
    65535
100
AcDbPoint
 10
10.6958077148
 20
15.7098362224
 30
0.0
  0
LINE
  5
54
330
1F
100
AcDbEntity
  8
1
 62
     4
420
    65535
100
AcDbLine
 10
24.0557917582
 20
-4.9244904018
 30
0.0
 11
35.5825780166
 21
-2.6839101255
 31
0.0
  0
LINE
  5
55
330
1F
100
AcDbEntity
  8
1
 62
     4
420
    65535
100
AcDbLine
 10
38.4393476884
 20
-6.2053862896
 30
0.0
 11
26.0205290332
 21
-8.619360099
 31
0.0
  0
LINE
  5
56
330
1F
100
AcDbEntity
  8
1
 62
     4
420
    65535
100
AcDbLine
 10
26.7174629405
 20
-9.1807562285
 30
0.0
 11
26.2379127159
 21
-8.9672467125
 31
0.0
  0
LINE
  5
57
330
1F
100
AcDbEntity
  8
1
 62
     4
420
    65535
100
AcDbLine
 10
28.0191277958
 20
-8.9277382116
 30
0.0
 11
26.7174629405
 21
-9.1807562285
 31
0.0
  0
ARC
  5
58
330
1F
100
AcDbEntity
  8
1
 62
     4
420
    65535
100
AcDbCircle
 10
3.9981221453
 20
-2.0001637776
 30
0.0
 40
25.00000000000001
100
AcDbArc
 50
298.8364528857
 51
343.9126228307
  0
LINE
  5
59
330
1F
100
AcDbEntity
  8
1
 62
     4
420
    65535
100
AcDbLine
 10
-1.6653995873
 20
-17.5001637776
 30
0.0
 11
14.9981221453
 21
-17.5001637776
 31
0.0
  0
ARC
  5
5A
330
1F
100
AcDbEntity
  8
1
 62
     4
420
    65535
100
AcDbCircle
 10
15.9981221453
 20
-2.0001637776
 30
0.0
 40
23.5
100
AcDbArc
 50
158.0377752274
 51
221.267427381
  0
LINE
  5
5B
330
1F
100
AcDbEntity
  8
1
 62
     4
420
    65535
100
AcDbLine
 10
5.4981221453
 20
7.9758362224
 30
0.0
 11
-5.7964977054
 21
6.7887238404
 31
0.0
  0
LINE
  5
5C
330
1F
100
AcDbEntity
  8
1
 62
     4
420
    65535
100
AcDbLine
 10
5.4981221453
 20
15.7098362224
 30
0.0
 11
5.4981221453
 21
7.9758362224
 31
0.0
  0
LINE
  5
5D
330
1F
100
AcDbEntity
  8
1
 62
     4
420
    65535
100
AcDbLine
 10
10.6958077148
 20
15.7098362224
 30
0.0
 11
5.4981221453
 21
15.7098362224
 31
0.0
  0
ARC
  5
5E
330
1F
100
AcDbEntity
  8
1
 62
     4
420
    65535
100
AcDbCircle
 10
3.9981221453
 20
-2.0001637776
 30
0.0
 40
25.00000000000001
100
AcDbArc
 50
357.0810683322
 51
4.8010073259
  0
LINE
  5
5F
330
1F
100
AcDbEntity
  8
1
 62
     4
420
    65535
100
AcDbLine
 10
26.4313190909
 20
-3.7658683065
 30
0.0
 11
28.9656867891
 21
-3.2732371299
 31
0.0
  0
CIRCLE
  5
60
330
1F
100
AcDbEntity
  8
1
 62
     4
420
    65535
100
AcDbCircle
 10
-0.0018778547
 20
-0.0001637776
 30
0.0
 40
2.5
  0
CIRCLE
  5
61
330
1F
100
AcDbEntity
  8
1
 62
     4
420
    65535
100
AcDbCircle
 10
12.4981221453
 20
-0.5001637776
 30
0.0
 40
2.5
  0
LINE
  5
62
330
1F
100
AcDbEntity
  8
1
 62
     4
420
    65535
100
AcDbLine
 10
14.9981221453
 20
-23.9001637776
 30
0.0
 11
16.0558997183
 21
-23.9001637776
 31
0.0
  0
ARC
  5
63
330
1F
100
AcDbEntity
  8
1
 62
     4
420
    65535
100
AcDbCircle
 10
51.3981221453
 20
44.7498362224
 30
0.0
 40
50.00000000000001
100
AcDbArc
 50
215.5068300683
 51
243.2720784259
  0
LINE
  5
64
330
1F
100
AcDbEntity
  8
1
 62
     4
420
    65535
100
AcDbLine
 10
23.7920872101
 20
-5.0531077036
 30
0.0
 11
26.4313190909
 21
-3.7658683065
 31
0.0
  0
LINE
  5
65
330
1F
100
AcDbEntity
  8
1
 62
     4
420
    65535
100
AcDbLine
 10
14.9981221453
 20
-17.5001637776
 30
0.0
 11
14.9981221453
 21
-23.9001637776
 31
0.0
  0
LINE
  5
66
330
1F
100
AcDbEntity
  8
1
 62
     4
420
    65535
100
AcDbLine
 10
26.2379127159
 20
-8.9672467125
 30
0.0
 11
23.7920872101
 21
-5.0531077036
 31
0.0
  0
CIRCLE
  5
67
330
1F
100
AcDbEntity
  8
1
 62
     4
420
    65535
100
AcDbCircle
 10
14.7481221453
 20
-11.5001637776
 30
0.0
 40
2.5
  0
SPLINE
  5
68
330
1F
100
AcDbEntity
  8
1
 62
     4
420
    65535
100
AcDbSpline
210
0.0
220
0.0
230
1.0
 70
     8
 71
     3
 72
     8
 73
     4
 74
     0
 42
0.00000001
 43
0.00000001
 12
1.0
 22
0.0
 32
0.0
 13
1.0
 23
0.0
 33
0.0
 40
0.0
 40
0.0
 40
0.0
 40
0.0
 40
1.0
 40
1.0
 40
1.0
 40
1.0
 10
17.71809476343839
 20
-23.8497027053697
 30
0.0
 10
17.4864852344049
 20
-23.87008368294376
 30
0.0
 10
17.25650863701802
 20
-23.88685327679513
 30
0.0
 10
17.02866948123066
 20
-23.90016377756166
 30
0.0
  0
ARC
  5
69
330
1F
100
AcDbEntity
  8
1
 62
     4
420
    65535
100
AcDbCircle
 10
3.9981221453
 20
-2.0001637776
 30
0.0
 40
25.80000000000001
100
AcDbArc
 50
302.12592882
 51
344.8176499511
  0
SPLINE
  5
6A
330
1F
100
AcDbEntity
  8
1
 62
     4
420
    65535
100
AcDbSpline
210
0.0
220
0.0
230
1.0
 70
    24
 71
     3
 72
    12
 73
     8
 74
     0
 42
0.00000001
 43
0.00000001
 12
1.0
 22
0.0
 32
0.0
 13
1.0
 23
0.0
 33
0.0
 40
0.0
 40
0.0
 40
0.0
 40
0.0
 40
0.5
 40
0.5
 40
0.75
 40
0.75
 40
1.0
 40
1.0
 40
1.0
 40
1.0
 10
28.89763031803311
 20
-8.756974619703096
 30
0.0
 10
28.67915529152375
 20
-8.79944186289486
 30
0.0
 10
28.46132821548049
 20
-8.841783157274705
 30
0.0
 10
28.21124507827082
 20
-8.890394394795656
 30
0.0
 10
28.14181905269532
 20
-8.903889447109224
 30
0.0
 10
28.04546730432641
 20
-8.922618329743138
 30
0.0
 10
28.01912779581372
 20
-8.927738211550368
 30
0.0
 10
28.01912779581372
 20
-8.927738211550366
 30
0.0
  0
SPLINE
  5
6B
330
1F
100
AcDbEntity
  8
1
 62
     4
420
    65535
100
AcDbSpline
210
0.0
220
0.0
230
1.0
 70
    24
 71
     3
 72
    12
 73
     8
 74
     0
 42
0.00000001
 43
0.00000001
 12
1.0
 22
0.0
 32
0.0
 13
1.0
 23
0.0
 33
0.0
 40
0.0
 40
0.0
 40
0.0
 40
0.0
 40
0.4999999999999967
 40
0.4999999999999967
 40
0.7499999999999983
 40
0.7499999999999983
 40
1.0
 40
1.0
 40
1.0
 40
1.0
 10
17.02866948123066
 20
-23.90016377756166
 30
0.0
 10
16.81636985093874
 20
-23.90016377756166
 30
0.0
 10
16.61087700713
 20
-23.90016377756165
 30
0.0
 10
16.33136390138125
 20
-23.90016377756167
 30
0.0
 10
16.24366331369262
 20
-23.90016377756166
 30
0.0
 10
16.1060020737134
 20
-23.90016377756166
 30
0.0
 10
16.05589971831208
 20
-23.90016377756167
 30
0.0
 10
16.05589971831208
 20
-23.90016377756166
 30
0.0
  0
ARC
  5
6C
330
1F
100
AcDbEntity
  8
1
 62
     4
420
    65535
100
AcDbCircle
 10
3.9981221453
 20
-2.0001637776
 30
0.0
 40
25.80000000000001
100
AcDbArc
 50
357.5209445725
 51
3.7394776055
  0
SPLINE
  5
6D
330
1F
100
AcDbEntity
  8
1
 62
     4
420
    65535
100
AcDbSpline
210
0.0
220
0.0
230
1.0
 70
    24
 71
     3
 72
    14
 73
    10
 74
     0
 42
0.00000001
 43
0.00000001
 12
1.0
 22
0.0
 32
0.0
 13
1.0
 23
0.0
 33
0.0
 40
0.0
 40
0.0
 40
0.0
 40
0.0
 40
0.25
 40
0.25
 40
0.5
 40
0.5
 40
0.75
 40
0.75
 40
1.0
 40
1.0
 40
1.0
 40
1.0
 10
28.96568678905339
 20
-3.273237129917846
 30
0.0
 10
28.96568678905338
 20
-3.273237129917846
 30
0.0
 10
28.98758324202748
 20
-3.268980890619723
 30
0.0
 10
29.07015331703984
 20
-3.252930893913292
 30
0.0
 10
29.13152921746826
 20
-3.241000627414413
 30
0.0
 10
29.28170416688686
 20
-3.211809574321685
 30
0.0
 10
29.37148623706448
 20
-3.194357707765534
 30
0.0
 10
29.56543357470515
 20
-3.156658164318503
 30
0.0
 10
29.66918623034713
 20
-3.136490691040955
 30
0.0
 10
29.77397592465173
 20
-3.11612163786758
 30
0.0
  0
SPLINE
  5
6E
330
1F
100
AcDbEntity
  8
1
 62
     4
420
    65535
100
AcDbSpline
210
0.0
220
0.0
230
1.0
 70
     8
 71
     3
 72
    14
 73
    10
 74
     0
 42
0.00000001
 43
0.00000001
 12
1.0
 22
0.0
 32
0.0
 13
1.0
 23
0.0
 33
0.0
 40
0.0
 40
0.0
 40
0.0
 40
0.0
 40
0.25
 40
0.25
 40
0.5
 40
0.5
 40
0.75
 40
0.75
 40
1.0
 40
1.0
 40
1.0
 40
1.0
 10
28.91040684387174
 20
0.092220292773284
 30
0.0
 10
28.91040684387173
 20
0.092220292773284
 30
0.0
 10
28.93652701666545
 20
0.0790462167204369
 30
0.0
 10
29.03003023243355
 20
0.0321529233763579
 30
0.0
 10
29.09734920866532
 20
-0.0015139675665789
 30
0.0
 10
29.25575770875558
 20
-0.0801037123758367
 30
0.0
 10
29.34632747157484
 20
-0.1247668093288549
 30
0.0
 10
29.54023725916822
 20
-0.219536842965172
 30
0.0
 10
29.64048997513637
 20
-0.268142689140545
 30
0.0
 10
29.74319182257874
 20
-0.3174911080975629
 30
0.0
  0
LINE
  5
6F
330
1F
100
AcDbEntity
  8
1
 62
     4
420
    65535
100
AcDbLine
 10
38.2449806695
 20
-6.927368261
 30
0.0
 11
28.9116538978
 21
-8.7415832041
 31
0.0
  0
LINE
  5
70
330
1F
100
AcDbEntity
  8
1
 62
     4
420
    65535
100
AcDbLine
 10
28.0003596333
 20
-8.918720865
 30
0.0
 11
26.6976609866
 21
-9.1719398306
 31
0.0
  0
ARC
  5
71
330
1F
100
AcDbEntity
  8
1
 62
     4
420
    65535
100
AcDbCircle
 10
15.6581221453
 20
-0.4401637776
 30
0.0
 40
23.5
100
AcDbArc
 50
275.0289113242
 51
343.9753281347
  0
LINE
  5
72
330
1F
100
AcDbEntity
  8
1
 62
     4
420
    65535
100
AcDbLine
 10
26.388144012
 20
-3.7869261995
 30
0.0
 11
28.9516632093
 21
-3.2886285455
 31
0.0
  0
LINE
  5
73
330
1F
100
AcDbEntity
  8
1
 62
     4
420
    65535
100
AcDbLine
 10
29.7927440872
 20
-3.1251389844
 30
0.0
 11
34.3236066113
 21
-2.2444285263
 31
0.0
  0
ARC
  5
74
330
1F
100
AcDbEntity
  8
1
 62
     4
420
    65535
100
AcDbCircle
 10
51.3981221453
 20
44.7498362224
 30
0.0
 40
50.00000000000001
100
AcDbArc
 50
244.3356331675
 51
250.0323021178
  0
LINE
  5
75
330
1F
100
AcDbEntity
  8
1
 62
     4
420
    65535
100
AcDbLine
 10
26.0328989396
 20
-8.6391560874
 30
0.0
 11
38.4340713691
 21
-6.2286123569
 31
0.0
  0
ARC
  5
76
330
1F
100
AcDbEntity
  8
1
 62
     4
420
    65535
100
AcDbCircle
 10
15.6581221453
 20
-0.4401637776
 30
0.0
 40
23.5
100
AcDbArc
 50
343.9753281347
 51
345.7403246226
  0
LINE
  5
77
330
1F
100
AcDbEntity
  8
1
 62
     4
420
    65535
100
AcDbLine
 10
24.1314702383
 20
-4.8875795408
 30
0.0
 11
35.5423844568
 21
-2.6695225074
 31
0.0
  0
ARC
  5
78
330
1F
100
AcDbEntity
  8
1
 62
     4
420
    65535
100
AcDbCircle
 10
51.3981221453
 20
44.7498362224
 30
0.0
 40
50.0
100
AcDbArc
 50
250.0323021178
 51
251.5114731452
  0
SPLINE
  5
79
330
1F
100
AcDbEntity
  8
1
 62
     4
420
    65535
100
AcDbSpline
210
0.0
220
0.0
230
1.0
 70
     8
 71
     3
 72
    10
 73
     6
 74
     0
 42
0.00000001
 43
0.00000001
 12
1.0
 22
0.0
 32
0.0
 13
1.0
 23
0.0
 33
0.0
 40
0.0
 40
0.0
 40
0.0
 40
0.0
 40
0.0969680678935799
 40
0.5857590556435469
 40
0.9999999999999999
 40
0.9999999999999999
 40
0.9999999999999999
 40
0.9999999999999999
 10
35.58237701094261
 20
-2.682876041002948
 30
0.0
 10
35.58302390955927
 20
-2.683091763309413
 30
0.0
 10
35.58693165703765
 20
-2.684394886051369
 30
0.0
 10
35.57205636906883
 20
-2.679437602666685
 30
0.0
 10
35.55171534119136
 20
-2.672640493450304
 30
0.0
 10
35.54238445675909
 20
-2.669522507429456
 30
0.0
  0
SPLINE
  5
7A
330
1F
100
AcDbEntity
  8
1
 62
     4
420
    65535
100
AcDbSpline
210
0.0
220
0.0
230
1.0
 70
     8
 71
     3
 72
     9
 73
     5
 74
     0
 42
0.00000001
 43
0.00000001
 12
1.0
 22
0.0
 32
0.0
 13
1.0
 23
0.0
 33
0.0
 40
0.0
 40
0.0
 40
0.0
 40
0.0
 40
0.8494942293371505
 40
1.0
 40
1.0
 40
1.0
 40
1.0
 10
38.43961415866426
 20
-6.206757160226499
 30
0.0
 10
38.43905270738452
 20
-6.208983292376734
 30
0.0
 10
38.43839178320123
 20
-6.211603830660996
 30
0.0
 10
38.43463655292985
 20
-6.22638735163934
 30
0.0
 10
38.43407136910385
 20
-6.228612356857296
 30
0.0
  0
DIMENSION
  5
7B
330
1F
100
AcDbEntity
  8
2
 62
     7
420
 16777215
100
AcDbDimension
  2
_D
 10
39.4981221453
 20
-33.9401637776
 30
0.0
 11
27.2481221453
 21
-33.9401637776
 31
0.0
 70
   160
  1
<>
 71
     2
 42
-1.0
 73
     0
 74
     0
 75
     0
  3
SLDDIMSTYLE0
100
AcDbAlignedDimension
 13
14.9981221453
 23
-23.9001637776
 33
0.0
 14
39.4981221453
 24
-2.0001637776
 34
0.0
 50
0.0
100
AcDbRotatedDimension
  0
DIMENSION
  5
89
330
1F
100
AcDbEntity
  8
2
 62
     7
420
 16777215
100
AcDbDimension
  2
_D_1
 10
39.4981221453
 20
-45.9401637776
 30
0.0
 11
15.9981221453
 21
-45.9401637776
 31
0.0
 70
   160
  1
<>
 71
     2
 42
-1.0
 73
     0
 74
     0
 75
     0
  3
SLDDIMSTYLE1
100
AcDbAlignedDimension
 13
-7.5018778547
 23
-0.0001637776
 33
0.0
 14
39.4981221453
 24
-0.0001637776
 34
0.0
100
AcDbRotatedDimension
  0
DIMENSION
  5
94
330
1F
100
AcDbEntity
  8
2
 62
     7
420
 16777215
100
AcDbDimension
  2
_D_2
 10
48.4606604722
 20
-23.9001637776
 30
0.0
 11
48.4606604722
 21
-4.0951637776
 31
0.0
 70
   160
  1
<>
 71
     2
 42
-1.0
 73
     0
 74
     0
 75
     0
  3
SLDDIMSTYLE1
100
AcDbAlignedDimension
 13
10.6958077148
 23
15.7098362224
 33
0.0
 14
38.5281221453
 24
-23.9001637776
 34
0.0
 50
90.0
100
AcDbRotatedDimension
  0
LINE
  5
9E
330
1F
100
AcDbEntity
  8
1
 62
     4
420
    65535
100
AcDbLine
 10
-7.1027100396
 20
-61.2422238542
 30
0.0
 11
-7.1027100396
 21
-67.1422238542
 31
0.0
  0
ARC
  5
9F
330
1F
100
AcDbEntity
  8
1
 62
     4
420
    65535
100
AcDbCircle
 10
30.1972899604
 20
-66.2422238542
 30
0.0
 40
0.7999999999999972
100
AcDbArc
 50
90.0
 51
180.0
  0
LINE
  5
A0
330
1F
100
AcDbEntity
  8
1
 62
     4
420
    65535
100
AcDbLine
 10
29.3972899604
 20
-67.1422238542
 30
0.0
 11
29.3972899604
 21
-66.2422238542
 31
0.0
  0
LINE
  5
A1
330
1F
100
AcDbEntity
  8
1
 62
     4
420
    65535
100
AcDbLine
 10
34.7227744264
 20
-65.4422238542
 30
0.0
 11
30.1423596377
 21
-65.4422238542
 31
0.0
  0
SPLINE
  5
A2
330
1F
100
AcDbEntity
  8
1
 62
     4
420
    65535
100
AcDbSpline
210
0.0
220
0.0
230
1.0
 70
     8
 71
     3
 72
    14
 73
    10
 74
     0
 42
0.00000001
 43
0.00000001
 12
1.0
 22
0.0
 32
0.0
 13
1.0
 23
0.0
 33
0.0
 40
0.0
 40
0.0
 40
0.0
 40
0.0
 40
0.25
 40
0.25
 40
0.5
 40
0.5
 40
0.75
 40
0.75
 40
1.0
 40
1.0
 40
1.0
 40
1.0
 10
29.30957465894316
 20
-66.24222385415138
 30
0.0
 10
29.30957465894315
 20
-66.12787867764767
 30
0.0
 10
29.33569483173687
 20
-66.01586837567842
 30
0.0
 10
29.42919804750496
 20
-65.81590090322533
 30
0.0
 10
29.49651702373675
 20
-65.72775565277202
 30
0.0
 10
29.654925523827
 20
-65.58624227232403
 30
0.0
 10
29.74549528664626
 20
-65.53253688184284
 30
0.0
 10
29.93940507423964
 20
-65.46016272912266
 30
0.0
 10
30.03965779020778
 20
-65.44222385415138
 30
0.0
 10
30.14235963765016
 20
-65.44222385415138
 30
0.0
  0
LINE
  5
A3
330
1F
100
AcDbEntity
  8
1
 62
     4
420
    65535
100
AcDbLine
 10
29.3095746589
 20
-66.2422238542
 30
0.0
 11
29.3095746589
 21
-67.1422238542
 31
0.0
  0
LINE
  5
A4
330
1F
100
AcDbEntity
  8
1
 62
     4
420
    65535
100
AcDbLine
 10
29.3095746589
 20
-67.1422238542
 30
0.0
 11
11.0949755299
 21
-67.1422238542
 31
0.0
  0
ELLIPSE
  5
A5
330
1F
100
AcDbEntity
  8
1
 62
     4
420
    65535
100
AcDbEllipse
 10
51.7972899604
 20
-175.520979306
 30
0.0
 11
0.0
 21
186.6025403784486
 31
0.0
210
0.0
220
0.0
230
1.0
 40
0.2679491924
 41
0.911680648935327
 42
0.9510852351567266
  0
LINE
  5
A6
330
1F
100
AcDbEntity
  8
1
 62
     4
420
    65535
100
AcDbLine
 10
12.2705841936
 20
-61.2422238542
 30
0.0
 11
34.7227744264
 21
-61.2422238542
 31
0.0
  0
ELLIPSE
  5
A7
330
1F
100
AcDbEntity
  8
1
 62
     4
420
    65535
100
AcDbEllipse
 10
51.7972899604
 20
-221.245977547
 30
0.0
 11
10.24634633552293
 21
186.5831861531557
 31
0.0
210
0.0
220
0.0
230
1.0
 40
0.2622897849
 41
0.5548911210355048
 42
0.5553741718875863
  0
ELLIPSE
  5
A8
330
1F
100
AcDbEntity
  8
1
 62
     4
420
    65535
100
AcDbEllipse
 10
51.7972899604
 20
63.1871433307
 30
0.0
 11
-10.76090571915498
 21
145.165425471262
 31
0.0
210
0.0
220
0.0
230
1.0
 40
0.3363631534
 41
2.575692357975897
 42
2.601991813457092
  0
SPLINE
  5
A9
330
1F
100
AcDbEntity
  8
1
 62
     4
420
    65535
100
AcDbSpline
210
0.0
220
0.0
230
1.0
 70
     8
 71
     3
 72
    10
 73
     6
 74
     0
 42
0.00000001
 43
0.00000001
 12
1.0
 22
0.0
 32
0.0
 13
1.0
 23
0.0
 33
0.0
 40
0.0
 40
0.0
 40
0.0
 40
0.0
 40
0.5
 40
0.5
 40
1.0
 40
1.0
 40
1.0
 40
1.0
 10
35.94155227182976
 20
-63.21199659236851
 30
0.0
 10
35.96703124458484
 20
-63.25040351120742
 30
0.0
 10
35.98351213178947
 20
-63.29540798243986
 30
0.0
 10
35.98364317060739
 20
-63.38845604939919
 30
0.0
 10
35.96706160136193
 20
-63.43399843739201
 30
0.0
 10
35.9415522718305
 20
-63.47245111593464
 30
0.0
  0
ELLIPSE
  5
AA
330
1F
100
AcDbEntity
  8
1
 62
     4
420
    65535
100
AcDbEllipse
 10
51.7972899604
 20
-189.871591039
 30
0.0
 11
10.76090571915496
 21
145.1654254712619
 31
0.0
210
0.0
220
0.0
230
1.0
 40
0.3363631534
 41
0.5396008401327009
 42
0.5659002956138961
  0
ELLIPSE
  5
AB
330
1F
100
AcDbEntity
  8
1
 62
     4
420
    65535
100
AcDbEllipse
 10
51.7972899604
 20
94.5615298387
 30
0.0
 11
-10.24634633552292
 21
186.5831861531561
 31
0.0
210
0.0
220
0.0
230
1.0
 40
0.2622897849
 41
2.586218481702207
 42
2.586701532554288
  0
LINE
  5
AC
330
1F
100
AcDbEntity
  8
1
 62
     4
420
    65535
100
AcDbLine
 10
11.0949755299
 20
-67.1422238542
 30
0.0
 11
5.8972899604
 21
-67.1422238542
 31
0.0
  0
LINE
  5
AD
330
1F
100
AcDbEntity
  8
1
 62
     4
420
    65535
100
AcDbLine
 10
5.8972899604
 20
-61.2422238542
 30
0.0
 11
5.8972899604
 21
-67.1422238542
 31
0.0
  0
LINE
  5
AE
330
1F
100
AcDbEntity
  8
1
 62
     4
420
    65535
100
AcDbLine
 10
12.2705841936
 20
-61.2422238542
 30
0.0
 11
5.8972899604
 21
-61.2422238542
 31
0.0
  0
LINE
  5
AF
330
1F
100
AcDbEntity
  8
1
 62
     4
420
    65535
100
AcDbLine
 10
-5.3973298904
 20
-67.1422238542
 30
0.0
 11
-5.3973298904
 21
-61.2422238542
 31
0.0
  0
LINE
  5
B0
330
1F
100
AcDbEntity
  8
1
 62
     4
420
    65535
100
AcDbLine
 10
-5.3973298904
 20
-61.2422238542
 30
0.0
 11
5.8972899604
 21
-61.2422238542
 31
0.0
  0
LINE
  5
B1
330
1F
100
AcDbEntity
  8
1
 62
     4
420
    65535
100
AcDbLine
 10
5.8972899604
 20
-67.1422238542
 30
0.0
 11
-5.3973298904
 21
-67.1422238542
 31
0.0
  0
LINE
  5
B2
330
1F
100
AcDbEntity
  8
1
 62
     4
420
    65535
100
AcDbLine
 10
-7.1027100396
 20
-61.2422238542
 30
0.0
 11
-5.3973298904
 21
-61.2422238542
 31
0.0
  0
LINE
  5
B3
330
1F
100
AcDbEntity
  8
1
 62
     4
420
    65535
100
AcDbLine
 10
-5.3973298904
 20
-67.1422238542
 30
0.0
 11
-7.1027100396
 21
-67.1422238542
 31
0.0
  0
LINE
  5
B4
330
1F
100
AcDbEntity
  8
1
 62
     4
420
    65535
100
AcDbLine
 10
29.3972899604
 20
-67.1422238542
 30
0.0
 11
29.3095746589
 21
-67.1422238542
 31
0.0
  0
SPLINE
  5
B5
330
1F
100
AcDbEntity
  8
1
 62
     4
420
    65535
100
AcDbSpline
210
0.0
220
0.0
230
1.0
 70
     8
 71
     3
 72
     8
 73
     4
 74
     0
 42
0.00000001
 43
0.00000001
 12
1.0
 22
0.0
 32
0.0
 13
1.0
 23
0.0
 33
0.0
 40
0.0
 40
0.0
 40
0.0
 40
0.0
 40
1.0
 40
1.0
 40
1.0
 40
1.0
 10
38.83323918417528
 20
-63.21199659236851
 30
0.0
 10
38.84108786353294
 20
-63.29568838210754
 30
0.0
 10
38.84108850341912
 20
-63.38875250298115
 30
0.0
 10
38.83323918417527
 20
-63.47245111593428
 30
0.0
  0
LINE
  5
B6
330
1F
100
AcDbEntity
  8
1
 62
     4
420
    65535
100
AcDbLine
 10
34.7000757997
 20
-61.2886237206
 30
0.0
 11
38.6402911437
 21
-61.2886237206
 31
0.0
  0
ELLIPSE
  5
B7
330
1F
100
AcDbEntity
  8
1
 62
     4
420
    65535
100
AcDbEllipse
 10
16.0572899604
 20
-92.3352910321
 30
0.0
 11
5.05762568800284
 21
68.22774997149313
 31
0.0
210
0.0
220
0.0
230
1.0
 40
0.3363631534
 41
5.178182438660073
 42
5.20958143202562
  0
LINE
  5
B8
330
1F
100
AcDbEntity
  8
1
 62
     4
420
    65535
100
AcDbLine
 10
34.7000757997
 20
-65.3958239877
 30
0.0
 11
38.6402911437
 21
-65.3958239877
 31
0.0
  0
ELLIPSE
  5
B9
330
1F
100
AcDbEntity
  8
1
 62
     4
420
    65535
100
AcDbEllipse
 10
16.0572899604
 20
-34.3491566762
 30
0.0
 11
-5.057625688002837
 21
68.22774997149313
 31
0.0
210
0.0
220
0.0
230
1.0
 40
0.3363631534
 41
4.215196528743786
 42
4.246595522109331
  0
ELLIPSE
  5
BA
330
1F
100
AcDbEntity
  8
1
 62
     4
420
    65535
100
AcDbEllipse
 10
16.0572899604
 20
-21.3921614139
 30
0.0
 11
-4.815782777695771
 21
87.6940974919833
 31
0.0
210
0.0
220
0.0
230
1.0
 40
0.2622897849
 41
4.225722652470097
 42
4.226316645836578
  0
LINE
  5
BB
330
1F
100
AcDbEntity
  8
1
 62
     4
420
    65535
100
AcDbLine
 10
34.7227744264
 20
-61.2422238542
 30
0.0
 11
38.6441484845
 21
-61.2422238542
 31
0.0
  0
LINE
  5
BC
330
1F
100
AcDbEntity
  8
1
 62
     4
420
    65535
100
AcDbLine
 10
38.6441484845
 20
-65.4422238542
 30
0.0
 11
34.7227744264
 21
-65.4422238542
 31
0.0
  0
ELLIPSE
  5
BD
330
1F
100
AcDbEntity
  8
1
 62
     4
420
    65535
100
AcDbEllipse
 10
16.0572899604
 20
-105.2922862944
 30
0.0
 11
4.815782777695777
 21
87.69409749198306
 31
0.0
210
0.0
220
0.0
230
1.0
 40
0.2622897849
 41
5.19846131493283
 42
5.199055308299312
  0
LINE
  5
BE
330
1F
100
AcDbEntity
  8
1
 62
     4
420
    65535
100
AcDbLine
 10
29.3972899604
 20
-66.2422238542
 30
0.0
 11
29.3095746589
 21
-66.2422238542
 31
0.0
  0
LINE
  5
BF
330
1F
100
AcDbEntity
  8
1
 62
     4
420
    65535
100
AcDbLine
 10
35.9415522718
 20
-63.4724511159
 30
0.0
 11
38.8332391842
 21
-63.4724511159
 31
0.0
  0
LINE
  5
C0
330
1F
100
AcDbEntity
  8
1
 62
     4
420
    65535
100
AcDbLine
 10
35.9415522718
 20
-63.2119965924
 30
0.0
 11
38.8332391842
 21
-63.2119965924
 31
0.0
  0
DIMENSION
  5
C1
330
1F
100
AcDbEntity
  8
2
 62
     7
420
 16777215
100
AcDbDimension
  2
_D_3
 10
-17.1027100396
 20
-67.1422238542
 30
0.0
 11
-17.1027100396
 21
-79.3109740978
 31
0.0
 70
   160
  1
<>
 71
     2
 42
-1.0
 73
     0
 74
     0
 75
     0
  3
SLDDIMSTYLE0
100
AcDbAlignedDimension
 13
-7.1027100396
 23
-61.2422238542
 33
0.0
 14
-7.1027100396
 24
-67.1422238542
 34
0.0
 50
90.0
100
AcDbRotatedDimension
  0
DIMENSION
  5
CD
330
1F
100
AcDbEntity
  8
2
 62
     7
420
 16777215
100
AcDbDimension
  2
_D_4
 10
48.8598282872
 20
-65.4422238542
 30
0.0
 11
48.8598282872
 21
-49.0734736105
 31
0.0
 70
   160
  1
<>
 71
     2
 42
-1.0
 73
     0
 74
     0
 75
     0
  3
SLDDIMSTYLE0
100
AcDbAlignedDimension
 13
38.6441484845
 23
-61.2422238542
 33
0.0
 14
38.6441484845
 24
-65.4422238542
 34
0.0
 50
90.0
100
AcDbRotatedDimension
  0
ENDSEC
  0
SECTION
  2
OBJECTS
  0
DICTIONARY
  5
C
330
0
100
AcDbDictionary
281
     1
  3
ACAD_GROUP
350
D
  3
ACAD_LAYOUT
350
1A
  3
ACAD_MATERIAL
350
3B
  3
ACAD_MLEADERSTYLE
350
DA
  3
ACAD_MLINESTYLE
350
17
  3
ACAD_PLOTSETTINGS
350
19
  3
ACAD_PLOTSTYLENAME
350
E
  3
ACAD_TABLESTYLE
350
D9
  3
ACAD_VISUALSTYLE
350
2A
  0
DICTIONARY
  5
D
102
{ACAD_REACTORS
330
C
102
}
330
C
100
AcDbDictionary
281
     1
  0
DICTIONARY
  5
1A
102
{ACAD_REACTORS
330
C
102
}
330
C
100
AcDbDictionary
281
     1
  3
Layout1
350
1E
  3
Layout2
350
26
  3
Model
350
22
  0
DICTIONARY
  5
3B
102
{ACAD_REACTORS
330
C
102
}
330
C
100
AcDbDictionary
281
     1
  3
ByBlock
350
3D
  3
ByLayer
350
3C
  3
Global
350
3E
  0
DICTIONARY
  5
DA
102
{ACAD_REACTORS
330
C
102
}
330
C
100
AcDbDictionary
281
     1
  0
DICTIONARY
  5
17
102
{ACAD_REACTORS
330
C
102
}
330
C
100
AcDbDictionary
281
     1
  3
Standard
350
18
  0
DICTIONARY
  5
19
102
{ACAD_REACTORS
330
C
102
}
330
C
100
AcDbDictionary
281
     1
  0
ACDBDICTIONARYWDFLT
  5
E
102
{ACAD_REACTORS
330
C
102
}
330
C
100
AcDbDictionary
281
     1
  3
Normal
350
F
100
AcDbDictionaryWithDefault
340
F
  0
DICTIONARY
  5
D9
102
{ACAD_REACTORS
330
C
102
}
330
C
100
AcDbDictionary
281
     1
  0
DICTIONARY
  5
2A
102
{ACAD_REACTORS
330
C
102
}
330
C
100
AcDbDictionary
281
     1
  3
2dWireframe
350
2F
  3
3D Hidden
350
31
  3
3dWireframe
350
30
  3
Basic
350
32
  3
Brighten
350
36
  3
ColorChange
350
3A
  3
Conceptual
350
34
  3
Dim
350
35
  3
Facepattern
350
39
  3
Flat
350
2B
  3
FlatWithEdges
350
2C
  3
Gouraud
350
2D
  3
GouraudWithEdges
350
2E
  3
Linepattern
350
38
  3
Realistic
350
33
  3
Thicken
350
37
  0
LAYOUT
  5
1E
102
{ACAD_REACTORS
330
1A
102
}
330
1A
100
AcDbPlotSettings
  1

  2
none_device
  4

  6

 40
0.0
 41
0.0
 42
0.0
 43
0.0
 44
0.0
 45
0.0
 46
0.0
 47
0.0
 48
0.0
 49
0.0
140
0.0
141
0.0
142
1.0
143
1.0
 70
   688
 72
     0
 73
     0
 74
     5
  7

 75
    16
 76
     0
 77
     2
 78
   300
147
1.0
148
0.0
149
0.0
100
AcDbLayout
  1
Layout1
 70
     1
 71
     1
 10
0.0
 20
0.0
 11
420.0
 21
297.0
 12
0.0
 22
0.0
 32
0.0
 14
1.0000000000E+20
 24
1.0000000000E+20
 34
1.0000000000E+20
 15
-1.0000000000E+20
 25
-1.0000000000E+20
 35
-1.0000000000E+20
146
0.0
 13
0.0
 23
0.0
 33
0.0
 16
1.0
 26
0.0
 36
0.0
 17
0.0
 27
1.0
 37
0.0
 76
     0
330
1B
  0
LAYOUT
  5
26
102
{ACAD_REACTORS
330
1A
102
}
330
1A
100
AcDbPlotSettings
  1

  2
none_device
  4

  6

 40
0.0
 41
0.0
 42
0.0
 43
0.0
 44
0.0
 45
0.0
 46
0.0
 47
0.0
 48
0.0
 49
0.0
140
0.0
141
0.0
142
1.0
143
1.0
 70
   688
 72
     0
 73
     0
 74
     5
  7

 75
    16
 76
     0
 77
     2
 78
   300
147
1.0
148
0.0
149
0.0
100
AcDbLayout
  1
Layout2
 70
     1
 71
     2
 10
0.0
 20
0.0
 11
0.0
 21
0.0
 12
0.0
 22
0.0
 32
0.0
 14
0.0
 24
0.0
 34
0.0
 15
0.0
 25
0.0
 35
0.0
146
0.0
 13
0.0
 23
0.0
 33
0.0
 16
1.0
 26
0.0
 36
0.0
 17
0.0
 27
1.0
 37
0.0
 76
     0
330
23
  0
LAYOUT
  5
22
102
{ACAD_REACTORS
330
1A
102
}
330
1A
100
AcDbPlotSettings
  1

  2
none_device
  4

  6

 40
0.0
 41
0.0
 42
0.0
 43
0.0
 44
0.0
 45
0.0
 46
0.0
 47
0.0
 48
0.0
 49
0.0
140
0.0
141
0.0
142
1.0
143
1.0
 70
  1712
 72
     0
 73
     0
 74
     0
  7

 75
     0
 76
     0
 77
     2
 78
   300
147
1.0
148
0.0
149
0.0
100
AcDbLayout
  1
Model
 70
     1
 71
     0
 10
0.0
 20
0.0
 11
297.0
 21
210.0
 12
0.0
 22
0.0
 32
0.0
 14
0.0
 24
0.0
 34
0.0
 15
297.0
 25
210.0
 35
0.0
146
0.0
 13
0.0
 23
0.0
 33
0.0
 16
1.0
 26
0.0
 36
0.0
 17
0.0
 27
1.0
 37
0.0
 76
     0
330
1F
331
29
  0
MATERIAL
  5
3D
102
{ACAD_REACTORS
330
3B
102
}
330
3B
100
AcDbMaterial
  1
ByBlock
 72
     1
 94
      127
  0
MATERIAL
  5
3C
102
{ACAD_REACTORS
330
3B
102
}
330
3B
100
AcDbMaterial
  1
ByLayer
 72
     1
 94
      127
  0
MATERIAL
  5
3E
102
{ACAD_REACTORS
330
3B
102
}
330
3B
100
AcDbMaterial
  1
Global
 72
     1
 94
      127
  0
MLINESTYLE
  5
18
102
{ACAD_REACTORS
330
17
102
}
330
17
100
AcDbMlineStyle
  2
Standard
 70
     0
  3

 62
   256
 51
90.0
 52
90.0
 71
     2
 49
0.5
 62
   256
  6
BYLAYER
 49
-0.5
 62
   256
  6
BYLAYER
  0
ACDBPLACEHOLDER
  5
F
102
{ACAD_REACTORS
330
E
102
}
330
E
  0
VISUALSTYLE
  5
2F
102
{ACAD_REACTORS
330
2A
102
}
330
2A
100
AcDbVisualStyle
  2
2dWireframe
 70
     4
 71
     0
 72
     2
 73
     0
 90
        0
 40
-0.6
 41
-30.0
 62
     5
 63
     7
421
 16777215
 74
     1
 91
        4
 64
     7
 65
   257
 75
     1
175
     1
 42
1.0
 92
        0
 66
   257
 43
1.0
 76
     1
 77
     6
 78
     2
 67
     7
 79
     5
170
     0
171
     0
290
     0
174
     0
 93
        1
 44
0.0
173
     0
291
     0
 45
0.0
  0
VISUALSTYLE
  5
31
102
{ACAD_REACTORS
330
2A
102
}
330
2A
100
AcDbVisualStyle
  2
3D Hidden
 70
     6
 71
     1
 72
     2
 73
     2
 90
        0
 40
-0.6
 41
-30.0
 62
     5
 63
     7
421
 16777215
 74
     2
 91
        2
 64
     7
 65
   257
 75
     2
175
     1
 42
40.0
 92
        0
 66
   257
 43
1.0
 76
     1
 77
     6
 78
     2
 67
     7
 79
     3
170
     0
171
     0
290
     0
174
     0
 93
        1
 44
0.0
173
     0
291
     0
 45
0.0
  0
VISUALSTYLE
  5
30
102
{ACAD_REACTORS
330
2A
102
}
330
2A
100
AcDbVisualStyle
  2
3dWireframe
 70
     5
 71
     0
 72
     2
 73
     0
 90
        0
 40
-0.6
 41
-30.0
 62
     5
 63
     7
421
 16777215
 74
     1
 91
        4
 64
     7
 65
   257
 75
     1
175
     1
 42
1.0
 92
        0
 66
   257
 43
1.0
 76
     1
 77
     6
 78
     2
 67
     7
 79
     5
170
     0
171
     0
290
     0
174
     0
 93
        1
 44
0.0
173
     0
291
     0
 45
0.0
  0
VISUALSTYLE
  5
32
102
{ACAD_REACTORS
330
2A
102
}
330
2A
100
AcDbVisualStyle
  2
Basic
 70
     7
 71
     1
 72
     0
 73
     1
 90
        0
 40
-0.6
 41
-30.0
 62
     5
 63
     7
421
 16777215
 74
     0
 91
        4
 64
     7
 65
   257
 75
     1
175
     1
 42
1.0
 92
        8
 66
     7
 43
1.0
 76
     1
 77
     6
 78
     2
 67
     7
 79
     5
170
     0
171
     0
290
     0
174
     0
 93
        1
 44
0.0
173
     0
291
     1
 45
0.0
  0
VISUALSTYLE
  5
36
102
{ACAD_REACTORS
330
2A
102
}
330
2A
100
AcDbVisualStyle
  2
Brighten
 70
    12
 71
     2
 72
     2
 73
     0
 90
        0
 40
-0.6
 41
-30.0
 62
     5
 63
     7
421
 16777215
 74
     1
 91
        4
 64
     7
 65
   257
 75
     1
175
     1
 42
1.0
 92
        8
 66
     7
 43
1.0
 76
     1
 77
     6
 78
     2
 67
     7
 79
     5
170
     0
171
     0
290
     0
174
     0
 93
        1
 44
50.0
173
     0
291
     1
 45
0.0
  0
VISUALSTYLE
  5
3A
102
{ACAD_REACTORS
330
2A
102
}
330
2A
100
AcDbVisualStyle
  2
ColorChange
 70
    16
 71
     2
 72
     2
 73
     3
 90
        0
 40
-0.6
 41
-30.0
 62
     5
 63
     8
421
  8421504
 74
     1
 91
        4
 64
     7
 65
   257
 75
     1
175
     1
 42
1.0
 92
        8
 66
     8
424
  8421504
 43
1.0
 76
     1
 77
     6
 78
     2
 67
     7
 79
     5
170
     0
171
     0
290
     0
174
     0
 93
        1
 44
0.0
173
     0
291
     1
 45
0.0
  0
VISUALSTYLE
  5
34
102
{ACAD_REACTORS
330
2A
102
}
330
2A
100
AcDbVisualStyle
  2
Conceptual
 70
     9
 71
     3
 72
     2
 73
     0
 90
        0
 40
-0.6
 41
-30.0
 62
     5
 63
     7
421
 16777215
 74
     2
 91
        2
 64
     7
 65
   257
 75
     1
175
     1
 42
40.0
 92
        8
 66
     7
 43
1.0
 76
     1
 77
     6
 78
     2
 67
     7
 79
     3
170
     0
171
     0
290
     0
174
     0
 93
        1
 44
0.0
173
     0
291
     0
 45
0.0
  0
VISUALSTYLE
  5
35
102
{ACAD_REACTORS
330
2A
102
}
330
2A
100
AcDbVisualStyle
  2
Dim
 70
    11
 71
     2
 72
     2
 73
     0
 90
        0
 40
-0.6
 41
-30.0
 62
     5
 63
     7
421
 16777215
 74
     1
 91
        4
 64
     7
 65
   257
 75
     1
175
     1
 42
1.0
 92
        8
 66
     7
 43
1.0
 76
     1
 77
     6
 78
     2
 67
     7
 79
     5
170
     0
171
     0
290
     0
174
     0
 93
        1
 44
-50.0
173
     0
291
     1
 45
0.0
  0
VISUALSTYLE
  5
39
102
{ACAD_REACTORS
330
2A
102
}
330
2A
100
AcDbVisualStyle
  2
Facepattern
 70
    15
 71
     2
 72
     2
 73
     0
 90
        0
 40
-0.6
 41
-30.0
 62
     5
 63
     7
421
 16777215
 74
     1
 91
        4
 64
     7
 65
   257
 75
     1
175
     1
 42
1.0
 92
        8
 66
     7
 43
1.0
 76
     1
 77
     6
 78
     2
 67
     7
 79
     5
170
     0
171
     0
290
     0
174
     0
 93
        1
 44
0.0
173
     0
291
     1
 45
0.0
  0
VISUALSTYLE
  5
2B
102
{ACAD_REACTORS
330
2A
102
}
330
2A
100
AcDbVisualStyle
  2
Flat
 70
     0
 71
     2
 72
     1
 73
     1
 90
        2
 40
-0.6
 41
30.0
 62
     5
 63
     7
421
 16777215
 74
     0
 91
        4
 64
     7
 65
   257
 75
     1
175
     1
 42
1.0
 92
        8
 66
     7
 43
1.0
 76
     1
 77
     6
 78
     2
 67
     7
 79
     5
170
     0
171
     0
290
     0
174
     0
 93
       13
 44
0.0
173
     0
291
     1
 45
0.0
  0
VISUALSTYLE
  5
2C
102
{ACAD_REACTORS
330
2A
102
}
330
2A
100
AcDbVisualStyle
  2
FlatWithEdges
 70
     1
 71
     2
 72
     1
 73
     1
 90
        2
 40
-0.6
 41
30.0
 62
     5
 63
     7
421
 16777215
 74
     1
 91
        4
 64
     7
 65
   257
 75
     1
175
     1
 42
1.0
 92
        0
 66
   257
 43
1.0
 76
     1
 77
     6
 78
     2
 67
     7
 79
     5
170
     0
171
     0
290
     0
174
     0
 93
       13
 44
0.0
173
     0
291
     1
 45
0.0
  0
VISUALSTYLE
  5
2D
102
{ACAD_REACTORS
330
2A
102
}
330
2A
100
AcDbVisualStyle
  2
Gouraud
 70
     2
 71
     2
 72
     2
 73
     1
 90
        2
 40
-0.6
 41
30.0
 62
     5
 63
     7
421
 16777215
 74
     0
 91
        4
 64
     7
 65
   257
 75
     1
175
     1
 42
1.0
 92
        0
 66
     7
 43
1.0
 76
     1
 77
     6
 78
     2
 67
     7
 79
     5
170
     0
171
     0
290
     0
174
     0
 93
       13
 44
0.0
173
     0
291
     1
 45
0.0
  0
VISUALSTYLE
  5
2E
102
{ACAD_REACTORS
330
2A
102
}
330
2A
100
AcDbVisualStyle
  2
GouraudWithEdges
 70
     3
 71
     2
 72
     2
 73
     1
 90
        2
 40
-0.6
 41
30.0
 62
     5
 63
     7
421
 16777215
 74
     1
 91
        4
 64
     7
 65
   257
 75
     1
175
     1
 42
1.0
 92
        0
 66
   257
 43
1.0
 76
     1
 77
     6
 78
     2
 67
     7
 79
     5
170
     0
171
     0
290
     0
174
     0
 93
       13
 44
0.0
173
     0
291
     1
 45
0.0
  0
VISUALSTYLE
  5
38
102
{ACAD_REACTORS
330
2A
102
}
330
2A
100
AcDbVisualStyle
  2
Linepattern
 70
    14
 71
     2
 72
     2
 73
     0
 90
        0
 40
-0.6
 41
-30.0
 62
     5
 63
     7
421
 16777215
 74
     1
 91
        4
 64
     7
 65
   257
 75
     7
175
     7
 42
1.0
 92
        8
 66
     7
 43
1.0
 76
     1
 77
     6
 78
     2
 67
     7
 79
     5
170
     0
171
     0
290
     0
174
     0
 93
        1
 44
0.0
173
     0
291
     1
 45
0.0
  0
VISUALSTYLE
  5
33
102
{ACAD_REACTORS
330
2A
102
}
330
2A
100
AcDbVisualStyle
  2
Realistic
 70
     8
 71
     2
 72
     2
 73
     0
 90
        0
 40
-0.6
 41
-30.0
 62
     5
 63
     7
421
 16777215
 74
     1
 91
        0
 64
     7
 65
   257
 75
     1
175
     1
 42
1.0
 92
        8
 66
     8
424
  7895160
 43
1.0
 76
     1
 77
     6
 78
     2
 67
     7
 79
     5
170
     0
171
     0
290
     0
174
     0
 93
       13
 44
0.0
173
     0
291
     0
 45
0.0
  0
VISUALSTYLE
  5
37
102
{ACAD_REACTORS
330
2A
102
}
330
2A
100
AcDbVisualStyle
  2
Thicken
 70
    13
 71
     2
 72
     2
 73
     0
 90
        0
 40
-0.6
 41
-30.0
 62
     5
 63
     7
421
 16777215
 74
     1
 91
        4
 64
     7
 65
   257
 75
     1
175
     1
 42
1.0
 92
       12
 66
     7
 43
1.0
 76
     1
 77
     6
 78
     2
 67
     7
 79
     5
170
     0
171
     0
290
     0
174
     0
 93
        1
 44
0.0
173
     0
291
     1
 45
0.0
  0
ENDSEC
  0
EOF
