  0
SECTION
  2
HEADER
  9
$ACADVER
  1
AC1018
  9
$ACADMAINTVER
 70
     0
  9
$DWGCODEPAGE
  3
ANSI_1252
  9
$INSBASE
 10
0.0
 20
0.0
 30
0.0
  9
$EXTMIN
 10
0.0
 20
0.0
 30
0.0
  9
$EXTMAX
 10
297.0
 20
210.0
 30
0.0
  9
$LIMMIN
 10
0.0
 20
0.0
  9
$LIMMAX
 10
297.0
 20
210.0
  9
$ORTHOMODE
 70
     0
  9
$REGENMODE
 70
     1
  9
$FILLMODE
 70
     1
  9
$QTEXTMODE
 70
     0
  9
$MIRRTEXT
 70
     1
  9
$LTSCALE
 40
1.0
  9
$ATTMODE
 70
     1
  9
$TEXTSIZE
 40
3.5
  9
$TRACEWID
 40
1.0
  9
$TEXTSTYLE
  7
Standard
  9
$CLAYER
  8
0
  9
$CELTYPE
  6
ByLayer
  9
$CECOLOR
 62
   256
  9
$CELTSCALE
 40
1.0
  9
$DISPSILH
 70
     0
  9
$DIMSCALE
 40
1.0
  9
$DIMASZ
 40
3.302
  9
$DIMEXO
 40
1.0
  9
$DIMDLI
 40
3.75
  9
$DIMRND
 40
0.0
  9
$DIMDLE
 40
0.0
  9
$DIMEXE
 40
1.0
  9
$DIMTP
 40
0.0
  9
$DIMTM
 40
0.0
  9
$DIMTXT
 40
3.5
  9
$DIMCEN
 40
2.5
  9
$DIMTSZ
 40
0.0
  9
$DIMTOL
 70
     0
  9
$DIMLIM
 70
     0
  9
$DIMTIH
 70
     1
  9
$DIMTOH
 70
     1
  9
$DIMSE1
 70
     0
  9
$DIMSE2
 70
     0
  9
$DIMTAD
 70
     1
  9
$DIMZIN
 70
     0
  9
$DIMBLK
  1

  9
$DIMASO
 70
     1
  9
$DIMSHO
 70
     1
  9
$DIMPOST
  1

  9
$DIMAPOST
  1

  9
$DIMALT
 70
     0
  9
$DIMALTD
 70
     3
  9
$DIMALTF
 40
0.0393700787
  9
$DIMLFAC
 40
1.0
  9
$DIMTOFL
 70
     1
  9
$DIMTVP
 40
0.0
  9
$DIMTIX
 70
     0
  9
$DIMSOXD
 70
     0
  9
$DIMSAH
 70
     0
  9
$DIMBLK1
  1

  9
$DIMBLK2
  1

  9
$DIMSTYLE
  2
ISO-25
  9
$DIMCLRD
 70
     0
  9
$DIMCLRE
 70
     0
  9
$DIMCLRT
 70
     0
  9
$DIMTFAC
 40
1.0
  9
$DIMGAP
 40
1.524
  9
$DIMJUST
 70
     0
  9
$DIMSD1
 70
     0
  9
$DIMSD2
 70
     0
  9
$DIMTOLJ
 70
     0
  9
$DIMTZIN
 70
     0
  9
$DIMALTZ
 70
     0
  9
$DIMALTTZ
 70
     0
  9
$DIMUPT
 70
     0
  9
$DIMDEC
 70
     2
  9
$DIMTDEC
 70
     2
  9
$DIMALTU
 70
     2
  9
$DIMALTTD
 70
     3
  9
$DIMTXSTY
  7
Standard
  9
$DIMAUNIT
 70
     0
  9
$DIMADEC
 70
     2
  9
$DIMALTRND
 40
0.0
  9
$DIMAZIN
 70
     0
  9
$DIMDSEP
 70
    44
  9
$DIMATFIT
 70
     3
  9
$DIMFRAC
 70
     0
  9
$DIMLDRBLK
  1

  9
$DIMLUNIT
 70
     2
  9
$DIMLWD
 70
    -2
  9
$DIMLWE
 70
    -2
  9
$DIMTMOVE
 70
     0
  9
$LUNITS
 70
     2
  9
$LUPREC
 70
     2
  9
$SKETCHINC
 40
1.0
  9
$FILLETRAD
 40
10.0
  9
$AUNITS
 70
     0
  9
$AUPREC
 70
     2
  9
$MENU
  1
.
  9
$ELEVATION
 40
0.0
  9
$PELEVATION
 40
0.0
  9
$THICKNESS
 40
0.0
  9
$LIMCHECK
 70
     0
  9
$CHAMFERA
 40
0.0
  9
$CHAMFERB
 40
0.0
  9
$CHAMFERC
 40
0.0
  9
$CHAMFERD
 40
0.0
  9
$SKPOLY
 70
     0
  9
$TDCREATE
 40
2457429.627285625
  9
$TDUCREATE
 40
2457429.585618958
  9
$TDUPDATE
 40
2457429.627285937
  9
$TDUUPDATE
 40
2457429.585619271
  9
$TDINDWG
 40
0.0000000116
  9
$TDUSRTIMER
 40
0.0000000116
  9
$USRTIMER
 70
     1
  9
$ANGBASE
 50
0.0
  9
$ANGDIR
 70
     0
  9
$PDMODE
 70
     0
  9
$PDSIZE
 40
-1.0
  9
$PLINEWID
 40
0.0
  9
$SPLFRAME
 70
     0
  9
$SPLINETYPE
 70
     6
  9
$SPLINESEGS
 70
     8
  9
$HANDSEED
  5
12A
  9
$SURFTAB1
 70
     6
  9
$SURFTAB2
 70
     6
  9
$SURFTYPE
 70
     6
  9
$SURFU
 70
     6
  9
$SURFV
 70
     6
  9
$UCSBASE
  2

  9
$UCSNAME
  2

  9
$UCSORG
 10
0.0
 20
0.0
 30
0.0
  9
$UCSXDIR
 10
1.0
 20
0.0
 30
0.0
  9
$UCSYDIR
 10
0.0
 20
1.0
 30
0.0
  9
$UCSORTHOREF
  2

  9
$UCSORTHOVIEW
 70
     0
  9
$UCSORGTOP
 10
0.0
 20
0.0
 30
0.0
  9
$UCSORGBOTTOM
 10
0.0
 20
0.0
 30
0.0
  9
$UCSORGLEFT
 10
0.0
 20
0.0
 30
0.0
  9
$UCSORGRIGHT
 10
0.0
 20
0.0
 30
0.0
  9
$UCSORGFRONT
 10
0.0
 20
0.0
 30
0.0
  9
$UCSORGBACK
 10
0.0
 20
0.0
 30
0.0
  9
$PUCSBASE
  2

  9
$PUCSNAME
  2

  9
$PUCSORG
 10
0.0
 20
0.0
 30
0.0
  9
$PUCSXDIR
 10
1.0
 20
0.0
 30
0.0
  9
$PUCSYDIR
 10
0.0
 20
1.0
 30
0.0
  9
$PUCSORTHOREF
  2

  9
$PUCSORTHOVIEW
 70
     0
  9
$PUCSORGTOP
 10
0.0
 20
0.0
 30
0.0
  9
$PUCSORGBOTTOM
 10
0.0
 20
0.0
 30
0.0
  9
$PUCSORGLEFT
 10
0.0
 20
0.0
 30
0.0
  9
$PUCSORGRIGHT
 10
0.0
 20
0.0
 30
0.0
  9
$PUCSORGFRONT
 10
0.0
 20
0.0
 30
0.0
  9
$PUCSORGBACK
 10
0.0
 20
0.0
 30
0.0
  9
$USERI1
 70
     0
  9
$USERI2
 70
     0
  9
$USERI3
 70
     0
  9
$USERI4
 70
     0
  9
$USERI5
 70
     0
  9
$USERR1
 40
0.0
  9
$USERR2
 40
0.0
  9
$USERR3
 40
0.0
  9
$USERR4
 40
0.0
  9
$USERR5
 40
0.0
  9
$WORLDVIEW
 70
     1
  9
$SHADEDGE
 70
     3
  9
$SHADEDIF
 70
    70
  9
$TILEMODE
 70
     1
  9
$MAXACTVP
 70
    64
  9
$PINSBASE
 10
0.0
 20
0.0
 30
0.0
  9
$PLIMCHECK
 70
     0
  9
$PEXTMIN
 10
1.0000000000E+20
 20
1.0000000000E+20
 30
1.0000000000E+20
  9
$PEXTMAX
 10
-1.0000000000E+20
 20
-1.0000000000E+20
 30
-1.0000000000E+20
  9
$PLIMMIN
 10
0.0
 20
0.0
  9
$PLIMMAX
 10
420.0
 20
297.0
  9
$UNITMODE
 70
     0
  9
$VISRETAIN
 70
     1
  9
$PLINEGEN
 70
     0
  9
$PSLTSCALE
 70
     1
  9
$TREEDEPTH
 70
  3020
  9
$CMLSTYLE
  2
Standard
  9
$CMLJUST
 70
     0
  9
$CMLSCALE
 40
20.0
  9
$PROXYGRAPHICS
 70
     1
  9
$MEASUREMENT
 70
     1
  9
$CELWEIGHT
370
    -1
  9
$ENDCAPS
280
     0
  9
$JOINSTYLE
280
     0
  9
$LWDISPLAY
290
     1
  9
$INSUNITS
 70
     4
  9
$HYPERLINKBASE
  1

  9
$STYLESHEET
  1

  9
$XEDIT
290
     1
  9
$CEPSNTYPE
380
     0
  9
$PSTYLEMODE
290
     1
  9
$FINGERPRINTGUID
  2
{8FFE6B8C-5355-4842-9B81-E8622A2EFB87}
  9
$VERSIONGUID
  2
{FAEB1C32-E019-11D5-929B-00C0DF256EC4}
  9
$EXTNAMES
290
     1
  9
$PSVPSCALE
 40
0.0
  9
$OLESTARTUP
290
     0
  9
$SORTENTS
280
   127
  9
$INDEXCTL
280
     0
  9
$HIDETEXT
280
     1
  9
$XCLIPFRAME
290
     0
  9
$HALOGAP
280
     0
  9
$OBSCOLOR
 70
   257
  9
$OBSLTYPE
280
     0
  9
$INTERSECTIONDISPLAY
280
     0
  9
$INTERSECTIONCOLOR
 70
   257
  9
$DIMASSOC
280
     2
  9
$PROJECTNAME
  1

  0
ENDSEC
  0
SECTION
  2
CLASSES
  0
CLASS
  1
ACDBDICTIONARYWDFLT
  2
AcDbDictionaryWithDefault
  3
ObjectDBX Classes
 90
        0
 91
        4
280
     0
281
     0
  0
CLASS
  1
VISUALSTYLE
  2
AcDbVisualStyle
  3
ObjectDBX Classes
 90
     4095
 91
        4
280
     0
281
     0
  0
CLASS
  1
MATERIAL
  2
AcDbMaterial
  3
ObjectDBX Classes
 90
     1153
 91
        4
280
     0
281
     0
  0
CLASS
  1
SCALE
  2
AcDbScale
  3
ObjectDBX Classes
 90
     1153
 91
        4
280
     0
281
     0
  0
CLASS
  1
TABLESTYLE
  2
AcDbTableStyle
  3
ObjectDBX Classes
 90
     4095
 91
        4
280
     0
281
     0
  0
CLASS
  1
MLEADERSTYLE
  2
AcDbMLeaderStyle
  3
ACDB_MLEADERSTYLE_CLASS
 90
     4095
 91
        4
280
     0
281
     0
  0
CLASS
  1
SUN
  2
AcDbSun
  3
SCENEOE
 90
     1153
 91
        4
280
     0
281
     0
  0
CLASS
  1
DICTIONARYVAR
  2
AcDbDictionaryVar
  3
ObjectDBX Classes
 90
        0
 91
        4
280
     0
281
     0
  0
CLASS
  1
CELLSTYLEMAP
  2
AcDbCellStyleMap
  3
ObjectDBX Classes
 90
     1152
 91
        4
280
     0
281
     0
  0
ENDSEC
  0
SECTION
  2
TABLES
  0
TABLE
  2
VPORT
  5
8
330
0
100
AcDbSymbolTable
 70
     1
  0
VPORT
  5
29
330
8
100
AcDbSymbolTableRecord
100
AcDbViewportTableRecord
  2
*Active
 70
     0
 10
0.0
 20
0.0
 11
1.0
 21
1.0
 12
148.5
 22
105.0
 13
0.0
 23
0.0
 14
10.0
 24
10.0
 15
10.0
 25
10.0
 16
0.0
 26
0.0
 36
1.0
 17
0.0
 27
0.0
 37
0.0
 40
210.0
 41
1.4142857143
 42
50.0
 43
0.0
 44
0.0
 50
0.0
 51
0.0
 71
     0
 72
  2000
 73
     1
 74
     3
 75
     0
 76
     0
 77
     0
 78
     0
281
     0
 65
     1
110
0.0
120
0.0
130
0.0
111
1.0
121
0.0
131
0.0
112
0.0
122
1.0
132
0.0
 79
     0
146
0.0
  0
ENDTAB
  0
TABLE
  2
LTYPE
  5
5
330
0
100
AcDbSymbolTable
 70
     8
  0
LTYPE
  5
14
330
5
100
AcDbSymbolTableRecord
100
AcDbLinetypeTableRecord
  2
ByBlock
 70
     0
  3

 72
    65
 73
     0
 40
0.0
  0
LTYPE
  5
15
330
5
100
AcDbSymbolTableRecord
100
AcDbLinetypeTableRecord
  2
ByLayer
 70
     0
  3

 72
    65
 73
     0
 40
0.0
  0
LTYPE
  5
16
330
5
100
AcDbSymbolTableRecord
100
AcDbLinetypeTableRecord
  2
Continuous
 70
     0
  3
Solid line
 72
    65
 73
     0
 40
0.0
  0
LTYPE
  5
6E
330
5
100
AcDbSymbolTableRecord
100
AcDbLinetypeTableRecord
  2
SLD-Durchgehend
 70
     0
  3
SolidWorks Line Style
 72
    65
 73
     0
 40
0.0
  0
LTYPE
  5
6F
330
5
100
AcDbSymbolTableRecord
100
AcDbLinetypeTableRecord
  2
SLD-Gestrichelt
 70
     0
  3
SolidWorks Line Style
 72
    65
 73
     2
 40
1.905
 49
1.27
 74
     0
 49
-0.635
 74
     0
  0
LTYPE
  5
70
330
5
100
AcDbSymbolTableRecord
100
AcDbLinetypeTableRecord
  2
SLD-Phantom
 70
     0
  3
SolidWorks Line Style
 72
    65
 73
     6
 40
12.7
 49
6.35
 74
     0
 49
-1.27
 74
     0
 49
1.27
 74
     0
 49
-1.27
 74
     0
 49
1.27
 74
     0
 49
-1.27
 74
     0
  0
LTYPE
  5
71
330
5
100
AcDbSymbolTableRecord
100
AcDbLinetypeTableRecord
  2
SLD-Kette
 70
     0
  3
SolidWorks Line Style
 72
    65
 73
     4
 40
10.16
 49
6.35
 74
     0
 49
-1.27
 74
     0
 49
1.27
 74
     0
 49
-1.27
 74
     0
  0
LTYPE
  5
72
330
5
100
AcDbSymbolTableRecord
100
AcDbLinetypeTableRecord
  2
SLD-Punktstrich
 70
     0
  3
SolidWorks Line Style
 72
    65
 73
     4
 40
19.05
 49
15.24
 74
     0
 49
-1.27
 74
     0
 49
1.27
 74
     0
 49
-1.27
 74
     0
  0
LTYPE
  5
73
330
5
100
AcDbSymbolTableRecord
100
AcDbLinetypeTableRecord
  2
SLD-Naht
 70
     0
  3
SolidWorks Line Style
 72
    65
 73
     2
 40
0.635
 49
0.0
 74
     0
 49
-0.635
 74
     0
  0
LTYPE
  5
74
330
5
100
AcDbSymbolTableRecord
100
AcDbLinetypeTableRecord
  2
SLD-Dicke-Dünne-Kette
 70
     0
  3
SolidWorks Line Style
 72
    65
 73
     4
 40
10.16
 49
6.35
 74
     0
 49
-1.27
 74
     0
 49
1.27
 74
     0
 49
-1.27
 74
     0
  0
ENDTAB
  0
TABLE
  2
LAYER
  5
2
330
0
100
AcDbSymbolTable
 70
     3
  0
LAYER
  5
10
330
2
100
AcDbSymbolTableRecord
100
AcDbLayerTableRecord
  2
0
 70
     0
 62
     7
  6
Continuous
370
    -3
390
F
  0
LAYER
  5
75
330
2
100
AcDbSymbolTableRecord
100
AcDbLayerTableRecord
  2
1
 70
     0
 62
     4
  6
Continuous
370
    -1
390
F
  0
LAYER
  5
76
330
2
100
AcDbSymbolTableRecord
100
AcDbLayerTableRecord
  2
2
 70
     0
 62
     7
  6
SLD-Durchgehend
370
    -3
390
F
  0
ENDTAB
  0
TABLE
  2
STYLE
  5
3
330
0
100
AcDbSymbolTable
 70
     2
  0
STYLE
  5
11
330
3
100
AcDbSymbolTableRecord
100
AcDbTextStyleTableRecord
  2
Standard
 70
     0
 40
0.0
 41
1.0
 50
0.0
 71
     0
 42
3.5
  3
txt
  4

  0
STYLE
  5
B4
330
3
100
AcDbSymbolTableRecord
100
AcDbTextStyleTableRecord
  2
SLDTEXTSTYLE0
 70
     0
 40
0.0
 41
0.75
 50
0.0
 71
     0
 42
3.5
  3
TXT
  4

  0
ENDTAB
  0
TABLE
  2
VIEW
  5
6
330
0
100
AcDbSymbolTable
 70
     0
  0
ENDTAB
  0
TABLE
  2
UCS
  5
7
330
0
100
AcDbSymbolTable
 70
     0
  0
ENDTAB
  0
TABLE
  2
APPID
  5
9
330
0
100
AcDbSymbolTable
 70
     2
  0
APPID
  5
12
330
9
100
AcDbSymbolTableRecord
100
AcDbRegAppTableRecord
  2
ACAD
 70
     0
  0
APPID
  5
124
330
9
100
AcDbSymbolTableRecord
100
AcDbRegAppTableRecord
  2
ACAD_MLEADERVER
 70
     0
  0
ENDTAB
  0
TABLE
  2
DIMSTYLE
  5
A
330
0
100
AcDbSymbolTable
 70
     3
100
AcDbDimStyleTable
  0
DIMSTYLE
105
27
330
A
100
AcDbSymbolTableRecord
100
AcDbDimStyleTableRecord
  2
ISO-25
 70
     0
 41
2.5
 42
0.625
 43
3.75
 44
1.25
 73
     0
 74
     0
 77
     1
 78
     8
140
2.5
141
2.5
143
0.0393700787
147
0.625
171
     3
172
     1
178
     0
271
     2
272
     2
274
     3
278
    44
283
     0
284
     8
340
11
  0
DIMSTYLE
105
B5
102
{ACAD_REACTORS
330
B3
330
10B
330
115
102
}
330
A
100
AcDbSymbolTableRecord
100
AcDbDimStyleTableRecord
  2
SLDDIMSTYLE0
 70
     0
 41
3.302
 44
0.0
 45
0.000000001
 73
     0
 74
     0
 77
     1
 78
    12
 79
     3
140
3.5
147
0.875
173
     1
178
     0
271
     2
272
     2
276
     2
284
    12
340
B4
  0
DIMSTYLE
105
C0
102
{ACAD_REACTORS
330
BF
102
}
330
A
100
AcDbSymbolTableRecord
100
AcDbDimStyleTableRecord
  2
SLDDIMSTYLE1
 70
     0
 41
3.302
 44
0.0
 45
0.000000001
 73
     0
 74
     0
 77
     1
 78
    12
 79
     3
140
3.5
147
0.875
172
     1
173
     1
178
     0
271
     2
272
     2
276
     2
284
    12
289
     0
340
B4
  0
ENDTAB
  0
TABLE
  2
BLOCK_RECORD
  5
1
330
0
100
AcDbSymbolTable
 70
     5
  0
BLOCK_RECORD
  5
1F
330
1
100
AcDbSymbolTableRecord
100
AcDbBlockTableRecord
  2
*Model_Space
340
22
  0
BLOCK_RECORD
  5
1B
330
1
100
AcDbSymbolTableRecord
100
AcDbBlockTableRecord
  2
*Paper_Space
340
1E
  0
BLOCK_RECORD
  5
23
330
1
100
AcDbSymbolTableRecord
100
AcDbBlockTableRecord
  2
*Paper_Space0
340
26
  0
BLOCK_RECORD
  5
B6
330
1
100
AcDbSymbolTableRecord
100
AcDbBlockTableRecord
  2
_D
340
0
  0
BLOCK_RECORD
  5
C1
330
1
100
AcDbSymbolTableRecord
100
AcDbBlockTableRecord
  2
_D_1
340
0
  0
BLOCK_RECORD
  5
10C
330
1
100
AcDbSymbolTableRecord
100
AcDbBlockTableRecord
  2
_D_2
340
0
  0
BLOCK_RECORD
  5
116
330
1
100
AcDbSymbolTableRecord
100
AcDbBlockTableRecord
  2
_D_3
340
0
  0
ENDTAB
  0
ENDSEC
  0
SECTION
  2
BLOCKS
  0
BLOCK
  5
20
330
1F
100
AcDbEntity
  8
0
100
AcDbBlockBegin
  2
*Model_Space
 70
     0
 10
0.0
 20
0.0
 30
0.0
  3
*Model_Space
  1

  0
ENDBLK
  5
21
330
1F
100
AcDbEntity
  8
0
100
AcDbBlockEnd
  0
BLOCK
  5
1C
330
1B
100
AcDbEntity
 67
     1
  8
0
100
AcDbBlockBegin
  2
*Paper_Space
 70
     0
 10
0.0
 20
0.0
 30
0.0
  3
*Paper_Space
  1

  0
ENDBLK
  5
1D
330
1B
100
AcDbEntity
 67
     1
  8
0
100
AcDbBlockEnd
  0
BLOCK
  5
24
330
23
100
AcDbEntity
  8
0
100
AcDbBlockBegin
  2
*Paper_Space0
 70
     0
 10
0.0
 20
0.0
 30
0.0
  3
*Paper_Space0
  1

  0
ENDBLK
  5
25
330
23
100
AcDbEntity
  8
0
100
AcDbBlockEnd
  0
BLOCK
  5
B7
330
B6
100
AcDbEntity
  8
0
100
AcDbBlockBegin
  2
_D
 70
     0
 10
0.0
 20
0.0
 30
0.0
  3
_D
  1

  0
SOLID
  5
B9
330
B6
100
AcDbEntity
  8
2
 62
     7
420
 16777215
100
AcDbTrace
 10
74.9987742495
 20
-12.0996520573
 30
0.0
 11
71.6967742495
 21
-11.5916520573
 31
0.0
 12
71.6967742495
 22
-12.6076520573
 32
0.0
 13
71.6967742495
 23
-12.6076520573
 33
0.0
  0
SOLID
  5
BA
330
B6
100
AcDbEntity
  8
2
 62
     7
420
 16777215
100
AcDbTrace
 10
-75.0012257505
 20
-12.0996520573
 30
0.0
 11
-71.6992257505
 21
-12.6076520573
 31
0.0
 12
-71.6992257505
 22
-11.5916520573
 32
0.0
 13
-71.6992257505
 23
-11.5916520573
 33
0.0
  0
LINE
  5
BB
330
B6
100
AcDbEntity
  8
2
 62
     7
420
 16777215
100
AcDbLine
 10
74.9987742495
 20
-0.9996520573
 30
0.0
 11
74.9987742495
 21
-13.0996520573
 31
0.0
  0
LINE
  5
BC
330
B6
100
AcDbEntity
  8
2
 62
     7
420
 16777215
100
AcDbLine
 10
-75.0012257505
 20
-0.9996520573
 30
0.0
 11
-75.0012257505
 21
-13.0996520573
 31
0.0
  0
LINE
  5
BD
330
B6
100
AcDbEntity
  8
2
 62
     7
420
 16777215
100
AcDbLine
 10
74.9987742495
 20
-12.0996520573
 30
0.0
 11
-75.0012257505
 21
-12.0996520573
 31
0.0
  0
MTEXT
  5
BE
330
B6
100
AcDbEntity
  8
2
 62
     7
420
 16777215
100
AcDbMText
 10
-3.8803924244
 20
-7.5879151427
 30
0.0
 40
3.5
 41
0.0
 71
     1
 72
     1
  1
150
  7
SLDTEXTSTYLE0
 73
     1
 44
1.0
  0
ENDBLK
  5
B8
330
B6
100
AcDbEntity
  8
0
100
AcDbBlockEnd
  0
BLOCK
  5
C2
330
C1
100
AcDbEntity
  8
0
100
AcDbBlockBegin
  2
_D_1
 70
     0
 10
0.0
 20
0.0
 30
0.0
  3
_D_1
  1

  0
SOLID
  5
C4
330
C1
100
AcDbEntity
  8
2
 62
     7
420
 16777215
100
AcDbTrace
 10
-84.2012257505
 20
2.1003479427
 30
0.0
 11
-83.6932257505
 21
5.4023479427
 31
0.0
 12
-84.7092257505
 22
5.4023479427
 32
0.0
 13
-84.7092257505
 23
5.4023479427
 33
0.0
  0
SOLID
  5
C5
330
C1
100
AcDbEntity
  8
2
 62
     7
420
 16777215
100
AcDbTrace
 10
-84.2012257505
 20
-2.0996520573
 30
0.0
 11
-84.7092257505
 21
-5.4016520573
 31
0.0
 12
-83.6932257505
 22
-5.4016520573
 32
0.0
 13
-83.6932257505
 23
-5.4016520573
 33
0.0
  0
LINE
  5
C6
330
C1
100
AcDbEntity
  8
2
 62
     7
420
 16777215
100
AcDbLine
 10
-75.2012257505
 20
2.1003479427
 30
0.0
 11
-85.2012257505
 21
2.1003479427
 31
0.0
  0
LINE
  5
C7
330
C1
100
AcDbEntity
  8
2
 62
     7
420
 16777215
100
AcDbLine
 10
-75.2012257505
 20
-2.0996520573
 30
0.0
 11
-85.2012257505
 21
-2.0996520573
 31
0.0
  0
LINE
  5
C8
330
C1
100
AcDbEntity
  8
2
 62
     7
420
 16777215
100
AcDbLine
 10
-84.2012257505
 20
2.1003479427
 30
0.0
 11
-84.2012257505
 21
8.4503479427
 31
0.0
  0
LINE
  5
C9
330
C1
100
AcDbEntity
  8
2
 62
     7
420
 16777215
100
AcDbLine
 10
-84.2012257505
 20
2.1003479427
 30
0.0
 11
-84.2012257505
 21
-2.0996520573
 31
0.0
  0
LINE
  5
CA
330
C1
100
AcDbEntity
  8
2
 62
     7
420
 16777215
100
AcDbLine
 10
-84.2012257505
 20
-2.0996520573
 30
0.0
 11
-84.2012257505
 21
-18.7940968314
 31
0.0
  0
MTEXT
  5
CB
330
C1
100
AcDbEntity
  8
2
 62
     7
420
 16777215
100
AcDbMText
 10
-88.7129626651
 20
-18.7940968314
 30
0.0
 40
3.5
 41
0.0
 71
     1
 72
     1
  1
4,20
  7
SLDTEXTSTYLE0
 11
-7.044195017643634E-15
 21
1.0
 31
0.0
 73
     1
 44
1.0
  0
ENDBLK
  5
C3
330
C1
100
AcDbEntity
  8
0
100
AcDbBlockEnd
  0
BLOCK
  5
10D
330
10C
100
AcDbEntity
  8
0
100
AcDbBlockBegin
  2
_D_2
 70
     0
 10
0.0
 20
0.0
 30
0.0
  3
_D_2
  1

  0
SOLID
  5
10F
330
10C
100
AcDbEntity
  8
2
 62
     7
420
 16777215
100
AcDbTrace
 10
-90.2012257505
 20
49.4260854812
 30
0.0
 11
-89.6932257505
 21
52.7280854812
 31
0.0
 12
-90.7092257505
 22
52.7280854812
 32
0.0
 13
-90.7092257505
 23
52.7280854812
 33
0.0
  0
SOLID
  5
110
330
10C
100
AcDbEntity
  8
2
 62
     7
420
 16777215
100
AcDbTrace
 10
-90.2012257505
 20
81.4260854812
 30
0.0
 11
-90.7092257505
 21
78.1240854812
 31
0.0
 12
-89.6932257505
 22
78.1240854812
 32
0.0
 13
-89.6932257505
 23
78.1240854812
 33
0.0
  0
LINE
  5
111
330
10C
100
AcDbEntity
  8
2
 62
     7
420
 16777215
100
AcDbLine
 10
-1.0012257505
 20
49.4260854812
 30
0.0
 11
-91.2012257505
 21
49.4260854812
 31
0.0
  0
LINE
  5
112
330
10C
100
AcDbEntity
  8
2
 62
     7
420
 16777215
100
AcDbLine
 10
-1.0012257505
 20
81.4260854812
 30
0.0
 11
-91.2012257505
 21
81.4260854812
 31
0.0
  0
LINE
  5
113
330
10C
100
AcDbEntity
  8
2
 62
     7
420
 16777215
100
AcDbLine
 10
-90.2012257505
 20
49.4260854812
 30
0.0
 11
-90.2012257505
 21
81.4260854812
 31
0.0
  0
MTEXT
  5
114
330
10C
100
AcDbEntity
  8
2
 62
     7
420
 16777215
100
AcDbMText
 10
-94.7129626651
 20
62.8399742877
 30
0.0
 40
3.5
 41
0.0
 71
     1
 72
     1
  1
32
  7
SLDTEXTSTYLE0
 11
6.123233995736766E-17
 21
1.0
 31
0.0
 73
     1
 44
1.0
  0
ENDBLK
  5
10E
330
10C
100
AcDbEntity
  8
0
100
AcDbBlockEnd
  0
BLOCK
  5
117
330
116
100
AcDbEntity
  8
0
100
AcDbBlockBegin
  2
_D_3
 70
     0
 10
0.0
 20
0.0
 30
0.0
  3
_D_3
  1

  0
SOLID
  5
119
330
116
100
AcDbEntity
  8
2
 62
     7
420
 16777215
100
AcDbTrace
 10
-84.2012257505
 20
74.4260854812
 30
0.0
 11
-84.7092257505
 21
71.1240854812
 31
0.0
 12
-83.6932257505
 22
71.1240854812
 32
0.0
 13
-83.6932257505
 23
71.1240854812
 33
0.0
  0
SOLID
  5
11A
330
116
100
AcDbEntity
  8
2
 62
     7
420
 16777215
100
AcDbTrace
 10
-84.2012257505
 20
49.4260854812
 30
0.0
 11
-83.6932257505
 21
52.7280854812
 31
0.0
 12
-84.7092257505
 22
52.7280854812
 32
0.0
 13
-84.7092257505
 23
52.7280854812
 33
0.0
  0
LINE
  5
11B
330
116
100
AcDbEntity
  8
2
 62
     7
420
 16777215
100
AcDbLine
 10
-76.0012257505
 20
74.4260854812
 30
0.0
 11
-85.2012257505
 21
74.4260854812
 31
0.0
  0
LINE
  5
11C
330
116
100
AcDbEntity
  8
2
 62
     7
420
 16777215
100
AcDbLine
 10
-1.0012257505
 20
49.4260854812
 30
0.0
 11
-85.2012257505
 21
49.4260854812
 31
0.0
  0
LINE
  5
11D
330
116
100
AcDbEntity
  8
2
 62
     7
420
 16777215
100
AcDbLine
 10
-84.2012257505
 20
74.4260854812
 30
0.0
 11
-84.2012257505
 21
49.4260854812
 31
0.0
  0
MTEXT
  5
11E
330
116
100
AcDbEntity
  8
2
 62
     7
420
 16777215
100
AcDbMText
 10
-88.7129626651
 20
59.3399742877
 30
0.0
 40
3.5
 41
0.0
 71
     1
 72
     1
  1
25
  7
SLDTEXTSTYLE0
 11
-7.044195017643634E-15
 21
1.0
 31
0.0
 73
     1
 44
1.0
  0
ENDBLK
  5
118
330
116
100
AcDbEntity
  8
0
100
AcDbBlockEnd
  0
ENDSEC
  0
SECTION
  2
ENTITIES
  0
LINE
  5
77
330
1F
100
AcDbEntity
  8
0
  6
SLD-Punktstrich
 62
     7
100
AcDbLine
 10
74.9987742495
 20
0.0003479427
 30
0.0
 11
-75.0012257505
 21
0.0003479427
 31
0.0
  0
POINT
  5
78
330
1F
100
AcDbEntity
  8
1
 62
     4
420
    65535
100
AcDbPoint
 10
-75.0012257505
 20
0.0003479427
 30
0.0
  0
POINT
  5
79
330
1F
100
AcDbEntity
  8
1
 62
     4
420
    65535
100
AcDbPoint
 10
-47.0012257505
 20
0.0003479427
 30
0.0
  0
LINE
  5
7A
330
1F
100
AcDbEntity
  8
1
 62
     4
420
    65535
100
AcDbLine
 10
73.3268851835
 20
-2.0996520573
 30
0.0
 11
73.3268851835
 21
2.1003479427
 31
0.0
  0
LINE
  5
7B
330
1F
100
AcDbEntity
  8
1
 62
     4
420
    65535
100
AcDbLine
 10
-58.6813898008
 20
2.1003479427
 30
0.0
 11
-58.6813898008
 21
-2.0996520573
 31
0.0
  0
LINE
  5
7C
330
1F
100
AcDbEntity
  8
1
 62
     4
420
    65535
100
AcDbLine
 10
-51.4674518519
 20
2.1003479427
 30
0.0
 11
-58.6813898008
 21
2.1003479427
 31
0.0
  0
ELLIPSE
  5
7D
330
1F
100
AcDbEntity
  8
1
 62
     4
420
    65535
100
AcDbEllipse
 10
-55.5989710324
 20
-46.2567993114
 30
0.0
 11
0.0
 21
50.75589098293888
 31
0.0
210
0.0
220
0.0
230
1.0
 40
0.2679491924
 41
5.858977517896465
 42
5.974519073507176
  0
ELLIPSE
  5
7E
330
1F
100
AcDbEntity
  8
1
 62
     4
420
    65535
100
AcDbEllipse
 10
-55.5989710324
 20
46.2574951968
 30
0.0
 11
0.0
 21
50.75589098293733
 31
0.0
210
0.0
220
0.0
230
1.0
 40
0.2679491924
 41
3.450258887262292
 42
3.565800442873003
  0
LINE
  5
7F
330
1F
100
AcDbEntity
  8
1
 62
     4
420
    65535
100
AcDbLine
 10
-58.6813898008
 20
-2.0996520573
 30
0.0
 11
-51.4674518519
 21
-2.0996520573
 31
0.0
  0
LINE
  5
80
330
1F
100
AcDbEntity
  8
1
 62
     4
420
    65535
100
AcDbLine
 10
68.3687742495
 20
1.119963185
 30
0.0
 11
66.6673897036
 21
0.0003479427
 31
0.0
  0
LINE
  5
81
330
1F
100
AcDbEntity
  8
1
 62
     4
420
    65535
100
AcDbLine
 10
66.6673897036
 20
0.0003479427
 30
0.0
 11
-50.0012257505
 21
0.0003479427
 31
0.0
  0
LINE
  5
82
330
1F
100
AcDbEntity
  8
1
 62
     4
420
    65535
100
AcDbLine
 10
69.3568984555
 20
2.1003479427
 30
0.0
 11
-51.4674518519
 21
2.1003479427
 31
0.0
  0
ELLIPSE
  5
83
330
1F
100
AcDbEntity
  8
1
 62
     4
420
    65535
100
AcDbEllipse
 10
67.3268851835
 20
23.1720786045
 30
0.0
 11
-2.415845301584341E-13
 21
22.39230484541352
 31
0.0
210
0.0
220
0.0
230
1.0
 40
0.2679491924
 41
3.316125578789273
 42
3.486740220678124
  0
LINE
  5
84
330
1F
100
AcDbEntity
  8
1
 62
     4
420
    65535
100
AcDbLine
 10
69.3568984555
 20
-2.0996520573
 30
0.0
 11
-51.4674518519
 21
-2.0996520573
 31
0.0
  0
LINE
  5
85
330
1F
100
AcDbEntity
  8
1
 62
     4
420
    65535
100
AcDbLine
 10
66.6673897036
 20
0.0003479427
 30
0.0
 11
68.3687742495
 21
-1.1192672996
 31
0.0
  0
ELLIPSE
  5
86
330
1F
100
AcDbEntity
  8
1
 62
     4
420
    65535
100
AcDbEllipse
 10
67.3268851835
 20
-23.1713827191
 30
0.0
 11
-2.415845301584341E-13
 21
22.39230484541302
 31
0.0
210
0.0
220
0.0
230
1.0
 40
0.2679491924
 41
5.938037740091339
 42
6.108652381980207
  0
LINE
  5
87
330
1F
100
AcDbEntity
  8
1
 62
     4
420
    65535
100
AcDbLine
 10
68.3687742495
 20
1.119963185
 30
0.0
 11
68.3687742495
 21
-1.1192672996
 31
0.0
  0
LINE
  5
88
330
1F
100
AcDbEntity
  8
1
 62
     4
420
    65535
100
AcDbLine
 10
73.3268851835
 20
2.1003479427
 30
0.0
 11
69.3568984555
 21
2.1003479427
 31
0.0
  0
LINE
  5
89
330
1F
100
AcDbEntity
  8
1
 62
     4
420
    65535
100
AcDbLine
 10
69.3568984555
 20
-2.0996520573
 30
0.0
 11
73.3268851835
 21
-2.0996520573
 31
0.0
  0
LINE
  5
8A
330
1F
100
AcDbEntity
  8
1
 62
     4
420
    65535
100
AcDbLine
 10
-66.5063142377
 20
2.1003479427
 30
0.0
 11
-66.5063142377
 21
-2.0996520573
 31
0.0
  0
LINE
  5
8B
330
1F
100
AcDbEntity
  8
1
 62
     4
420
    65535
100
AcDbLine
 10
-66.5063142377
 20
-2.0996520573
 30
0.0
 11
-58.6813898008
 21
-2.0996520573
 31
0.0
  0
LINE
  5
8C
330
1F
100
AcDbEntity
  8
1
 62
     4
420
    65535
100
AcDbLine
 10
-58.6813898008
 20
2.1003479427
 30
0.0
 11
-66.5063142377
 21
2.1003479427
 31
0.0
  0
LINE
  5
8D
330
1F
100
AcDbEntity
  8
1
 62
     4
420
    65535
100
AcDbLine
 10
-69.2212257505
 20
2.1003479427
 30
0.0
 11
-69.2212257505
 21
-2.0996520573
 31
0.0
  0
LINE
  5
8E
330
1F
100
AcDbEntity
  8
1
 62
     4
420
    65535
100
AcDbLine
 10
-69.2212257505
 20
-2.0996520573
 30
0.0
 11
-66.5063142377
 21
-2.0996520573
 31
0.0
  0
LINE
  5
8F
330
1F
100
AcDbEntity
  8
1
 62
     4
420
    65535
100
AcDbLine
 10
-66.5063142377
 20
2.1003479427
 30
0.0
 11
-69.2212257505
 21
2.1003479427
 31
0.0
  0
LINE
  5
90
330
1F
100
AcDbEntity
  8
1
 62
     4
420
    65535
100
AcDbLine
 10
73.6549532595
 20
2.1003479427
 30
0.0
 11
73.6549532595
 21
-2.0996520573
 31
0.0
  0
LINE
  5
91
330
1F
100
AcDbEntity
  8
1
 62
     4
420
    65535
100
AcDbLine
 10
73.3268851835
 20
-2.0996520573
 30
0.0
 11
73.6549532595
 21
-2.0996520573
 31
0.0
  0
LINE
  5
92
330
1F
100
AcDbEntity
  8
1
 62
     4
420
    65535
100
AcDbLine
 10
73.6549532595
 20
2.1003479427
 30
0.0
 11
73.3268851835
 21
2.1003479427
 31
0.0
  0
LINE
  5
93
330
1F
100
AcDbEntity
  8
1
 62
     4
420
    65535
100
AcDbLine
 10
-74.2012257505
 20
-0.1298793191
 30
0.0
 11
-74.2012257505
 21
0.1305752045
 31
0.0
  0
ELLIPSE
  5
94
330
1F
100
AcDbEntity
  8
1
 62
     4
420
    65535
100
AcDbEllipse
 10
-64.2012257505
 20
-1.4523509031
 30
0.0
 11
-0.9875792479909081
 21
29.04013705028965
 31
0.0
210
0.0
220
0.0
230
1.0
 40
0.3426676278
 41
1.440319635839507
 42
1.471877160204362
  0
LINE
  5
95
330
1F
100
AcDbEntity
  8
1
 62
     4
420
    65535
100
AcDbLine
 10
-69.2212257505
 20
1.9904333611
 30
0.0
 11
-74.196246777
 21
1.9904333611
 31
0.0
  0
LINE
  5
96
330
1F
100
AcDbEntity
  8
1
 62
     4
420
    65535
100
AcDbLine
 10
-74.2012257505
 20
0.1305752045
 30
0.0
 11
-74.2012257505
 21
1.0788356583
 31
0.0
  0
LINE
  5
97
330
1F
100
AcDbEntity
  8
1
 62
     4
420
    65535
100
AcDbLine
 10
-69.2212257505
 20
-1.9897374757
 30
0.0
 11
-74.196246777
 21
-1.9897374757
 31
0.0
  0
ELLIPSE
  5
98
330
1F
100
AcDbEntity
  8
1
 62
     4
420
    65535
100
AcDbEllipse
 10
-64.2012257505
 20
1.4530467885
 30
0.0
 11
0.9875792479908938
 21
29.04013705028966
 31
0.0
210
0.0
220
0.0
230
1.0
 40
0.3426676278
 41
1.669715493385431
 42
1.701273017750286
  0
LINE
  5
99
330
1F
100
AcDbEntity
  8
1
 62
     4
420
    65535
100
AcDbLine
 10
-74.2012257505
 20
-1.0781397729
 30
0.0
 11
-74.2012257505
 21
-0.1298793191
 31
0.0
  0
ELLIPSE
  5
9A
330
1F
100
AcDbEntity
  8
1
 62
     4
420
    65535
100
AcDbEllipse
 10
-73.9971679679
 20
1.8503479427
 30
0.0
 11
0.3044520511115962
 21
0.0
 31
0.0
210
0.0
220
0.0
230
1.0
 40
0.9853768398
 41
2.156481870252088
 42
2.283513759462165
  0
SPLINE
  5
9B
330
1F
100
AcDbEntity
  8
1
 62
     4
420
    65535
100
AcDbSpline
210
0.0
220
0.0
230
1.0
 70
     8
 71
     3
 72
     8
 73
     4
 74
     0
 42
0.000000001
 43
0.00000001
 40
0.0000484641184932
 40
0.0000484641184932
 40
0.0000484641184932
 40
0.0000484641184932
 40
0.0003647553242102
 40
0.0003647553242102
 40
0.0003647553242102
 40
0.0003647553242102
 10
-74.1962467769949
 20
2.077324271825097
 30
0.0
 10
-74.19956673945626
 20
2.083971622304477
 30
0.0
 10
-74.20122575049083
 20
2.091362838672013
 30
0.0
 10
-74.20122575049083
 20
2.098802238578907
 30
0.0
  0
LINE
  5
9C
330
1F
100
AcDbEntity
  8
1
 62
     4
420
    65535
100
AcDbLine
 10
-74.2012257505
 20
2.0988022386
 30
0.0
 11
-74.2012257505
 21
2.1003479427
 31
0.0
  0
LINE
  5
9D
330
1F
100
AcDbEntity
  8
1
 62
     4
420
    65535
100
AcDbLine
 10
-74.1654601713
 20
2.1003479427
 30
0.0
 11
-74.2012257505
 21
2.1003479427
 31
0.0
  0
LINE
  5
9E
330
1F
100
AcDbEntity
  8
1
 62
     4
420
    65535
100
AcDbLine
 10
-74.2012257505
 20
-2.0996520573
 30
0.0
 11
-74.2012257505
 21
-2.0981063532
 31
0.0
  0
SPLINE
  5
9F
330
1F
100
AcDbEntity
  8
1
 62
     4
420
    65535
100
AcDbSpline
210
0.0
220
0.0
230
1.0
 70
     8
 71
     3
 72
     8
 73
     4
 74
     0
 42
0.000000001
 43
0.00000001
 40
0.0
 40
0.0
 40
0.0
 40
0.0
 40
0.0003162912057093
 40
0.0003162912057093
 40
0.0003162912057093
 40
0.0003162912057093
 10
-74.20122575049083
 20
-2.098106353179612
 30
0.0
 10
-74.20122575049083
 20
-2.0906669532729
 30
0.0
 10
-74.19956673945637
 20
-2.083275736905545
 30
0.0
 10
-74.19624677699514
 20
-2.07662838642629
 30
0.0
  0
ELLIPSE
  5
A0
330
1F
100
AcDbEntity
  8
1
 62
     4
420
    65535
100
AcDbEllipse
 10
-73.9971679679
 20
-1.8496520573
 30
0.0
 11
0.3044520511115962
 21
0.0
 31
0.0
210
0.0
220
0.0
230
1.0
 40
0.9853768398
 41
3.999671547717911
 42
4.126703436927509
  0
LINE
  5
A1
330
1F
100
AcDbEntity
  8
1
 62
     4
420
    65535
100
AcDbLine
 10
-74.2012257505
 20
-2.0996520573
 30
0.0
 11
-74.1654601713
 21
-2.0996520573
 31
0.0
  0
LINE
  5
A2
330
1F
100
AcDbEntity
  8
1
 62
     4
420
    65535
100
AcDbLine
 10
-74.196246777
 20
2.0773242718
 30
0.0
 11
-74.196246777
 21
1.9904333611
 31
0.0
  0
LINE
  5
A3
330
1F
100
AcDbEntity
  8
1
 62
     4
420
    65535
100
AcDbLine
 10
-74.196246777
 20
-1.9897374757
 30
0.0
 11
-74.196246777
 21
-2.0766283864
 31
0.0
  0
LINE
  5
A4
330
1F
100
AcDbEntity
  8
1
 62
     4
420
    65535
100
AcDbLine
 10
-74.1654601713
 20
2.1003479427
 30
0.0
 11
-69.2212257505
 21
2.1003479427
 31
0.0
  0
LINE
  5
A5
330
1F
100
AcDbEntity
  8
1
 62
     4
420
    65535
100
AcDbLine
 10
-69.2212257505
 20
-2.0996520573
 30
0.0
 11
-74.1654601713
 21
-2.0996520573
 31
0.0
  0
SPLINE
  5
A6
330
1F
100
AcDbEntity
  8
1
 62
     4
420
    65535
100
AcDbSpline
210
0.0
220
0.0
230
1.0
 70
     8
 71
     3
 72
     8
 73
     4
 74
     0
 42
0.000000001
 43
0.00000001
 40
0.0
 40
0.0
 40
0.0
 40
0.0
 40
0.0003162912057093
 40
0.0003162912057093
 40
0.0003162912057093
 40
0.0003162912057093
 10
74.19877424950914
 20
-2.098106353179006
 30
0.0
 10
74.19877424950914
 20
-2.090666953272293
 30
0.0
 10
74.19711523847465
 20
-2.083275736904932
 30
0.0
 10
74.19379527601343
 20
-2.076628386425676
 30
0.0
  0
LINE
  5
A7
330
1F
100
AcDbEntity
  8
1
 62
     4
420
    65535
100
AcDbLine
 10
74.1987742495
 20
-2.0981063532
 30
0.0
 11
74.1987742495
 21
-2.0996520573
 31
0.0
  0
LINE
  5
A8
330
1F
100
AcDbEntity
  8
1
 62
     4
420
    65535
100
AcDbLine
 10
74.1987742495
 20
2.1003479427
 30
0.0
 11
74.1987742495
 21
2.0988022386
 31
0.0
  0
SPLINE
  5
A9
330
1F
100
AcDbEntity
  8
1
 62
     4
420
    65535
100
AcDbSpline
210
0.0
220
0.0
230
1.0
 70
     8
 71
     3
 72
     8
 73
     4
 74
     0
 42
0.000000001
 43
0.00000001
 40
0.0000484641184932
 40
0.0000484641184932
 40
0.0000484641184932
 40
0.0000484641184932
 40
0.0003647553242102
 40
0.0003647553242102
 40
0.0003647553242102
 40
0.0003647553242102
 10
74.19379527601312
 20
2.077324271825713
 30
0.0
 10
74.19711523847451
 20
2.083971622305092
 30
0.0
 10
74.19877424950909
 20
2.09136283867262
 30
0.0
 10
74.19877424950909
 20
2.098802238579513
 30
0.0
  0
LINE
  5
AA
330
1F
100
AcDbEntity
  8
1
 62
     4
420
    65535
100
AcDbLine
 10
74.193795276
 20
2.0773242718
 30
0.0
 11
74.193795276
 21
1.9904333611
 31
0.0
  0
ELLIPSE
  5
AB
330
1F
100
AcDbEntity
  8
1
 62
     4
420
    65535
100
AcDbEllipse
 10
64.1987742495
 20
-1.4523509031
 30
0.0
 11
0.9875792479905668
 21
29.04013705028977
 31
0.0
210
0.0
220
0.0
230
1.0
 40
0.3426676278
 41
4.811308146975229
 42
4.842865671340085
  0
LINE
  5
AC
330
1F
100
AcDbEntity
  8
1
 62
     4
420
    65535
100
AcDbLine
 10
74.1987742495
 20
1.0788356583
 30
0.0
 11
74.1987742495
 21
-1.0781397729
 31
0.0
  0
ELLIPSE
  5
AD
330
1F
100
AcDbEntity
  8
1
 62
     4
420
    65535
100
AcDbEllipse
 10
64.1987742495
 20
1.4530467885
 30
0.0
 11
-0.9875792479912207
 21
29.04013705028954
 31
0.0
210
0.0
220
0.0
230
1.0
 40
0.3426676278
 41
4.581912289429305
 42
4.613469813794159
  0
LINE
  5
AE
330
1F
100
AcDbEntity
  8
1
 62
     4
420
    65535
100
AcDbLine
 10
74.193795276
 20
-1.9897374757
 30
0.0
 11
74.193795276
 21
-2.0766283864
 31
0.0
  0
LINE
  5
AF
330
1F
100
AcDbEntity
  8
1
 62
     4
420
    65535
100
AcDbLine
 10
73.6549532595
 20
-2.0996520573
 30
0.0
 11
74.1987742495
 21
-2.0996520573
 31
0.0
  0
LINE
  5
B0
330
1F
100
AcDbEntity
  8
1
 62
     4
420
    65535
100
AcDbLine
 10
74.1987742495
 20
2.1003479427
 30
0.0
 11
73.6549532595
 21
2.1003479427
 31
0.0
  0
LINE
  5
B1
330
1F
100
AcDbEntity
  8
1
 62
     4
420
    65535
100
AcDbLine
 10
-69.2212257505
 20
0.1305752045
 30
0.0
 11
-74.2012257505
 21
0.1305752045
 31
0.0
  0
LINE
  5
B2
330
1F
100
AcDbEntity
  8
1
 62
     4
420
    65535
100
AcDbLine
 10
-69.2212257505
 20
-0.1298793191
 30
0.0
 11
-74.2012257505
 21
-0.1298793191
 31
0.0
  0
DIMENSION
  5
B3
330
1F
100
AcDbEntity
  8
2
 62
     7
420
 16777215
100
AcDbDimension
  2
_D
 10
-75.0012257505
 20
-12.0996520573
 30
0.0
 11
-0.0012257505
 21
-12.0996520573
 31
0.0
 70
   160
  1
<>
 71
     2
 42
-1.0
  3
SLDDIMSTYLE0
100
AcDbAlignedDimension
 13
74.9987742495
 23
0.0003479427
 33
0.0
 14
-75.0012257505
 24
0.0003479427
 34
0.0
 50
0.0
100
AcDbRotatedDimension
  0
DIMENSION
  5
BF
330
1F
100
AcDbEntity
  8
2
 62
     7
420
 16777215
100
AcDbDimension
  2
_D_1
 10
-84.2012257505
 20
-2.0996520573
 30
0.0
 11
-84.2012257505
 21
-14.2684023009
 31
0.0
 70
   160
  1
<>
 71
     2
 42
-1.0
  3
SLDDIMSTYLE1
100
AcDbAlignedDimension
 13
-74.2012257505
 23
2.1003479427
 33
0.0
 14
-74.2012257505
 24
-2.0996520573
 34
0.0
 50
90.0
100
AcDbRotatedDimension
  0
LINE
  5
CC
330
1F
100
AcDbEntity
  8
0
  6
SLD-Punktstrich
 62
     7
100
AcDbLine
 10
74.9987742495
 20
49.9887787853
 30
0.0
 11
-75.0012257505
 21
49.9887787853
 31
0.0
  0
LINE
  5
CD
330
1F
100
AcDbEntity
  8
0
  6
SLD-Punktstrich
 62
     7
100
AcDbLine
 10
-75.0012257505
 20
74.4260854812
 30
0.0
 11
-65.0392787696
 21
73.5545280537
 31
0.0
  0
POINT
  5
CE
330
1F
100
AcDbEntity
  8
1
 62
     4
420
    65535
100
AcDbPoint
 10
-75.0012257505
 20
49.9887787853
 30
0.0
  0
POINT
  5
CF
330
1F
100
AcDbEntity
  8
1
 62
     4
420
    65535
100
AcDbPoint
 10
-47.0012257505
 20
49.9887787853
 30
0.0
  0
POINT
  5
D0
330
1F
100
AcDbEntity
  8
1
 62
     4
420
    65535
100
AcDbPoint
 10
-75.0012257505
 20
74.4260854812
 30
0.0
  0
POINT
  5
D1
330
1F
100
AcDbEntity
  8
1
 62
     4
420
    65535
100
AcDbPoint
 10
-0.0012257505
 20
81.4260854812
 30
0.0
  0
POINT
  5
D2
330
1F
100
AcDbEntity
  8
1
 62
     4
420
    65535
100
AcDbPoint
 10
-0.0012257505
 20
49.4260854812
 30
0.0
  0
LINE
  5
D3
330
1F
100
AcDbEntity
  8
1
 62
     4
420
    65535
100
AcDbLine
 10
-69.0111028674
 20
73.3075624645
 30
0.0
 11
-62.1932877666
 21
72.7110809332
 31
0.0
  0
LINE
  5
D4
330
1F
100
AcDbEntity
  8
1
 62
     4
420
    65535
100
AcDbLine
 10
-61.8498865926
 20
67.345118622
 30
0.0
 11
-74.2012257505
 21
68.4257207776
 31
0.0
  0
LINE
  5
D5
330
1F
100
AcDbEntity
  8
1
 62
     4
420
    65535
100
AcDbLine
 10
69.0086513664
 20
57.5446084979
 30
0.0
 11
62.1908362656
 21
58.1410900292
 31
0.0
  0
LINE
  5
D6
330
1F
100
AcDbEntity
  8
1
 62
     4
420
    65535
100
AcDbLine
 10
61.8474350916
 20
63.5070523404
 30
0.0
 11
74.1987742495
 21
62.4264501848
 31
0.0
  0
LINE
  5
D7
330
1F
100
AcDbEntity
  8
1
 62
     4
420
    65535
100
AcDbLine
 10
69.2187742495
 20
54.9897667422
 30
0.0
 11
66.5038627367
 21
52.7116854931
 31
0.0
  0
ARC
  5
D8
330
1F
100
AcDbEntity
  8
1
 62
     4
420
    65535
100
AcDbCircle
 10
60.7187742495
 20
59.6060854812
 30
0.0
 40
9.000000000000005
100
AcDbArc
 50
256.9001687491
 51
310.0
  0
ARC
  5
D9
330
1F
100
AcDbEntity
  8
1
 62
     4
420
    65535
100
AcDbCircle
 10
55.5965195314
 20
37.5942135344
 30
0.0
 40
13.60000000000001
100
AcDbArc
 50
76.9001687491
 51
107.6852724676
  0
LINE
  5
DA
330
1F
100
AcDbEntity
  8
1
 62
     4
420
    65535
100
AcDbLine
 10
51.4650003509
 20
50.5514720894
 30
0.0
 11
-69.3593499565
 21
50.5514720894
 31
0.0
  0
ARC
  5
DB
330
1F
100
AcDbEntity
  8
1
 62
     4
420
    65535
100
AcDbCircle
 10
-67.3293366845
 20
56.1976253034
 30
0.0
 40
6.000000000000022
100
AcDbArc
 50
168.0975999861
 51
250.2245010966
  0
ARC
  5
DC
330
1F
100
AcDbEntity
  8
1
 62
     4
420
    65535
100
AcDbCircle
 10
-86.8014935845
 20
60.3019042489
 30
0.0
 40
13.90000000000003
100
AcDbArc
 50
348.0975999861
 51
18.9825122641
  0
ARC
  5
DD
330
1F
100
AcDbEntity
  8
1
 62
     4
420
    65535
100
AcDbCircle
 10
-64.2012257505
 20
68.0760854812
 30
0.0
 40
10.00000000000002
100
AcDbArc
 50
180.0
 51
198.9825122641
  0
LINE
  5
DE
330
1F
100
AcDbEntity
  8
1
 62
     4
420
    65535
100
AcDbLine
 10
-74.2012257505
 20
68.0760854812
 30
0.0
 11
-74.2012257505
 21
68.0981558902
 31
0.0
  0
LINE
  5
DF
330
1F
100
AcDbEntity
  8
1
 62
     4
420
    65535
100
AcDbLine
 10
-74.2012257505
 20
68.0981558902
 30
0.0
 11
-74.1654601713
 21
67.757869135
 31
0.0
  0
LINE
  5
E0
330
1F
100
AcDbEntity
  8
1
 62
     4
420
    65535
100
AcDbLine
 10
-63.3861153665
 20
66.8147986643
 30
0.0
 11
-74.1654601713
 21
67.757869135
 31
0.0
  0
ARC
  5
E1
330
1F
100
AcDbEntity
  8
1
 62
     4
420
    65535
100
AcDbCircle
 10
-63.211803881
 20
68.8071880605
 30
0.0
 40
2.000000000000002
100
AcDbArc
 50
265.0
 51
344.6302401945
  0
LINE
  5
E2
330
1F
100
AcDbEntity
  8
1
 62
     4
420
    65535
100
AcDbLine
 10
-61.6920393162
 20
72.165674192
 30
0.0
 11
-61.2833330249
 21
68.2770935812
 31
0.0
  0
ARC
  5
E3
330
1F
100
AcDbEntity
  8
1
 62
     4
420
    65535
100
AcDbCircle
 10
-64.3244770792
 20
70.2596911323
 30
0.0
 40
3.250000000000002
100
AcDbArc
 50
35.9059395342
 51
85.0
  0
LINE
  5
E4
330
1F
100
AcDbEntity
  8
1
 62
     4
420
    65535
100
AcDbLine
 10
-68.9568751665
 20
73.9273879219
 30
0.0
 11
-64.0412209153
 21
73.4973239011
 31
0.0
  0
LINE
  5
E5
330
1F
100
AcDbEntity
  8
1
 62
     4
420
    65535
100
AcDbLine
 10
-69.2212257505
 20
74.4693869397
 30
0.0
 11
-68.9568751665
 21
73.9273879219
 31
0.0
  0
LINE
  5
E6
330
1F
100
AcDbEntity
  8
1
 62
     4
420
    65535
100
AcDbLine
 10
-69.2212257505
 20
74.4693869397
 30
0.0
 11
-69.2212257505
 21
75.8624042202
 31
0.0
  0
LINE
  5
E7
330
1F
100
AcDbEntity
  8
1
 62
     4
420
    65535
100
AcDbLine
 10
-69.2212257505
 20
75.8624042202
 30
0.0
 11
-66.5063142377
 21
78.1404854693
 31
0.0
  0
ARC
  5
E8
330
1F
100
AcDbEntity
  8
1
 62
     4
420
    65535
100
AcDbCircle
 10
-60.7212257505
 20
71.2460854812
 30
0.0
 40
9.000000000000007
100
AcDbArc
 50
76.9001687491
 51
130.0
  0
ARC
  5
E9
330
1F
100
AcDbEntity
  8
1
 62
     4
420
    65535
100
AcDbCircle
 10
-55.5989710324
 20
93.257957428
 30
0.0
 40
13.60000000000001
100
AcDbArc
 50
256.9001687491
 51
287.6852724676
  0
LINE
  5
EA
330
1F
100
AcDbEntity
  8
1
 62
     4
420
    65535
100
AcDbLine
 10
69.3568984555
 20
80.300698873
 30
0.0
 11
-51.4674518519
 21
80.300698873
 31
0.0
  0
ARC
  5
EB
330
1F
100
AcDbEntity
  8
1
 62
     4
420
    65535
100
AcDbCircle
 10
67.3268851835
 20
74.654545659
 30
0.0
 40
6.000000000000044
100
AcDbArc
 50
348.0975999861
 51
70.2245010966
  0
ARC
  5
EC
330
1F
100
AcDbEntity
  8
1
 62
     4
420
    65535
100
AcDbCircle
 10
86.7990420835
 20
70.5502667135
 30
0.0
 40
13.90000000000001
100
AcDbArc
 50
168.0975999861
 51
198.9825122641
  0
ARC
  5
ED
330
1F
100
AcDbEntity
  8
1
 62
     4
420
    65535
100
AcDbCircle
 10
64.1987742495
 20
62.7760854812
 30
0.0
 40
10.00000000000001
100
AcDbArc
 50
0.0
 51
18.9825122641
  0
LINE
  5
EE
330
1F
100
AcDbEntity
  8
1
 62
     4
420
    65535
100
AcDbLine
 10
74.1987742495
 20
62.7760854812
 30
0.0
 11
74.1987742495
 21
62.7540150722
 31
0.0
  0
LINE
  5
EF
330
1F
100
AcDbEntity
  8
1
 62
     4
420
    65535
100
AcDbLine
 10
74.1987742495
 20
62.7540150722
 30
0.0
 11
74.1630086703
 21
63.0943018274
 31
0.0
  0
LINE
  5
F0
330
1F
100
AcDbEntity
  8
1
 62
     4
420
    65535
100
AcDbLine
 10
63.3836638655
 20
64.0373722981
 30
0.0
 11
74.1630086703
 21
63.0943018274
 31
0.0
  0
ARC
  5
F1
330
1F
100
AcDbEntity
  8
1
 62
     4
420
    65535
100
AcDbCircle
 10
63.20935238
 20
62.0449829019
 30
0.0
 40
2.000000000000016
100
AcDbArc
 50
85.0
 51
164.6302401945
  0
LINE
  5
F2
330
1F
100
AcDbEntity
  8
1
 62
     4
420
    65535
100
AcDbLine
 10
61.6895878153
 20
58.6864967704
 30
0.0
 11
61.2808815239
 21
62.5750773813
 31
0.0
  0
ARC
  5
F3
330
1F
100
AcDbEntity
  8
1
 62
     4
420
    65535
100
AcDbCircle
 10
64.3220255782
 20
60.5924798301
 30
0.0
 40
3.250000000000004
100
AcDbArc
 50
215.9059395342
 51
265.0
  0
LINE
  5
F4
330
1F
100
AcDbEntity
  8
1
 62
     4
420
    65535
100
AcDbLine
 10
68.9544236655
 20
56.9247830406
 30
0.0
 11
64.0387694143
 21
57.3548470614
 31
0.0
  0
LINE
  5
F5
330
1F
100
AcDbEntity
  8
1
 62
     4
420
    65535
100
AcDbLine
 10
69.2187742495
 20
56.3827840227
 30
0.0
 11
68.9544236655
 21
56.9247830406
 31
0.0
  0
LINE
  5
F6
330
1F
100
AcDbEntity
  8
1
 62
     4
420
    65535
100
AcDbLine
 10
69.2187742495
 20
56.3827840227
 30
0.0
 11
69.2187742495
 21
54.9897667422
 31
0.0
  0
ARC
  5
F7
330
1F
100
AcDbEntity
  8
1
 62
     4
420
    65535
100
AcDbCircle
 10
-55.5989710324
 20
93.257957428
 30
0.0
 40
13.60000000000001
100
AcDbArc
 50
287.6852724676
 51
294.3053159625
  0
LINE
  5
F8
330
1F
100
AcDbEntity
  8
1
 62
     4
420
    65535
100
AcDbLine
 10
66.6673897036
 20
80.8633921771
 30
0.0
 11
-50.0012257505
 21
80.8633921771
 31
0.0
  0
LINE
  5
F9
330
1F
100
AcDbEntity
  8
1
 62
     4
420
    65535
100
AcDbLine
 10
66.6673897036
 20
80.8633921771
 30
0.0
 11
68.3687742495
 21
80.5633921771
 31
0.0
  0
ARC
  5
FA
330
1F
100
AcDbEntity
  8
1
 62
     4
420
    65535
100
AcDbCircle
 10
67.3268851835
 20
74.654545659
 30
0.0
 40
5.999999999999736
100
AcDbArc
 50
70.2245010966
 51
80.0
  0
LINE
  5
FB
330
1F
100
AcDbEntity
  8
1
 62
     4
420
    65535
100
AcDbLine
 10
49.9987742495
 20
49.9887787853
 30
0.0
 11
-66.6698412046
 21
49.9887787853
 31
0.0
  0
LINE
  5
FC
330
1F
100
AcDbEntity
  8
1
 62
     4
420
    65535
100
AcDbLine
 10
-66.6698412046
 20
49.9887787853
 30
0.0
 11
-68.3712257505
 21
50.2887787853
 31
0.0
  0
ARC
  5
FD
330
1F
100
AcDbEntity
  8
1
 62
     4
420
    65535
100
AcDbCircle
 10
-67.3293366845
 20
56.1976253034
 30
0.0
 40
6.000000000000022
100
AcDbArc
 50
250.2245010966
 51
260.0
  0
ARC
  5
FE
330
1F
100
AcDbEntity
  8
1
 62
     4
420
    65535
100
AcDbCircle
 10
55.5965195314
 20
37.5942135344
 30
0.0
 40
13.60000000000034
100
AcDbArc
 50
107.6852724676
 51
114.3053159625
  0
LINE
  5
FF
330
1F
100
AcDbEntity
  8
1
 62
     4
420
    65535
100
AcDbLine
 10
-74.2012257505
 20
68.0981558902
 30
0.0
 11
-74.2012257505
 21
68.4038449638
 31
0.0
  0
LINE
  5
100
330
1F
100
AcDbEntity
  8
1
 62
     4
420
    65535
100
AcDbLine
 10
-61.86908681
 20
67.3249226095
 30
0.0
 11
-74.2012257505
 21
68.4038449638
 31
0.0
  0
LINE
  5
101
330
1F
100
AcDbEntity
  8
1
 62
     4
420
    65535
100
AcDbLine
 10
74.1987742495
 20
62.7540150722
 30
0.0
 11
74.1987742495
 21
62.4483259986
 31
0.0
  0
LINE
  5
102
330
1F
100
AcDbEntity
  8
1
 62
     4
420
    65535
100
AcDbLine
 10
61.866635309
 20
63.5272483529
 30
0.0
 11
74.1987742495
 21
62.4483259986
 31
0.0
  0
LINE
  5
103
330
1F
100
AcDbEntity
  8
1
 62
     4
420
    65535
100
AcDbLine
 10
-62.2186582862
 20
72.7351763799
 30
0.0
 11
-69.0092035198
 21
73.329272107
 31
0.0
  0
LINE
  5
104
330
1F
100
AcDbEntity
  8
1
 62
     4
420
    65535
100
AcDbLine
 10
-68.9568751665
 20
73.9273879219
 30
0.0
 11
-69.0092035198
 21
73.329272107
 31
0.0
  0
LINE
  5
105
330
1F
100
AcDbEntity
  8
1
 62
     4
420
    65535
100
AcDbLine
 10
62.2162067852
 20
58.1169945825
 30
0.0
 11
69.0067520188
 21
57.5228988554
 31
0.0
  0
LINE
  5
106
330
1F
100
AcDbEntity
  8
1
 62
     4
420
    65535
100
AcDbLine
 10
68.9544236655
 20
56.9247830406
 30
0.0
 11
69.0067520188
 21
57.5228988554
 31
0.0
  0
LINE
  5
107
330
1F
100
AcDbEntity
  8
1
 62
     4
420
    65535
100
AcDbLine
 10
-69.0092035198
 20
73.329272107
 30
0.0
 11
-69.0111028674
 21
73.3075624645
 31
0.0
  0
LINE
  5
108
330
1F
100
AcDbEntity
  8
1
 62
     4
420
    65535
100
AcDbLine
 10
-74.2012257505
 20
68.4038449638
 30
0.0
 11
-74.2012257505
 21
68.4257207776
 31
0.0
  0
LINE
  5
109
330
1F
100
AcDbEntity
  8
1
 62
     4
420
    65535
100
AcDbLine
 10
69.0067520188
 20
57.5228988554
 30
0.0
 11
69.0086513664
 21
57.5446084979
 31
0.0
  0
LINE
  5
10A
330
1F
100
AcDbEntity
  8
1
 62
     4
420
    65535
100
AcDbLine
 10
74.1987742495
 20
62.4483259986
 30
0.0
 11
74.1987742495
 21
62.4264501848
 31
0.0
  0
DIMENSION
  5
10B
330
1F
100
AcDbEntity
  8
2
 62
     7
420
 16777215
100
AcDbDimension
  2
_D_2
 10
-90.2012257505
 20
81.4260854812
 30
0.0
 11
-90.2012257505
 21
65.4260854812
 31
0.0
 70
   160
  1
<>
 71
     2
 42
-1.0
  3
SLDDIMSTYLE0
100
AcDbAlignedDimension
 13
-0.0012257505
 23
49.4260854812
 33
0.0
 14
-0.0012257505
 24
81.4260854812
 34
0.0
 50
90.0
100
AcDbRotatedDimension
  0
DIMENSION
  5
115
330
1F
100
AcDbEntity
  8
2
 62
     7
420
 16777215
100
AcDbDimension
  2
_D_3
 10
-84.2012257505
 20
49.4260854812
 30
0.0
 11
-84.2012257505
 21
61.9260854812
 31
0.0
 70
   160
  1
<>
 71
     2
 42
-1.0
  3
SLDDIMSTYLE0
100
AcDbAlignedDimension
 13
-75.0012257505
 23
74.4260854812
 33
0.0
 14
-0.0012257505
 24
49.4260854812
 34
0.0
 50
90.0
100
AcDbRotatedDimension
  0
ENDSEC
  0
SECTION
  2
OBJECTS
  0
DICTIONARY
  5
C
330
0
100
AcDbDictionary
281
     1
  3
ACAD_DETAILVIEWSTYLE
350
128
  3
ACAD_GROUP
350
D
  3
ACAD_LAYOUT
350
1A
  3
ACAD_MATERIAL
350
43
  3
ACAD_MLEADERSTYLE
350
6B
  3
ACAD_MLINESTYLE
350
17
  3
ACAD_PLOTSETTINGS
350
19
  3
ACAD_PLOTSTYLENAME
350
E
  3
ACAD_SCALELIST
350
47
  3
ACAD_SECTIONVIEWSTYLE
350
129
  3
ACAD_TABLESTYLE
350
69
  3
ACDB_RECOMPOSE_DATA
350
125
  3
AcDbVariableDictionary
350
11F
  0
DICTIONARY
  5
128
102
{ACAD_REACTORS
330
C
102
}
330
C
100
AcDbDictionary
281
     1
  0
DICTIONARY
  5
D
102
{ACAD_REACTORS
330
C
102
}
330
C
100
AcDbDictionary
281
     1
  0
DICTIONARY
  5
1A
102
{ACAD_REACTORS
330
C
102
}
330
C
100
AcDbDictionary
281
     1
  3
Layout1
350
1E
  3
Layout2
350
26
  3
Model
350
22
  0
DICTIONARY
  5
43
102
{ACAD_REACTORS
330
C
102
}
330
C
100
AcDbDictionary
281
     1
  3
ByBlock
350
45
  3
ByLayer
350
44
  3
Global
350
46
  0
DICTIONARY
  5
6B
102
{ACAD_REACTORS
330
C
102
}
330
C
100
AcDbDictionary
281
     1
  3
Standard
350
6C
  0
DICTIONARY
  5
17
102
{ACAD_REACTORS
330
C
102
}
330
C
100
AcDbDictionary
281
     1
  3
Standard
350
18
  0
DICTIONARY
  5
19
102
{ACAD_REACTORS
330
C
102
}
330
C
100
AcDbDictionary
281
     1
  0
ACDBDICTIONARYWDFLT
  5
E
102
{ACAD_REACTORS
330
C
102
}
330
C
100
AcDbDictionary
281
     1
  3
Normal
350
F
100
AcDbDictionaryWithDefault
340
F
  0
DICTIONARY
  5
47
102
{ACAD_REACTORS
330
C
102
}
330
C
100
AcDbDictionary
281
     1
  3
A0
350
48
  3
A1
350
49
  3
A2
350
4A
  3
A3
350
4B
  3
A4
350
4C
  3
A5
350
4D
  3
A6
350
4E
  3
A7
350
4F
  3
A8
350
50
  3
A9
350
51
  3
B0
350
52
  3
B1
350
53
  3
B2
350
54
  3
B3
350
55
  3
B4
350
56
  3
B5
350
57
  3
B6
350
58
  3
B7
350
59
  3
B8
350
5A
  3
B9
350
5B
  3
C0
350
5C
  3
C1
350
5D
  3
C2
350
5E
  3
C3
350
5F
  3
C4
350
60
  3
C5
350
61
  3
C6
350
62
  3
C7
350
63
  3
C8
350
64
  3
C9
350
65
  3
D0
350
66
  3
D1
350
67
  3
D2
350
68
  0
DICTIONARY
  5
129
102
{ACAD_REACTORS
330
C
102
}
330
C
100
AcDbDictionary
281
     1
  0
DICTIONARY
  5
69
102
{ACAD_REACTORS
330
C
102
}
330
C
100
AcDbDictionary
281
     1
  3
Standard
350
6A
  0
XRECORD
  5
125
102
{ACAD_REACTORS
330
C
102
}
330
C
100
AcDbXrecord
280
     1
 90
        1
330
6A
  0
DICTIONARY
  5
11F
102
{ACAD_REACTORS
330
C
102
}
330
C
100
AcDbDictionary
281
     1
  3
CANNOSCALE
350
120
  3
CMLEADERSTYLE
350
127
  3
CTABLESTYLE
350
126
  0
LAYOUT
  5
1E
102
{ACAD_REACTORS
330
1A
102
}
330
1A
100
AcDbPlotSettings
  1

  2
none_device
  4

  6

 40
0.0
 41
0.0
 42
0.0
 43
0.0
 44
0.0
 45
0.0
 46
0.0
 47
0.0
 48
0.0
 49
0.0
140
0.0
141
0.0
142
1.0
143
1.0
 70
   688
 72
     1
 73
     0
 74
     5
  7

 75
    16
 76
     0
 77
     2
 78
   300
147
1.0
148
0.0
149
0.0
100
AcDbLayout
  1
Layout1
 70
     1
 71
     1
 10
0.0
 20
0.0
 11
420.0
 21
297.0
 12
0.0
 22
0.0
 32
0.0
 14
1.0000000000E+20
 24
1.0000000000E+20
 34
1.0000000000E+20
 15
-1.0000000000E+20
 25
-1.0000000000E+20
 35
-1.0000000000E+20
146
0.0
 13
0.0
 23
0.0
 33
0.0
 16
1.0
 26
0.0
 36
0.0
 17
0.0
 27
1.0
 37
0.0
 76
     0
330
1B
  0
LAYOUT
  5
26
102
{ACAD_REACTORS
330
1A
102
}
330
1A
100
AcDbPlotSettings
  1

  2
none_device
  4

  6

 40
0.0
 41
0.0
 42
0.0
 43
0.0
 44
0.0
 45
0.0
 46
0.0
 47
0.0
 48
0.0
 49
0.0
140
0.0
141
0.0
142
1.0
143
1.0
 70
   688
 72
     1
 73
     0
 74
     5
  7

 75
    16
 76
     0
 77
     2
 78
   300
147
1.0
148
0.0
149
0.0
100
AcDbLayout
  1
Layout2
 70
     1
 71
     2
 10
0.0
 20
0.0
 11
0.0
 21
0.0
 12
0.0
 22
0.0
 32
0.0
 14
0.0
 24
0.0
 34
0.0
 15
0.0
 25
0.0
 35
0.0
146
0.0
 13
0.0
 23
0.0
 33
0.0
 16
1.0
 26
0.0
 36
0.0
 17
0.0
 27
1.0
 37
0.0
 76
     0
330
23
  0
LAYOUT
  5
22
102
{ACAD_REACTORS
330
1A
102
}
330
1A
100
AcDbPlotSettings
  1

  2
none_device
  4
Letter_(8.50_x_11.00_Inches)
  6

 40
6.35
 41
6.35
 42
6.35000508
 43
6.35000508
 44
215.9
 45
279.4
 46
0.0
 47
0.0
 48
0.0
 49
0.0
140
0.0
141
0.0
142
1.0
143
1.0
 70
  1712
 72
     1
 73
     0
 74
     0
  7

 75
     0
 76
     0
 77
     2
 78
   300
147
1.0
148
0.0
149
0.0
100
AcDbLayout
  1
Model
 70
     1
 71
     0
 10
0.0
 20
0.0
 11
297.0
 21
210.0
 12
0.0
 22
0.0
 32
0.0
 14
0.0
 24
0.0
 34
0.0
 15
297.0
 25
210.0
 35
0.0
146
0.0
 13
0.0
 23
0.0
 33
0.0
 16
1.0
 26
0.0
 36
0.0
 17
0.0
 27
1.0
 37
0.0
 76
     0
330
1F
331
29
  0
MATERIAL
  5
45
102
{ACAD_REACTORS
330
43
102
}
330
43
100
AcDbMaterial
  1
ByBlock
  0
MATERIAL
  5
44
102
{ACAD_REACTORS
330
43
102
}
330
43
100
AcDbMaterial
  1
ByLayer
  0
MATERIAL
  5
46
102
{ACAD_REACTORS
330
43
102
}
330
43
100
AcDbMaterial
  1
Global
  0
MLEADERSTYLE
  5
6C
102
{ACAD_REACTORS
330
6B
102
}
330
6B
100
AcDbMLeaderStyle
170
     2
171
     1
172
     0
 90
        2
 40
0.0
 41
0.0
173
     1
 91
-1056964608
340
14
 92
       -2
290
     1
 42
2.0
291
     1
 43
8.0
  3
Standard
341
0
 44
4.0
300

342
11
174
     1
178
     6
175
     1
176
     0
 93
-1056964608
 45
4.0
292
     0
297
     0
 46
4.0
343
0
 94
-1056964608
 47
1.0
 49
1.0
140
1.0
293
     1
141
0.0
294
     1
177
     0
142
1.0
295
     0
296
     0
143
3.75
1001
ACAD_MLEADERVER
1070
     2
  0
MLINESTYLE
  5
18
102
{ACAD_REACTORS
330
17
102
}
330
17
100
AcDbMlineStyle
  2
Standard
 70
     0
  3

 62
   256
 51
90.0
 52
90.0
 71
     2
 49
0.5
 62
   256
  6
BYLAYER
 49
-0.5
 62
   256
  6
BYLAYER
  0
ACDBPLACEHOLDER
  5
F
102
{ACAD_REACTORS
330
E
102
}
330
E
  0
SCALE
  5
48
102
{ACAD_REACTORS
330
47
102
}
330
47
100
AcDbScale
 70
     0
300
1:1
140
1.0
141
1.0
290
     1
  0
SCALE
  5
49
102
{ACAD_REACTORS
330
47
102
}
330
47
100
AcDbScale
 70
     0
300
1:2
140
1.0
141
2.0
290
     0
  0
SCALE
  5
4A
102
{ACAD_REACTORS
330
47
102
}
330
47
100
AcDbScale
 70
     0
300
1:4
140
1.0
141
4.0
290
     0
  0
SCALE
  5
4B
102
{ACAD_REACTORS
330
47
102
}
330
47
100
AcDbScale
 70
     0
300
1:5
140
1.0
141
5.0
290
     0
  0
SCALE
  5
4C
102
{ACAD_REACTORS
330
47
102
}
330
47
100
AcDbScale
 70
     0
300
1:8
140
1.0
141
8.0
290
     0
  0
SCALE
  5
4D
102
{ACAD_REACTORS
330
47
102
}
330
47
100
AcDbScale
 70
     0
300
1:10
140
1.0
141
10.0
290
     0
  0
SCALE
  5
4E
102
{ACAD_REACTORS
330
47
102
}
330
47
100
AcDbScale
 70
     0
300
1:16
140
1.0
141
16.0
290
     0
  0
SCALE
  5
4F
102
{ACAD_REACTORS
330
47
102
}
330
47
100
AcDbScale
 70
     0
300
1:20
140
1.0
141
20.0
290
     0
  0
SCALE
  5
50
102
{ACAD_REACTORS
330
47
102
}
330
47
100
AcDbScale
 70
     0
300
1:30
140
1.0
141
30.0
290
     0
  0
SCALE
  5
51
102
{ACAD_REACTORS
330
47
102
}
330
47
100
AcDbScale
 70
     0
300
1:40
140
1.0
141
40.0
290
     0
  0
SCALE
  5
52
102
{ACAD_REACTORS
330
47
102
}
330
47
100
AcDbScale
 70
     0
300
1:50
140
1.0
141
50.0
290
     0
  0
SCALE
  5
53
102
{ACAD_REACTORS
330
47
102
}
330
47
100
AcDbScale
 70
     0
300
1:100
140
1.0
141
100.0
290
     0
  0
SCALE
  5
54
102
{ACAD_REACTORS
330
47
102
}
330
47
100
AcDbScale
 70
     0
300
2:1
140
2.0
141
1.0
290
     0
  0
SCALE
  5
55
102
{ACAD_REACTORS
330
47
102
}
330
47
100
AcDbScale
 70
     0
300
4:1
140
4.0
141
1.0
290
     0
  0
SCALE
  5
56
102
{ACAD_REACTORS
330
47
102
}
330
47
100
AcDbScale
 70
     0
300
8:1
140
8.0
141
1.0
290
     0
  0
SCALE
  5
57
102
{ACAD_REACTORS
330
47
102
}
330
47
100
AcDbScale
 70
     0
300
10:1
140
10.0
141
1.0
290
     0
  0
SCALE
  5
58
102
{ACAD_REACTORS
330
47
102
}
330
47
100
AcDbScale
 70
     0
300
100:1
140
100.0
141
1.0
290
     0
  0
SCALE
  5
59
102
{ACAD_REACTORS
330
47
102
}
330
47
100
AcDbScale
 70
     0
300
1/128" = 1'-0"
140
0.0078125
141
12.0
290
     0
  0
SCALE
  5
5A
102
{ACAD_REACTORS
330
47
102
}
330
47
100
AcDbScale
 70
     0
300
1/64" = 1'-0"
140
0.015625
141
12.0
290
     0
  0
SCALE
  5
5B
102
{ACAD_REACTORS
330
47
102
}
330
47
100
AcDbScale
 70
     0
300
1/32" = 1'-0"
140
0.03125
141
12.0
290
     0
  0
SCALE
  5
5C
102
{ACAD_REACTORS
330
47
102
}
330
47
100
AcDbScale
 70
     0
300
1/16" = 1'-0"
140
0.0625
141
12.0
290
     0
  0
SCALE
  5
5D
102
{ACAD_REACTORS
330
47
102
}
330
47
100
AcDbScale
 70
     0
300
3/32" = 1'-0"
140
0.09375
141
12.0
290
     0
  0
SCALE
  5
5E
102
{ACAD_REACTORS
330
47
102
}
330
47
100
AcDbScale
 70
     0
300
1/8" = 1'-0"
140
0.125
141
12.0
290
     0
  0
SCALE
  5
5F
102
{ACAD_REACTORS
330
47
102
}
330
47
100
AcDbScale
 70
     0
300
3/16" = 1'-0"
140
0.1875
141
12.0
290
     0
  0
SCALE
  5
60
102
{ACAD_REACTORS
330
47
102
}
330
47
100
AcDbScale
 70
     0
300
1/4" = 1'-0"
140
0.25
141
12.0
290
     0
  0
SCALE
  5
61
102
{ACAD_REACTORS
330
47
102
}
330
47
100
AcDbScale
 70
     0
300
3/8" = 1'-0"
140
0.375
141
12.0
290
     0
  0
SCALE
  5
62
102
{ACAD_REACTORS
330
47
102
}
330
47
100
AcDbScale
 70
     0
300
1/2" = 1'-0"
140
0.5
141
12.0
290
     0
  0
SCALE
  5
63
102
{ACAD_REACTORS
330
47
102
}
330
47
100
AcDbScale
 70
     0
300
3/4" = 1'-0"
140
0.75
141
12.0
290
     0
  0
SCALE
  5
64
102
{ACAD_REACTORS
330
47
102
}
330
47
100
AcDbScale
 70
     0
300
1" = 1'-0"
140
1.0
141
12.0
290
     0
  0
SCALE
  5
65
102
{ACAD_REACTORS
330
47
102
}
330
47
100
AcDbScale
 70
     0
300
1-1/2" = 1'-0"
140
1.5
141
12.0
290
     0
  0
SCALE
  5
66
102
{ACAD_REACTORS
330
47
102
}
330
47
100
AcDbScale
 70
     0
300
3" = 1'-0"
140
3.0
141
12.0
290
     0
  0
SCALE
  5
67
102
{ACAD_REACTORS
330
47
102
}
330
47
100
AcDbScale
 70
     0
300
6" = 1'-0"
140
6.0
141
12.0
290
     0
  0
SCALE
  5
68
102
{ACAD_REACTORS
330
47
102
}
330
47
100
AcDbScale
 70
     0
300
1'-0" = 1'-0"
140
12.0
141
12.0
290
     0
  0
TABLESTYLE
  5
6A
102
{ACAD_REACTORS
330
69
102
}
102
{ACAD_XDICTIONARY
360
121
102
}
330
69
100
AcDbTableStyle
  3
Standard
 70
     0
 71
     0
 40
0.06
 41
0.06
280
     0
281
     0
  7
Standard
140
4.5
170
     2
 62
     0
 63
   257
283
     0
274
    -2
284
     1
 64
     0
275
    -2
285
     1
 65
     0
276
    -2
286
     1
 66
     0
277
    -2
287
     1
 67
     0
278
    -2
288
     1
 68
     0
279
    -2
289
     1
 69
     0
  7
Standard
140
6.0
170
     5
 62
     0
 63
   257
283
     0
274
    -2
284
     1
 64
     0
275
    -2
285
     1
 65
     0
276
    -2
286
     1
 66
     0
277
    -2
287
     1
 67
     0
278
    -2
288
     1
 68
     0
279
    -2
289
     1
 69
     0
  7
Standard
140
4.5
170
     5
 62
     0
 63
   257
283
     0
274
    -2
284
     1
 64
     0
275
    -2
285
     1
 65
     0
276
    -2
286
     1
 66
     0
277
    -2
287
     1
 67
     0
278
    -2
288
     1
 68
     0
279
    -2
289
     1
 69
     0
  0
DICTIONARYVAR
  5
120
102
{ACAD_REACTORS
330
11F
102
}
330
11F
100
DictionaryVariables
280
     0
  1
1:1
  0
DICTIONARYVAR
  5
127
102
{ACAD_REACTORS
330
11F
102
}
330
11F
100
DictionaryVariables
280
     0
  1
Standard
  0
DICTIONARYVAR
  5
126
102
{ACAD_REACTORS
330
11F
102
}
330
11F
100
DictionaryVariables
280
     0
  1
Standard
  0
DICTIONARY
  5
121
330
6A
100
AcDbDictionary
280
     1
281
     1
  3
ACAD_ROUNDTRIP_2008_TABLESTYLE_CELLSTYLEMAP
360
123
  3
ACAD_XREC_ROUNDTRIP
360
122
  0
CELLSTYLEMAP
  5
123
102
{ACAD_REACTORS
330
121
102
}
330
121
100
AcDbCellStyleMap
 90
        3
300
CELLSTYLE
  1
TABLEFORMAT_BEGIN
 90
        5
170
     1
 91
        0
 92
    32768
 62
   257
 93
        1
300
CONTENTFORMAT
  1
CONTENTFORMAT_BEGIN
 90
        0
 91
        0
 92
        4
 93
        0
300

 40
0.0
140
1.0
 94
        5
 62
     0
340
11
144
6.0
309
CONTENTFORMAT_END
171
     1
301
MARGIN
  1
CELLMARGIN_BEGIN
 40
1.5
 40
1.5
 40
1.5
 40
1.5
 40
1.5
 40
1.5
309
CELLMARGIN_END
 94
        6
 95
        1
302
GRIDFORMAT
  1
GRIDFORMAT_BEGIN
 90
        0
 91
        1
 62
     0
 92
       -2
340
14
 93
        0
 40
0.045
309
GRIDFORMAT_END
 95
        2
302
GRIDFORMAT
  1
GRIDFORMAT_BEGIN
 90
        0
 91
        1
 62
     0
 92
       -2
340
14
 93
        0
 40
0.045
309
GRIDFORMAT_END
 95
        4
302
GRIDFORMAT
  1
GRIDFORMAT_BEGIN
 90
        0
 91
        1
 62
     0
 92
       -2
340
14
 93
        0
 40
0.045
309
GRIDFORMAT_END
 95
        8
302
GRIDFORMAT
  1
GRIDFORMAT_BEGIN
 90
        0
 91
        1
 62
     0
 92
       -2
340
14
 93
        0
 40
0.045
309
GRIDFORMAT_END
 95
       16
302
GRIDFORMAT
  1
GRIDFORMAT_BEGIN
 90
        0
 91
        1
 62
     0
 92
       -2
340
14
 93
        0
 40
0.045
309
GRIDFORMAT_END
 95
       32
302
GRIDFORMAT
  1
GRIDFORMAT_BEGIN
 90
        0
 91
        1
 62
     0
 92
       -2
340
14
 93
        0
 40
0.045
309
GRIDFORMAT_END
309
TABLEFORMAT_END
  1
CELLSTYLE_BEGIN
 90
        1
 91
        1
300
_TITLE
309
CELLSTYLE_END
300
CELLSTYLE
  1
TABLEFORMAT_BEGIN
 90
        5
170
     1
 91
        0
 92
        0
 62
   257
 93
        1
300
CONTENTFORMAT
  1
CONTENTFORMAT_BEGIN
 90
        0
 91
        0
 92
        4
 93
        0
300

 40
0.0
140
1.0
 94
        5
 62
     0
340
11
144
4.5
309
CONTENTFORMAT_END
171
     1
301
MARGIN
  1
CELLMARGIN_BEGIN
 40
1.5
 40
1.5
 40
1.5
 40
1.5
 40
1.5
 40
1.5
309
CELLMARGIN_END
 94
        6
 95
        1
302
GRIDFORMAT
  1
GRIDFORMAT_BEGIN
 90
        0
 91
        1
 62
     0
 92
       -2
340
14
 93
        0
 40
0.045
309
GRIDFORMAT_END
 95
        2
302
GRIDFORMAT
  1
GRIDFORMAT_BEGIN
 90
        0
 91
        1
 62
     0
 92
       -2
340
14
 93
        0
 40
0.045
309
GRIDFORMAT_END
 95
        4
302
GRIDFORMAT
  1
GRIDFORMAT_BEGIN
 90
        0
 91
        1
 62
     0
 92
       -2
340
14
 93
        0
 40
0.045
309
GRIDFORMAT_END
 95
        8
302
GRIDFORMAT
  1
GRIDFORMAT_BEGIN
 90
        0
 91
        1
 62
     0
 92
       -2
340
14
 93
        0
 40
0.045
309
GRIDFORMAT_END
 95
       16
302
GRIDFORMAT
  1
GRIDFORMAT_BEGIN
 90
        0
 91
        1
 62
     0
 92
       -2
340
14
 93
        0
 40
0.045
309
GRIDFORMAT_END
 95
       32
302
GRIDFORMAT
  1
GRIDFORMAT_BEGIN
 90
        0
 91
        1
 62
     0
 92
       -2
340
14
 93
        0
 40
0.045
309
GRIDFORMAT_END
309
TABLEFORMAT_END
  1
CELLSTYLE_BEGIN
 90
        2
 91
        1
300
_HEADER
309
CELLSTYLE_END
300
CELLSTYLE
  1
TABLEFORMAT_BEGIN
 90
        5
170
     1
 91
        0
 92
        0
 62
   257
 93
        1
300
CONTENTFORMAT
  1
CONTENTFORMAT_BEGIN
 90
        0
 91
        0
 92
        4
 93
        0
300

 40
0.0
140
1.0
 94
        2
 62
     0
340
11
144
4.5
309
CONTENTFORMAT_END
171
     1
301
MARGIN
  1
CELLMARGIN_BEGIN
 40
1.5
 40
1.5
 40
1.5
 40
1.5
 40
1.5
 40
1.5
309
CELLMARGIN_END
 94
        6
 95
        1
302
GRIDFORMAT
  1
GRIDFORMAT_BEGIN
 90
        0
 91
        1
 62
     0
 92
       -2
340
14
 93
        0
 40
0.045
309
GRIDFORMAT_END
 95
        2
302
GRIDFORMAT
  1
GRIDFORMAT_BEGIN
 90
        0
 91
        1
 62
     0
 92
       -2
340
14
 93
        0
 40
0.045
309
GRIDFORMAT_END
 95
        4
302
GRIDFORMAT
  1
GRIDFORMAT_BEGIN
 90
        0
 91
        1
 62
     0
 92
       -2
340
14
 93
        0
 40
0.045
309
GRIDFORMAT_END
 95
        8
302
GRIDFORMAT
  1
GRIDFORMAT_BEGIN
 90
        0
 91
        1
 62
     0
 92
       -2
340
14
 93
        0
 40
0.045
309
GRIDFORMAT_END
 95
       16
302
GRIDFORMAT
  1
GRIDFORMAT_BEGIN
 90
        0
 91
        1
 62
     0
 92
       -2
340
14
 93
        0
 40
0.045
309
GRIDFORMAT_END
 95
       32
302
GRIDFORMAT
  1
GRIDFORMAT_BEGIN
 90
        0
 91
        1
 62
     0
 92
       -2
340
14
 93
        0
 40
0.045
309
GRIDFORMAT_END
309
TABLEFORMAT_END
  1
CELLSTYLE_BEGIN
 90
        3
 91
        2
300
_DATA
309
CELLSTYLE_END
  0
XRECORD
  5
122
102
{ACAD_REACTORS
330
121
102
}
330
121
100
AcDbXrecord
280
     1
102
ACAD_ROUNDTRIP_PRE2007_TABLESTYLE
 90
        4
 91
        0
  1

 92
        4
 93
        0
  2

 94
        4
 95
        0
  3

  0
ENDSEC
  0
EOF
