  0
SECTION
  2
HEADER
  9
$ACADVER
  1
AC1021
  9
$ACADMAINTVER
 70
    25
  9
$DWGCODEPAGE
  3
ANSI_1252
  9
$INSBASE
 10
0.0
 20
0.0
 30
0.0
  9
$EXTMIN
 10
0.0
 20
0.0
 30
0.0
  9
$EXTMAX
 10
297.0
 20
210.0
 30
0.0
  9
$LIMMIN
 10
0.0
 20
0.0
  9
$LIMMAX
 10
297.0
 20
210.0
  9
$ORTHOMODE
 70
     0
  9
$REGENMODE
 70
     1
  9
$FILLMODE
 70
     1
  9
$QTEXTMODE
 70
     0
  9
$MIRRTEXT
 70
     1
  9
$LTSCALE
 40
1.0
  9
$ATTMODE
 70
     1
  9
$TEXTSIZE
 40
3.5
  9
$TRACEWID
 40
1.0
  9
$TEXTSTYLE
  7
Standard
  9
$CLAYER
  8
0
  9
$CELTYPE
  6
ByLayer
  9
$CECOLOR
 62
   256
  9
$CELTSCALE
 40
1.0
  9
$DISPSILH
 70
     0
  9
$DIMSCALE
 40
1.0
  9
$DIMASZ
 40
3.302
  9
$DIMEXO
 40
1.0
  9
$DIMDLI
 40
3.75
  9
$DIMRND
 40
0.0
  9
$DIMDLE
 40
0.0
  9
$DIMEXE
 40
1.0
  9
$DIMTP
 40
0.0
  9
$DIMTM
 40
0.0
  9
$DIMTXT
 40
3.5
  9
$DIMCEN
 40
2.5
  9
$DIMTSZ
 40
0.0
  9
$DIMTOL
 70
     0
  9
$DIMLIM
 70
     0
  9
$DIMTIH
 70
     1
  9
$DIMTOH
 70
     1
  9
$DIMSE1
 70
     0
  9
$DIMSE2
 70
     0
  9
$DIMTAD
 70
     1
  9
$DIMZIN
 70
     0
  9
$DIMBLK
  1

  9
$DIMASO
 70
     1
  9
$DIMSHO
 70
     1
  9
$DIMPOST
  1

  9
$DIMAPOST
  1

  9
$DIMALT
 70
     0
  9
$DIMALTD
 70
     3
  9
$DIMALTF
 40
0.0393700787
  9
$DIMLFAC
 40
1.0
  9
$DIMTOFL
 70
     1
  9
$DIMTVP
 40
0.0
  9
$DIMTIX
 70
     0
  9
$DIMSOXD
 70
     0
  9
$DIMSAH
 70
     0
  9
$DIMBLK1
  1

  9
$DIMBLK2
  1

  9
$DIMSTYLE
  2
ISO-25
  9
$DIMCLRD
 70
     0
  9
$DIMCLRE
 70
     0
  9
$DIMCLRT
 70
     0
  9
$DIMTFAC
 40
1.0
  9
$DIMGAP
 40
1.524
  9
$DIMJUST
 70
     0
  9
$DIMSD1
 70
     0
  9
$DIMSD2
 70
     0
  9
$DIMTOLJ
 70
     0
  9
$DIMTZIN
 70
     0
  9
$DIMALTZ
 70
     0
  9
$DIMALTTZ
 70
     0
  9
$DIMUPT
 70
     0
  9
$DIMDEC
 70
     2
  9
$DIMTDEC
 70
     2
  9
$DIMALTU
 70
     2
  9
$DIMALTTD
 70
     3
  9
$DIMTXSTY
  7
Standard
  9
$DIMAUNIT
 70
     0
  9
$DIMADEC
 70
     2
  9
$DIMALTRND
 40
0.0
  9
$DIMAZIN
 70
     0
  9
$DIMDSEP
 70
    44
  9
$DIMATFIT
 70
     3
  9
$DIMFRAC
 70
     0
  9
$DIMLDRBLK
  1

  9
$DIMLUNIT
 70
     2
  9
$DIMLWD
 70
    -2
  9
$DIMLWE
 70
    -2
  9
$DIMTMOVE
 70
     0
  9
$DIMFXL
 40
1.0
  9
$DIMFXLON
 70
     0
  9
$DIMJOGANG
 40
0.7853981634
  9
$DIMTFILL
 70
     0
  9
$DIMTFILLCLR
 70
     0
  9
$DIMARCSYM
 70
     0
  9
$DIMLTYPE
  6

  9
$DIMLTEX1
  6

  9
$DIMLTEX2
  6

  9
$LUNITS
 70
     2
  9
$LUPREC
 70
     2
  9
$SKETCHINC
 40
1.0
  9
$FILLETRAD
 40
10.0
  9
$AUNITS
 70
     0
  9
$AUPREC
 70
     2
  9
$MENU
  1
.
  9
$ELEVATION
 40
0.0
  9
$PELEVATION
 40
0.0
  9
$THICKNESS
 40
0.0
  9
$LIMCHECK
 70
     0
  9
$CHAMFERA
 40
10.0
  9
$CHAMFERB
 40
10.0
  9
$CHAMFERC
 40
20.0
  9
$CHAMFERD
 40
0.0
  9
$SKPOLY
 70
     0
  9
$TDCREATE
 40
2456513.482578113
  9
$TDUCREATE
 40
2456513.39924478
  9
$TDUPDATE
 40
2456513.482578542
  9
$TDUUPDATE
 40
2456513.399245208
  9
$TDINDWG
 40
0.0000000116
  9
$TDUSRTIMER
 40
0.0000000116
  9
$USRTIMER
 70
     1
  9
$ANGBASE
 50
0.0
  9
$ANGDIR
 70
     0
  9
$PDMODE
 70
     0
  9
$PDSIZE
 40
-1.0
  9
$PLINEWID
 40
0.0
  9
$SPLFRAME
 70
     0
  9
$SPLINETYPE
 70
     6
  9
$SPLINESEGS
 70
     8
  9
$HANDSEED
  5
D7
  9
$SURFTAB1
 70
     6
  9
$SURFTAB2
 70
     6
  9
$SURFTYPE
 70
     6
  9
$SURFU
 70
     6
  9
$SURFV
 70
     6
  9
$UCSBASE
  2

  9
$UCSNAME
  2

  9
$UCSORG
 10
0.0
 20
0.0
 30
0.0
  9
$UCSXDIR
 10
1.0
 20
0.0
 30
0.0
  9
$UCSYDIR
 10
0.0
 20
1.0
 30
0.0
  9
$UCSORTHOREF
  2

  9
$UCSORTHOVIEW
 70
     0
  9
$UCSORGTOP
 10
0.0
 20
0.0
 30
0.0
  9
$UCSORGBOTTOM
 10
0.0
 20
0.0
 30
0.0
  9
$UCSORGLEFT
 10
0.0
 20
0.0
 30
0.0
  9
$UCSORGRIGHT
 10
0.0
 20
0.0
 30
0.0
  9
$UCSORGFRONT
 10
0.0
 20
0.0
 30
0.0
  9
$UCSORGBACK
 10
0.0
 20
0.0
 30
0.0
  9
$PUCSBASE
  2

  9
$PUCSNAME
  2

  9
$PUCSORG
 10
0.0
 20
0.0
 30
0.0
  9
$PUCSXDIR
 10
1.0
 20
0.0
 30
0.0
  9
$PUCSYDIR
 10
0.0
 20
1.0
 30
0.0
  9
$PUCSORTHOREF
  2

  9
$PUCSORTHOVIEW
 70
     0
  9
$PUCSORGTOP
 10
0.0
 20
0.0
 30
0.0
  9
$PUCSORGBOTTOM
 10
0.0
 20
0.0
 30
0.0
  9
$PUCSORGLEFT
 10
0.0
 20
0.0
 30
0.0
  9
$PUCSORGRIGHT
 10
0.0
 20
0.0
 30
0.0
  9
$PUCSORGFRONT
 10
0.0
 20
0.0
 30
0.0
  9
$PUCSORGBACK
 10
0.0
 20
0.0
 30
0.0
  9
$USERI1
 70
     0
  9
$USERI2
 70
     0
  9
$USERI3
 70
     0
  9
$USERI4
 70
     0
  9
$USERI5
 70
     0
  9
$USERR1
 40
0.0
  9
$USERR2
 40
0.0
  9
$USERR3
 40
0.0
  9
$USERR4
 40
0.0
  9
$USERR5
 40
0.0
  9
$WORLDVIEW
 70
     1
  9
$SHADEDGE
 70
     3
  9
$SHADEDIF
 70
    70
  9
$TILEMODE
 70
     1
  9
$MAXACTVP
 70
    64
  9
$PINSBASE
 10
0.0
 20
0.0
 30
0.0
  9
$PLIMCHECK
 70
     0
  9
$PEXTMIN
 10
1.0000000000E+20
 20
1.0000000000E+20
 30
1.0000000000E+20
  9
$PEXTMAX
 10
-1.0000000000E+20
 20
-1.0000000000E+20
 30
-1.0000000000E+20
  9
$PLIMMIN
 10
0.0
 20
0.0
  9
$PLIMMAX
 10
420.0
 20
297.0
  9
$UNITMODE
 70
     0
  9
$VISRETAIN
 70
     1
  9
$PLINEGEN
 70
     0
  9
$PSLTSCALE
 70
     1
  9
$TREEDEPTH
 70
  3020
  9
$CMLSTYLE
  2
Standard
  9
$CMLJUST
 70
     0
  9
$CMLSCALE
 40
20.0
  9
$PROXYGRAPHICS
 70
     1
  9
$MEASUREMENT
 70
     1
  9
$CELWEIGHT
370
    -1
  9
$ENDCAPS
280
     0
  9
$JOINSTYLE
280
     0
  9
$LWDISPLAY
290
     1
  9
$INSUNITS
 70
     4
  9
$HYPERLINKBASE
  1

  9
$STYLESHEET
  1

  9
$XEDIT
290
     1
  9
$CEPSNTYPE
380
     0
  9
$PSTYLEMODE
290
     1
  9
$FINGERPRINTGUID
  2
{4B18D3A3-C2EB-4695-9A55-C93E8512A558}
  9
$VERSIONGUID
  2
{FAEB1C32-E019-11D5-929B-00C0DF256EC4}
  9
$EXTNAMES
290
     1
  9
$PSVPSCALE
 40
0.0
  9
$OLESTARTUP
290
     0
  9
$SORTENTS
280
   127
  9
$INDEXCTL
280
     0
  9
$HIDETEXT
280
     1
  9
$XCLIPFRAME
290
     0
  9
$HALOGAP
280
     0
  9
$OBSCOLOR
 70
   257
  9
$OBSLTYPE
280
     0
  9
$INTERSECTIONDISPLAY
280
     0
  9
$INTERSECTIONCOLOR
 70
   257
  9
$DIMASSOC
280
     2
  9
$PROJECTNAME
  1

  9
$CAMERADISPLAY
290
     0
  9
$LENSLENGTH
 40
50.0
  9
$CAMERAHEIGHT
 40
0.0
  9
$STEPSPERSEC
 40
2.0
  9
$STEPSIZE
 40
6.0
  9
$3DDWFPREC
 40
2.0
  9
$PSOLWIDTH
 40
5.0
  9
$PSOLHEIGHT
 40
80.0
  9
$LOFTANG1
 40
1.5707963268
  9
$LOFTANG2
 40
1.5707963268
  9
$LOFTMAG1
 40
0.0
  9
$LOFTMAG2
 40
0.0
  9
$LOFTPARAM
 70
     7
  9
$LOFTNORMALS
280
     1
  9
$LATITUDE
 40
37.795
  9
$LONGITUDE
 40
-122.394
  9
$NORTHDIRECTION
 40
0.0
  9
$TIMEZONE
 70
 -8000
  9
$LIGHTGLYPHDISPLAY
280
     1
  9
$TILEMODELIGHTSYNCH
280
     1
  9
$SOLIDHIST
280
     1
  9
$SHOWHIST
280
     1
  9
$DWFFRAME
280
     2
  9
$DGNFRAME
280
     2
  9
$REALWORLDSCALE
290
     1
  9
$INTERFERECOLOR
 62
   256
  9
$CSHADOW
280
     0
  9
$SHADOWPLANELOCATION
 40
0.0
  0
ENDSEC
  0
SECTION
  2
CLASSES
  0
CLASS
  1
ACDBDICTIONARYWDFLT
  2
AcDbDictionaryWithDefault
  3
ObjectDBX Classes
 90
        0
 91
        4
280
     0
281
     0
  0
CLASS
  1
VISUALSTYLE
  2
AcDbVisualStyle
  3
ObjectDBX Classes
 90
     4095
 91
        4
280
     0
281
     0
  0
CLASS
  1
MATERIAL
  2
AcDbMaterial
  3
ObjectDBX Classes
 90
     1153
 91
        4
280
     0
281
     0
  0
ENDSEC
  0
SECTION
  2
TABLES
  0
TABLE
  2
VPORT
  5
8
330
0
100
AcDbSymbolTable
 70
     1
  0
VPORT
  5
29
330
8
100
AcDbSymbolTableRecord
100
AcDbViewportTableRecord
  2
*Active
 70
     0
 10
0.0
 20
0.0
 11
1.0
 21
1.0
 12
148.5
 22
105.0
 13
0.0
 23
0.0
 14
10.0
 24
10.0
 15
10.0
 25
10.0
 16
0.0
 26
0.0
 36
1.0
 17
0.0
 27
0.0
 37
0.0
 40
210.0
 41
1.4142857143
 42
50.0
 43
0.0
 44
0.0
 50
0.0
 51
0.0
 71
     0
 72
  2000
 73
     1
 74
     3
 75
     0
 76
     0
 77
     0
 78
     0
281
     0
 65
     1
110
0.0
120
0.0
130
0.0
111
1.0
121
0.0
131
0.0
112
0.0
122
1.0
132
0.0
 79
     0
146
0.0
 60
     3
 61
     5
292
     1
282
     1
141
0.0
142
0.0
 63
   250
  0
ENDTAB
  0
TABLE
  2
LTYPE
  5
5
330
0
100
AcDbSymbolTable
 70
     8
  0
LTYPE
  5
14
330
5
100
AcDbSymbolTableRecord
100
AcDbLinetypeTableRecord
  2
ByBlock
 70
     0
  3

 72
    65
 73
     0
 40
0.0
  0
LTYPE
  5
15
330
5
100
AcDbSymbolTableRecord
100
AcDbLinetypeTableRecord
  2
ByLayer
 70
     0
  3

 72
    65
 73
     0
 40
0.0
  0
LTYPE
  5
16
330
5
100
AcDbSymbolTableRecord
100
AcDbLinetypeTableRecord
  2
Continuous
 70
     0
  3
Solid line
 72
    65
 73
     0
 40
0.0
  0
LTYPE
  5
3F
330
5
100
AcDbSymbolTableRecord
100
AcDbLinetypeTableRecord
  2
SLD-Durchgehend
 70
     0
  3
SolidWorks Line Style
 72
    65
 73
     0
 40
0.0
  0
LTYPE
  5
40
330
5
100
AcDbSymbolTableRecord
100
AcDbLinetypeTableRecord
  2
SLD-Gestrichelt
 70
     0
  3
SolidWorks Line Style
 72
    65
 73
     2
 40
1.905
 49
1.27
 74
     0
 49
-0.635
 74
     0
  0
LTYPE
  5
41
330
5
100
AcDbSymbolTableRecord
100
AcDbLinetypeTableRecord
  2
SLD-Phantom
 70
     0
  3
SolidWorks Line Style
 72
    65
 73
     6
 40
12.7
 49
6.35
 74
     0
 49
-1.27
 74
     0
 49
1.27
 74
     0
 49
-1.27
 74
     0
 49
1.27
 74
     0
 49
-1.27
 74
     0
  0
LTYPE
  5
42
330
5
100
AcDbSymbolTableRecord
100
AcDbLinetypeTableRecord
  2
SLD-Kette
 70
     0
  3
SolidWorks Line Style
 72
    65
 73
     4
 40
10.16
 49
6.35
 74
     0
 49
-1.27
 74
     0
 49
1.27
 74
     0
 49
-1.27
 74
     0
  0
LTYPE
  5
43
330
5
100
AcDbSymbolTableRecord
100
AcDbLinetypeTableRecord
  2
SLD-Punktstrich
 70
     0
  3
SolidWorks Line Style
 72
    65
 73
     4
 40
19.05
 49
15.24
 74
     0
 49
-1.27
 74
     0
 49
1.27
 74
     0
 49
-1.27
 74
     0
  0
LTYPE
  5
44
330
5
100
AcDbSymbolTableRecord
100
AcDbLinetypeTableRecord
  2
SLD-Naht
 70
     0
  3
SolidWorks Line Style
 72
    65
 73
     2
 40
0.635
 49
0.0
 74
     0
 49
-0.635
 74
     0
  0
LTYPE
  5
45
330
5
100
AcDbSymbolTableRecord
100
AcDbLinetypeTableRecord
  2
SLD-Dicke-Dünne-Kette
 70
     0
  3
SolidWorks Line Style
 72
    65
 73
     4
 40
10.16
 49
6.35
 74
     0
 49
-1.27
 74
     0
 49
1.27
 74
     0
 49
-1.27
 74
     0
  0
ENDTAB
  0
TABLE
  2
LAYER
  5
2
330
0
100
AcDbSymbolTable
 70
     3
  0
LAYER
  5
10
330
2
100
AcDbSymbolTableRecord
100
AcDbLayerTableRecord
  2
0
 70
     0
 62
     7
  6
Continuous
370
    -3
390
F
347
3E
  0
LAYER
  5
46
330
2
100
AcDbSymbolTableRecord
100
AcDbLayerTableRecord
  2
1
 70
     0
 62
     4
  6
Continuous
370
    -1
390
F
347
3E
  0
LAYER
  5
47
330
2
100
AcDbSymbolTableRecord
100
AcDbLayerTableRecord
  2
2
 70
     0
 62
     7
  6
SLD-Durchgehend
370
    -3
390
F
347
3E
  0
ENDTAB
  0
TABLE
  2
STYLE
  5
3
330
0
100
AcDbSymbolTable
 70
     2
  0
STYLE
  5
11
330
3
100
AcDbSymbolTableRecord
100
AcDbTextStyleTableRecord
  2
Standard
 70
     0
 40
0.0
 41
1.0
 50
0.0
 71
     0
 42
3.5
  3
txt
  4

  0
STYLE
  5
78
330
3
100
AcDbSymbolTableRecord
100
AcDbTextStyleTableRecord
  2
SLDTEXTSTYLE0
 70
     0
 40
0.0
 41
0.75
 50
0.0
 71
     0
 42
0.2
  3
TXT
  4

  0
ENDTAB
  0
TABLE
  2
VIEW
  5
6
330
0
100
AcDbSymbolTable
 70
     0
  0
ENDTAB
  0
TABLE
  2
UCS
  5
7
330
0
100
AcDbSymbolTable
 70
     0
  0
ENDTAB
  0
TABLE
  2
APPID
  5
9
330
0
100
AcDbSymbolTable
 70
     1
  0
APPID
  5
12
330
9
100
AcDbSymbolTableRecord
100
AcDbRegAppTableRecord
  2
ACAD
 70
     0
  0
ENDTAB
  0
TABLE
  2
DIMSTYLE
  5
A
330
0
100
AcDbSymbolTable
 70
     3
100
AcDbDimStyleTable
  0
DIMSTYLE
105
27
330
A
100
AcDbSymbolTableRecord
100
AcDbDimStyleTableRecord
  2
ISO-25
 70
     0
 41
2.5
 42
0.625
 43
3.75
 44
1.25
 73
     0
 74
     0
 77
     1
 78
     8
140
2.5
141
2.5
143
0.0393700787
147
0.625
171
     3
172
     1
178
     0
271
     2
272
     2
274
     3
278
    44
283
     0
284
     8
340
11
  0
DIMSTYLE
105
79
102
{ACAD_REACTORS
330
77
330
90
330
BD
330
C9
102
}
330
A
100
AcDbSymbolTableRecord
100
AcDbDimStyleTableRecord
  2
SLDDIMSTYLE0
 70
     0
 41
3.302
 44
0.0
 45
0.000000001
 73
     0
 74
     0
 77
     1
 78
    12
 79
     3
140
3.5
147
0.875
172
     1
173
     1
178
     0
271
     2
272
     2
276
     2
284
    12
289
     0
340
78
  0
DIMSTYLE
105
86
102
{ACAD_REACTORS
330
85
102
}
330
A
100
AcDbSymbolTableRecord
100
AcDbDimStyleTableRecord
  2
SLDDIMSTYLE1
 70
     0
 41
3.302
 44
0.0
 45
0.000000001
 73
     0
 74
     0
 77
     1
 78
    12
 79
     3
140
3.5
147
0.875
173
     1
178
     0
271
     2
272
     2
276
     2
284
    12
340
78
  0
ENDTAB
  0
TABLE
  2
BLOCK_RECORD
  5
1
330
0
100
AcDbSymbolTable
 70
     6
  0
BLOCK_RECORD
  5
1F
330
1
100
AcDbSymbolTableRecord
100
AcDbBlockTableRecord
  2
*Model_Space
340
22
 70
     0
280
     1
281
     0
  0
BLOCK_RECORD
  5
1B
330
1
100
AcDbSymbolTableRecord
100
AcDbBlockTableRecord
  2
*Paper_Space
340
1E
 70
     0
280
     1
281
     0
  0
BLOCK_RECORD
  5
23
330
1
100
AcDbSymbolTableRecord
100
AcDbBlockTableRecord
  2
*Paper_Space0
340
26
 70
     0
280
     1
281
     0
  0
BLOCK_RECORD
  5
7A
330
1
100
AcDbSymbolTableRecord
100
AcDbBlockTableRecord
  2
_D
340
0
 70
     0
280
     1
281
     0
  0
BLOCK_RECORD
  5
87
330
1
100
AcDbSymbolTableRecord
100
AcDbBlockTableRecord
  2
_D_1
340
0
 70
     0
280
     1
281
     0
  0
BLOCK_RECORD
  5
91
330
1
100
AcDbSymbolTableRecord
100
AcDbBlockTableRecord
  2
_D_2
340
0
 70
     0
280
     1
281
     0
  0
BLOCK_RECORD
  5
BE
330
1
100
AcDbSymbolTableRecord
100
AcDbBlockTableRecord
  2
_D_3
340
0
 70
     0
280
     1
281
     0
  0
BLOCK_RECORD
  5
CA
330
1
100
AcDbSymbolTableRecord
100
AcDbBlockTableRecord
  2
_D_4
340
0
 70
     0
280
     1
281
     0
  0
ENDTAB
  0
ENDSEC
  0
SECTION
  2
BLOCKS
  0
BLOCK
  5
20
330
1F
100
AcDbEntity
  8
0
100
AcDbBlockBegin
  2
*Model_Space
 70
     0
 10
0.0
 20
0.0
 30
0.0
  3
*Model_Space
  1

  0
ENDBLK
  5
21
330
1F
100
AcDbEntity
  8
0
100
AcDbBlockEnd
  0
BLOCK
  5
1C
330
1B
100
AcDbEntity
 67
     1
  8
0
100
AcDbBlockBegin
  2
*Paper_Space
 70
     0
 10
0.0
 20
0.0
 30
0.0
  3
*Paper_Space
  1

  0
ENDBLK
  5
1D
330
1B
100
AcDbEntity
 67
     1
  8
0
100
AcDbBlockEnd
  0
BLOCK
  5
24
330
23
100
AcDbEntity
  8
0
100
AcDbBlockBegin
  2
*Paper_Space0
 70
     0
 10
0.0
 20
0.0
 30
0.0
  3
*Paper_Space0
  1

  0
ENDBLK
  5
25
330
23
100
AcDbEntity
  8
0
100
AcDbBlockEnd
  0
BLOCK
  5
7B
330
7A
100
AcDbEntity
  8
0
100
AcDbBlockBegin
  2
_D
 70
     0
 10
0.0
 20
0.0
 30
0.0
  3
_D
  1

  0
SOLID
  5
7D
330
7A
100
AcDbEntity
  8
2
 62
     7
420
 16777215
100
AcDbTrace
 10
8.9981221453
 20
-24.8001637776
 30
0.0
 11
5.6961221453
 21
-24.2921637776
 31
0.0
 12
5.6961221453
 22
-25.3081637776
 32
0.0
 13
5.6961221453
 23
-25.3081637776
 33
0.0
  0
SOLID
  5
7E
330
7A
100
AcDbEntity
  8
2
 62
     7
420
 16777215
100
AcDbTrace
 10
24.4981221453
 20
-24.8001637776
 30
0.0
 11
27.8001221453
 21
-25.3081637776
 31
0.0
 12
27.8001221453
 22
-24.2921637776
 32
0.0
 13
27.8001221453
 23
-24.2921637776
 33
0.0
  0
LINE
  5
7F
330
7A
100
AcDbEntity
  8
2
 62
     7
420
 16777215
100
AcDbLine
 10
8.9981221453
 20
-15.8001637776
 30
0.0
 11
8.9981221453
 21
-25.8001637776
 31
0.0
  0
LINE
  5
80
330
7A
100
AcDbEntity
  8
2
 62
     7
420
 16777215
100
AcDbLine
 10
24.4981221453
 20
-2.0001637776
 30
0.0
 11
24.4981221453
 21
-25.8001637776
 31
0.0
  0
LINE
  5
81
330
7A
100
AcDbEntity
  8
2
 62
     7
420
 16777215
100
AcDbLine
 10
8.9981221453
 20
-24.8001637776
 30
0.0
 11
2.6481221453
 21
-24.8001637776
 31
0.0
  0
LINE
  5
82
330
7A
100
AcDbEntity
  8
2
 62
     7
420
 16777215
100
AcDbLine
 10
8.9981221453
 20
-24.8001637776
 30
0.0
 11
24.4981221453
 21
-24.8001637776
 31
0.0
  0
LINE
  5
83
330
7A
100
AcDbEntity
  8
2
 62
     7
420
 16777215
100
AcDbLine
 10
24.4981221453
 20
-24.8001637776
 30
0.0
 11
30.8481221453
 21
-24.8001637776
 31
0.0
  0
MTEXT
  5
84
330
7A
100
AcDbEntity
  8
2
 62
     7
420
 16777215
100
AcDbMText
 10
9.507497047
 20
-20.288426863
 30
-5.4997908101
 40
3.5
 41
0.0
 46
0.0
 71
     1
 72
     1
  1
15,50
  7
SLDTEXTSTYLE0
 73
     1
 44
1.0
  0
ENDBLK
  5
7C
330
7A
100
AcDbEntity
  8
0
100
AcDbBlockEnd
  0
BLOCK
  5
88
330
87
100
AcDbEntity
  8
0
100
AcDbBlockBegin
  2
_D_1
 70
     0
 10
0.0
 20
0.0
 30
0.0
  3
_D_1
  1

  0
SOLID
  5
8A
330
87
100
AcDbEntity
  8
2
 62
     7
420
 16777215
100
AcDbTrace
 10
-5.0018778547
 20
-36.8001637776
 30
0.0
 11
-1.6998778547
 21
-37.3081637776
 31
0.0
 12
-1.6998778547
 22
-36.2921637776
 32
0.0
 13
-1.6998778547
 23
-36.2921637776
 33
0.0
  0
SOLID
  5
8B
330
87
100
AcDbEntity
  8
2
 62
     7
420
 16777215
100
AcDbTrace
 10
24.4981221453
 20
-36.8001637776
 30
0.0
 11
21.1961221453
 21
-36.2921637776
 31
0.0
 12
21.1961221453
 22
-37.3081637776
 32
0.0
 13
21.1961221453
 23
-37.3081637776
 33
0.0
  0
LINE
  5
8C
330
87
100
AcDbEntity
  8
2
 62
     7
420
 16777215
100
AcDbLine
 10
-5.0018778547
 20
-1.0001637776
 30
0.0
 11
-5.0018778547
 21
-37.8001637776
 31
0.0
  0
LINE
  5
8D
330
87
100
AcDbEntity
  8
2
 62
     7
420
 16777215
100
AcDbLine
 10
24.4981221453
 20
-1.0001637776
 30
0.0
 11
24.4981221453
 21
-37.8001637776
 31
0.0
  0
LINE
  5
8E
330
87
100
AcDbEntity
  8
2
 62
     7
420
 16777215
100
AcDbLine
 10
-5.0018778547
 20
-36.8001637776
 30
0.0
 11
24.4981221453
 21
-36.8001637776
 31
0.0
  0
MTEXT
  5
8F
330
87
100
AcDbEntity
  8
2
 62
     7
420
 16777215
100
AcDbMText
 10
2.507497047
 20
-32.288426863
 30
-5.4997908101
 40
3.5
 41
0.0
 46
0.0
 71
     1
 72
     1
  1
29,50
  7
SLDTEXTSTYLE0
 73
     1
 44
1.0
  0
ENDBLK
  5
89
330
87
100
AcDbEntity
  8
0
100
AcDbBlockEnd
  0
BLOCK
  5
92
330
91
100
AcDbEntity
  8
0
100
AcDbBlockBegin
  2
_D_2
 70
     0
 10
0.0
 20
0.0
 30
0.0
  3
_D_2
  1

  0
SOLID
  5
94
330
91
100
AcDbEntity
  8
2
 62
     7
420
 16777215
100
AcDbTrace
 10
32.7781221453
 20
10.1498362224
 30
0.0
 11
33.2861221453
 21
13.4518362224
 31
0.0
 12
32.2701221453
 22
13.4518362224
 32
0.0
 13
32.2701221453
 23
13.4518362224
 33
0.0
  0
SOLID
  5
95
330
91
100
AcDbEntity
  8
2
 62
     7
420
 16777215
100
AcDbTrace
 10
32.7781221453
 20
-14.8001637776
 30
0.0
 11
32.2701221453
 21
-18.1021637776
 31
0.0
 12
33.2861221453
 22
-18.1021637776
 32
0.0
 13
33.2861221453
 23
-18.1021637776
 33
0.0
  0
LINE
  5
96
330
91
100
AcDbEntity
  8
2
 62
     7
420
 16777215
100
AcDbLine
 10
7.3493228692
 20
10.1498362224
 30
0.0
 11
33.7781221453
 21
10.1498362224
 31
0.0
  0
LINE
  5
97
330
91
100
AcDbEntity
  8
2
 62
     7
420
 16777215
100
AcDbLine
 10
23.7781221453
 20
-14.8001637776
 30
0.0
 11
33.7781221453
 21
-14.8001637776
 31
0.0
  0
LINE
  5
98
330
91
100
AcDbEntity
  8
2
 62
     7
420
 16777215
100
AcDbLine
 10
32.7781221453
 20
10.1498362224
 30
0.0
 11
32.7781221453
 21
16.4998362224
 31
0.0
  0
LINE
  5
99
330
91
100
AcDbEntity
  8
2
 62
     7
420
 16777215
100
AcDbLine
 10
32.7781221453
 20
10.1498362224
 30
0.0
 11
32.7781221453
 21
-14.8001637776
 31
0.0
  0
LINE
  5
9A
330
91
100
AcDbEntity
  8
2
 62
     7
420
 16777215
100
AcDbLine
 10
32.7781221453
 20
-14.8001637776
 30
0.0
 11
32.7781221453
 21
-21.1501637776
 31
0.0
  0
MTEXT
  5
9B
330
91
100
AcDbEntity
  8
2
 62
     7
420
 16777215
100
AcDbMText
 10
28.2663852307
 20
-9.5657888759
 30
-5.4997908101
 40
3.5
 41
0.0
 46
0.0
 71
     1
 72
     1
  1
24,95
  7
SLDTEXTSTYLE0
 11
-7.044195017643634E-15
 21
1.0
 31
0.0
 73
     1
 44
1.0
  0
ENDBLK
  5
93
330
91
100
AcDbEntity
  8
0
100
AcDbBlockEnd
  0
BLOCK
  5
BF
330
BE
100
AcDbEntity
  8
0
100
AcDbBlockBegin
  2
_D_3
 70
     0
 10
0.0
 20
0.0
 30
0.0
  3
_D_3
  1

  0
SOLID
  5
C1
330
BE
100
AcDbEntity
  8
2
 62
     7
420
 16777215
100
AcDbTrace
 10
-14.6027100396
 20
-45.6422238542
 30
0.0
 11
-14.0947100396
 21
-42.3402238542
 31
0.0
 12
-15.1107100396
 22
-42.3402238542
 32
0.0
 13
-15.1107100396
 23
-42.3402238542
 33
0.0
  0
SOLID
  5
C2
330
BE
100
AcDbEntity
  8
2
 62
     7
420
 16777215
100
AcDbTrace
 10
-14.6027100396
 20
-49.4422238542
 30
0.0
 11
-15.1107100396
 21
-52.7442238542
 31
0.0
 12
-14.0947100396
 22
-52.7442238542
 32
0.0
 13
-14.0947100396
 23
-52.7442238542
 33
0.0
  0
LINE
  5
C3
330
BE
100
AcDbEntity
  8
2
 62
     7
420
 16777215
100
AcDbLine
 10
-5.6027100396
 20
-45.6422238542
 30
0.0
 11
-15.6027100396
 21
-45.6422238542
 31
0.0
  0
LINE
  5
C4
330
BE
100
AcDbEntity
  8
2
 62
     7
420
 16777215
100
AcDbLine
 10
-5.6027100396
 20
-49.4422238542
 30
0.0
 11
-15.6027100396
 21
-49.4422238542
 31
0.0
  0
LINE
  5
C5
330
BE
100
AcDbEntity
  8
2
 62
     7
420
 16777215
100
AcDbLine
 10
-14.6027100396
 20
-45.6422238542
 30
0.0
 11
-14.6027100396
 21
-39.2922238542
 31
0.0
  0
LINE
  5
C6
330
BE
100
AcDbEntity
  8
2
 62
     7
420
 16777215
100
AcDbLine
 10
-14.6027100396
 20
-45.6422238542
 30
0.0
 11
-14.6027100396
 21
-49.4422238542
 31
0.0
  0
LINE
  5
C7
330
BE
100
AcDbEntity
  8
2
 62
     7
420
 16777215
100
AcDbLine
 10
-14.6027100396
 20
-49.4422238542
 30
0.0
 11
-14.6027100396
 21
-67.558543483
 31
0.0
  0
MTEXT
  5
C8
330
BE
100
AcDbEntity
  8
2
 62
     7
420
 16777215
100
AcDbMText
 10
-19.1144469542
 20
-67.558543483
 30
1.1735079227
 40
3.5
 41
0.0
 46
0.0
 71
     1
 72
     1
  1
3,80
  7
SLDTEXTSTYLE0
 11
-7.044195017643634E-15
 21
1.0
 31
0.0
 73
     1
 44
1.0
  0
ENDBLK
  5
C0
330
BE
100
AcDbEntity
  8
0
100
AcDbBlockEnd
  0
BLOCK
  5
CB
330
CA
100
AcDbEntity
  8
0
100
AcDbBlockBegin
  2
_D_4
 70
     0
 10
0.0
 20
0.0
 30
0.0
  3
_D_4
  1

  0
SOLID
  5
CD
330
CA
100
AcDbEntity
  8
2
 62
     7
420
 16777215
100
AcDbTrace
 10
33.1772899604
 20
-45.6422238542
 30
0.0
 11
33.6852899604
 21
-42.3402238542
 31
0.0
 12
32.6692899604
 22
-42.3402238542
 32
0.0
 13
32.6692899604
 23
-42.3402238542
 33
0.0
  0
SOLID
  5
CE
330
CA
100
AcDbEntity
  8
2
 62
     7
420
 16777215
100
AcDbTrace
 10
33.1772899604
 20
-46.9422238542
 30
0.0
 11
32.6692899604
 21
-50.2442238542
 31
0.0
 12
33.6852899604
 22
-50.2442238542
 32
0.0
 13
33.6852899604
 23
-50.2442238542
 33
0.0
  0
LINE
  5
CF
330
CA
100
AcDbEntity
  8
2
 62
     7
420
 16777215
100
AcDbLine
 10
23.4468143953
 20
-45.6422238542
 30
0.0
 11
34.1772899604
 21
-45.6422238542
 31
0.0
  0
LINE
  5
D0
330
CA
100
AcDbEntity
  8
2
 62
     7
420
 16777215
100
AcDbLine
 10
23.4468143953
 20
-46.9422238542
 30
0.0
 11
34.1772899604
 21
-46.9422238542
 31
0.0
  0
LINE
  5
D1
330
CA
100
AcDbEntity
  8
2
 62
     7
420
 16777215
100
AcDbLine
 10
33.1772899604
 20
-45.6422238542
 30
0.0
 11
33.1772899604
 21
-27.5259042253
 31
0.0
  0
LINE
  5
D2
330
CA
100
AcDbEntity
  8
2
 62
     7
420
 16777215
100
AcDbLine
 10
33.1772899604
 20
-45.6422238542
 30
0.0
 11
33.1772899604
 21
-46.9422238542
 31
0.0
  0
LINE
  5
D3
330
CA
100
AcDbEntity
  8
2
 62
     7
420
 16777215
100
AcDbLine
 10
33.1772899604
 20
-46.9422238542
 30
0.0
 11
33.1772899604
 21
-53.2922238542
 31
0.0
  0
MTEXT
  5
D4
330
CA
100
AcDbEntity
  8
2
 62
     7
420
 16777215
100
AcDbMText
 10
28.6655530458
 20
-39.4210429957
 30
1.1735079227
 40
3.5
 41
0.0
 46
0.0
 71
     1
 72
     1
  1
1,30
  7
SLDTEXTSTYLE0
 11
-6.156016597943509E-15
 21
1.0
 31
0.0
 73
     1
 44
1.0
  0
ENDBLK
  5
CC
330
CA
100
AcDbEntity
  8
0
100
AcDbBlockEnd
  0
ENDSEC
  0
SECTION
  2
ENTITIES
  0
LINE
  5
48
330
1F
100
AcDbEntity
  8
0
  6
SLD-Punktstrich
 62
     7
100
AcDbLine
 10
-5.0018778547
 20
-0.0001637776
 30
0.0
 11
24.4981221453
 21
-0.0001637776
 31
0.0
  0
LINE
  5
49
330
1F
100
AcDbEntity
  8
0
  6
SLD-Durchgehend
 62
     7
100
AcDbLine
 10
3.4981221453
 20
10.1498362224
 30
0.0
 11
6.3493228692
 21
10.1498362224
 31
0.0
  0
LINE
  5
4A
330
1F
100
AcDbEntity
  8
0
  6
SLD-Durchgehend
 62
     7
100
AcDbLine
 10
22.7781221453
 20
-14.8001637776
 30
0.0
 11
8.9981221453
 21
-14.8001637776
 31
0.0
  0
POINT
  5
4B
330
1F
100
AcDbEntity
  8
1
 62
     4
420
    65535
100
AcDbPoint
 10
-5.0018778547
 20
-0.0001637776
 30
0.0
  0
POINT
  5
4C
330
1F
100
AcDbEntity
  8
1
 62
     4
420
    65535
100
AcDbPoint
 10
24.4981221453
 20
-0.0001637776
 30
0.0
  0
POINT
  5
4D
330
1F
100
AcDbEntity
  8
1
 62
     4
420
    65535
100
AcDbPoint
 10
24.4981221453
 20
-0.0001637776
 30
0.0
  0
POINT
  5
4E
330
1F
100
AcDbEntity
  8
1
 62
     4
420
    65535
100
AcDbPoint
 10
22.7781221453
 20
-0.0001637776
 30
0.0
  0
POINT
  5
4F
330
1F
100
AcDbEntity
  8
1
 62
     4
420
    65535
100
AcDbPoint
 10
24.4981221453
 20
-1.0001637776
 30
0.0
  0
POINT
  5
50
330
1F
100
AcDbEntity
  8
1
 62
     4
420
    65535
100
AcDbPoint
 10
3.4981221453
 20
10.1498362224
 30
0.0
  0
POINT
  5
51
330
1F
100
AcDbEntity
  8
1
 62
     4
420
    65535
100
AcDbPoint
 10
6.3493228692
 20
10.1498362224
 30
0.0
  0
POINT
  5
52
330
1F
100
AcDbEntity
  8
1
 62
     4
420
    65535
100
AcDbPoint
 10
22.7781221453
 20
-14.8001637776
 30
0.0
  0
POINT
  5
53
330
1F
100
AcDbEntity
  8
1
 62
     4
420
    65535
100
AcDbPoint
 10
8.9981221453
 20
-14.8001637776
 30
0.0
  0
LINE
  5
54
330
1F
100
AcDbEntity
  8
1
 62
     4
420
    65535
100
AcDbLine
 10
16.1428185265
 20
-2.5914120361
 30
0.0
 11
22.0314488549
 21
-1.3397450206
 31
0.0
  0
LINE
  5
55
330
1F
100
AcDbEntity
  8
1
 62
     4
420
    65535
100
AcDbLine
 10
22.7781221453
 20
-3.738296287
 30
0.0
 11
17.3872554899
 21
-4.8841603677
 31
0.0
  0
LINE
  5
56
330
1F
100
AcDbEntity
  8
1
 62
     4
420
    65535
100
AcDbLine
 10
6.3493228692
 20
10.1498362224
 30
0.0
 11
3.4981221453
 21
10.1498362224
 31
0.0
  0
ARC
  5
57
330
1F
100
AcDbEntity
  8
1
 62
     4
420
    65535
100
AcDbCircle
 10
4.2481221453
 20
-1.0001637776
 30
0.0
 40
14.75000000000001
100
AcDbArc
 50
356.9089709877
 51
3.3636092585
  0
ARC
  5
58
330
1F
100
AcDbEntity
  8
1
 62
     4
420
    65535
100
AcDbCircle
 10
4.2481221453
 20
-1.0001637776
 30
0.0
 40
14.75000000000002
100
AcDbArc
 50
290.6758039113
 51
344.8959664773
  0
ARC
  5
59
330
1F
100
AcDbEntity
  8
1
 62
     4
420
    65535
100
AcDbCircle
 10
32.2081221453
 20
28.9998362224
 30
0.0
 40
32.0
100
AcDbArc
 50
216.0905085467
 51
245.5684044843
  0
CIRCLE
  5
5A
330
1F
100
AcDbEntity
  8
1
 62
     4
420
    65535
100
AcDbCircle
 10
-0.0018778547
 20
-0.0001637776
 30
0.0
 40
1.75
  0
LINE
  5
5B
330
1F
100
AcDbEntity
  8
1
 62
     4
420
    65535
100
AcDbLine
 10
3.4981221453
 20
10.1498362224
 30
0.0
 11
3.4981221453
 21
5.4788362224
 31
0.0
  0
LINE
  5
5C
330
1F
100
AcDbEntity
  8
1
 62
     4
420
    65535
100
AcDbLine
 10
8.9981221453
 20
-14.8001637776
 30
0.0
 11
9.4560487961
 21
-14.8001637776
 31
0.0
  0
LINE
  5
5D
330
1F
100
AcDbEntity
  8
1
 62
     4
420
    65535
100
AcDbLine
 10
16.6122186381
 20
-2.2980982926
 30
0.0
 11
18.9766627447
 21
-1.7955201831
 31
0.0
  0
LINE
  5
5E
330
1F
100
AcDbEntity
  8
1
 62
     4
420
    65535
100
AcDbLine
 10
17.2078670196
 20
-4.8080144797
 30
0.0
 11
15.6947937387
 21
-2.8713689949
 31
0.0
  0
LINE
  5
5F
330
1F
100
AcDbEntity
  8
1
 62
     4
420
    65535
100
AcDbLine
 10
15.6947937387
 20
-2.8713689949
 30
0.0
 11
16.6122186381
 21
-2.2980982926
 31
0.0
  0
LINE
  5
60
330
1F
100
AcDbEntity
  8
1
 62
     4
420
    65535
100
AcDbLine
 10
3.4981221453
 20
5.4788362224
 30
0.0
 11
-3.8533601218
 21
4.7061643007
 31
0.0
  0
CIRCLE
  5
61
330
1F
100
AcDbEntity
  8
1
 62
     4
420
    65535
100
AcDbCircle
 10
8.7481221453
 20
-6.5001637776
 30
0.0
 40
1.75
  0
CIRCLE
  5
62
330
1F
100
AcDbEntity
  8
1
 62
     4
420
    65535
100
AcDbCircle
 10
6.9981221453
 20
-0.0001637776
 30
0.0
 40
1.749999999999999
  0
LINE
  5
63
330
1F
100
AcDbEntity
  8
1
 62
     4
420
    65535
100
AcDbLine
 10
18.4885729143
 20
-4.8436077924
 30
0.0
 11
17.6910704612
 21
-5.0131221718
 31
0.0
  0
LINE
  5
64
330
1F
100
AcDbEntity
  8
1
 62
     4
420
    65535
100
AcDbLine
 10
17.6910704612
 20
-5.0131221718
 30
0.0
 11
17.2078670196
 21
-4.8080144797
 31
0.0
  0
LINE
  5
65
330
1F
100
AcDbEntity
  8
1
 62
     4
420
    65535
100
AcDbLine
 10
8.9981221453
 20
-10.7501637776
 30
0.0
 11
8.9981221453
 21
-14.8001637776
 31
0.0
  0
LINE
  5
66
330
1F
100
AcDbEntity
  8
1
 62
     4
420
    65535
100
AcDbLine
 10
-1.3198496653
 20
-10.7501637776
 30
0.0
 11
8.9981221453
 21
-10.7501637776
 31
0.0
  0
ARC
  5
67
330
1F
100
AcDbEntity
  8
1
 62
     4
420
    65535
100
AcDbCircle
 10
9.7481221453
 20
-1.0001637776
 30
0.0
 40
14.75
100
AcDbArc
 50
157.2401373134
 51
221.3774773023
  0
ARC
  5
68
330
1F
100
AcDbEntity
  8
1
 62
     4
420
    65535
100
AcDbCircle
 10
32.2081221453
 20
28.9998362224
 30
0.0
 40
32.0
100
AcDbArc
 50
245.5684044843
 51
250.7992138944
  0
LINE
  5
69
330
1F
100
AcDbEntity
  8
1
 62
     4
420
    65535
100
AcDbLine
 10
21.6839748277
 20
-1.2200632353
 30
0.0
 11
18.9766627447
 21
-1.7955201831
 31
0.0
  0
ARC
  5
6A
330
1F
100
AcDbEntity
  8
1
 62
     4
420
    65535
100
AcDbCircle
 10
7.4981221453
 20
-1.0001637776
 30
0.0
 40
14.87339426926952
100
AcDbArc
 50
301.8776375161
 51
348.021317132
  0
ARC
  5
6B
330
1F
100
AcDbEntity
  8
1
 62
     4
420
    65535
100
AcDbCircle
 10
9.3881221453
 20
-0.1401637776
 30
0.0
 40
14.75
100
AcDbArc
 50
276.3326276078
 51
293.8528656849
  0
LINE
  5
6C
330
1F
100
AcDbEntity
  8
1
 62
     4
420
    65535
100
AcDbLine
 10
9.4560487961
 20
-14.8001637776
 30
0.0
 11
11.0150517689
 21
-14.8001637776
 31
0.0
  0
LINE
  5
6D
330
1F
100
AcDbEntity
  8
1
 62
     4
420
    65535
100
AcDbLine
 10
18.4885729143
 20
-4.8436077924
 30
0.0
 11
22.0476465802
 21
-4.0871033313
 31
0.0
  0
SPLINE
  5
6E
330
1F
100
AcDbEntity
  8
1
 62
     4
420
    65535
100
AcDbSpline
210
0.0
220
0.0
230
1.0
 70
     8
 71
     3
 72
     8
 73
     4
 74
     0
 42
0.00000001
 43
0.00000001
 12
1.0
 22
0.0
 32
0.0
 13
1.0
 23
0.0
 33
0.0
 40
0.0000003233913028
 40
0.0000003233913028
 40
0.0000003233913028
 40
0.0000003233913028
 40
0.0008168850004905
 40
0.0008168850004905
 40
0.0008168850004905
 40
0.0008168850004905
 10
22.67174083144536
 20
-3.777617904840408
 30
0.0
 10
22.48239985414039
 20
-3.87711945081702
 30
0.0
 10
22.29222990847103
 20
-3.976496661542355
 30
0.0
 10
22.10115578192589
 20
-4.075729599312453
 30
0.0
  0
SPLINE
  5
6F
330
1F
100
AcDbEntity
  8
1
 62
     4
420
    65535
100
AcDbSpline
210
0.0
220
0.0
230
1.0
 70
     8
 71
     3
 72
     8
 73
     4
 74
     0
 42
0.00000001
 43
0.00000001
 12
1.0
 22
0.0
 32
0.0
 13
1.0
 23
0.0
 33
0.0
 40
0.0
 40
0.0
 40
0.0
 40
0.0
 40
1.0
 40
1.0
 40
1.0
 40
1.0
 10
22.77812214530969
 20
-3.738296286990152
 30
0.0
 10
22.74208170415222
 20
-3.745956919243656
 30
0.0
 10
22.70665314110348
 20
-3.759270958320728
 30
0.0
 10
22.67174083144536
 20
-3.777617904840407
 30
0.0
  0
ARC
  5
70
330
1F
100
AcDbEntity
  8
1
 62
     4
420
    65535
100
AcDbCircle
 10
7.4981221453
 20
-1.0001637776
 30
0.0
 40
15.52339426926952
100
AcDbArc
 50
319.9382265231
 51
349.8405885911
  0
SPLINE
  5
71
330
1F
100
AcDbEntity
  8
1
 62
     4
420
    65535
100
AcDbSpline
210
0.0
220
0.0
230
1.0
 70
     8
 71
     3
 72
    10
 73
     6
 74
     0
 42
0.00000001
 43
0.00000001
 12
1.0
 22
0.0
 32
0.0
 13
1.0
 23
0.0
 33
0.0
 40
0.0
 40
0.0
 40
0.0
 40
0.0
 40
0.5
 40
0.5
 40
1.0
 40
1.0
 40
1.0
 40
1.0
 10
15.35286490561642
 20
-13.63032107106156
 30
0.0
 10
16.09599677921063
 20
-13.30174147287481
 30
0.0
 10
16.80241366019147
 20
-12.91649047156704
 30
0.0
 10
18.14451927595959
 20
-12.03687558166738
 30
0.0
 10
18.78021027437682
 20
-11.54251491806039
 30
0.0
 10
19.37896710325759
 20
-10.99122441817403
 30
0.0
  0
SPLINE
  5
72
330
1F
100
AcDbEntity
  8
1
 62
     4
420
    65535
100
AcDbSpline
210
0.0
220
0.0
230
1.0
 70
    24
 71
     3
 72
     8
 73
     4
 74
     0
 42
0.00000001
 43
0.00000001
 12
1.0
 22
0.0
 32
0.0
 13
1.0
 23
0.0
 33
0.0
 40
0.0000002965019394
 40
0.0000002965019394
 40
0.0000002965019394
 40
0.0000002965019394
 40
0.000074408555273
 40
0.000074408555273
 40
0.000074408555273
 40
0.000074408555273
 10
22.04764658018379
 20
-4.087103331252464
 30
0.0
 10
22.06548566967901
 20
-4.083311515726036
 30
0.0
 10
22.08332206092683
 20
-4.079520273729798
 30
0.0
 10
22.10115578192589
 20
-4.075729599312456
 30
0.0
  0
LINE
  5
73
330
1F
100
AcDbEntity
  8
1
 62
     4
420
    65535
100
AcDbLine
 10
16.1833449713
 20
-2.5660883028
 30
0.0
 11
22.0026344333
 21
-1.3291601434
 31
0.0
  0
ARC
  5
74
330
1F
100
AcDbEntity
  8
1
 62
     4
420
    65535
100
AcDbCircle
 10
32.2081221453
 20
28.9998362224
 30
0.0
 40
32.0
100
AcDbArc
 50
250.7992138944
 51
251.4022862276
  0
LINE
  5
75
330
1F
100
AcDbEntity
  8
1
 62
     4
420
    65535
100
AcDbLine
 10
17.4134858643
 20
-4.895294501
 30
0.0
 11
22.6717408314
 21
-3.7776179048
 31
0.0
  0
SPLINE
  5
76
330
1F
100
AcDbEntity
  8
1
 62
     4
420
    65535
100
AcDbSpline
210
0.0
220
0.0
230
1.0
 70
     8
 71
     3
 72
    10
 73
     6
 74
     0
 42
0.00000001
 43
0.00000001
 12
1.0
 22
0.0
 32
0.0
 13
1.0
 23
0.0
 33
0.0
 40
0.0
 40
0.0
 40
0.0
 40
0.0
 40
0.1269443238511726
 40
0.6312647372339809
 40
1.0
 40
1.0
 40
1.0
 40
1.0
 10
22.03124186580554
 20
-1.33877121343676
 30
0.0
 10
22.03181595339062
 20
-1.338963794981828
 30
0.0
 10
22.03467075806049
 20
-1.339921458426365
 30
0.0
 10
22.02325894946244
 20
-1.336095630654096
 30
0.0
 10
22.00875864161696
 20
-1.331219555054803
 30
0.0
 10
22.00263443331082
 20
-1.329160143419908
 30
0.0
  0
DIMENSION
  5
77
330
1F
100
AcDbEntity
  8
2
 62
     7
420
 16777215
100
AcDbDimension
  2
_D
 10
24.4981221453
 20
-24.8001637776
 30
0.0
 11
16.7481221453
 21
-24.8001637776
 31
0.0
 70
   160
  1
<>
 71
     2
 42
-1.0
 73
     0
 74
     0
 75
     0
  3
SLDDIMSTYLE0
100
AcDbAlignedDimension
 13
8.9981221453
 23
-14.8001637776
 33
0.0
 14
24.4981221453
 24
-1.0001637776
 34
0.0
100
AcDbRotatedDimension
  0
DIMENSION
  5
85
330
1F
100
AcDbEntity
  8
2
 62
     7
420
 16777215
100
AcDbDimension
  2
_D_1
 10
24.4981221453
 20
-36.8001637776
 30
0.0
 11
9.7481221453
 21
-36.8001637776
 31
0.0
 70
   160
  1
<>
 71
     2
 42
-1.0
 73
     0
 74
     0
 75
     0
  3
SLDDIMSTYLE1
100
AcDbAlignedDimension
 13
-5.0018778547
 23
-0.0001637776
 33
0.0
 14
24.4981221453
 24
-0.0001637776
 34
0.0
100
AcDbRotatedDimension
  0
DIMENSION
  5
90
330
1F
100
AcDbEntity
  8
2
 62
     7
420
 16777215
100
AcDbDimension
  2
_D_2
 10
32.7781221453
 20
-14.8001637776
 30
0.0
 11
32.7781221453
 21
-2.3251637776
 31
0.0
 70
   160
  1
<>
 71
     2
 42
-1.0
 73
     0
 74
     0
 75
     0
  3
SLDDIMSTYLE0
100
AcDbAlignedDimension
 13
6.3493228692
 23
10.1498362224
 33
0.0
 14
22.7781221453
 24
-14.8001637776
 34
0.0
 50
90.0
100
AcDbRotatedDimension
  0
LINE
  5
9C
330
1F
100
AcDbEntity
  8
1
 62
     4
420
    65535
100
AcDbLine
 10
-4.6027100396
 20
-45.6422238542
 30
0.0
 11
-4.6027100396
 21
-49.4422238542
 31
0.0
  0
LINE
  5
9D
330
1F
100
AcDbEntity
  8
1
 62
     4
420
    65535
100
AcDbLine
 10
19.3972899604
 20
-49.4422238542
 30
0.0
 11
19.3972899604
 21
-46.9422238542
 31
0.0
  0
LINE
  5
9E
330
1F
100
AcDbEntity
  8
1
 62
     4
420
    65535
100
AcDbLine
 10
19.3718800516
 20
-46.9422238542
 30
0.0
 11
19.3718800516
 21
-49.4422238542
 31
0.0
  0
LINE
  5
9F
330
1F
100
AcDbEntity
  8
1
 62
     4
420
    65535
100
AcDbLine
 10
19.3718800516
 20
-49.4422238542
 30
0.0
 11
6.7484906843
 21
-49.4422238542
 31
0.0
  0
ELLIPSE
  5
A0
330
1F
100
AcDbEntity
  8
1
 62
     4
420
    65535
100
AcDbEllipse
 10
32.6072899604
 20
-119.7913815768
 30
0.0
 11
0.0
 21
119.4256258422069
 31
0.0
210
0.0
220
0.0
230
1.0
 40
0.2679491924
 41
0.9009296669662421
 42
0.9408981239354801
  0
LINE
  5
A1
330
1F
100
AcDbEntity
  8
1
 62
     4
420
    65535
100
AcDbLine
 10
7.5223471991
 20
-45.6422238542
 30
0.0
 11
22.0831426428
 21
-45.6422238542
 31
0.0
  0
LINE
  5
A2
330
1F
100
AcDbEntity
  8
1
 62
     4
420
    65535
100
AcDbLine
 10
22.0831426428
 20
-45.6922238542
 30
0.0
 11
22.0831426428
 21
-45.6422238542
 31
0.0
  0
ELLIPSE
  5
A3
330
1F
100
AcDbEntity
  8
1
 62
     4
420
    65535
100
AcDbEllipse
 10
32.6072899604
 20
33.8001776535
 30
0.0
 11
-7.496205421954159
 21
92.90083998162433
 31
0.0
210
0.0
220
0.0
230
1.0
 40
0.3348688242
 41
2.570022082547044
 42
2.58054768038958
  0
SPLINE
  5
A4
330
1F
100
AcDbEntity
  8
1
 62
     4
420
    65535
100
AcDbSpline
210
0.0
220
0.0
230
1.0
 70
     8
 71
     3
 72
    10
 73
     6
 74
     0
 42
0.00000001
 43
0.00000001
 12
1.0
 22
0.0
 32
0.0
 13
1.0
 23
0.0
 33
0.0
 40
0.0
 40
0.0
 40
0.0
 40
0.0
 40
0.5
 40
0.5
 40
1.0
 40
1.0
 40
1.0
 40
1.0
 10
22.40180224838207
 20
-46.19455340781418
 30
0.0
 10
22.42039315057569
 20
-46.22354982687086
 30
0.0
 10
22.43221775791127
 20
-46.25732464722005
 30
0.0
 10
22.43231572976761
 20
-46.32666872850891
 30
0.0
 10
22.42041667824523
 20
-46.36086118508696
 30
0.0
 10
22.40180224838224
 20
-46.38989430048859
 30
0.0
  0
ELLIPSE
  5
A5
330
1F
100
AcDbEntity
  8
1
 62
     4
420
    65535
100
AcDbEllipse
 10
32.6072899604
 20
-126.3846253619
 30
0.0
 11
7.496205421954144
 21
92.90083998162567
 31
0.0
210
0.0
220
0.0
230
1.0
 40
0.3348688242
 41
0.5610449732002127
 42
0.5715705710427482
  0
LINE
  5
A6
330
1F
100
AcDbEntity
  8
1
 62
     4
420
    65535
100
AcDbLine
 10
22.0831426428
 20
-46.9422238542
 30
0.0
 11
22.0831426428
 21
-46.8922238542
 31
0.0
  0
LINE
  5
A7
330
1F
100
AcDbEntity
  8
1
 62
     4
420
    65535
100
AcDbLine
 10
22.0831426428
 20
-46.9422238542
 30
0.0
 11
19.3718800516
 21
-46.9422238542
 31
0.0
  0
LINE
  5
A8
330
1F
100
AcDbEntity
  8
1
 62
     4
420
    65535
100
AcDbLine
 10
6.7484906843
 20
-49.4422238542
 30
0.0
 11
3.8972899604
 21
-49.4422238542
 31
0.0
  0
LINE
  5
A9
330
1F
100
AcDbEntity
  8
1
 62
     4
420
    65535
100
AcDbLine
 10
7.5223471991
 20
-45.6422238542
 30
0.0
 11
3.8972899604
 21
-45.6422238542
 31
0.0
  0
LINE
  5
AA
330
1F
100
AcDbEntity
  8
1
 62
     4
420
    65535
100
AcDbLine
 10
3.8972899604
 20
-45.6422238542
 30
0.0
 11
3.8972899604
 21
-49.4422238542
 31
0.0
  0
LINE
  5
AB
330
1F
100
AcDbEntity
  8
1
 62
     4
420
    65535
100
AcDbLine
 10
-3.4541923068
 20
-49.4422238542
 30
0.0
 11
-3.4541923068
 21
-45.6422238542
 31
0.0
  0
LINE
  5
AC
330
1F
100
AcDbEntity
  8
1
 62
     4
420
    65535
100
AcDbLine
 10
-3.4541923068
 20
-45.6422238542
 30
0.0
 11
3.8972899604
 21
-45.6422238542
 31
0.0
  0
LINE
  5
AD
330
1F
100
AcDbEntity
  8
1
 62
     4
420
    65535
100
AcDbLine
 10
3.8972899604
 20
-49.4422238542
 30
0.0
 11
-3.4541923068
 21
-49.4422238542
 31
0.0
  0
LINE
  5
AE
330
1F
100
AcDbEntity
  8
1
 62
     4
420
    65535
100
AcDbLine
 10
-4.6027100396
 20
-45.6422238542
 30
0.0
 11
-3.4541923068
 21
-45.6422238542
 31
0.0
  0
LINE
  5
AF
330
1F
100
AcDbEntity
  8
1
 62
     4
420
    65535
100
AcDbLine
 10
-3.4541923068
 20
-49.4422238542
 30
0.0
 11
-4.6027100396
 21
-49.4422238542
 31
0.0
  0
LINE
  5
B0
330
1F
100
AcDbEntity
  8
1
 62
     4
420
    65535
100
AcDbLine
 10
19.3972899604
 20
-49.4422238542
 30
0.0
 11
19.3718800516
 21
-49.4422238542
 31
0.0
  0
SPLINE
  5
B1
330
1F
100
AcDbEntity
  8
1
 62
     4
420
    65535
100
AcDbSpline
210
0.0
220
0.0
230
1.0
 70
     8
 71
     3
 72
     8
 73
     4
 74
     0
 42
0.00000001
 43
0.00000001
 12
1.0
 22
0.0
 32
0.0
 13
1.0
 23
0.0
 33
0.0
 40
0.0
 40
0.0
 40
0.0
 40
0.0
 40
1.0
 40
1.0
 40
1.0
 40
1.0
 10
23.17728996038111
 20
-46.29222385415134
 30
0.0
 10
23.14124951922364
 20
-46.326347970661
 30
0.0
 10
23.1058209561749
 20
-46.35885599866441
 30
0.0
 10
23.07090864651677
 20
-46.38989430048847
 30
0.0
  0
SPLINE
  5
B2
330
1F
100
AcDbEntity
  8
1
 62
     4
420
    65535
100
AcDbSpline
210
0.0
220
0.0
230
1.0
 70
     8
 71
     3
 72
     8
 73
     4
 74
     0
 42
0.00000001
 43
0.00000001
 12
1.0
 22
0.0
 32
0.0
 13
1.0
 23
0.0
 33
0.0
 40
0.0
 40
0.0
 40
0.0
 40
0.0
 40
1.0
 40
1.0
 40
1.0
 40
1.0
 10
23.07090864651678
 20
-46.19455340781417
 30
0.0
 10
23.10582095617491
 20
-46.22559170963822
 30
0.0
 10
23.14124951922364
 20
-46.25809973764163
 30
0.0
 10
23.17728996038111
 20
-46.2922238541513
 30
0.0
  0
LINE
  5
B3
330
1F
100
AcDbEntity
  8
1
 62
     4
420
    65535
100
AcDbLine
 10
22.0831426428
 20
-45.6922238542
 30
0.0
 11
22.500323597
 21
-45.6922238542
 31
0.0
  0
SPLINE
  5
B4
330
1F
100
AcDbEntity
  8
1
 62
     4
420
    65535
100
AcDbSpline
210
0.0
220
0.0
230
1.0
 70
     8
 71
     3
 72
     8
 73
     4
 74
     0
 42
0.00000001
 43
0.00000001
 12
1.0
 22
0.0
 32
0.0
 13
1.0
 23
0.0
 33
0.0
 40
0.0000003269067098
 40
0.0000003269067098
 40
0.0000003269067098
 40
0.0000003269067098
 40
0.0008168885158975
 40
0.0008168885158975
 40
0.0008168885158975
 40
0.0008168885158975
 10
22.50032359699731
 20
-45.69222385415131
 30
0.0
 10
22.69139772354245
 20
-45.85874525138769
 30
0.0
 10
22.88156766921181
 20
-46.02622245352325
 30
0.0
 10
23.07090864651678
 20
-46.19455340781418
 30
0.0
  0
LINE
  5
B5
330
1F
100
AcDbEntity
  8
1
 62
     4
420
    65535
100
AcDbLine
 10
22.0831426428
 20
-46.8922238542
 30
0.0
 11
22.500323597
 21
-46.8922238542
 31
0.0
  0
SPLINE
  5
B6
330
1F
100
AcDbEntity
  8
1
 62
     4
420
    65535
100
AcDbSpline
210
0.0
220
0.0
230
1.0
 70
     8
 71
     3
 72
     8
 73
     4
 74
     0
 42
0.00000001
 43
0.00000001
 12
1.0
 22
0.0
 32
0.0
 13
1.0
 23
0.0
 33
0.0
 40
0.0000003233913028
 40
0.0000003233913028
 40
0.0000003233913028
 40
0.0000003233913028
 40
0.0008168850004905
 40
0.0008168850004905
 40
0.0008168850004905
 40
0.0008168850004905
 10
23.07090864651677
 20
-46.38989430048846
 30
0.0
 10
22.8815676692118
 20
-46.55822525477939
 30
0.0
 10
22.69139772354245
 20
-46.72570245691495
 30
0.0
 10
22.5003235969973
 20
-46.89222385415134
 30
0.0
  0
SPLINE
  5
B7
330
1F
100
AcDbEntity
  8
1
 62
     4
420
    65535
100
AcDbSpline
210
0.0
220
0.0
230
1.0
 70
     8
 71
     3
 72
     8
 73
     4
 74
     0
 42
0.00000001
 43
0.00000001
 12
1.0
 22
0.0
 32
0.0
 13
1.0
 23
0.0
 33
0.0
 40
0.0000002963947044
 40
0.0000002963947044
 40
0.0000002963947044
 40
0.0000002963947044
 40
0.000074408448038
 40
0.000074408448038
 40
0.000074408448038
 40
0.000074408448038
 10
22.50032359699731
 20
-45.69222385415131
 30
0.0
 10
22.48248987599825
 20
-45.67555419077264
 30
0.0
 10
22.46465348475042
 20
-45.65888751267409
 30
0.0
 10
22.4468143952552
 20
-45.64222385415131
 30
0.0
  0
LINE
  5
B8
330
1F
100
AcDbEntity
  8
1
 62
     4
420
    65535
100
AcDbLine
 10
22.4468143953
 20
-45.6422238542
 30
0.0
 11
22.0831426428
 21
-45.6422238542
 31
0.0
  0
LINE
  5
B9
330
1F
100
AcDbEntity
  8
1
 62
     4
420
    65535
100
AcDbLine
 10
22.0831426428
 20
-46.9422238542
 30
0.0
 11
22.4468143953
 21
-46.9422238542
 31
0.0
  0
SPLINE
  5
BA
330
1F
100
AcDbEntity
  8
1
 62
     4
420
    65535
100
AcDbSpline
210
0.0
220
0.0
230
1.0
 70
     8
 71
     3
 72
     8
 73
     4
 74
     0
 42
0.00000001
 43
0.00000001
 12
1.0
 22
0.0
 32
0.0
 13
1.0
 23
0.0
 33
0.0
 40
0.0000002965019394
 40
0.0000002965019394
 40
0.0000002965019394
 40
0.0000002965019394
 40
0.000074408555273
 40
0.000074408555273
 40
0.000074408555273
 40
0.000074408555273
 10
22.44681439525521
 20
-46.94222385415131
 30
0.0
 10
22.46465348475043
 20
-46.92556019562853
 30
0.0
 10
22.48248987599825
 20
-46.90889351753
 30
0.0
 10
22.5003235969973
 20
-46.89222385415133
 30
0.0
  0
LINE
  5
BB
330
1F
100
AcDbEntity
  8
1
 62
     4
420
    65535
100
AcDbLine
 10
22.4018022484
 20
-46.3898943005
 30
0.0
 11
23.0709086465
 21
-46.3898943005
 31
0.0
  0
LINE
  5
BC
330
1F
100
AcDbEntity
  8
1
 62
     4
420
    65535
100
AcDbLine
 10
22.4018022484
 20
-46.1945534078
 30
0.0
 11
23.0709086465
 21
-46.1945534078
 31
0.0
  0
DIMENSION
  5
BD
330
1F
100
AcDbEntity
  8
2
 62
     7
420
 16777215
100
AcDbDimension
  2
_D_3
 10
-14.6027100396
 20
-49.4422238542
 30
0.0
 11
-14.6027100396
 21
-61.6109740978
 31
0.0
 70
   160
  1
<>
 71
     2
 42
-1.0
 73
     0
 74
     0
 75
     0
  3
SLDDIMSTYLE0
100
AcDbAlignedDimension
 13
-4.6027100396
 23
-45.6422238542
 33
0.0
 14
-4.6027100396
 24
-49.4422238542
 34
0.0
 50
90.0
100
AcDbRotatedDimension
  0
DIMENSION
  5
C9
330
1F
100
AcDbEntity
  8
2
 62
     7
420
 16777215
100
AcDbDimension
  2
_D_4
 10
33.1772899604
 20
-46.9422238542
 30
0.0
 11
33.1772899604
 21
-33.4734736105
 31
0.0
 70
   160
  1
<>
 71
     2
 42
-1.0
 73
     0
 74
     0
 75
     0
  3
SLDDIMSTYLE0
100
AcDbAlignedDimension
 13
22.4468143953
 23
-45.6422238542
 33
0.0
 14
22.4468143953
 24
-46.9422238542
 34
0.0
 50
90.0
100
AcDbRotatedDimension
  0
ENDSEC
  0
SECTION
  2
OBJECTS
  0
DICTIONARY
  5
C
330
0
100
AcDbDictionary
281
     1
  3
ACAD_GROUP
350
D
  3
ACAD_LAYOUT
350
1A
  3
ACAD_MATERIAL
350
3B
  3
ACAD_MLEADERSTYLE
350
D6
  3
ACAD_MLINESTYLE
350
17
  3
ACAD_PLOTSETTINGS
350
19
  3
ACAD_PLOTSTYLENAME
350
E
  3
ACAD_TABLESTYLE
350
D5
  3
ACAD_VISUALSTYLE
350
2A
  0
DICTIONARY
  5
D
102
{ACAD_REACTORS
330
C
102
}
330
C
100
AcDbDictionary
281
     1
  0
DICTIONARY
  5
1A
102
{ACAD_REACTORS
330
C
102
}
330
C
100
AcDbDictionary
281
     1
  3
Layout1
350
1E
  3
Layout2
350
26
  3
Model
350
22
  0
DICTIONARY
  5
3B
102
{ACAD_REACTORS
330
C
102
}
330
C
100
AcDbDictionary
281
     1
  3
ByBlock
350
3D
  3
ByLayer
350
3C
  3
Global
350
3E
  0
DICTIONARY
  5
D6
102
{ACAD_REACTORS
330
C
102
}
330
C
100
AcDbDictionary
281
     1
  0
DICTIONARY
  5
17
102
{ACAD_REACTORS
330
C
102
}
330
C
100
AcDbDictionary
281
     1
  3
Standard
350
18
  0
DICTIONARY
  5
19
102
{ACAD_REACTORS
330
C
102
}
330
C
100
AcDbDictionary
281
     1
  0
ACDBDICTIONARYWDFLT
  5
E
102
{ACAD_REACTORS
330
C
102
}
330
C
100
AcDbDictionary
281
     1
  3
Normal
350
F
100
AcDbDictionaryWithDefault
340
F
  0
DICTIONARY
  5
D5
102
{ACAD_REACTORS
330
C
102
}
330
C
100
AcDbDictionary
281
     1
  0
DICTIONARY
  5
2A
102
{ACAD_REACTORS
330
C
102
}
330
C
100
AcDbDictionary
281
     1
  3
2dWireframe
350
2F
  3
3D Hidden
350
31
  3
3dWireframe
350
30
  3
Basic
350
32
  3
Brighten
350
36
  3
ColorChange
350
3A
  3
Conceptual
350
34
  3
Dim
350
35
  3
Facepattern
350
39
  3
Flat
350
2B
  3
FlatWithEdges
350
2C
  3
Gouraud
350
2D
  3
GouraudWithEdges
350
2E
  3
Linepattern
350
38
  3
Realistic
350
33
  3
Thicken
350
37
  0
LAYOUT
  5
1E
102
{ACAD_REACTORS
330
1A
102
}
330
1A
100
AcDbPlotSettings
  1

  2
none_device
  4

  6

 40
0.0
 41
0.0
 42
0.0
 43
0.0
 44
0.0
 45
0.0
 46
0.0
 47
0.0
 48
0.0
 49
0.0
140
0.0
141
0.0
142
1.0
143
1.0
 70
   688
 72
     0
 73
     0
 74
     5
  7

 75
    16
 76
     0
 77
     2
 78
   300
147
1.0
148
0.0
149
0.0
100
AcDbLayout
  1
Layout1
 70
     1
 71
     1
 10
0.0
 20
0.0
 11
420.0
 21
297.0
 12
0.0
 22
0.0
 32
0.0
 14
1.0000000000E+20
 24
1.0000000000E+20
 34
1.0000000000E+20
 15
-1.0000000000E+20
 25
-1.0000000000E+20
 35
-1.0000000000E+20
146
0.0
 13
0.0
 23
0.0
 33
0.0
 16
1.0
 26
0.0
 36
0.0
 17
0.0
 27
1.0
 37
0.0
 76
     0
330
1B
  0
LAYOUT
  5
26
102
{ACAD_REACTORS
330
1A
102
}
330
1A
100
AcDbPlotSettings
  1

  2
none_device
  4

  6

 40
0.0
 41
0.0
 42
0.0
 43
0.0
 44
0.0
 45
0.0
 46
0.0
 47
0.0
 48
0.0
 49
0.0
140
0.0
141
0.0
142
1.0
143
1.0
 70
   688
 72
     0
 73
     0
 74
     5
  7

 75
    16
 76
     0
 77
     2
 78
   300
147
1.0
148
0.0
149
0.0
100
AcDbLayout
  1
Layout2
 70
     1
 71
     2
 10
0.0
 20
0.0
 11
0.0
 21
0.0
 12
0.0
 22
0.0
 32
0.0
 14
0.0
 24
0.0
 34
0.0
 15
0.0
 25
0.0
 35
0.0
146
0.0
 13
0.0
 23
0.0
 33
0.0
 16
1.0
 26
0.0
 36
0.0
 17
0.0
 27
1.0
 37
0.0
 76
     0
330
23
  0
LAYOUT
  5
22
102
{ACAD_REACTORS
330
1A
102
}
330
1A
100
AcDbPlotSettings
  1

  2
none_device
  4

  6

 40
0.0
 41
0.0
 42
0.0
 43
0.0
 44
0.0
 45
0.0
 46
0.0
 47
0.0
 48
0.0
 49
0.0
140
0.0
141
0.0
142
1.0
143
1.0
 70
  1712
 72
     0
 73
     0
 74
     0
  7

 75
     0
 76
     0
 77
     2
 78
   300
147
1.0
148
0.0
149
0.0
100
AcDbLayout
  1
Model
 70
     1
 71
     0
 10
0.0
 20
0.0
 11
297.0
 21
210.0
 12
0.0
 22
0.0
 32
0.0
 14
0.0
 24
0.0
 34
0.0
 15
297.0
 25
210.0
 35
0.0
146
0.0
 13
0.0
 23
0.0
 33
0.0
 16
1.0
 26
0.0
 36
0.0
 17
0.0
 27
1.0
 37
0.0
 76
     0
330
1F
331
29
  0
MATERIAL
  5
3D
102
{ACAD_REACTORS
330
3B
102
}
330
3B
100
AcDbMaterial
  1
ByBlock
 72
     1
 94
      127
  0
MATERIAL
  5
3C
102
{ACAD_REACTORS
330
3B
102
}
330
3B
100
AcDbMaterial
  1
ByLayer
 72
     1
 94
      127
  0
MATERIAL
  5
3E
102
{ACAD_REACTORS
330
3B
102
}
330
3B
100
AcDbMaterial
  1
Global
 72
     1
 94
      127
  0
MLINESTYLE
  5
18
102
{ACAD_REACTORS
330
17
102
}
330
17
100
AcDbMlineStyle
  2
Standard
 70
     0
  3

 62
   256
 51
90.0
 52
90.0
 71
     2
 49
0.5
 62
   256
  6
BYLAYER
 49
-0.5
 62
   256
  6
BYLAYER
  0
ACDBPLACEHOLDER
  5
F
102
{ACAD_REACTORS
330
E
102
}
330
E
  0
VISUALSTYLE
  5
2F
102
{ACAD_REACTORS
330
2A
102
}
330
2A
100
AcDbVisualStyle
  2
2dWireframe
 70
     4
 71
     0
 72
     2
 73
     0
 90
        0
 40
-0.6
 41
-30.0
 62
     5
 63
     7
421
 16777215
 74
     1
 91
        4
 64
     7
 65
   257
 75
     1
175
     1
 42
1.0
 92
        0
 66
   257
 43
1.0
 76
     1
 77
     6
 78
     2
 67
     7
 79
     5
170
     0
171
     0
290
     0
174
     0
 93
        1
 44
0.0
173
     0
291
     0
 45
0.0
  0
VISUALSTYLE
  5
31
102
{ACAD_REACTORS
330
2A
102
}
330
2A
100
AcDbVisualStyle
  2
3D Hidden
 70
     6
 71
     1
 72
     2
 73
     2
 90
        0
 40
-0.6
 41
-30.0
 62
     5
 63
     7
421
 16777215
 74
     2
 91
        2
 64
     7
 65
   257
 75
     2
175
     1
 42
40.0
 92
        0
 66
   257
 43
1.0
 76
     1
 77
     6
 78
     2
 67
     7
 79
     3
170
     0
171
     0
290
     0
174
     0
 93
        1
 44
0.0
173
     0
291
     0
 45
0.0
  0
VISUALSTYLE
  5
30
102
{ACAD_REACTORS
330
2A
102
}
330
2A
100
AcDbVisualStyle
  2
3dWireframe
 70
     5
 71
     0
 72
     2
 73
     0
 90
        0
 40
-0.6
 41
-30.0
 62
     5
 63
     7
421
 16777215
 74
     1
 91
        4
 64
     7
 65
   257
 75
     1
175
     1
 42
1.0
 92
        0
 66
   257
 43
1.0
 76
     1
 77
     6
 78
     2
 67
     7
 79
     5
170
     0
171
     0
290
     0
174
     0
 93
        1
 44
0.0
173
     0
291
     0
 45
0.0
  0
VISUALSTYLE
  5
32
102
{ACAD_REACTORS
330
2A
102
}
330
2A
100
AcDbVisualStyle
  2
Basic
 70
     7
 71
     1
 72
     0
 73
     1
 90
        0
 40
-0.6
 41
-30.0
 62
     5
 63
     7
421
 16777215
 74
     0
 91
        4
 64
     7
 65
   257
 75
     1
175
     1
 42
1.0
 92
        8
 66
     7
 43
1.0
 76
     1
 77
     6
 78
     2
 67
     7
 79
     5
170
     0
171
     0
290
     0
174
     0
 93
        1
 44
0.0
173
     0
291
     1
 45
0.0
  0
VISUALSTYLE
  5
36
102
{ACAD_REACTORS
330
2A
102
}
330
2A
100
AcDbVisualStyle
  2
Brighten
 70
    12
 71
     2
 72
     2
 73
     0
 90
        0
 40
-0.6
 41
-30.0
 62
     5
 63
     7
421
 16777215
 74
     1
 91
        4
 64
     7
 65
   257
 75
     1
175
     1
 42
1.0
 92
        8
 66
     7
 43
1.0
 76
     1
 77
     6
 78
     2
 67
     7
 79
     5
170
     0
171
     0
290
     0
174
     0
 93
        1
 44
50.0
173
     0
291
     1
 45
0.0
  0
VISUALSTYLE
  5
3A
102
{ACAD_REACTORS
330
2A
102
}
330
2A
100
AcDbVisualStyle
  2
ColorChange
 70
    16
 71
     2
 72
     2
 73
     3
 90
        0
 40
-0.6
 41
-30.0
 62
     5
 63
     8
421
  8421504
 74
     1
 91
        4
 64
     7
 65
   257
 75
     1
175
     1
 42
1.0
 92
        8
 66
     8
424
  8421504
 43
1.0
 76
     1
 77
     6
 78
     2
 67
     7
 79
     5
170
     0
171
     0
290
     0
174
     0
 93
        1
 44
0.0
173
     0
291
     1
 45
0.0
  0
VISUALSTYLE
  5
34
102
{ACAD_REACTORS
330
2A
102
}
330
2A
100
AcDbVisualStyle
  2
Conceptual
 70
     9
 71
     3
 72
     2
 73
     0
 90
        0
 40
-0.6
 41
-30.0
 62
     5
 63
     7
421
 16777215
 74
     2
 91
        2
 64
     7
 65
   257
 75
     1
175
     1
 42
40.0
 92
        8
 66
     7
 43
1.0
 76
     1
 77
     6
 78
     2
 67
     7
 79
     3
170
     0
171
     0
290
     0
174
     0
 93
        1
 44
0.0
173
     0
291
     0
 45
0.0
  0
VISUALSTYLE
  5
35
102
{ACAD_REACTORS
330
2A
102
}
330
2A
100
AcDbVisualStyle
  2
Dim
 70
    11
 71
     2
 72
     2
 73
     0
 90
        0
 40
-0.6
 41
-30.0
 62
     5
 63
     7
421
 16777215
 74
     1
 91
        4
 64
     7
 65
   257
 75
     1
175
     1
 42
1.0
 92
        8
 66
     7
 43
1.0
 76
     1
 77
     6
 78
     2
 67
     7
 79
     5
170
     0
171
     0
290
     0
174
     0
 93
        1
 44
-50.0
173
     0
291
     1
 45
0.0
  0
VISUALSTYLE
  5
39
102
{ACAD_REACTORS
330
2A
102
}
330
2A
100
AcDbVisualStyle
  2
Facepattern
 70
    15
 71
     2
 72
     2
 73
     0
 90
        0
 40
-0.6
 41
-30.0
 62
     5
 63
     7
421
 16777215
 74
     1
 91
        4
 64
     7
 65
   257
 75
     1
175
     1
 42
1.0
 92
        8
 66
     7
 43
1.0
 76
     1
 77
     6
 78
     2
 67
     7
 79
     5
170
     0
171
     0
290
     0
174
     0
 93
        1
 44
0.0
173
     0
291
     1
 45
0.0
  0
VISUALSTYLE
  5
2B
102
{ACAD_REACTORS
330
2A
102
}
330
2A
100
AcDbVisualStyle
  2
Flat
 70
     0
 71
     2
 72
     1
 73
     1
 90
        2
 40
-0.6
 41
30.0
 62
     5
 63
     7
421
 16777215
 74
     0
 91
        4
 64
     7
 65
   257
 75
     1
175
     1
 42
1.0
 92
        8
 66
     7
 43
1.0
 76
     1
 77
     6
 78
     2
 67
     7
 79
     5
170
     0
171
     0
290
     0
174
     0
 93
       13
 44
0.0
173
     0
291
     1
 45
0.0
  0
VISUALSTYLE
  5
2C
102
{ACAD_REACTORS
330
2A
102
}
330
2A
100
AcDbVisualStyle
  2
FlatWithEdges
 70
     1
 71
     2
 72
     1
 73
     1
 90
        2
 40
-0.6
 41
30.0
 62
     5
 63
     7
421
 16777215
 74
     1
 91
        4
 64
     7
 65
   257
 75
     1
175
     1
 42
1.0
 92
        0
 66
   257
 43
1.0
 76
     1
 77
     6
 78
     2
 67
     7
 79
     5
170
     0
171
     0
290
     0
174
     0
 93
       13
 44
0.0
173
     0
291
     1
 45
0.0
  0
VISUALSTYLE
  5
2D
102
{ACAD_REACTORS
330
2A
102
}
330
2A
100
AcDbVisualStyle
  2
Gouraud
 70
     2
 71
     2
 72
     2
 73
     1
 90
        2
 40
-0.6
 41
30.0
 62
     5
 63
     7
421
 16777215
 74
     0
 91
        4
 64
     7
 65
   257
 75
     1
175
     1
 42
1.0
 92
        0
 66
     7
 43
1.0
 76
     1
 77
     6
 78
     2
 67
     7
 79
     5
170
     0
171
     0
290
     0
174
     0
 93
       13
 44
0.0
173
     0
291
     1
 45
0.0
  0
VISUALSTYLE
  5
2E
102
{ACAD_REACTORS
330
2A
102
}
330
2A
100
AcDbVisualStyle
  2
GouraudWithEdges
 70
     3
 71
     2
 72
     2
 73
     1
 90
        2
 40
-0.6
 41
30.0
 62
     5
 63
     7
421
 16777215
 74
     1
 91
        4
 64
     7
 65
   257
 75
     1
175
     1
 42
1.0
 92
        0
 66
   257
 43
1.0
 76
     1
 77
     6
 78
     2
 67
     7
 79
     5
170
     0
171
     0
290
     0
174
     0
 93
       13
 44
0.0
173
     0
291
     1
 45
0.0
  0
VISUALSTYLE
  5
38
102
{ACAD_REACTORS
330
2A
102
}
330
2A
100
AcDbVisualStyle
  2
Linepattern
 70
    14
 71
     2
 72
     2
 73
     0
 90
        0
 40
-0.6
 41
-30.0
 62
     5
 63
     7
421
 16777215
 74
     1
 91
        4
 64
     7
 65
   257
 75
     7
175
     7
 42
1.0
 92
        8
 66
     7
 43
1.0
 76
     1
 77
     6
 78
     2
 67
     7
 79
     5
170
     0
171
     0
290
     0
174
     0
 93
        1
 44
0.0
173
     0
291
     1
 45
0.0
  0
VISUALSTYLE
  5
33
102
{ACAD_REACTORS
330
2A
102
}
330
2A
100
AcDbVisualStyle
  2
Realistic
 70
     8
 71
     2
 72
     2
 73
     0
 90
        0
 40
-0.6
 41
-30.0
 62
     5
 63
     7
421
 16777215
 74
     1
 91
        0
 64
     7
 65
   257
 75
     1
175
     1
 42
1.0
 92
        8
 66
     8
424
  7895160
 43
1.0
 76
     1
 77
     6
 78
     2
 67
     7
 79
     5
170
     0
171
     0
290
     0
174
     0
 93
       13
 44
0.0
173
     0
291
     0
 45
0.0
  0
VISUALSTYLE
  5
37
102
{ACAD_REACTORS
330
2A
102
}
330
2A
100
AcDbVisualStyle
  2
Thicken
 70
    13
 71
     2
 72
     2
 73
     0
 90
        0
 40
-0.6
 41
-30.0
 62
     5
 63
     7
421
 16777215
 74
     1
 91
        4
 64
     7
 65
   257
 75
     1
175
     1
 42
1.0
 92
       12
 66
     7
 43
1.0
 76
     1
 77
     6
 78
     2
 67
     7
 79
     5
170
     0
171
     0
290
     0
174
     0
 93
        1
 44
0.0
173
     0
291
     1
 45
0.0
  0
ENDSEC
  0
EOF
