  0
SECTION
  2
HEADER
  9
$ACADVER
  1
AC1021
  9
$ACADMAINTVER
 70
    25
  9
$DWGCODEPAGE
  3
ANSI_1252
  9
$INSBASE
 10
0.0
 20
0.0
 30
0.0
  9
$EXTMIN
 10
0.0
 20
0.0
 30
0.0
  9
$EXTMAX
 10
297.0
 20
210.0
 30
0.0
  9
$LIMMIN
 10
0.0
 20
0.0
  9
$LIMMAX
 10
297.0
 20
210.0
  9
$ORTHOMODE
 70
     0
  9
$REGENMODE
 70
     1
  9
$FILLMODE
 70
     1
  9
$QTEXTMODE
 70
     0
  9
$MIRRTEXT
 70
     1
  9
$LTSCALE
 40
1.0
  9
$ATTMODE
 70
     1
  9
$TEXTSIZE
 40
3.5
  9
$TRACEWID
 40
1.0
  9
$TEXTSTYLE
  7
Standard
  9
$CLAYER
  8
0
  9
$CELTYPE
  6
ByLayer
  9
$CECOLOR
 62
   256
  9
$CELTSCALE
 40
1.0
  9
$DISPSILH
 70
     0
  9
$DIMSCALE
 40
1.0
  9
$DIMASZ
 40
3.302
  9
$DIMEXO
 40
1.0
  9
$DIMDLI
 40
3.75
  9
$DIMRND
 40
0.0
  9
$DIMDLE
 40
0.0
  9
$DIMEXE
 40
1.0
  9
$DIMTP
 40
0.0
  9
$DIMTM
 40
0.0
  9
$DIMTXT
 40
3.5
  9
$DIMCEN
 40
2.5
  9
$DIMTSZ
 40
0.0
  9
$DIMTOL
 70
     0
  9
$DIMLIM
 70
     0
  9
$DIMTIH
 70
     1
  9
$DIMTOH
 70
     1
  9
$DIMSE1
 70
     0
  9
$DIMSE2
 70
     0
  9
$DIMTAD
 70
     1
  9
$DIMZIN
 70
     0
  9
$DIMBLK
  1

  9
$DIMASO
 70
     1
  9
$DIMSHO
 70
     1
  9
$DIMPOST
  1

  9
$DIMAPOST
  1

  9
$DIMALT
 70
     0
  9
$DIMALTD
 70
     3
  9
$DIMALTF
 40
0.0393700787
  9
$DIMLFAC
 40
1.0
  9
$DIMTOFL
 70
     1
  9
$DIMTVP
 40
0.0
  9
$DIMTIX
 70
     0
  9
$DIMSOXD
 70
     0
  9
$DIMSAH
 70
     0
  9
$DIMBLK1
  1

  9
$DIMBLK2
  1

  9
$DIMSTYLE
  2
ISO-25
  9
$DIMCLRD
 70
     0
  9
$DIMCLRE
 70
     0
  9
$DIMCLRT
 70
     0
  9
$DIMTFAC
 40
1.0
  9
$DIMGAP
 40
1.524
  9
$DIMJUST
 70
     0
  9
$DIMSD1
 70
     0
  9
$DIMSD2
 70
     0
  9
$DIMTOLJ
 70
     0
  9
$DIMTZIN
 70
     0
  9
$DIMALTZ
 70
     0
  9
$DIMALTTZ
 70
     0
  9
$DIMUPT
 70
     0
  9
$DIMDEC
 70
     2
  9
$DIMTDEC
 70
     2
  9
$DIMALTU
 70
     2
  9
$DIMALTTD
 70
     3
  9
$DIMTXSTY
  7
Standard
  9
$DIMAUNIT
 70
     0
  9
$DIMADEC
 70
     2
  9
$DIMALTRND
 40
0.0
  9
$DIMAZIN
 70
     0
  9
$DIMDSEP
 70
    44
  9
$DIMATFIT
 70
     3
  9
$DIMFRAC
 70
     0
  9
$DIMLDRBLK
  1

  9
$DIMLUNIT
 70
     2
  9
$DIMLWD
 70
    -2
  9
$DIMLWE
 70
    -2
  9
$DIMTMOVE
 70
     0
  9
$DIMFXL
 40
1.0
  9
$DIMFXLON
 70
     0
  9
$DIMJOGANG
 40
0.7853981634
  9
$DIMTFILL
 70
     0
  9
$DIMTFILLCLR
 70
     0
  9
$DIMARCSYM
 70
     0
  9
$DIMLTYPE
  6

  9
$DIMLTEX1
  6

  9
$DIMLTEX2
  6

  9
$LUNITS
 70
     2
  9
$LUPREC
 70
     2
  9
$SKETCHINC
 40
1.0
  9
$FILLETRAD
 40
10.0
  9
$AUNITS
 70
     0
  9
$AUPREC
 70
     2
  9
$MENU
  1
.
  9
$ELEVATION
 40
0.0
  9
$PELEVATION
 40
0.0
  9
$THICKNESS
 40
0.0
  9
$LIMCHECK
 70
     0
  9
$CHAMFERA
 40
10.0
  9
$CHAMFERB
 40
10.0
  9
$CHAMFERC
 40
20.0
  9
$CHAMFERD
 40
0.0
  9
$SKPOLY
 70
     0
  9
$TDCREATE
 40
2456525.629469873
  9
$TDUCREATE
 40
2456525.546136539
  9
$TDUPDATE
 40
2456525.629470347
  9
$TDUUPDATE
 40
2456525.546137014
  9
$TDINDWG
 40
0.0000000116
  9
$TDUSRTIMER
 40
0.0000000116
  9
$USRTIMER
 70
     1
  9
$ANGBASE
 50
0.0
  9
$ANGDIR
 70
     0
  9
$PDMODE
 70
     0
  9
$PDSIZE
 40
-1.0
  9
$PLINEWID
 40
0.0
  9
$SPLFRAME
 70
     0
  9
$SPLINETYPE
 70
     6
  9
$SPLINESEGS
 70
     8
  9
$HANDSEED
  5
E3
  9
$SURFTAB1
 70
     6
  9
$SURFTAB2
 70
     6
  9
$SURFTYPE
 70
     6
  9
$SURFU
 70
     6
  9
$SURFV
 70
     6
  9
$UCSBASE
  2

  9
$UCSNAME
  2

  9
$UCSORG
 10
0.0
 20
0.0
 30
0.0
  9
$UCSXDIR
 10
1.0
 20
0.0
 30
0.0
  9
$UCSYDIR
 10
0.0
 20
1.0
 30
0.0
  9
$UCSORTHOREF
  2

  9
$UCSORTHOVIEW
 70
     0
  9
$UCSORGTOP
 10
0.0
 20
0.0
 30
0.0
  9
$UCSORGBOTTOM
 10
0.0
 20
0.0
 30
0.0
  9
$UCSORGLEFT
 10
0.0
 20
0.0
 30
0.0
  9
$UCSORGRIGHT
 10
0.0
 20
0.0
 30
0.0
  9
$UCSORGFRONT
 10
0.0
 20
0.0
 30
0.0
  9
$UCSORGBACK
 10
0.0
 20
0.0
 30
0.0
  9
$PUCSBASE
  2

  9
$PUCSNAME
  2

  9
$PUCSORG
 10
0.0
 20
0.0
 30
0.0
  9
$PUCSXDIR
 10
1.0
 20
0.0
 30
0.0
  9
$PUCSYDIR
 10
0.0
 20
1.0
 30
0.0
  9
$PUCSORTHOREF
  2

  9
$PUCSORTHOVIEW
 70
     0
  9
$PUCSORGTOP
 10
0.0
 20
0.0
 30
0.0
  9
$PUCSORGBOTTOM
 10
0.0
 20
0.0
 30
0.0
  9
$PUCSORGLEFT
 10
0.0
 20
0.0
 30
0.0
  9
$PUCSORGRIGHT
 10
0.0
 20
0.0
 30
0.0
  9
$PUCSORGFRONT
 10
0.0
 20
0.0
 30
0.0
  9
$PUCSORGBACK
 10
0.0
 20
0.0
 30
0.0
  9
$USERI1
 70
     0
  9
$USERI2
 70
     0
  9
$USERI3
 70
     0
  9
$USERI4
 70
     0
  9
$USERI5
 70
     0
  9
$USERR1
 40
0.0
  9
$USERR2
 40
0.0
  9
$USERR3
 40
0.0
  9
$USERR4
 40
0.0
  9
$USERR5
 40
0.0
  9
$WORLDVIEW
 70
     1
  9
$SHADEDGE
 70
     3
  9
$SHADEDIF
 70
    70
  9
$TILEMODE
 70
     1
  9
$MAXACTVP
 70
    64
  9
$PINSBASE
 10
0.0
 20
0.0
 30
0.0
  9
$PLIMCHECK
 70
     0
  9
$PEXTMIN
 10
1.0000000000E+20
 20
1.0000000000E+20
 30
1.0000000000E+20
  9
$PEXTMAX
 10
-1.0000000000E+20
 20
-1.0000000000E+20
 30
-1.0000000000E+20
  9
$PLIMMIN
 10
0.0
 20
0.0
  9
$PLIMMAX
 10
420.0
 20
297.0
  9
$UNITMODE
 70
     0
  9
$VISRETAIN
 70
     1
  9
$PLINEGEN
 70
     0
  9
$PSLTSCALE
 70
     1
  9
$TREEDEPTH
 70
  3020
  9
$CMLSTYLE
  2
Standard
  9
$CMLJUST
 70
     0
  9
$CMLSCALE
 40
20.0
  9
$PROXYGRAPHICS
 70
     1
  9
$MEASUREMENT
 70
     1
  9
$CELWEIGHT
370
    -1
  9
$ENDCAPS
280
     0
  9
$JOINSTYLE
280
     0
  9
$LWDISPLAY
290
     1
  9
$INSUNITS
 70
     4
  9
$HYPERLINKBASE
  1

  9
$STYLESHEET
  1

  9
$XEDIT
290
     1
  9
$CEPSNTYPE
380
     0
  9
$PSTYLEMODE
290
     1
  9
$FINGERPRINTGUID
  2
{2C7402A1-B93E-4B80-A64A-A582AC87595F}
  9
$VERSIONGUID
  2
{FAEB1C32-E019-11D5-929B-00C0DF256EC4}
  9
$EXTNAMES
290
     1
  9
$PSVPSCALE
 40
0.0
  9
$OLESTARTUP
290
     0
  9
$SORTENTS
280
   127
  9
$INDEXCTL
280
     0
  9
$HIDETEXT
280
     1
  9
$XCLIPFRAME
290
     0
  9
$HALOGAP
280
     0
  9
$OBSCOLOR
 70
   257
  9
$OBSLTYPE
280
     0
  9
$INTERSECTIONDISPLAY
280
     0
  9
$INTERSECTIONCOLOR
 70
   257
  9
$DIMASSOC
280
     2
  9
$PROJECTNAME
  1

  9
$CAMERADISPLAY
290
     0
  9
$LENSLENGTH
 40
50.0
  9
$CAMERAHEIGHT
 40
0.0
  9
$STEPSPERSEC
 40
2.0
  9
$STEPSIZE
 40
6.0
  9
$3DDWFPREC
 40
2.0
  9
$PSOLWIDTH
 40
5.0
  9
$PSOLHEIGHT
 40
80.0
  9
$LOFTANG1
 40
1.5707963268
  9
$LOFTANG2
 40
1.5707963268
  9
$LOFTMAG1
 40
0.0
  9
$LOFTMAG2
 40
0.0
  9
$LOFTPARAM
 70
     7
  9
$LOFTNORMALS
280
     1
  9
$LATITUDE
 40
37.795
  9
$LONGITUDE
 40
-122.394
  9
$NORTHDIRECTION
 40
0.0
  9
$TIMEZONE
 70
 -8000
  9
$LIGHTGLYPHDISPLAY
280
     1
  9
$TILEMODELIGHTSYNCH
280
     1
  9
$SOLIDHIST
280
     1
  9
$SHOWHIST
280
     1
  9
$DWFFRAME
280
     2
  9
$DGNFRAME
280
     2
  9
$REALWORLDSCALE
290
     1
  9
$INTERFERECOLOR
 62
   256
  9
$CSHADOW
280
     0
  9
$SHADOWPLANELOCATION
 40
0.0
  0
ENDSEC
  0
SECTION
  2
CLASSES
  0
CLASS
  1
ACDBDICTIONARYWDFLT
  2
AcDbDictionaryWithDefault
  3
ObjectDBX Classes
 90
        0
 91
        4
280
     0
281
     0
  0
CLASS
  1
VISUALSTYLE
  2
AcDbVisualStyle
  3
ObjectDBX Classes
 90
     4095
 91
        4
280
     0
281
     0
  0
CLASS
  1
MATERIAL
  2
AcDbMaterial
  3
ObjectDBX Classes
 90
     1153
 91
        4
280
     0
281
     0
  0
ENDSEC
  0
SECTION
  2
TABLES
  0
TABLE
  2
VPORT
  5
8
330
0
100
AcDbSymbolTable
 70
     1
  0
VPORT
  5
29
330
8
100
AcDbSymbolTableRecord
100
AcDbViewportTableRecord
  2
*Active
 70
     0
 10
0.0
 20
0.0
 11
1.0
 21
1.0
 12
148.5
 22
105.0
 13
0.0
 23
0.0
 14
10.0
 24
10.0
 15
10.0
 25
10.0
 16
0.0
 26
0.0
 36
1.0
 17
0.0
 27
0.0
 37
0.0
 40
210.0
 41
1.4142857143
 42
50.0
 43
0.0
 44
0.0
 50
0.0
 51
0.0
 71
     0
 72
  2000
 73
     1
 74
     3
 75
     0
 76
     0
 77
     0
 78
     0
281
     0
 65
     1
110
0.0
120
0.0
130
0.0
111
1.0
121
0.0
131
0.0
112
0.0
122
1.0
132
0.0
 79
     0
146
0.0
 60
     3
 61
     5
292
     1
282
     1
141
0.0
142
0.0
 63
   250
  0
ENDTAB
  0
TABLE
  2
LTYPE
  5
5
330
0
100
AcDbSymbolTable
 70
     8
  0
LTYPE
  5
14
330
5
100
AcDbSymbolTableRecord
100
AcDbLinetypeTableRecord
  2
ByBlock
 70
     0
  3

 72
    65
 73
     0
 40
0.0
  0
LTYPE
  5
15
330
5
100
AcDbSymbolTableRecord
100
AcDbLinetypeTableRecord
  2
ByLayer
 70
     0
  3

 72
    65
 73
     0
 40
0.0
  0
LTYPE
  5
16
330
5
100
AcDbSymbolTableRecord
100
AcDbLinetypeTableRecord
  2
Continuous
 70
     0
  3
Solid line
 72
    65
 73
     0
 40
0.0
  0
LTYPE
  5
3F
330
5
100
AcDbSymbolTableRecord
100
AcDbLinetypeTableRecord
  2
SLD-Durchgehend
 70
     0
  3
SolidWorks Line Style
 72
    65
 73
     0
 40
0.0
  0
LTYPE
  5
40
330
5
100
AcDbSymbolTableRecord
100
AcDbLinetypeTableRecord
  2
SLD-Gestrichelt
 70
     0
  3
SolidWorks Line Style
 72
    65
 73
     2
 40
1.905
 49
1.27
 74
     0
 49
-0.635
 74
     0
  0
LTYPE
  5
41
330
5
100
AcDbSymbolTableRecord
100
AcDbLinetypeTableRecord
  2
SLD-Phantom
 70
     0
  3
SolidWorks Line Style
 72
    65
 73
     6
 40
12.7
 49
6.35
 74
     0
 49
-1.27
 74
     0
 49
1.27
 74
     0
 49
-1.27
 74
     0
 49
1.27
 74
     0
 49
-1.27
 74
     0
  0
LTYPE
  5
42
330
5
100
AcDbSymbolTableRecord
100
AcDbLinetypeTableRecord
  2
SLD-Kette
 70
     0
  3
SolidWorks Line Style
 72
    65
 73
     4
 40
10.16
 49
6.35
 74
     0
 49
-1.27
 74
     0
 49
1.27
 74
     0
 49
-1.27
 74
     0
  0
LTYPE
  5
43
330
5
100
AcDbSymbolTableRecord
100
AcDbLinetypeTableRecord
  2
SLD-Punktstrich
 70
     0
  3
SolidWorks Line Style
 72
    65
 73
     4
 40
19.05
 49
15.24
 74
     0
 49
-1.27
 74
     0
 49
1.27
 74
     0
 49
-1.27
 74
     0
  0
LTYPE
  5
44
330
5
100
AcDbSymbolTableRecord
100
AcDbLinetypeTableRecord
  2
SLD-Naht
 70
     0
  3
SolidWorks Line Style
 72
    65
 73
     2
 40
0.635
 49
0.0
 74
     0
 49
-0.635
 74
     0
  0
LTYPE
  5
45
330
5
100
AcDbSymbolTableRecord
100
AcDbLinetypeTableRecord
  2
SLD-Dicke-Dünne-Kette
 70
     0
  3
SolidWorks Line Style
 72
    65
 73
     4
 40
10.16
 49
6.35
 74
     0
 49
-1.27
 74
     0
 49
1.27
 74
     0
 49
-1.27
 74
     0
  0
ENDTAB
  0
TABLE
  2
LAYER
  5
2
330
0
100
AcDbSymbolTable
 70
     3
  0
LAYER
  5
10
330
2
100
AcDbSymbolTableRecord
100
AcDbLayerTableRecord
  2
0
 70
     0
 62
     7
  6
Continuous
370
    -3
390
F
347
3E
  0
LAYER
  5
46
330
2
100
AcDbSymbolTableRecord
100
AcDbLayerTableRecord
  2
1
 70
     0
 62
     4
  6
Continuous
370
    -1
390
F
347
3E
  0
LAYER
  5
47
330
2
100
AcDbSymbolTableRecord
100
AcDbLayerTableRecord
  2
2
 70
     0
 62
     7
  6
SLD-Durchgehend
370
    -3
390
F
347
3E
  0
ENDTAB
  0
TABLE
  2
STYLE
  5
3
330
0
100
AcDbSymbolTable
 70
     2
  0
STYLE
  5
11
330
3
100
AcDbSymbolTableRecord
100
AcDbTextStyleTableRecord
  2
Standard
 70
     0
 40
0.0
 41
1.0
 50
0.0
 71
     0
 42
3.5
  3
txt
  4

  0
STYLE
  5
7B
330
3
100
AcDbSymbolTableRecord
100
AcDbTextStyleTableRecord
  2
SLDTEXTSTYLE0
 70
     0
 40
0.0
 41
0.75
 50
0.0
 71
     0
 42
0.2
  3
TXT
  4

  0
ENDTAB
  0
TABLE
  2
VIEW
  5
6
330
0
100
AcDbSymbolTable
 70
     0
  0
ENDTAB
  0
TABLE
  2
UCS
  5
7
330
0
100
AcDbSymbolTable
 70
     0
  0
ENDTAB
  0
TABLE
  2
APPID
  5
9
330
0
100
AcDbSymbolTable
 70
     1
  0
APPID
  5
12
330
9
100
AcDbSymbolTableRecord
100
AcDbRegAppTableRecord
  2
ACAD
 70
     0
  0
ENDTAB
  0
TABLE
  2
DIMSTYLE
  5
A
330
0
100
AcDbSymbolTable
 70
     3
100
AcDbDimStyleTable
  0
DIMSTYLE
105
27
330
A
100
AcDbSymbolTableRecord
100
AcDbDimStyleTableRecord
  2
ISO-25
 70
     0
 41
2.5
 42
0.625
 43
3.75
 44
1.25
 73
     0
 74
     0
 77
     1
 78
     8
140
2.5
141
2.5
143
0.0393700787
147
0.625
171
     3
172
     1
178
     0
271
     2
272
     2
274
     3
278
    44
283
     0
284
     8
340
11
  0
DIMSTYLE
105
7C
102
{ACAD_REACTORS
330
7A
330
86
330
90
330
9A
102
}
330
A
100
AcDbSymbolTableRecord
100
AcDbDimStyleTableRecord
  2
SLDDIMSTYLE0
 70
     0
 41
3.302
 44
0.0
 45
0.000000001
 73
     0
 74
     0
 77
     1
 78
    12
 79
     3
140
3.5
147
0.875
173
     1
178
     0
271
     2
272
     2
276
     2
284
    12
340
7B
  0
DIMSTYLE
105
C9
102
{ACAD_REACTORS
330
C8
330
D5
102
}
330
A
100
AcDbSymbolTableRecord
100
AcDbDimStyleTableRecord
  2
SLDDIMSTYLE1
 70
     0
 41
3.302
 44
0.0
 45
0.000000001
 73
     0
 74
     0
 77
     1
 78
    12
 79
     3
140
3.5
147
0.875
172
     1
173
     1
178
     0
271
     2
272
     2
276
     2
284
    12
289
     0
340
7B
  0
ENDTAB
  0
TABLE
  2
BLOCK_RECORD
  5
1
330
0
100
AcDbSymbolTable
 70
     7
  0
BLOCK_RECORD
  5
1F
330
1
100
AcDbSymbolTableRecord
100
AcDbBlockTableRecord
  2
*Model_Space
340
22
 70
     0
280
     1
281
     0
  0
BLOCK_RECORD
  5
1B
330
1
100
AcDbSymbolTableRecord
100
AcDbBlockTableRecord
  2
*Paper_Space
340
1E
 70
     0
280
     1
281
     0
  0
BLOCK_RECORD
  5
23
330
1
100
AcDbSymbolTableRecord
100
AcDbBlockTableRecord
  2
*Paper_Space0
340
26
 70
     0
280
     1
281
     0
  0
BLOCK_RECORD
  5
7D
330
1
100
AcDbSymbolTableRecord
100
AcDbBlockTableRecord
  2
_D
340
0
 70
     0
280
     1
281
     0
  0
BLOCK_RECORD
  5
87
330
1
100
AcDbSymbolTableRecord
100
AcDbBlockTableRecord
  2
_D_1
340
0
 70
     0
280
     1
281
     0
  0
BLOCK_RECORD
  5
91
330
1
100
AcDbSymbolTableRecord
100
AcDbBlockTableRecord
  2
_D_2
340
0
 70
     0
280
     1
281
     0
  0
BLOCK_RECORD
  5
9B
330
1
100
AcDbSymbolTableRecord
100
AcDbBlockTableRecord
  2
_D_3
340
0
 70
     0
280
     1
281
     0
  0
BLOCK_RECORD
  5
CA
330
1
100
AcDbSymbolTableRecord
100
AcDbBlockTableRecord
  2
_D_4
340
0
 70
     0
280
     1
281
     0
  0
BLOCK_RECORD
  5
D6
330
1
100
AcDbSymbolTableRecord
100
AcDbBlockTableRecord
  2
_D_5
340
0
 70
     0
280
     1
281
     0
  0
ENDTAB
  0
ENDSEC
  0
SECTION
  2
BLOCKS
  0
BLOCK
  5
20
330
1F
100
AcDbEntity
  8
0
100
AcDbBlockBegin
  2
*Model_Space
 70
     0
 10
0.0
 20
0.0
 30
0.0
  3
*Model_Space
  1

  0
ENDBLK
  5
21
330
1F
100
AcDbEntity
  8
0
100
AcDbBlockEnd
  0
BLOCK
  5
1C
330
1B
100
AcDbEntity
 67
     1
  8
0
100
AcDbBlockBegin
  2
*Paper_Space
 70
     0
 10
0.0
 20
0.0
 30
0.0
  3
*Paper_Space
  1

  0
ENDBLK
  5
1D
330
1B
100
AcDbEntity
 67
     1
  8
0
100
AcDbBlockEnd
  0
BLOCK
  5
24
330
23
100
AcDbEntity
  8
0
100
AcDbBlockBegin
  2
*Paper_Space0
 70
     0
 10
0.0
 20
0.0
 30
0.0
  3
*Paper_Space0
  1

  0
ENDBLK
  5
25
330
23
100
AcDbEntity
  8
0
100
AcDbBlockEnd
  0
BLOCK
  5
7E
330
7D
100
AcDbEntity
  8
0
100
AcDbBlockBegin
  2
_D
 70
     0
 10
0.0
 20
0.0
 30
0.0
  3
_D
  1

  0
SOLID
  5
80
330
7D
100
AcDbEntity
  8
2
 62
     7
420
 16777215
100
AcDbTrace
 10
50.7481221453
 20
5.9998362224
 30
0.0
 11
50.2401221453
 21
2.6978362224
 31
0.0
 12
51.2561221453
 22
2.6978362224
 32
0.0
 13
51.2561221453
 23
2.6978362224
 33
0.0
  0
SOLID
  5
81
330
7D
100
AcDbEntity
  8
2
 62
     7
420
 16777215
100
AcDbTrace
 10
50.7481221453
 20
-19.0001637776
 30
0.0
 11
51.2561221453
 21
-15.6981637776
 31
0.0
 12
50.2401221453
 22
-15.6981637776
 32
0.0
 13
50.2401221453
 23
-15.6981637776
 33
0.0
  0
LINE
  5
82
330
7D
100
AcDbEntity
  8
2
 62
     7
420
 16777215
100
AcDbLine
 10
42.4981221453
 20
5.9998362224
 30
0.0
 11
51.7481221453
 21
5.9998362224
 31
0.0
  0
LINE
  5
83
330
7D
100
AcDbEntity
  8
2
 62
     7
420
 16777215
100
AcDbLine
 10
20.4981221453
 20
-19.0001637776
 30
0.0
 11
51.7481221453
 21
-19.0001637776
 31
0.0
  0
LINE
  5
84
330
7D
100
AcDbEntity
  8
2
 62
     7
420
 16777215
100
AcDbLine
 10
50.7481221453
 20
5.9998362224
 30
0.0
 11
50.7481221453
 21
-19.0001637776
 31
0.0
  0
MTEXT
  5
85
330
7D
100
AcDbEntity
  8
2
 62
     7
420
 16777215
100
AcDbMText
 10
46.2363852307
 20
-10.5081500586
 30
-5.4997908101
 40
3.5
 41
0.0
 46
0.0
 71
     1
 72
     1
  1
25
  7
SLDTEXTSTYLE0
 11
-7.044195017643634E-15
 21
1.0
 31
0.0
 73
     1
 44
1.0
  0
ENDBLK
  5
7F
330
7D
100
AcDbEntity
  8
0
100
AcDbBlockEnd
  0
BLOCK
  5
88
330
87
100
AcDbEntity
  8
0
100
AcDbBlockBegin
  2
_D_1
 70
     0
 10
0.0
 20
0.0
 30
0.0
  3
_D_1
  1

  0
SOLID
  5
8A
330
87
100
AcDbEntity
  8
2
 62
     7
420
 16777215
100
AcDbTrace
 10
56.7481221453
 20
-19.0001637776
 30
0.0
 11
57.2561221453
 21
-15.6981637776
 31
0.0
 12
56.2401221453
 22
-15.6981637776
 32
0.0
 13
56.2401221453
 23
-15.6981637776
 33
0.0
  0
SOLID
  5
8B
330
87
100
AcDbEntity
  8
2
 62
     7
420
 16777215
100
AcDbTrace
 10
56.7481221453
 20
10.9998362224
 30
0.0
 11
56.2401221453
 21
7.6978362224
 31
0.0
 12
57.2561221453
 22
7.6978362224
 32
0.0
 13
57.2561221453
 23
7.6978362224
 33
0.0
  0
LINE
  5
8C
330
87
100
AcDbEntity
  8
2
 62
     7
420
 16777215
100
AcDbLine
 10
20.4981221453
 20
-19.0001637776
 30
0.0
 11
57.7481221453
 21
-19.0001637776
 31
0.0
  0
LINE
  5
8D
330
87
100
AcDbEntity
  8
2
 62
     7
420
 16777215
100
AcDbLine
 10
22.2981221453
 20
10.9998362224
 30
0.0
 11
57.7481221453
 21
10.9998362224
 31
0.0
  0
LINE
  5
8E
330
87
100
AcDbEntity
  8
2
 62
     7
420
 16777215
100
AcDbLine
 10
56.7481221453
 20
-19.0001637776
 30
0.0
 11
56.7481221453
 21
10.9998362224
 31
0.0
  0
MTEXT
  5
8F
330
87
100
AcDbEntity
  8
2
 62
     7
420
 16777215
100
AcDbMText
 10
52.2363852307
 20
-8.0081500586
 30
-5.4997908101
 40
3.5
 41
0.0
 46
0.0
 71
     1
 72
     1
  1
30
  7
SLDTEXTSTYLE0
 11
6.123233995736766E-17
 21
1.0
 31
0.0
 73
     1
 44
1.0
  0
ENDBLK
  5
89
330
87
100
AcDbEntity
  8
0
100
AcDbBlockEnd
  0
BLOCK
  5
92
330
91
100
AcDbEntity
  8
0
100
AcDbBlockBegin
  2
_D_2
 70
     0
 10
0.0
 20
0.0
 30
0.0
  3
_D_2
  1

  0
SOLID
  5
94
330
91
100
AcDbEntity
  8
2
 62
     7
420
 16777215
100
AcDbTrace
 10
41.4981221453
 20
-29.0001637776
 30
0.0
 11
38.1961221453
 21
-28.4921637776
 31
0.0
 12
38.1961221453
 22
-29.5081637776
 32
0.0
 13
38.1961221453
 23
-29.5081637776
 33
0.0
  0
SOLID
  5
95
330
91
100
AcDbEntity
  8
2
 62
     7
420
 16777215
100
AcDbTrace
 10
19.4981221453
 20
-29.0001637776
 30
0.0
 11
22.8001221453
 21
-29.5081637776
 31
0.0
 12
22.8001221453
 22
-28.4921637776
 32
0.0
 13
22.8001221453
 23
-28.4921637776
 33
0.0
  0
LINE
  5
96
330
91
100
AcDbEntity
  8
2
 62
     7
420
 16777215
100
AcDbLine
 10
41.4981221453
 20
4.9998362224
 30
0.0
 11
41.4981221453
 21
-30.0001637776
 31
0.0
  0
LINE
  5
97
330
91
100
AcDbEntity
  8
2
 62
     7
420
 16777215
100
AcDbLine
 10
19.4981221453
 20
-20.0001637776
 30
0.0
 11
19.4981221453
 21
-30.0001637776
 31
0.0
  0
LINE
  5
98
330
91
100
AcDbEntity
  8
2
 62
     7
420
 16777215
100
AcDbLine
 10
41.4981221453
 20
-29.0001637776
 30
0.0
 11
19.4981221453
 21
-29.0001637776
 31
0.0
  0
MTEXT
  5
99
330
91
100
AcDbEntity
  8
2
 62
     7
420
 16777215
100
AcDbMText
 10
26.4901358642
 20
-24.488426863
 30
-5.4997908101
 40
3.5
 41
0.0
 46
0.0
 71
     1
 72
     1
  1
22
  7
SLDTEXTSTYLE0
 73
     1
 44
1.0
  0
ENDBLK
  5
93
330
91
100
AcDbEntity
  8
0
100
AcDbBlockEnd
  0
BLOCK
  5
9C
330
9B
100
AcDbEntity
  8
0
100
AcDbBlockBegin
  2
_D_3
 70
     0
 10
0.0
 20
0.0
 30
0.0
  3
_D_3
  1

  0
SOLID
  5
9E
330
9B
100
AcDbEntity
  8
2
 62
     7
420
 16777215
100
AcDbTrace
 10
41.4981221453
 20
-41.0001637776
 30
0.0
 11
38.1961221453
 21
-40.4921637776
 31
0.0
 12
38.1961221453
 22
-41.5081637776
 32
0.0
 13
38.1961221453
 23
-41.5081637776
 33
0.0
  0
SOLID
  5
9F
330
9B
100
AcDbEntity
  8
2
 62
     7
420
 16777215
100
AcDbTrace
 10
-5.5018778547
 20
-41.0001637776
 30
0.0
 11
-2.1998778547
 21
-41.5081637776
 31
0.0
 12
-2.1998778547
 22
-40.4921637776
 32
0.0
 13
-2.1998778547
 23
-40.4921637776
 33
0.0
  0
LINE
  5
A0
330
9B
100
AcDbEntity
  8
2
 62
     7
420
 16777215
100
AcDbLine
 10
41.4981221453
 20
4.9998362224
 30
0.0
 11
41.4981221453
 21
-42.0001637776
 31
0.0
  0
LINE
  5
A1
330
9B
100
AcDbEntity
  8
2
 62
     7
420
 16777215
100
AcDbLine
 10
-5.5018778547
 20
-15.0001637776
 30
0.0
 11
-5.5018778547
 21
-42.0001637776
 31
0.0
  0
LINE
  5
A2
330
9B
100
AcDbEntity
  8
2
 62
     7
420
 16777215
100
AcDbLine
 10
41.4981221453
 20
-41.0001637776
 30
0.0
 11
-5.5018778547
 21
-41.0001637776
 31
0.0
  0
MTEXT
  5
A3
330
9B
100
AcDbEntity
  8
2
 62
     7
420
 16777215
100
AcDbMText
 10
13.9901358642
 20
-36.488426863
 30
-5.4997908101
 40
3.5
 41
0.0
 46
0.0
 71
     1
 72
     1
  1
47
  7
SLDTEXTSTYLE0
 73
     1
 44
1.0
  0
ENDBLK
  5
9D
330
9B
100
AcDbEntity
  8
0
100
AcDbBlockEnd
  0
BLOCK
  5
CB
330
CA
100
AcDbEntity
  8
0
100
AcDbBlockBegin
  2
_D_4
 70
     0
 10
0.0
 20
0.0
 30
0.0
  3
_D_4
  1

  0
SOLID
  5
CD
330
CA
100
AcDbEntity
  8
2
 62
     7
420
 16777215
100
AcDbTrace
 10
-15.3718778547
 20
-65.1150005157
 30
0.0
 11
-15.8798778547
 21
-68.4170005157
 31
0.0
 12
-14.8638778547
 22
-68.4170005157
 32
0.0
 13
-14.8638778547
 23
-68.4170005157
 33
0.0
  0
SOLID
  5
CE
330
CA
100
AcDbEntity
  8
2
 62
     7
420
 16777215
100
AcDbTrace
 10
-15.3718778547
 20
-59.2150005157
 30
0.0
 11
-14.8638778547
 21
-55.9130005157
 31
0.0
 12
-15.8798778547
 22
-55.9130005157
 32
0.0
 13
-15.8798778547
 23
-55.9130005157
 33
0.0
  0
LINE
  5
CF
330
CA
100
AcDbEntity
  8
2
 62
     7
420
 16777215
100
AcDbLine
 10
-6.3718778547
 20
-65.1150005157
 30
0.0
 11
-16.3718778547
 21
-65.1150005157
 31
0.0
  0
LINE
  5
D0
330
CA
100
AcDbEntity
  8
2
 62
     7
420
 16777215
100
AcDbLine
 10
-6.3718778547
 20
-59.2150005157
 30
0.0
 11
-16.3718778547
 21
-59.2150005157
 31
0.0
  0
LINE
  5
D1
330
CA
100
AcDbEntity
  8
2
 62
     7
420
 16777215
100
AcDbLine
 10
-15.3718778547
 20
-65.1150005157
 30
0.0
 11
-15.3718778547
 21
-71.4650005157
 31
0.0
  0
LINE
  5
D2
330
CA
100
AcDbEntity
  8
2
 62
     7
420
 16777215
100
AcDbLine
 10
-15.3718778547
 20
-65.1150005157
 30
0.0
 11
-15.3718778547
 21
-59.2150005157
 31
0.0
  0
LINE
  5
D3
330
CA
100
AcDbEntity
  8
2
 62
     7
420
 16777215
100
AcDbLine
 10
-15.3718778547
 20
-59.2150005157
 30
0.0
 11
-15.3718778547
 21
-41.0986808869
 31
0.0
  0
MTEXT
  5
D4
330
CA
100
AcDbEntity
  8
2
 62
     7
420
 16777215
100
AcDbMText
 10
-19.8836147693
 20
-52.9938196572
 30
1.1735079227
 40
3.5
 41
0.0
 46
0.0
 71
     1
 72
     1
  1
5,90
  7
SLDTEXTSTYLE0
 11
6.123233995736766E-17
 21
1.0
 31
0.0
 73
     1
 44
1.0
  0
ENDBLK
  5
CC
330
CA
100
AcDbEntity
  8
0
100
AcDbBlockEnd
  0
BLOCK
  5
D7
330
D6
100
AcDbEntity
  8
0
100
AcDbBlockBegin
  2
_D_5
 70
     0
 10
0.0
 20
0.0
 30
0.0
  3
_D_5
  1

  0
SOLID
  5
D9
330
D6
100
AcDbEntity
  8
2
 62
     7
420
 16777215
100
AcDbTrace
 10
50.8781221453
 20
-59.2150005157
 30
0.0
 11
51.3861221453
 21
-55.9130005157
 31
0.0
 12
50.3701221453
 22
-55.9130005157
 32
0.0
 13
50.3701221453
 23
-55.9130005157
 33
0.0
  0
SOLID
  5
DA
330
D6
100
AcDbEntity
  8
2
 62
     7
420
 16777215
100
AcDbTrace
 10
50.8781221453
 20
-70.2150005157
 30
0.0
 11
50.3701221453
 21
-73.5170005157
 31
0.0
 12
51.3861221453
 22
-73.5170005157
 32
0.0
 13
51.3861221453
 23
-73.5170005157
 33
0.0
  0
LINE
  5
DB
330
D6
100
AcDbEntity
  8
2
 62
     7
420
 16777215
100
AcDbLine
 10
26.6756935961
 20
-59.2150005157
 30
0.0
 11
51.8781221453
 21
-59.2150005157
 31
0.0
  0
LINE
  5
DC
330
D6
100
AcDbEntity
  8
2
 62
     7
420
 16777215
100
AcDbLine
 10
26.6275302643
 20
-70.2150005157
 30
0.0
 11
51.8781221453
 21
-70.2150005157
 31
0.0
  0
LINE
  5
DD
330
D6
100
AcDbEntity
  8
2
 62
     7
420
 16777215
100
AcDbLine
 10
50.8781221453
 20
-59.2150005157
 30
0.0
 11
50.8781221453
 21
-52.8650005157
 31
0.0
  0
LINE
  5
DE
330
D6
100
AcDbEntity
  8
2
 62
     7
420
 16777215
100
AcDbLine
 10
50.8781221453
 20
-59.2150005157
 30
0.0
 11
50.8781221453
 21
-70.2150005157
 31
0.0
  0
LINE
  5
DF
330
D6
100
AcDbEntity
  8
2
 62
     7
420
 16777215
100
AcDbLine
 10
50.8781221453
 20
-70.2150005157
 30
0.0
 11
50.8781221453
 21
-76.5650005157
 31
0.0
  0
MTEXT
  5
E0
330
D6
100
AcDbEntity
  8
2
 62
     7
420
 16777215
100
AcDbMText
 10
46.3663852307
 20
-68.7229867967
 30
1.1735079227
 40
3.5
 41
0.0
 46
0.0
 71
     1
 72
     1
  1
11
  7
SLDTEXTSTYLE0
 11
-8.820551857043885E-15
 21
1.0
 31
0.0
 73
     1
 44
1.0
  0
ENDBLK
  5
D8
330
D6
100
AcDbEntity
  8
0
100
AcDbBlockEnd
  0
ENDSEC
  0
SECTION
  2
ENTITIES
  0
LINE
  5
48
330
1F
100
AcDbEntity
  8
0
  6
SLD-Punktstrich
 62
     7
100
AcDbLine
 10
-5.5018778547
 20
-0.0001637776
 30
0.0
 11
41.4981221453
 21
-0.0001637776
 31
0.0
  0
POINT
  5
49
330
1F
100
AcDbEntity
  8
1
 62
     4
420
    65535
100
AcDbPoint
 10
-5.5018778547
 20
-0.0001637776
 30
0.0
  0
POINT
  5
4A
330
1F
100
AcDbEntity
  8
1
 62
     4
420
    65535
100
AcDbPoint
 10
41.4981221453
 20
-0.0001637776
 30
0.0
  0
POINT
  5
4B
330
1F
100
AcDbEntity
  8
1
 62
     4
420
    65535
100
AcDbPoint
 10
41.4981221453
 20
-0.0001637776
 30
0.0
  0
POINT
  5
4C
330
1F
100
AcDbEntity
  8
1
 62
     4
420
    65535
100
AcDbPoint
 10
40.7481221453
 20
-0.0001637776
 30
0.0
  0
POINT
  5
4D
330
1F
100
AcDbEntity
  8
1
 62
     4
420
    65535
100
AcDbPoint
 10
41.4981221453
 20
5.9998362224
 30
0.0
  0
LINE
  5
4E
330
1F
100
AcDbEntity
  8
1
 62
     4
420
    65535
100
AcDbLine
 10
40.7481221453
 20
2.0736860145
 30
0.0
 11
18.4999258431
 21
0.5255107794
 31
0.0
  0
LINE
  5
4F
330
1F
100
AcDbEntity
  8
1
 62
     4
420
    65535
100
AcDbLine
 10
17.5158206584
 20
4.4850385364
 30
0.0
 11
33.2681221453
 21
5.581186859
 31
0.0
  0
SPLINE
  5
50
330
1F
100
AcDbEntity
  8
1
 62
     4
420
    65535
100
AcDbSpline
210
0.0
220
0.0
230
1.0
 70
     8
 71
     3
 72
    20
 73
    16
 74
     0
 42
0.00000001
 43
0.00000001
 12
1.0
 22
0.0
 32
0.0
 13
1.0
 23
0.0
 33
0.0
 40
0.0
 40
0.0
 40
0.0
 40
0.0
 40
0.25
 40
0.25
 40
0.375
 40
0.375
 40
0.5
 40
0.5
 40
0.625
 40
0.625
 40
0.75
 40
0.75
 40
0.875
 40
0.875
 40
1.0
 40
1.0
 40
1.0
 40
1.0
 10
25.49812214530969
 20
-15.38930822047943
 30
0.0
 10
25.49812214530968
 20
-15.09705557468633
 30
0.0
 10
25.54183761877458
 20
-14.81276999470841
 30
0.0
 10
25.67290673680537
 20
-14.3982781352486
 30
0.0
 10
25.72815691299695
 20
-14.26202117404041
 30
0.0
 10
25.85827075384023
 20
-14.00475066599064
 30
0.0
 10
25.9334716970099
 20
-13.88231604856944
 30
0.0
 10
26.10619609750898
 20
-13.65109167650217
 30
0.0
 10
26.20503202178898
 20
-13.54128642188993
 30
0.0
 10
26.42040058324799
 20
-13.34689126293086
 30
0.0
 10
26.53721348121977
 20
-13.261343518297
 30
0.0
 10
26.79209948371455
 20
-13.11738005664449
 30
0.0
 10
26.92650101280016
 20
-13.06133838326946
 30
0.0
 10
27.20472302609187
 20
-12.98518660657991
 30
0.0
 10
27.35106507103696
 20
-12.96474919354164
 30
0.0
 10
27.49812214530969
 20
-12.96474919354164
 30
0.0
  0
LINE
  5
51
330
1F
100
AcDbEntity
  8
1
 62
     4
420
    65535
100
AcDbLine
 10
25.4975302643
 20
-10.9549978965
 30
0.0
 11
40.7481221453
 21
-10.9549978965
 31
0.0
  0
ELLIPSE
  5
52
330
1F
100
AcDbEntity
  8
1
 62
     4
420
    65535
100
AcDbEllipse
 10
46.3155921138
 20
5.9998362224
 30
0.0
 11
0.0
 21
30.05000000000001
 31
0.0
210
0.0
220
0.0
230
1.0
 40
0.8390996312
 41
1.76572974690029
 42
2.170285467481406
  0
ELLIPSE
  5
53
330
1F
100
AcDbEntity
  8
1
 62
     4
420
    65535
100
AcDbEllipse
 10
222.866570661
 20
5.9998362224
 30
0.0
 11
455.7236896061038
 21
29.02869722943138
 31
0.0
210
0.0
220
0.0
230
1.0
 40
0.0170447684
 41
1.980817762847759
 42
2.027191262360989
  0
LINE
  5
54
330
1F
100
AcDbEntity
  8
1
 62
     4
420
    65535
100
AcDbLine
 10
40.7481221453
 20
1.5520134447
 30
0.0
 11
40.7481221453
 21
-10.9549978965
 31
0.0
  0
LINE
  5
55
330
1F
100
AcDbEntity
  8
1
 62
     4
420
    65535
100
AcDbLine
 10
25.4975302643
 20
-10.9549978965
 30
0.0
 11
25.4975302643
 21
-19.0001637776
 31
0.0
  0
LINE
  5
56
330
1F
100
AcDbEntity
  8
1
 62
     4
420
    65535
100
AcDbLine
 10
25.4975302643
 20
-19.0001637776
 30
0.0
 11
21.2181221453
 21
-19.0001637776
 31
0.0
  0
LINE
  5
57
330
1F
100
AcDbEntity
  8
1
 62
     4
420
    65535
100
AcDbLine
 10
21.2181221453
 20
-19.0001637776
 30
0.0
 11
21.2181221453
 21
0.269857691
 31
0.0
  0
LINE
  5
58
330
1F
100
AcDbEntity
  8
1
 62
     4
420
    65535
100
AcDbLine
 10
21.5782049043
 20
0.1791146671
 30
0.0
 11
21.2181221453
 21
0.269857691
 31
0.0
  0
LINE
  5
59
330
1F
100
AcDbEntity
  8
1
 62
     4
420
    65535
100
AcDbLine
 10
25.4975302643
 20
-19.0001637776
 30
0.0
 11
25.4981221453
 21
-19.0001637776
 31
0.0
  0
LINE
  5
5A
330
1F
100
AcDbEntity
  8
1
 62
     4
420
    65535
100
AcDbLine
 10
40.7481221453
 20
-12.9647491935
 30
0.0
 11
40.7481221453
 21
-10.9549978965
 31
0.0
  0
LINE
  5
5B
330
1F
100
AcDbEntity
  8
1
 62
     4
420
    65535
100
AcDbLine
 10
25.4981221453
 20
-15.3893082205
 30
0.0
 11
25.4981221453
 21
-19.0001637776
 31
0.0
  0
LINE
  5
5C
330
1F
100
AcDbEntity
  8
1
 62
     4
420
    65535
100
AcDbLine
 10
40.7481221453
 20
-12.9647491935
 30
0.0
 11
27.4981221453
 21
-12.9647491935
 31
0.0
  0
LINE
  5
5D
330
1F
100
AcDbEntity
  8
1
 62
     4
420
    65535
100
AcDbLine
 10
21.2181221453
 20
0.269857691
 30
0.0
 11
18.6077641379
 21
0.091625532
 31
0.0
  0
LINE
  5
5E
330
1F
100
AcDbEntity
  8
1
 62
     4
420
    65535
100
AcDbLine
 10
40.7481221453
 20
1.5520134447
 30
0.0
 11
40.7481221453
 21
2.0600058737
 31
0.0
  0
ELLIPSE
  5
5F
330
1F
100
AcDbEntity
  8
1
 62
     4
420
    65535
100
AcDbEllipse
 10
46.3155921138
 20
5.9998362224
 30
0.0
 11
0.0
 21
30.05000000000001
 31
0.0
210
0.0
220
0.0
230
1.0
 40
0.8390996312
 41
1.405616253216354
 42
1.474230039795428
  0
ELLIPSE
  5
60
330
1F
100
AcDbEntity
  8
1
 62
     4
420
    65535
100
AcDbEllipse
 10
-150.4434799261
 20
5.9998362224
 30
0.0
 11
455.7234027048111
 21
27.670713698552
 31
0.0
210
0.0
220
0.0
230
1.0
 40
0.0257150792
 41
5.097036116447591
 42
5.124647122950297
  0
LINE
  5
61
330
1F
100
AcDbEntity
  8
1
 62
     4
420
    65535
100
AcDbLine
 10
32.8073932243
 20
6.3497888663
 30
0.0
 11
21.4438548036
 21
10.9409564065
 31
0.0
  0
LINE
  5
62
330
1F
100
AcDbEntity
  8
1
 62
     4
420
    65535
100
AcDbLine
 10
21.2181221453
 20
8.8971453188
 30
0.0
 11
21.2181221453
 21
10.9998362224
 31
0.0
  0
LINE
  5
63
330
1F
100
AcDbEntity
  8
1
 62
     4
420
    65535
100
AcDbLine
 10
21.2981221453
 20
10.9998362224
 30
0.0
 11
21.2181221453
 21
10.9998362224
 31
0.0
  0
LINE
  5
64
330
1F
100
AcDbEntity
  8
1
 62
     4
420
    65535
100
AcDbLine
 10
21.4438548036
 20
10.9409564065
 30
0.0
 11
21.2981221453
 21
10.9998362224
 31
0.0
  0
LINE
  5
65
330
1F
100
AcDbEntity
  8
1
 62
     4
420
    65535
100
AcDbLine
 10
17.3137039056
 20
5.2982512957
 30
0.0
 11
18.6077641379
 21
0.091625532
 31
0.0
  0
LINE
  5
66
330
1F
100
AcDbEntity
  8
1
 62
     4
420
    65535
100
AcDbLine
 10
21.2181221453
 20
5.5780275633
 30
0.0
 11
21.2181221453
 21
8.8971453188
 31
0.0
  0
LINE
  5
67
330
1F
100
AcDbEntity
  8
1
 62
     4
420
    65535
100
AcDbLine
 10
21.2181221453
 20
5.5780275633
 30
0.0
 11
17.3137039056
 21
5.2982512957
 31
0.0
  0
CIRCLE
  5
68
330
1F
100
AcDbEntity
  8
1
 62
     4
420
    65535
100
AcDbCircle
 10
15.4981221453
 20
-8.5001637776
 30
0.0
 40
2.500000000000002
  0
CIRCLE
  5
69
330
1F
100
AcDbEntity
  8
1
 62
     4
420
    65535
100
AcDbCircle
 10
10.2481221453
 20
5.4998362224
 30
0.0
 40
2.500000000000001
  0
CIRCLE
  5
6A
330
1F
100
AcDbEntity
  8
1
 62
     4
420
    65535
100
AcDbCircle
 10
-0.0018778547
 20
-0.0001637776
 30
0.0
 40
2.5
  0
LINE
  5
6B
330
1F
100
AcDbEntity
  8
1
 62
     4
420
    65535
100
AcDbLine
 10
-5.5018778547
 20
5.0538362224
 30
0.0
 11
-5.5018778547
 21
-14.0001637776
 31
0.0
  0
LINE
  5
6C
330
1F
100
AcDbEntity
  8
1
 62
     4
420
    65535
100
AcDbLine
 10
-5.5018778547
 20
-14.0001637776
 30
0.0
 11
19.4981221453
 21
-14.0001637776
 31
0.0
  0
LINE
  5
6D
330
1F
100
AcDbEntity
  8
1
 62
     4
420
    65535
100
AcDbLine
 10
3.4981221453
 20
5.9997743398
 30
0.0
 11
-5.5018778547
 21
5.0538362224
 31
0.0
  0
LINE
  5
6E
330
1F
100
AcDbEntity
  8
1
 62
     4
420
    65535
100
AcDbLine
 10
19.4981221453
 20
-14.0001637776
 30
0.0
 11
19.4981221453
 21
-19.0001637776
 31
0.0
  0
LINE
  5
6F
330
1F
100
AcDbEntity
  8
1
 62
     4
420
    65535
100
AcDbLine
 10
3.4981221453
 20
10.9998362224
 30
0.0
 11
3.4981221453
 21
5.9997743398
 31
0.0
  0
LINE
  5
70
330
1F
100
AcDbEntity
  8
1
 62
     4
420
    65535
100
AcDbLine
 10
21.2181221453
 20
10.9998362224
 30
0.0
 11
3.4981221453
 21
10.9998362224
 31
0.0
  0
LINE
  5
71
330
1F
100
AcDbEntity
  8
1
 62
     4
420
    65535
100
AcDbLine
 10
21.2181221453
 20
-19.0001637776
 30
0.0
 11
19.4981221453
 21
-19.0001637776
 31
0.0
  0
LINE
  5
72
330
1F
100
AcDbEntity
  8
1
 62
     4
420
    65535
100
AcDbLine
 10
33.2681221453
 20
5.9998362224
 30
0.0
 11
33.2681221453
 21
5.6130353889
 31
0.0
  0
LINE
  5
73
330
1F
100
AcDbEntity
  8
1
 62
     4
420
    65535
100
AcDbLine
 10
21.2181221453
 20
5.5201064113
 30
0.0
 11
21.2181221453
 21
5.5780275633
 31
0.0
  0
LINE
  5
74
330
1F
100
AcDbEntity
  8
1
 62
     4
420
    65535
100
AcDbLine
 10
32.9160482587
 20
6.3058893828
 30
0.0
 11
33.2681221453
 21
5.9998362224
 31
0.0
  0
LINE
  5
75
330
1F
100
AcDbEntity
  8
1
 62
     4
420
    65535
100
AcDbLine
 10
32.9160482587
 20
6.3058893828
 30
0.0
 11
32.8073932243
 21
6.3497888663
 31
0.0
  0
LINE
  5
76
330
1F
100
AcDbEntity
  8
1
 62
     4
420
    65535
100
AcDbLine
 10
40.7481221453
 20
2.0600058737
 30
0.0
 11
40.7481221453
 21
2.0736860145
 31
0.0
  0
LINE
  5
77
330
1F
100
AcDbEntity
  8
1
 62
     4
420
    65535
100
AcDbLine
 10
33.2681221453
 20
5.6130353889
 30
0.0
 11
33.2681221453
 21
5.581186859
 31
0.0
  0
LINE
  5
78
330
1F
100
AcDbEntity
  8
1
 62
     4
420
    65535
100
AcDbLine
 10
18.5032681147
 20
0.5120632157
 30
0.0
 11
40.7481221453
 21
2.0600058737
 31
0.0
  0
LINE
  5
79
330
1F
100
AcDbEntity
  8
1
 62
     4
420
    65535
100
AcDbLine
 10
17.5080395662
 20
4.5163456069
 30
0.0
 11
33.2681221453
 21
5.6130353889
 31
0.0
  0
DIMENSION
  5
7A
330
1F
100
AcDbEntity
  8
2
 62
     7
420
 16777215
100
AcDbDimension
  2
_D
 10
50.7481221453
 20
-19.0001637776
 30
0.0
 11
50.7481221453
 21
-6.5001637776
 31
0.0
 70
   160
  1
<>
 71
     2
 42
-1.0
 73
     0
 74
     0
 75
     0
  3
SLDDIMSTYLE0
100
AcDbAlignedDimension
 13
41.4981221453
 23
5.9998362224
 33
0.0
 14
19.4981221453
 24
-19.0001637776
 34
0.0
 50
90.0
100
AcDbRotatedDimension
  0
DIMENSION
  5
86
330
1F
100
AcDbEntity
  8
2
 62
     7
420
 16777215
100
AcDbDimension
  2
_D_1
 10
56.7481221453
 20
10.9998362224
 30
0.0
 11
56.7481221453
 21
-4.0001637776
 31
0.0
 70
   160
  1
<>
 71
     2
 42
-1.0
 73
     0
 74
     0
 75
     0
  3
SLDDIMSTYLE0
100
AcDbAlignedDimension
 13
19.4981221453
 23
-19.0001637776
 33
0.0
 14
21.2981221453
 24
10.9998362224
 34
0.0
 50
90.0
100
AcDbRotatedDimension
  0
DIMENSION
  5
90
330
1F
100
AcDbEntity
  8
2
 62
     7
420
 16777215
100
AcDbDimension
  2
_D_2
 10
19.4981221453
 20
-29.0001637776
 30
0.0
 11
30.4981221453
 21
-29.0001637776
 31
0.0
 70
   160
  1
<>
 71
     2
 42
-1.0
 73
     0
 74
     0
 75
     0
  3
SLDDIMSTYLE0
100
AcDbAlignedDimension
 13
41.4981221453
 23
5.9998362224
 33
0.0
 14
19.4981221453
 24
-19.0001637776
 34
0.0
 50
0.0
100
AcDbRotatedDimension
  0
DIMENSION
  5
9A
330
1F
100
AcDbEntity
  8
2
 62
     7
420
 16777215
100
AcDbDimension
  2
_D_3
 10
-5.5018778547
 20
-41.0001637776
 30
0.0
 11
17.9981221453
 21
-41.0001637776
 31
0.0
 70
   160
  1
<>
 71
     2
 42
-1.0
 73
     0
 74
     0
 75
     0
  3
SLDDIMSTYLE0
100
AcDbAlignedDimension
 13
41.4981221453
 23
5.9998362224
 33
0.0
 14
-5.5018778547
 24
-14.0001637776
 34
0.0
 50
0.0
100
AcDbRotatedDimension
  0
ARC
  5
A4
330
1F
100
AcDbEntity
  8
1
 62
     4
420
    65535
100
AcDbCircle
 10
27.6281221453
 20
-58.5650005157
 30
0.0
 40
2.0
100
AcDbArc
 50
207.7325385498
 51
270.0
  0
LINE
  5
A5
330
1F
100
AcDbEntity
  8
1
 62
     4
420
    65535
100
AcDbLine
 10
30.108875325
 20
-60.5650005157
 30
0.0
 11
27.6281221453
 21
-60.5650005157
 31
0.0
  0
ELLIPSE
  5
A6
330
1F
100
AcDbEntity
  8
1
 62
     4
420
    65535
100
AcDbEllipse
 10
33.8035564124
 20
-95.0250005157
 30
0.0
 11
74.37635994515946
 21
0.0
 31
0.0
210
0.0
220
0.0
230
1.0
 40
0.4040262258
 41
1.582442268709229
 42
1.73597640037344
  0
LINE
  5
A7
330
1F
100
AcDbEntity
  8
1
 62
     4
420
    65535
100
AcDbLine
 10
21.5738548036
 20
-65.3840182221
 30
0.0
 11
21.4281221453
 21
-65.2103408031
 31
0.0
  0
LINE
  5
A8
330
1F
100
AcDbEntity
  8
1
 62
     4
420
    65535
100
AcDbLine
 10
21.4281221453
 20
-65.2103408031
 30
0.0
 11
21.4281221453
 21
-59.2150005157
 31
0.0
  0
LINE
  5
A9
330
1F
100
AcDbEntity
  8
1
 62
     4
420
    65535
100
AcDbLine
 10
25.6756935961
 20
-59.2150005157
 30
0.0
 11
21.4281221453
 21
-59.2150005157
 31
0.0
  0
SPLINE
  5
AA
330
1F
100
AcDbEntity
  8
1
 62
     4
420
    65535
100
AcDbSpline
210
0.0
220
0.0
230
1.0
 70
     8
 71
     3
 72
    18
 73
    14
 74
     0
 42
0.00000001
 43
0.00000001
 12
1.0
 22
0.0
 32
0.0
 13
1.0
 23
0.0
 33
0.0
 40
0.0
 40
0.0
 40
0.0
 40
0.0
 40
0.2500000000000014
 40
0.2500000000000014
 40
0.5000000000000028
 40
0.5000000000000028
 40
0.625000000000002
 40
0.625000000000002
 40
0.7500000000000012
 40
0.7500000000000012
 40
0.8750000000000007
 40
0.8750000000000007
 40
1.0
 40
1.0
 40
1.0
 40
1.0
 10
27.62812214530968
 20
-60.69805497250869
 30
0.0
 10
27.41070261479612
 20
-60.70745063255314
 30
0.0
 10
27.1972572130705
 20
-60.68246780781659
 30
0.0
 10
26.77874739136929
 20
-60.56000187742344
 30
0.0
 10
26.58155900044708
 20
-60.46419502219669
 30
0.0
 10
26.31339652263142
 20
-60.26834133937717
 30
0.0
 10
26.22830451614054
 20
-60.19373013567153
 30
0.0
 10
26.07449463843782
 20
-60.03196700343821
 30
0.0
 10
26.00474190054995
 20
-59.944160880517
 30
0.0
 10
25.88020158183461
 20
-59.75405979680733
 30
0.0
 10
25.82550012130152
 20
-59.65132501185084
 30
0.0
 10
25.73636537166993
 20
-59.43948068596436
 30
0.0
 10
25.70117963880478
 20
-59.32939363962907
 30
0.0
 10
25.67569359611102
 20
-59.21500051566736
 30
0.0
  0
ELLIPSE
  5
AB
330
1F
100
AcDbEntity
  8
1
 62
     4
420
    65535
100
AcDbEllipse
 10
33.8035564124
 20
-84.0250005157
 30
0.0
 11
58.06553758114612
 21
0.0
 31
0.0
210
0.0
220
0.0
230
1.0
 40
0.4040262258
 41
1.583842441130948
 42
1.677350676018326
  0
LINE
  5
AC
330
1F
100
AcDbEntity
  8
1
 62
     4
420
    65535
100
AcDbLine
 10
33.0460482587
 20
-64.8555280879
 30
0.0
 11
33.0460482587
 21
-60.5669969462
 31
0.0
  0
LINE
  5
AD
330
1F
100
AcDbEntity
  8
1
 62
     4
420
    65535
100
AcDbLine
 10
33.0460482587
 20
-64.8555280879
 30
0.0
 11
32.9373932243
 21
-64.9770383028
 31
0.0
  0
LINE
  5
AE
330
1F
100
AcDbEntity
  8
1
 62
     4
420
    65535
100
AcDbLine
 10
21.4281221453
 20
-65.2103408031
 30
0.0
 11
21.3481221453
 21
-65.1150005157
 31
0.0
  0
LINE
  5
AF
330
1F
100
AcDbEntity
  8
1
 62
     4
420
    65535
100
AcDbLine
 10
21.3481221453
 20
-65.1150005157
 30
0.0
 11
3.6281221453
 21
-65.1150005157
 31
0.0
  0
LINE
  5
B0
330
1F
100
AcDbEntity
  8
1
 62
     4
420
    65535
100
AcDbLine
 10
3.6281221453
 20
-65.1150005157
 30
0.0
 11
3.6281221453
 21
-59.2150005157
 31
0.0
  0
LINE
  5
B1
330
1F
100
AcDbEntity
  8
1
 62
     4
420
    65535
100
AcDbLine
 10
3.6281221453
 20
-59.2150005157
 30
0.0
 11
21.4281221453
 21
-59.2150005157
 31
0.0
  0
LINE
  5
B2
330
1F
100
AcDbEntity
  8
1
 62
     4
420
    65535
100
AcDbLine
 10
25.7366654949
 20
-59.2150005157
 30
0.0
 11
25.8728292278
 21
-59.4875376042
 31
0.0
  0
SPLINE
  5
B3
330
1F
100
AcDbEntity
  8
1
 62
     4
420
    65535
100
AcDbSpline
210
0.0
220
0.0
230
1.0
 70
    24
 71
     3
 72
     8
 73
     4
 74
     0
 42
0.00000001
 43
0.00000001
 12
1.0
 22
0.0
 32
0.0
 13
1.0
 23
0.0
 33
0.0
 40
0.0
 40
0.0
 40
0.0
 40
0.0
 40
1.0
 40
1.0
 40
1.0
 40
1.0
 10
25.67569359611102
 20
-59.21500051566736
 30
0.0
 10
25.7069639579475
 20
-59.21500051566736
 30
0.0
 10
25.73570977666331
 20
-59.21500051566736
 30
0.0
 10
25.73666549493436
 20
-59.21500051566736
 30
0.0
  0
ELLIPSE
  5
B4
330
1F
100
AcDbEntity
  8
1
 62
     4
420
    65535
100
AcDbEllipse
 10
122.4493127698
 20
-84.0250005157
 30
0.0
 11
355.7829505029802
 21
-6.113619967892916
 31
0.0
210
0.0
220
0.0
230
1.0
 40
0.0636607191
 41
1.825571184813441
 42
1.83443747760857
  0
ELLIPSE
  5
B5
330
1F
100
AcDbEntity
  8
1
 62
     4
420
    65535
100
AcDbEllipse
 10
33.3981221453
 20
-84.0250005157
 30
0.0
 11
26.98764283340483
 21
0.0
 31
0.0
210
0.0
220
0.0
230
1.0
 40
0.8692867378
 41
1.579662619590022
 42
1.583842441130948
  0
LINE
  5
B6
330
1F
100
AcDbEntity
  8
1
 62
     4
420
    65535
100
AcDbLine
 10
33.3981221453
 20
-64.0766977265
 30
0.0
 11
33.3981221453
 21
-61.4006661519
 31
0.0
  0
LINE
  5
B7
330
1F
100
AcDbEntity
  8
1
 62
     4
420
    65535
100
AcDbLine
 10
33.3981221453
 20
-61.4006661519
 30
0.0
 11
33.1588449371
 21
-60.5659226184
 31
0.0
  0
LINE
  5
B8
330
1F
100
AcDbEntity
  8
1
 62
     4
420
    65535
100
AcDbLine
 10
33.0460482587
 20
-64.8555280879
 30
0.0
 11
33.3981221453
 21
-64.0766977265
 31
0.0
  0
LINE
  5
B9
330
1F
100
AcDbEntity
  8
1
 62
     4
420
    65535
100
AcDbLine
 10
-5.3718778547
 20
-65.1150005157
 30
0.0
 11
-5.3718778547
 21
-59.2150005157
 31
0.0
  0
LINE
  5
BA
330
1F
100
AcDbEntity
  8
1
 62
     4
420
    65535
100
AcDbLine
 10
3.6281221453
 20
-65.1150005157
 30
0.0
 11
-5.3718778547
 21
-65.1150005157
 31
0.0
  0
LINE
  5
BB
330
1F
100
AcDbEntity
  8
1
 62
     4
420
    65535
100
AcDbLine
 10
-5.3718778547
 20
-59.2150005157
 30
0.0
 11
3.6281221453
 21
-59.2150005157
 31
0.0
  0
LINE
  5
BC
330
1F
100
AcDbEntity
  8
1
 62
     4
420
    65535
100
AcDbLine
 10
40.8781221453
 20
-63.4157954742
 30
0.0
 11
40.8781221453
 21
-63.1559754047
 31
0.0
  0
ELLIPSE
  5
BD
330
1F
100
AcDbEntity
  8
1
 62
     4
420
    65535
100
AcDbEllipse
 10
222.996570661
 20
-95.0250005157
 30
0.0
 11
455.7236855334435
 21
-7.830958228268896
 31
0.0
210
0.0
220
0.0
230
1.0
 40
0.0636607191
 41
1.982997398200735
 42
2.029370897713969
  0
LINE
  5
BE
330
1F
100
AcDbEntity
  8
1
 62
     4
420
    65535
100
AcDbLine
 10
21.7082049043
 20
-65.5441304373
 30
0.0
 11
21.5738548036
 21
-65.3840182221
 31
0.0
  0
LINE
  5
BF
330
1F
100
AcDbEntity
  8
1
 62
     4
420
    65535
100
AcDbLine
 10
40.8781221453
 20
-65.3059935919
 30
0.0
 11
40.8781221453
 21
-63.4157954742
 31
0.0
  0
ELLIPSE
  5
C0
330
1F
100
AcDbEntity
  8
1
 62
     4
420
    65535
100
AcDbEllipse
 10
-27.7662220349
 20
-84.0250005157
 30
0.0
 11
355.7827244360183
 21
9.216599226461355
 31
0.0
210
0.0
220
0.0
230
1.0
 40
0.0606373784
 41
1.37506925687408
 42
1.396632587692103
  0
LINE
  5
C1
330
1F
100
AcDbEntity
  8
1
 62
     4
420
    65535
100
AcDbLine
 10
40.8781221453
 20
-63.1559754047
 30
0.0
 11
40.8781221453
 21
-61.0707441318
 31
0.0
  0
LINE
  5
C2
330
1F
100
AcDbEntity
  8
1
 62
     4
420
    65535
100
AcDbLine
 10
25.6275302643
 20
-70.2150005157
 30
0.0
 11
40.8781221453
 21
-70.2150005157
 31
0.0
  0
LINE
  5
C3
330
1F
100
AcDbEntity
  8
1
 62
     4
420
    65535
100
AcDbLine
 10
21.7082049043
 20
-65.5441304373
 30
0.0
 11
25.6275302643
 21
-70.2150005157
 31
0.0
  0
LINE
  5
C4
330
1F
100
AcDbEntity
  8
1
 62
     4
420
    65535
100
AcDbLine
 10
40.8781221453
 20
-65.3059935919
 30
0.0
 11
40.8781221453
 21
-70.2150005157
 31
0.0
  0
LINE
  5
C5
330
1F
100
AcDbEntity
  8
1
 62
     4
420
    65535
100
AcDbLine
 10
27.6281221453
 20
-60.5650005157
 30
0.0
 11
27.6281221453
 21
-60.6980549725
 31
0.0
  0
LINE
  5
C6
330
1F
100
AcDbEntity
  8
1
 62
     4
420
    65535
100
AcDbLine
 10
33.3981221453
 20
-63.4521928971
 30
0.0
 11
40.8781221453
 21
-63.4157954742
 31
0.0
  0
LINE
  5
C7
330
1F
100
AcDbEntity
  8
1
 62
     4
420
    65535
100
AcDbLine
 10
33.3981221453
 20
-63.1923728276
 30
0.0
 11
40.8781221453
 21
-63.1559754047
 31
0.0
  0
DIMENSION
  5
C8
330
1F
100
AcDbEntity
  8
2
 62
     7
420
 16777215
100
AcDbDimension
  2
_D_4
 10
-15.3718778547
 20
-59.2150005157
 30
0.0
 11
-15.3718778547
 21
-47.046250272
 31
0.0
 70
   160
  1
<>
 71
     2
 42
-1.0
 73
     0
 74
     0
 75
     0
  3
SLDDIMSTYLE1
100
AcDbAlignedDimension
 13
-5.3718778547
 23
-65.1150005157
 33
0.0
 14
-5.3718778547
 24
-59.2150005157
 34
0.0
 50
90.0
100
AcDbRotatedDimension
  0
DIMENSION
  5
D5
330
1F
100
AcDbEntity
  8
2
 62
     7
420
 16777215
100
AcDbDimension
  2
_D_5
 10
50.8781221453
 20
-70.2150005157
 30
0.0
 11
50.8781221453
 21
-64.7150005157
 31
0.0
 70
   160
  1
<>
 71
     2
 42
-1.0
 73
     0
 74
     0
 75
     0
  3
SLDDIMSTYLE1
100
AcDbAlignedDimension
 13
25.6756935961
 23
-59.2150005157
 33
0.0
 14
25.6275302643
 24
-70.2150005157
 34
0.0
 50
90.0
100
AcDbRotatedDimension
  0
ENDSEC
  0
SECTION
  2
OBJECTS
  0
DICTIONARY
  5
C
330
0
100
AcDbDictionary
281
     1
  3
ACAD_GROUP
350
D
  3
ACAD_LAYOUT
350
1A
  3
ACAD_MATERIAL
350
3B
  3
ACAD_MLEADERSTYLE
350
E2
  3
ACAD_MLINESTYLE
350
17
  3
ACAD_PLOTSETTINGS
350
19
  3
ACAD_PLOTSTYLENAME
350
E
  3
ACAD_TABLESTYLE
350
E1
  3
ACAD_VISUALSTYLE
350
2A
  0
DICTIONARY
  5
D
102
{ACAD_REACTORS
330
C
102
}
330
C
100
AcDbDictionary
281
     1
  0
DICTIONARY
  5
1A
102
{ACAD_REACTORS
330
C
102
}
330
C
100
AcDbDictionary
281
     1
  3
Layout1
350
1E
  3
Layout2
350
26
  3
Model
350
22
  0
DICTIONARY
  5
3B
102
{ACAD_REACTORS
330
C
102
}
330
C
100
AcDbDictionary
281
     1
  3
ByBlock
350
3D
  3
ByLayer
350
3C
  3
Global
350
3E
  0
DICTIONARY
  5
E2
102
{ACAD_REACTORS
330
C
102
}
330
C
100
AcDbDictionary
281
     1
  0
DICTIONARY
  5
17
102
{ACAD_REACTORS
330
C
102
}
330
C
100
AcDbDictionary
281
     1
  3
Standard
350
18
  0
DICTIONARY
  5
19
102
{ACAD_REACTORS
330
C
102
}
330
C
100
AcDbDictionary
281
     1
  0
ACDBDICTIONARYWDFLT
  5
E
102
{ACAD_REACTORS
330
C
102
}
330
C
100
AcDbDictionary
281
     1
  3
Normal
350
F
100
AcDbDictionaryWithDefault
340
F
  0
DICTIONARY
  5
E1
102
{ACAD_REACTORS
330
C
102
}
330
C
100
AcDbDictionary
281
     1
  0
DICTIONARY
  5
2A
102
{ACAD_REACTORS
330
C
102
}
330
C
100
AcDbDictionary
281
     1
  3
2dWireframe
350
2F
  3
3D Hidden
350
31
  3
3dWireframe
350
30
  3
Basic
350
32
  3
Brighten
350
36
  3
ColorChange
350
3A
  3
Conceptual
350
34
  3
Dim
350
35
  3
Facepattern
350
39
  3
Flat
350
2B
  3
FlatWithEdges
350
2C
  3
Gouraud
350
2D
  3
GouraudWithEdges
350
2E
  3
Linepattern
350
38
  3
Realistic
350
33
  3
Thicken
350
37
  0
LAYOUT
  5
1E
102
{ACAD_REACTORS
330
1A
102
}
330
1A
100
AcDbPlotSettings
  1

  2
none_device
  4

  6

 40
0.0
 41
0.0
 42
0.0
 43
0.0
 44
0.0
 45
0.0
 46
0.0
 47
0.0
 48
0.0
 49
0.0
140
0.0
141
0.0
142
1.0
143
1.0
 70
   688
 72
     0
 73
     0
 74
     5
  7

 75
    16
 76
     0
 77
     2
 78
   300
147
1.0
148
0.0
149
0.0
100
AcDbLayout
  1
Layout1
 70
     1
 71
     1
 10
0.0
 20
0.0
 11
420.0
 21
297.0
 12
0.0
 22
0.0
 32
0.0
 14
1.0000000000E+20
 24
1.0000000000E+20
 34
1.0000000000E+20
 15
-1.0000000000E+20
 25
-1.0000000000E+20
 35
-1.0000000000E+20
146
0.0
 13
0.0
 23
0.0
 33
0.0
 16
1.0
 26
0.0
 36
0.0
 17
0.0
 27
1.0
 37
0.0
 76
     0
330
1B
  0
LAYOUT
  5
26
102
{ACAD_REACTORS
330
1A
102
}
330
1A
100
AcDbPlotSettings
  1

  2
none_device
  4

  6

 40
0.0
 41
0.0
 42
0.0
 43
0.0
 44
0.0
 45
0.0
 46
0.0
 47
0.0
 48
0.0
 49
0.0
140
0.0
141
0.0
142
1.0
143
1.0
 70
   688
 72
     0
 73
     0
 74
     5
  7

 75
    16
 76
     0
 77
     2
 78
   300
147
1.0
148
0.0
149
0.0
100
AcDbLayout
  1
Layout2
 70
     1
 71
     2
 10
0.0
 20
0.0
 11
0.0
 21
0.0
 12
0.0
 22
0.0
 32
0.0
 14
0.0
 24
0.0
 34
0.0
 15
0.0
 25
0.0
 35
0.0
146
0.0
 13
0.0
 23
0.0
 33
0.0
 16
1.0
 26
0.0
 36
0.0
 17
0.0
 27
1.0
 37
0.0
 76
     0
330
23
  0
LAYOUT
  5
22
102
{ACAD_REACTORS
330
1A
102
}
330
1A
100
AcDbPlotSettings
  1

  2
none_device
  4

  6

 40
0.0
 41
0.0
 42
0.0
 43
0.0
 44
0.0
 45
0.0
 46
0.0
 47
0.0
 48
0.0
 49
0.0
140
0.0
141
0.0
142
1.0
143
1.0
 70
  1712
 72
     0
 73
     0
 74
     0
  7

 75
     0
 76
     0
 77
     2
 78
   300
147
1.0
148
0.0
149
0.0
100
AcDbLayout
  1
Model
 70
     1
 71
     0
 10
0.0
 20
0.0
 11
297.0
 21
210.0
 12
0.0
 22
0.0
 32
0.0
 14
0.0
 24
0.0
 34
0.0
 15
297.0
 25
210.0
 35
0.0
146
0.0
 13
0.0
 23
0.0
 33
0.0
 16
1.0
 26
0.0
 36
0.0
 17
0.0
 27
1.0
 37
0.0
 76
     0
330
1F
331
29
  0
MATERIAL
  5
3D
102
{ACAD_REACTORS
330
3B
102
}
330
3B
100
AcDbMaterial
  1
ByBlock
 72
     1
 94
      127
  0
MATERIAL
  5
3C
102
{ACAD_REACTORS
330
3B
102
}
330
3B
100
AcDbMaterial
  1
ByLayer
 72
     1
 94
      127
  0
MATERIAL
  5
3E
102
{ACAD_REACTORS
330
3B
102
}
330
3B
100
AcDbMaterial
  1
Global
 72
     1
 94
      127
  0
MLINESTYLE
  5
18
102
{ACAD_REACTORS
330
17
102
}
330
17
100
AcDbMlineStyle
  2
Standard
 70
     0
  3

 62
   256
 51
90.0
 52
90.0
 71
     2
 49
0.5
 62
   256
  6
BYLAYER
 49
-0.5
 62
   256
  6
BYLAYER
  0
ACDBPLACEHOLDER
  5
F
102
{ACAD_REACTORS
330
E
102
}
330
E
  0
VISUALSTYLE
  5
2F
102
{ACAD_REACTORS
330
2A
102
}
330
2A
100
AcDbVisualStyle
  2
2dWireframe
 70
     4
 71
     0
 72
     2
 73
     0
 90
        0
 40
-0.6
 41
-30.0
 62
     5
 63
     7
421
 16777215
 74
     1
 91
        4
 64
     7
 65
   257
 75
     1
175
     1
 42
1.0
 92
        0
 66
   257
 43
1.0
 76
     1
 77
     6
 78
     2
 67
     7
 79
     5
170
     0
171
     0
290
     0
174
     0
 93
        1
 44
0.0
173
     0
291
     0
 45
0.0
  0
VISUALSTYLE
  5
31
102
{ACAD_REACTORS
330
2A
102
}
330
2A
100
AcDbVisualStyle
  2
3D Hidden
 70
     6
 71
     1
 72
     2
 73
     2
 90
        0
 40
-0.6
 41
-30.0
 62
     5
 63
     7
421
 16777215
 74
     2
 91
        2
 64
     7
 65
   257
 75
     2
175
     1
 42
40.0
 92
        0
 66
   257
 43
1.0
 76
     1
 77
     6
 78
     2
 67
     7
 79
     3
170
     0
171
     0
290
     0
174
     0
 93
        1
 44
0.0
173
     0
291
     0
 45
0.0
  0
VISUALSTYLE
  5
30
102
{ACAD_REACTORS
330
2A
102
}
330
2A
100
AcDbVisualStyle
  2
3dWireframe
 70
     5
 71
     0
 72
     2
 73
     0
 90
        0
 40
-0.6
 41
-30.0
 62
     5
 63
     7
421
 16777215
 74
     1
 91
        4
 64
     7
 65
   257
 75
     1
175
     1
 42
1.0
 92
        0
 66
   257
 43
1.0
 76
     1
 77
     6
 78
     2
 67
     7
 79
     5
170
     0
171
     0
290
     0
174
     0
 93
        1
 44
0.0
173
     0
291
     0
 45
0.0
  0
VISUALSTYLE
  5
32
102
{ACAD_REACTORS
330
2A
102
}
330
2A
100
AcDbVisualStyle
  2
Basic
 70
     7
 71
     1
 72
     0
 73
     1
 90
        0
 40
-0.6
 41
-30.0
 62
     5
 63
     7
421
 16777215
 74
     0
 91
        4
 64
     7
 65
   257
 75
     1
175
     1
 42
1.0
 92
        8
 66
     7
 43
1.0
 76
     1
 77
     6
 78
     2
 67
     7
 79
     5
170
     0
171
     0
290
     0
174
     0
 93
        1
 44
0.0
173
     0
291
     1
 45
0.0
  0
VISUALSTYLE
  5
36
102
{ACAD_REACTORS
330
2A
102
}
330
2A
100
AcDbVisualStyle
  2
Brighten
 70
    12
 71
     2
 72
     2
 73
     0
 90
        0
 40
-0.6
 41
-30.0
 62
     5
 63
     7
421
 16777215
 74
     1
 91
        4
 64
     7
 65
   257
 75
     1
175
     1
 42
1.0
 92
        8
 66
     7
 43
1.0
 76
     1
 77
     6
 78
     2
 67
     7
 79
     5
170
     0
171
     0
290
     0
174
     0
 93
        1
 44
50.0
173
     0
291
     1
 45
0.0
  0
VISUALSTYLE
  5
3A
102
{ACAD_REACTORS
330
2A
102
}
330
2A
100
AcDbVisualStyle
  2
ColorChange
 70
    16
 71
     2
 72
     2
 73
     3
 90
        0
 40
-0.6
 41
-30.0
 62
     5
 63
     8
421
  8421504
 74
     1
 91
        4
 64
     7
 65
   257
 75
     1
175
     1
 42
1.0
 92
        8
 66
     8
424
  8421504
 43
1.0
 76
     1
 77
     6
 78
     2
 67
     7
 79
     5
170
     0
171
     0
290
     0
174
     0
 93
        1
 44
0.0
173
     0
291
     1
 45
0.0
  0
VISUALSTYLE
  5
34
102
{ACAD_REACTORS
330
2A
102
}
330
2A
100
AcDbVisualStyle
  2
Conceptual
 70
     9
 71
     3
 72
     2
 73
     0
 90
        0
 40
-0.6
 41
-30.0
 62
     5
 63
     7
421
 16777215
 74
     2
 91
        2
 64
     7
 65
   257
 75
     1
175
     1
 42
40.0
 92
        8
 66
     7
 43
1.0
 76
     1
 77
     6
 78
     2
 67
     7
 79
     3
170
     0
171
     0
290
     0
174
     0
 93
        1
 44
0.0
173
     0
291
     0
 45
0.0
  0
VISUALSTYLE
  5
35
102
{ACAD_REACTORS
330
2A
102
}
330
2A
100
AcDbVisualStyle
  2
Dim
 70
    11
 71
     2
 72
     2
 73
     0
 90
        0
 40
-0.6
 41
-30.0
 62
     5
 63
     7
421
 16777215
 74
     1
 91
        4
 64
     7
 65
   257
 75
     1
175
     1
 42
1.0
 92
        8
 66
     7
 43
1.0
 76
     1
 77
     6
 78
     2
 67
     7
 79
     5
170
     0
171
     0
290
     0
174
     0
 93
        1
 44
-50.0
173
     0
291
     1
 45
0.0
  0
VISUALSTYLE
  5
39
102
{ACAD_REACTORS
330
2A
102
}
330
2A
100
AcDbVisualStyle
  2
Facepattern
 70
    15
 71
     2
 72
     2
 73
     0
 90
        0
 40
-0.6
 41
-30.0
 62
     5
 63
     7
421
 16777215
 74
     1
 91
        4
 64
     7
 65
   257
 75
     1
175
     1
 42
1.0
 92
        8
 66
     7
 43
1.0
 76
     1
 77
     6
 78
     2
 67
     7
 79
     5
170
     0
171
     0
290
     0
174
     0
 93
        1
 44
0.0
173
     0
291
     1
 45
0.0
  0
VISUALSTYLE
  5
2B
102
{ACAD_REACTORS
330
2A
102
}
330
2A
100
AcDbVisualStyle
  2
Flat
 70
     0
 71
     2
 72
     1
 73
     1
 90
        2
 40
-0.6
 41
30.0
 62
     5
 63
     7
421
 16777215
 74
     0
 91
        4
 64
     7
 65
   257
 75
     1
175
     1
 42
1.0
 92
        8
 66
     7
 43
1.0
 76
     1
 77
     6
 78
     2
 67
     7
 79
     5
170
     0
171
     0
290
     0
174
     0
 93
       13
 44
0.0
173
     0
291
     1
 45
0.0
  0
VISUALSTYLE
  5
2C
102
{ACAD_REACTORS
330
2A
102
}
330
2A
100
AcDbVisualStyle
  2
FlatWithEdges
 70
     1
 71
     2
 72
     1
 73
     1
 90
        2
 40
-0.6
 41
30.0
 62
     5
 63
     7
421
 16777215
 74
     1
 91
        4
 64
     7
 65
   257
 75
     1
175
     1
 42
1.0
 92
        0
 66
   257
 43
1.0
 76
     1
 77
     6
 78
     2
 67
     7
 79
     5
170
     0
171
     0
290
     0
174
     0
 93
       13
 44
0.0
173
     0
291
     1
 45
0.0
  0
VISUALSTYLE
  5
2D
102
{ACAD_REACTORS
330
2A
102
}
330
2A
100
AcDbVisualStyle
  2
Gouraud
 70
     2
 71
     2
 72
     2
 73
     1
 90
        2
 40
-0.6
 41
30.0
 62
     5
 63
     7
421
 16777215
 74
     0
 91
        4
 64
     7
 65
   257
 75
     1
175
     1
 42
1.0
 92
        0
 66
     7
 43
1.0
 76
     1
 77
     6
 78
     2
 67
     7
 79
     5
170
     0
171
     0
290
     0
174
     0
 93
       13
 44
0.0
173
     0
291
     1
 45
0.0
  0
VISUALSTYLE
  5
2E
102
{ACAD_REACTORS
330
2A
102
}
330
2A
100
AcDbVisualStyle
  2
GouraudWithEdges
 70
     3
 71
     2
 72
     2
 73
     1
 90
        2
 40
-0.6
 41
30.0
 62
     5
 63
     7
421
 16777215
 74
     1
 91
        4
 64
     7
 65
   257
 75
     1
175
     1
 42
1.0
 92
        0
 66
   257
 43
1.0
 76
     1
 77
     6
 78
     2
 67
     7
 79
     5
170
     0
171
     0
290
     0
174
     0
 93
       13
 44
0.0
173
     0
291
     1
 45
0.0
  0
VISUALSTYLE
  5
38
102
{ACAD_REACTORS
330
2A
102
}
330
2A
100
AcDbVisualStyle
  2
Linepattern
 70
    14
 71
     2
 72
     2
 73
     0
 90
        0
 40
-0.6
 41
-30.0
 62
     5
 63
     7
421
 16777215
 74
     1
 91
        4
 64
     7
 65
   257
 75
     7
175
     7
 42
1.0
 92
        8
 66
     7
 43
1.0
 76
     1
 77
     6
 78
     2
 67
     7
 79
     5
170
     0
171
     0
290
     0
174
     0
 93
        1
 44
0.0
173
     0
291
     1
 45
0.0
  0
VISUALSTYLE
  5
33
102
{ACAD_REACTORS
330
2A
102
}
330
2A
100
AcDbVisualStyle
  2
Realistic
 70
     8
 71
     2
 72
     2
 73
     0
 90
        0
 40
-0.6
 41
-30.0
 62
     5
 63
     7
421
 16777215
 74
     1
 91
        0
 64
     7
 65
   257
 75
     1
175
     1
 42
1.0
 92
        8
 66
     8
424
  7895160
 43
1.0
 76
     1
 77
     6
 78
     2
 67
     7
 79
     5
170
     0
171
     0
290
     0
174
     0
 93
       13
 44
0.0
173
     0
291
     0
 45
0.0
  0
VISUALSTYLE
  5
37
102
{ACAD_REACTORS
330
2A
102
}
330
2A
100
AcDbVisualStyle
  2
Thicken
 70
    13
 71
     2
 72
     2
 73
     0
 90
        0
 40
-0.6
 41
-30.0
 62
     5
 63
     7
421
 16777215
 74
     1
 91
        4
 64
     7
 65
   257
 75
     1
175
     1
 42
1.0
 92
       12
 66
     7
 43
1.0
 76
     1
 77
     6
 78
     2
 67
     7
 79
     5
170
     0
171
     0
290
     0
174
     0
 93
        1
 44
0.0
173
     0
291
     1
 45
0.0
  0
ENDSEC
  0
EOF
