  0
SECTION
  2
HEADER
  9
$ACADVER
  1
AC1021
  9
$ACADMAINTVER
 70
    25
  9
$DWGCODEPAGE
  3
ANSI_1252
  9
$INSBASE
 10
0.0
 20
0.0
 30
0.0
  9
$EXTMIN
 10
0.0
 20
0.0
 30
0.0
  9
$EXTMAX
 10
297.0
 20
210.0
 30
0.0
  9
$LIMMIN
 10
0.0
 20
0.0
  9
$LIMMAX
 10
297.0
 20
210.0
  9
$ORTHOMODE
 70
     0
  9
$REGENMODE
 70
     1
  9
$FILLMODE
 70
     1
  9
$QTEXTMODE
 70
     0
  9
$MIRRTEXT
 70
     1
  9
$LTSCALE
 40
1.0
  9
$ATTMODE
 70
     1
  9
$TEXTSIZE
 40
3.5
  9
$TRACEWID
 40
1.0
  9
$TEXTSTYLE
  7
Standard
  9
$CLAYER
  8
0
  9
$CELTYPE
  6
ByLayer
  9
$CECOLOR
 62
   256
  9
$CELTSCALE
 40
1.0
  9
$DISPSILH
 70
     0
  9
$DIMSCALE
 40
1.0
  9
$DIMASZ
 40
3.302
  9
$DIMEXO
 40
1.0
  9
$DIMDLI
 40
3.75
  9
$DIMRND
 40
0.0
  9
$DIMDLE
 40
0.0
  9
$DIMEXE
 40
1.0
  9
$DIMTP
 40
0.0
  9
$DIMTM
 40
0.0
  9
$DIMTXT
 40
3.5
  9
$DIMCEN
 40
2.5
  9
$DIMTSZ
 40
0.0
  9
$DIMTOL
 70
     0
  9
$DIMLIM
 70
     0
  9
$DIMTIH
 70
     1
  9
$DIMTOH
 70
     1
  9
$DIMSE1
 70
     0
  9
$DIMSE2
 70
     0
  9
$DIMTAD
 70
     1
  9
$DIMZIN
 70
     0
  9
$DIMBLK
  1

  9
$DIMASO
 70
     1
  9
$DIMSHO
 70
     1
  9
$DIMPOST
  1

  9
$DIMAPOST
  1

  9
$DIMALT
 70
     0
  9
$DIMALTD
 70
     3
  9
$DIMALTF
 40
0.0393700787
  9
$DIMLFAC
 40
1.0
  9
$DIMTOFL
 70
     1
  9
$DIMTVP
 40
0.0
  9
$DIMTIX
 70
     0
  9
$DIMSOXD
 70
     0
  9
$DIMSAH
 70
     0
  9
$DIMBLK1
  1

  9
$DIMBLK2
  1

  9
$DIMSTYLE
  2
ISO-25
  9
$DIMCLRD
 70
     0
  9
$DIMCLRE
 70
     0
  9
$DIMCLRT
 70
     0
  9
$DIMTFAC
 40
1.0
  9
$DIMGAP
 40
1.524
  9
$DIMJUST
 70
     0
  9
$DIMSD1
 70
     0
  9
$DIMSD2
 70
     0
  9
$DIMTOLJ
 70
     0
  9
$DIMTZIN
 70
     0
  9
$DIMALTZ
 70
     0
  9
$DIMALTTZ
 70
     0
  9
$DIMUPT
 70
     0
  9
$DIMDEC
 70
     2
  9
$DIMTDEC
 70
     2
  9
$DIMALTU
 70
     2
  9
$DIMALTTD
 70
     3
  9
$DIMTXSTY
  7
Standard
  9
$DIMAUNIT
 70
     0
  9
$DIMADEC
 70
     2
  9
$DIMALTRND
 40
0.0
  9
$DIMAZIN
 70
     0
  9
$DIMDSEP
 70
    44
  9
$DIMATFIT
 70
     3
  9
$DIMFRAC
 70
     0
  9
$DIMLDRBLK
  1

  9
$DIMLUNIT
 70
     2
  9
$DIMLWD
 70
    -2
  9
$DIMLWE
 70
    -2
  9
$DIMTMOVE
 70
     0
  9
$DIMFXL
 40
1.0
  9
$DIMFXLON
 70
     0
  9
$DIMJOGANG
 40
0.7853981634
  9
$DIMTFILL
 70
     0
  9
$DIMTFILLCLR
 70
     0
  9
$DIMARCSYM
 70
     0
  9
$DIMLTYPE
  6

  9
$DIMLTEX1
  6

  9
$DIMLTEX2
  6

  9
$LUNITS
 70
     2
  9
$LUPREC
 70
     2
  9
$SKETCHINC
 40
1.0
  9
$FILLETRAD
 40
10.0
  9
$AUNITS
 70
     0
  9
$AUPREC
 70
     2
  9
$MENU
  1
.
  9
$ELEVATION
 40
0.0
  9
$PELEVATION
 40
0.0
  9
$THICKNESS
 40
0.0
  9
$LIMCHECK
 70
     0
  9
$CHAMFERA
 40
10.0
  9
$CHAMFERB
 40
10.0
  9
$CHAMFERC
 40
20.0
  9
$CHAMFERD
 40
0.0
  9
$SKPOLY
 70
     0
  9
$TDCREATE
 40
2456528.558652523
  9
$TDUCREATE
 40
2456528.47531919
  9
$TDUPDATE
 40
2456528.558652905
  9
$TDUUPDATE
 40
2456528.475319572
  9
$TDINDWG
 40
0.0000000116
  9
$TDUSRTIMER
 40
0.0000000116
  9
$USRTIMER
 70
     1
  9
$ANGBASE
 50
0.0
  9
$ANGDIR
 70
     0
  9
$PDMODE
 70
     0
  9
$PDSIZE
 40
-1.0
  9
$PLINEWID
 40
0.0
  9
$SPLFRAME
 70
     0
  9
$SPLINETYPE
 70
     6
  9
$SPLINESEGS
 70
     8
  9
$HANDSEED
  5
D8
  9
$SURFTAB1
 70
     6
  9
$SURFTAB2
 70
     6
  9
$SURFTYPE
 70
     6
  9
$SURFU
 70
     6
  9
$SURFV
 70
     6
  9
$UCSBASE
  2

  9
$UCSNAME
  2

  9
$UCSORG
 10
0.0
 20
0.0
 30
0.0
  9
$UCSXDIR
 10
1.0
 20
0.0
 30
0.0
  9
$UCSYDIR
 10
0.0
 20
1.0
 30
0.0
  9
$UCSORTHOREF
  2

  9
$UCSORTHOVIEW
 70
     0
  9
$UCSORGTOP
 10
0.0
 20
0.0
 30
0.0
  9
$UCSORGBOTTOM
 10
0.0
 20
0.0
 30
0.0
  9
$UCSORGLEFT
 10
0.0
 20
0.0
 30
0.0
  9
$UCSORGRIGHT
 10
0.0
 20
0.0
 30
0.0
  9
$UCSORGFRONT
 10
0.0
 20
0.0
 30
0.0
  9
$UCSORGBACK
 10
0.0
 20
0.0
 30
0.0
  9
$PUCSBASE
  2

  9
$PUCSNAME
  2

  9
$PUCSORG
 10
0.0
 20
0.0
 30
0.0
  9
$PUCSXDIR
 10
1.0
 20
0.0
 30
0.0
  9
$PUCSYDIR
 10
0.0
 20
1.0
 30
0.0
  9
$PUCSORTHOREF
  2

  9
$PUCSORTHOVIEW
 70
     0
  9
$PUCSORGTOP
 10
0.0
 20
0.0
 30
0.0
  9
$PUCSORGBOTTOM
 10
0.0
 20
0.0
 30
0.0
  9
$PUCSORGLEFT
 10
0.0
 20
0.0
 30
0.0
  9
$PUCSORGRIGHT
 10
0.0
 20
0.0
 30
0.0
  9
$PUCSORGFRONT
 10
0.0
 20
0.0
 30
0.0
  9
$PUCSORGBACK
 10
0.0
 20
0.0
 30
0.0
  9
$USERI1
 70
     0
  9
$USERI2
 70
     0
  9
$USERI3
 70
     0
  9
$USERI4
 70
     0
  9
$USERI5
 70
     0
  9
$USERR1
 40
0.0
  9
$USERR2
 40
0.0
  9
$USERR3
 40
0.0
  9
$USERR4
 40
0.0
  9
$USERR5
 40
0.0
  9
$WORLDVIEW
 70
     1
  9
$SHADEDGE
 70
     3
  9
$SHADEDIF
 70
    70
  9
$TILEMODE
 70
     1
  9
$MAXACTVP
 70
    64
  9
$PINSBASE
 10
0.0
 20
0.0
 30
0.0
  9
$PLIMCHECK
 70
     0
  9
$PEXTMIN
 10
1.0000000000E+20
 20
1.0000000000E+20
 30
1.0000000000E+20
  9
$PEXTMAX
 10
-1.0000000000E+20
 20
-1.0000000000E+20
 30
-1.0000000000E+20
  9
$PLIMMIN
 10
0.0
 20
0.0
  9
$PLIMMAX
 10
420.0
 20
297.0
  9
$UNITMODE
 70
     0
  9
$VISRETAIN
 70
     1
  9
$PLINEGEN
 70
     0
  9
$PSLTSCALE
 70
     1
  9
$TREEDEPTH
 70
  3020
  9
$CMLSTYLE
  2
Standard
  9
$CMLJUST
 70
     0
  9
$CMLSCALE
 40
20.0
  9
$PROXYGRAPHICS
 70
     1
  9
$MEASUREMENT
 70
     1
  9
$CELWEIGHT
370
    -1
  9
$ENDCAPS
280
     0
  9
$JOINSTYLE
280
     0
  9
$LWDISPLAY
290
     1
  9
$INSUNITS
 70
     4
  9
$HYPERLINKBASE
  1

  9
$STYLESHEET
  1

  9
$XEDIT
290
     1
  9
$CEPSNTYPE
380
     0
  9
$PSTYLEMODE
290
     1
  9
$FINGERPRINTGUID
  2
{EC44C675-20B2-4EB4-90C8-3A4A2B66C5B8}
  9
$VERSIONGUID
  2
{FAEB1C32-E019-11D5-929B-00C0DF256EC4}
  9
$EXTNAMES
290
     1
  9
$PSVPSCALE
 40
0.0
  9
$OLESTARTUP
290
     0
  9
$SORTENTS
280
   127
  9
$INDEXCTL
280
     0
  9
$HIDETEXT
280
     1
  9
$XCLIPFRAME
290
     0
  9
$HALOGAP
280
     0
  9
$OBSCOLOR
 70
   257
  9
$OBSLTYPE
280
     0
  9
$INTERSECTIONDISPLAY
280
     0
  9
$INTERSECTIONCOLOR
 70
   257
  9
$DIMASSOC
280
     2
  9
$PROJECTNAME
  1

  9
$CAMERADISPLAY
290
     0
  9
$LENSLENGTH
 40
50.0
  9
$CAMERAHEIGHT
 40
0.0
  9
$STEPSPERSEC
 40
2.0
  9
$STEPSIZE
 40
6.0
  9
$3DDWFPREC
 40
2.0
  9
$PSOLWIDTH
 40
5.0
  9
$PSOLHEIGHT
 40
80.0
  9
$LOFTANG1
 40
1.5707963268
  9
$LOFTANG2
 40
1.5707963268
  9
$LOFTMAG1
 40
0.0
  9
$LOFTMAG2
 40
0.0
  9
$LOFTPARAM
 70
     7
  9
$LOFTNORMALS
280
     1
  9
$LATITUDE
 40
37.795
  9
$LONGITUDE
 40
-122.394
  9
$NORTHDIRECTION
 40
0.0
  9
$TIMEZONE
 70
 -8000
  9
$LIGHTGLYPHDISPLAY
280
     1
  9
$TILEMODELIGHTSYNCH
280
     1
  9
$SOLIDHIST
280
     1
  9
$SHOWHIST
280
     1
  9
$DWFFRAME
280
     2
  9
$DGNFRAME
280
     2
  9
$REALWORLDSCALE
290
     1
  9
$INTERFERECOLOR
 62
   256
  9
$CSHADOW
280
     0
  9
$SHADOWPLANELOCATION
 40
0.0
  0
ENDSEC
  0
SECTION
  2
CLASSES
  0
CLASS
  1
ACDBDICTIONARYWDFLT
  2
AcDbDictionaryWithDefault
  3
ObjectDBX Classes
 90
        0
 91
        4
280
     0
281
     0
  0
CLASS
  1
VISUALSTYLE
  2
AcDbVisualStyle
  3
ObjectDBX Classes
 90
     4095
 91
        4
280
     0
281
     0
  0
CLASS
  1
MATERIAL
  2
AcDbMaterial
  3
ObjectDBX Classes
 90
     1153
 91
        4
280
     0
281
     0
  0
ENDSEC
  0
SECTION
  2
TABLES
  0
TABLE
  2
VPORT
  5
8
330
0
100
AcDbSymbolTable
 70
     1
  0
VPORT
  5
29
330
8
100
AcDbSymbolTableRecord
100
AcDbViewportTableRecord
  2
*Active
 70
     0
 10
0.0
 20
0.0
 11
1.0
 21
1.0
 12
148.5
 22
105.0
 13
0.0
 23
0.0
 14
10.0
 24
10.0
 15
10.0
 25
10.0
 16
0.0
 26
0.0
 36
1.0
 17
0.0
 27
0.0
 37
0.0
 40
210.0
 41
1.4142857143
 42
50.0
 43
0.0
 44
0.0
 50
0.0
 51
0.0
 71
     0
 72
  2000
 73
     1
 74
     3
 75
     0
 76
     0
 77
     0
 78
     0
281
     0
 65
     1
110
0.0
120
0.0
130
0.0
111
1.0
121
0.0
131
0.0
112
0.0
122
1.0
132
0.0
 79
     0
146
0.0
 60
     3
 61
     5
292
     1
282
     1
141
0.0
142
0.0
 63
   250
  0
ENDTAB
  0
TABLE
  2
LTYPE
  5
5
330
0
100
AcDbSymbolTable
 70
     8
  0
LTYPE
  5
14
330
5
100
AcDbSymbolTableRecord
100
AcDbLinetypeTableRecord
  2
ByBlock
 70
     0
  3

 72
    65
 73
     0
 40
0.0
  0
LTYPE
  5
15
330
5
100
AcDbSymbolTableRecord
100
AcDbLinetypeTableRecord
  2
ByLayer
 70
     0
  3

 72
    65
 73
     0
 40
0.0
  0
LTYPE
  5
16
330
5
100
AcDbSymbolTableRecord
100
AcDbLinetypeTableRecord
  2
Continuous
 70
     0
  3
Solid line
 72
    65
 73
     0
 40
0.0
  0
LTYPE
  5
3F
330
5
100
AcDbSymbolTableRecord
100
AcDbLinetypeTableRecord
  2
SLD-Durchgehend
 70
     0
  3
SolidWorks Line Style
 72
    65
 73
     0
 40
0.0
  0
LTYPE
  5
40
330
5
100
AcDbSymbolTableRecord
100
AcDbLinetypeTableRecord
  2
SLD-Gestrichelt
 70
     0
  3
SolidWorks Line Style
 72
    65
 73
     2
 40
1.905
 49
1.27
 74
     0
 49
-0.635
 74
     0
  0
LTYPE
  5
41
330
5
100
AcDbSymbolTableRecord
100
AcDbLinetypeTableRecord
  2
SLD-Phantom
 70
     0
  3
SolidWorks Line Style
 72
    65
 73
     6
 40
12.7
 49
6.35
 74
     0
 49
-1.27
 74
     0
 49
1.27
 74
     0
 49
-1.27
 74
     0
 49
1.27
 74
     0
 49
-1.27
 74
     0
  0
LTYPE
  5
42
330
5
100
AcDbSymbolTableRecord
100
AcDbLinetypeTableRecord
  2
SLD-Kette
 70
     0
  3
SolidWorks Line Style
 72
    65
 73
     4
 40
10.16
 49
6.35
 74
     0
 49
-1.27
 74
     0
 49
1.27
 74
     0
 49
-1.27
 74
     0
  0
LTYPE
  5
43
330
5
100
AcDbSymbolTableRecord
100
AcDbLinetypeTableRecord
  2
SLD-Punktstrich
 70
     0
  3
SolidWorks Line Style
 72
    65
 73
     4
 40
19.05
 49
15.24
 74
     0
 49
-1.27
 74
     0
 49
1.27
 74
     0
 49
-1.27
 74
     0
  0
LTYPE
  5
44
330
5
100
AcDbSymbolTableRecord
100
AcDbLinetypeTableRecord
  2
SLD-Naht
 70
     0
  3
SolidWorks Line Style
 72
    65
 73
     2
 40
0.635
 49
0.0
 74
     0
 49
-0.635
 74
     0
  0
LTYPE
  5
45
330
5
100
AcDbSymbolTableRecord
100
AcDbLinetypeTableRecord
  2
SLD-Dicke-Dünne-Kette
 70
     0
  3
SolidWorks Line Style
 72
    65
 73
     4
 40
10.16
 49
6.35
 74
     0
 49
-1.27
 74
     0
 49
1.27
 74
     0
 49
-1.27
 74
     0
  0
ENDTAB
  0
TABLE
  2
LAYER
  5
2
330
0
100
AcDbSymbolTable
 70
     1
  0
LAYER
  5
10
330
2
100
AcDbSymbolTableRecord
100
AcDbLayerTableRecord
  2
0
 70
     0
 62
     7
  6
Continuous
370
    -3
390
F
347
3E
  0
ENDTAB
  0
TABLE
  2
STYLE
  5
3
330
0
100
AcDbSymbolTable
 70
     2
  0
STYLE
  5
11
330
3
100
AcDbSymbolTableRecord
100
AcDbTextStyleTableRecord
  2
Standard
 70
     0
 40
0.0
 41
1.0
 50
0.0
 71
     0
 42
3.5
  3
txt
  4

  0
STYLE
  5
87
330
3
100
AcDbSymbolTableRecord
100
AcDbTextStyleTableRecord
  2
SLDTEXTSTYLE0
 70
     0
 40
0.0
 41
0.75
 50
0.0
 71
     0
 42
0.2
  3
TXT
  4

  0
ENDTAB
  0
TABLE
  2
VIEW
  5
6
330
0
100
AcDbSymbolTable
 70
     0
  0
ENDTAB
  0
TABLE
  2
UCS
  5
7
330
0
100
AcDbSymbolTable
 70
     0
  0
ENDTAB
  0
TABLE
  2
APPID
  5
9
330
0
100
AcDbSymbolTable
 70
     1
  0
APPID
  5
12
330
9
100
AcDbSymbolTableRecord
100
AcDbRegAppTableRecord
  2
ACAD
 70
     0
  0
ENDTAB
  0
TABLE
  2
DIMSTYLE
  5
A
330
0
100
AcDbSymbolTable
 70
     3
100
AcDbDimStyleTable
  0
DIMSTYLE
105
27
330
A
100
AcDbSymbolTableRecord
100
AcDbDimStyleTableRecord
  2
ISO-25
 70
     0
 41
2.5
 42
0.625
 43
3.75
 44
1.25
 73
     0
 74
     0
 77
     1
 78
     8
140
2.5
141
2.5
143
0.0393700787
147
0.625
171
     3
172
     1
178
     0
271
     2
272
     2
274
     3
278
    44
283
     0
284
     8
340
11
  0
DIMSTYLE
105
88
102
{ACAD_REACTORS
330
86
330
92
330
9D
330
A7
102
}
330
A
100
AcDbSymbolTableRecord
100
AcDbDimStyleTableRecord
  2
SLDDIMSTYLE0
 70
     0
 41
3.302
 44
0.0
 45
0.000000001
 73
     0
 74
     0
 77
     1
 78
    12
 79
     3
140
3.5
147
0.875
173
     1
178
     0
271
     2
272
     2
276
     2
284
    12
340
87
  0
DIMSTYLE
105
B2
102
{ACAD_REACTORS
330
B1
102
}
330
A
100
AcDbSymbolTableRecord
100
AcDbDimStyleTableRecord
  2
SLDDIMSTYLE1
 70
     0
 41
3.302
 44
0.0
 45
0.000000001
 73
     0
 74
     0
 77
     1
 78
    12
 79
     3
140
3.5
147
0.875
172
     1
173
     1
178
     0
271
     2
272
     2
276
     2
284
    12
289
     0
340
87
  0
ENDTAB
  0
TABLE
  2
BLOCK_RECORD
  5
1
330
0
100
AcDbSymbolTable
 70
     8
  0
BLOCK_RECORD
  5
1F
330
1
100
AcDbSymbolTableRecord
100
AcDbBlockTableRecord
  2
*Model_Space
340
22
 70
     0
280
     1
281
     0
  0
BLOCK_RECORD
  5
1B
330
1
100
AcDbSymbolTableRecord
100
AcDbBlockTableRecord
  2
*Paper_Space
340
1E
 70
     0
280
     1
281
     0
  0
BLOCK_RECORD
  5
23
330
1
100
AcDbSymbolTableRecord
100
AcDbBlockTableRecord
  2
*Paper_Space0
340
26
 70
     0
280
     1
281
     0
  0
BLOCK_RECORD
  5
89
330
1
100
AcDbSymbolTableRecord
100
AcDbBlockTableRecord
  2
_D
340
0
 70
     0
280
     1
281
     0
  0
BLOCK_RECORD
  5
93
330
1
100
AcDbSymbolTableRecord
100
AcDbBlockTableRecord
  2
_D_1
340
0
 70
     0
280
     1
281
     0
  0
BLOCK_RECORD
  5
9E
330
1
100
AcDbSymbolTableRecord
100
AcDbBlockTableRecord
  2
_D_2
340
0
 70
     0
280
     1
281
     0
  0
BLOCK_RECORD
  5
A8
330
1
100
AcDbSymbolTableRecord
100
AcDbBlockTableRecord
  2
_D_3
340
0
 70
     0
280
     1
281
     0
  0
BLOCK_RECORD
  5
B3
330
1
100
AcDbSymbolTableRecord
100
AcDbBlockTableRecord
  2
_D_4
340
0
 70
     0
280
     1
281
     0
  0
BLOCK_RECORD
  5
BE
330
1
100
AcDbSymbolTableRecord
100
AcDbBlockTableRecord
  2
SW_CENTERMARKSYMBOL_0
340
0
102
{BLKREFS
331
C9
102
}
 70
     0
280
     1
281
     0
  0
BLOCK_RECORD
  5
CA
330
1
100
AcDbSymbolTableRecord
100
AcDbBlockTableRecord
  2
SW_CENTERMARKSYMBOL_1
340
0
102
{BLKREFS
331
D5
102
}
 70
     0
280
     1
281
     0
  0
ENDTAB
  0
ENDSEC
  0
SECTION
  2
BLOCKS
  0
BLOCK
  5
20
330
1F
100
AcDbEntity
  8
0
100
AcDbBlockBegin
  2
*Model_Space
 70
     0
 10
0.0
 20
0.0
 30
0.0
  3
*Model_Space
  1

  0
ENDBLK
  5
21
330
1F
100
AcDbEntity
  8
0
100
AcDbBlockEnd
  0
BLOCK
  5
1C
330
1B
100
AcDbEntity
 67
     1
  8
0
100
AcDbBlockBegin
  2
*Paper_Space
 70
     0
 10
0.0
 20
0.0
 30
0.0
  3
*Paper_Space
  1

  0
ENDBLK
  5
1D
330
1B
100
AcDbEntity
 67
     1
  8
0
100
AcDbBlockEnd
  0
BLOCK
  5
24
330
23
100
AcDbEntity
  8
0
100
AcDbBlockBegin
  2
*Paper_Space0
 70
     0
 10
0.0
 20
0.0
 30
0.0
  3
*Paper_Space0
  1

  0
ENDBLK
  5
25
330
23
100
AcDbEntity
  8
0
100
AcDbBlockEnd
  0
BLOCK
  5
8A
330
89
100
AcDbEntity
  8
0
100
AcDbBlockBegin
  2
_D
 70
     0
 10
0.0
 20
0.0
 30
0.0
  3
_D
  1

  0
SOLID
  5
8C
330
89
100
AcDbEntity
  8
0
 62
     7
420
 16777215
100
AcDbTrace
 10
0.0027086782
 20
44.7113168595
 30
0.0
 11
3.3047086782
 21
44.2033168595
 31
0.0
 12
3.3047086782
 22
45.2193168595
 32
0.0
 13
3.3047086782
 23
45.2193168595
 33
0.0
  0
SOLID
  5
8D
330
89
100
AcDbEntity
  8
0
 62
     7
420
 16777215
100
AcDbTrace
 10
250.0027086782
 20
44.7113168595
 30
0.0
 11
246.7007086782
 21
45.2193168595
 31
0.0
 12
246.7007086782
 22
44.2033168595
 32
0.0
 13
246.7007086782
 23
44.2033168595
 33
0.0
  0
LINE
  5
8E
330
89
100
AcDbEntity
  8
0
 62
     7
420
 16777215
100
AcDbLine
 10
0.0027086782
 20
0.9980059343
 30
0.0
 11
0.0027086782
 21
45.7113168595
 31
0.0
  0
LINE
  5
8F
330
89
100
AcDbEntity
  8
0
 62
     7
420
 16777215
100
AcDbLine
 10
250.0027086782
 20
0.9980059343
 30
0.0
 11
250.0027086782
 21
45.7113168595
 31
0.0
  0
LINE
  5
90
330
89
100
AcDbEntity
  8
0
 62
     7
420
 16777215
100
AcDbLine
 10
0.0027086782
 20
44.7113168595
 30
0.0
 11
250.0027086782
 21
44.7113168595
 31
0.0
  0
MTEXT
  5
91
330
89
100
AcDbEntity
  8
0
 62
     7
420
 16777215
100
AcDbMText
 10
119.7016671496
 20
49.2230537741
 30
0.0
 40
3.5
 41
0.0
 46
0.0
 71
     1
 72
     1
  1
250
  7
SLDTEXTSTYLE0
 73
     1
 44
1.0
  0
ENDBLK
  5
8B
330
89
100
AcDbEntity
  8
0
100
AcDbBlockEnd
  0
BLOCK
  5
94
330
93
100
AcDbEntity
  8
0
100
AcDbBlockBegin
  2
_D_1
 70
     0
 10
0.0
 20
0.0
 30
0.0
  3
_D_1
  1

  0
SOLID
  5
96
330
93
100
AcDbEntity
  8
0
  6
SLD-Durchgehend
 62
   208
420
  4194368
370
    15
100
AcDbTrace
 10
-5.9972913218
 20
-16.0019940657
 30
0.0
 11
-5.4892913218
 21
-12.6999940657
 31
0.0
 12
-6.5052913218
 22
-12.6999940657
 32
0.0
 13
-6.5052913218
 23
-12.6999940657
 33
0.0
  0
SOLID
  5
97
330
93
100
AcDbEntity
  8
0
  6
SLD-Durchgehend
 62
   208
420
  4194368
370
    15
100
AcDbTrace
 10
-5.9972913218
 20
15.9980059343
 30
0.0
 11
-6.5052913218
 21
12.6960059343
 31
0.0
 12
-5.4892913218
 22
12.6960059343
 32
0.0
 13
-5.4892913218
 23
12.6960059343
 33
0.0
  0
LINE
  5
98
330
93
100
AcDbEntity
  8
0
  6
SLD-Durchgehend
 62
   208
420
  4194368
370
    15
100
AcDbLine
 10
0.0027086782
 20
-16.0019940657
 30
0.0
 11
-6.9972913218
 21
-16.0019940657
 31
0.0
  0
LINE
  5
99
330
93
100
AcDbEntity
  8
0
  6
SLD-Durchgehend
 62
   208
420
  4194368
370
    15
100
AcDbLine
 10
0.0027086782
 20
15.9980059343
 30
0.0
 11
-6.9972913218
 21
15.9980059343
 31
0.0
  0
LINE
  5
9A
330
93
100
AcDbEntity
  8
0
  6
SLD-Durchgehend
 62
   208
420
  4194368
370
    15
100
AcDbLine
 10
-5.9972913218
 20
-16.0019940657
 30
0.0
 11
-5.9972913218
 21
15.9980059343
 31
0.0
  0
MTEXT
  5
9B
330
93
100
AcDbEntity
  8
0
  6
SLD-Durchgehend
 62
   208
420
  4194368
370
    15
100
AcDbMText
 10
-10.5090284111
 20
-6.649199046
 30
0.0
 40
3.5
 41
0.0
 46
0.0
 71
     1
 72
     1
  1
%%c
  7
SLDTEXTSTYLE0
 11
6.123233995736766E-17
 21
1.0
 31
0.0
 73
     1
 44
1.0
  0
MTEXT
  5
9C
330
93
100
AcDbEntity
  8
0
  6
SLD-Durchgehend
 62
   208
420
  4194368
370
    15
100
AcDbMText
 10
-10.5625005877
 20
-1.3707616476
 30
0.0
 40
3.5
 41
0.0
 46
0.0
 71
     1
 72
     1
  1
32
  7
SLDTEXTSTYLE0
 11
6.123233995736766E-17
 21
1.0
 31
0.0
 73
     1
 44
1.0
  0
ENDBLK
  5
95
330
93
100
AcDbEntity
  8
0
100
AcDbBlockEnd
  0
BLOCK
  5
9F
330
9E
100
AcDbEntity
  8
0
100
AcDbBlockBegin
  2
_D_2
 70
     0
 10
0.0
 20
0.0
 30
0.0
  3
_D_2
  1

  0
SOLID
  5
A1
330
9E
100
AcDbEntity
  8
0
  6
SLD-Durchgehend
 62
   208
420
  4194368
370
    15
100
AcDbTrace
 10
250.0027086782
 20
38.7113168595
 30
0.0
 11
246.7007086782
 21
39.2193168595
 31
0.0
 12
246.7007086782
 22
38.2033168595
 32
0.0
 13
246.7007086782
 23
38.2033168595
 33
0.0
  0
SOLID
  5
A2
330
9E
100
AcDbEntity
  8
0
  6
SLD-Durchgehend
 62
   208
420
  4194368
370
    15
100
AcDbTrace
 10
186.0027086782
 20
38.7113168595
 30
0.0
 11
189.3047086782
 21
38.2033168595
 31
0.0
 12
189.3047086782
 22
39.2193168595
 32
0.0
 13
189.3047086782
 23
39.2193168595
 33
0.0
  0
LINE
  5
A3
330
9E
100
AcDbEntity
  8
0
  6
SLD-Durchgehend
 62
   208
420
  4194368
370
    15
100
AcDbLine
 10
250.0027086782
 20
13.0209097029
 30
0.0
 11
250.0027086782
 21
39.7113168595
 31
0.0
  0
LINE
  5
A4
330
9E
100
AcDbEntity
  8
0
  6
SLD-Durchgehend
 62
   208
420
  4194368
370
    15
100
AcDbLine
 10
186.0027086782
 20
0.9980059343
 30
0.0
 11
186.0027086782
 21
39.7113168595
 31
0.0
  0
LINE
  5
A5
330
9E
100
AcDbEntity
  8
0
  6
SLD-Durchgehend
 62
   208
420
  4194368
370
    15
100
AcDbLine
 10
250.0027086782
 20
38.7113168595
 30
0.0
 11
186.0027086782
 21
38.7113168595
 31
0.0
  0
MTEXT
  5
A6
330
9E
100
AcDbEntity
  8
0
  6
SLD-Durchgehend
 62
   208
420
  4194368
370
    15
100
AcDbMText
 10
213.9947223971
 20
43.2230537741
 30
0.0
 40
3.5
 41
0.0
 46
0.0
 71
     1
 72
     1
  1
64
  7
SLDTEXTSTYLE0
 73
     1
 44
1.0
  0
ENDBLK
  5
A0
330
9E
100
AcDbEntity
  8
0
100
AcDbBlockEnd
  0
BLOCK
  5
A9
330
A8
100
AcDbEntity
  8
0
100
AcDbBlockBegin
  2
_D_3
 70
     0
 10
0.0
 20
0.0
 30
0.0
  3
_D_3
  1

  0
SOLID
  5
AB
330
A8
100
AcDbEntity
  8
0
  6
SLD-Durchgehend
 62
   208
420
  4194368
370
    15
100
AcDbTrace
 10
274.868615024
 20
27.4980059343
 30
0.0
 11
274.360615024
 21
24.1960059343
 31
0.0
 12
275.376615024
 22
24.1960059343
 32
0.0
 13
275.376615024
 23
24.1960059343
 33
0.0
  0
SOLID
  5
AC
330
A8
100
AcDbEntity
  8
0
  6
SLD-Durchgehend
 62
   208
420
  4194368
370
    15
100
AcDbTrace
 10
274.868615024
 20
-0.0019940657
 30
0.0
 11
275.376615024
 21
3.3000059343
 31
0.0
 12
274.360615024
 22
3.3000059343
 32
0.0
 13
274.360615024
 23
3.3000059343
 33
0.0
  0
LINE
  5
AD
330
A8
100
AcDbEntity
  8
0
  6
SLD-Durchgehend
 62
   208
420
  4194368
370
    15
100
AcDbLine
 10
250.0027086782
 20
27.4980059343
 30
0.0
 11
275.868615024
 21
27.4980059343
 31
0.0
  0
LINE
  5
AE
330
A8
100
AcDbEntity
  8
0
  6
SLD-Durchgehend
 62
   208
420
  4194368
370
    15
100
AcDbLine
 10
251.0027086782
 20
-0.0019940657
 30
0.0
 11
275.868615024
 21
-0.0019940657
 31
0.0
  0
LINE
  5
AF
330
A8
100
AcDbEntity
  8
0
  6
SLD-Durchgehend
 62
   208
420
  4194368
370
    15
100
AcDbLine
 10
274.868615024
 20
27.4980059343
 30
0.0
 11
274.868615024
 21
-0.0019940657
 31
0.0
  0
MTEXT
  5
B0
330
A8
100
AcDbEntity
  8
0
  6
SLD-Durchgehend
 62
   208
420
  4194368
370
    15
100
AcDbMText
 10
270.3568781094
 20
6.5073808359
 30
0.0
 40
3.5
 41
0.0
 46
0.0
 71
     1
 72
     1
  1
27,50
  7
SLDTEXTSTYLE0
 11
-7.044195017643634E-15
 21
1.0
 31
0.0
 73
     1
 44
1.0
  0
ENDBLK
  5
AA
330
A8
100
AcDbEntity
  8
0
100
AcDbBlockEnd
  0
BLOCK
  5
B4
330
B3
100
AcDbEntity
  8
0
100
AcDbBlockBegin
  2
_D_4
 70
     0
 10
0.0
 20
0.0
 30
0.0
  3
_D_4
  1

  0
SOLID
  5
B6
330
B3
100
AcDbEntity
  8
0
  6
SLD-Durchgehend
 62
   208
420
  4194368
370
    15
100
AcDbTrace
 10
248.0027086782
 20
32.7113168595
 30
0.0
 11
244.7007086782
 21
33.2193168595
 31
0.0
 12
244.7007086782
 22
32.2033168595
 32
0.0
 13
244.7007086782
 23
32.2033168595
 33
0.0
  0
SOLID
  5
B7
330
B3
100
AcDbEntity
  8
0
  6
SLD-Durchgehend
 62
   208
420
  4194368
370
    15
100
AcDbTrace
 10
250.0027086782
 20
32.7113168595
 30
0.0
 11
253.3047086782
 21
32.2033168595
 31
0.0
 12
253.3047086782
 22
33.2193168595
 32
0.0
 13
253.3047086782
 23
33.2193168595
 33
0.0
  0
LINE
  5
B8
330
B3
100
AcDbEntity
  8
0
  6
SLD-Durchgehend
 62
   208
420
  4194368
370
    15
100
AcDbLine
 10
248.0027086782
 20
27.4909161641
 30
0.0
 11
248.0027086782
 21
33.7113168595
 31
0.0
  0
LINE
  5
B9
330
B3
100
AcDbEntity
  8
0
  6
SLD-Durchgehend
 62
   208
420
  4194368
370
    15
100
AcDbLine
 10
250.0027086782
 20
27.4909161641
 30
0.0
 11
250.0027086782
 21
33.7113168595
 31
0.0
  0
LINE
  5
BA
330
B3
100
AcDbEntity
  8
0
  6
SLD-Durchgehend
 62
   208
420
  4194368
370
    15
100
AcDbLine
 10
248.0027086782
 20
32.7113168595
 30
0.0
 11
243.0027086782
 21
32.7113168595
 31
0.0
  0
LINE
  5
BB
330
B3
100
AcDbEntity
  8
0
  6
SLD-Durchgehend
 62
   208
420
  4194368
370
    15
100
AcDbLine
 10
248.0027086782
 20
32.7113168595
 30
0.0
 11
250.0027086782
 21
32.7113168595
 31
0.0
  0
LINE
  5
BC
330
B3
100
AcDbEntity
  8
0
  6
SLD-Durchgehend
 62
   208
420
  4194368
370
    15
100
AcDbLine
 10
250.0027086782
 20
32.7113168595
 30
0.0
 11
260.3037504396
 21
32.7113168595
 31
0.0
  0
MTEXT
  5
BD
330
B3
100
AcDbEntity
  8
0
  6
SLD-Durchgehend
 62
   208
420
  4194368
370
    15
100
AcDbMText
 10
254.8738893038
 20
37.2230537741
 30
0.0
 40
3.5
 41
0.0
 46
0.0
 71
     1
 72
     1
  1
2
  7
SLDTEXTSTYLE0
 73
     1
 44
1.0
  0
ENDBLK
  5
B5
330
B3
100
AcDbEntity
  8
0
100
AcDbBlockEnd
  0
BLOCK
  5
BF
330
BE
100
AcDbEntity
  8
0
100
AcDbBlockBegin
  2
SW_CENTERMARKSYMBOL_0
 70
     0
 10
0.0
 20
0.0
 30
0.0
  3
SW_CENTERMARKSYMBOL_0
  1

  0
LINE
  5
C1
330
BE
100
AcDbEntity
  8
0
  6
SLD-Punktstrich
 62
     0
370
    15
100
AcDbLine
 10
0.0
 20
0.0
 30
0.0
 11
0.0
 21
2.5
 31
0.0
  0
LINE
  5
C2
330
BE
100
AcDbEntity
  8
0
  6
SLD-Punktstrich
 62
     0
370
    15
100
AcDbLine
 10
0.0
 20
0.0
 30
0.0
 11
-2.5
 21
0.0
 31
0.0
  0
LINE
  5
C3
330
BE
100
AcDbEntity
  8
0
  6
SLD-Punktstrich
 62
     0
370
    15
100
AcDbLine
 10
0.0
 20
0.0
 30
0.0
 11
0.0
 21
-2.5
 31
0.0
  0
LINE
  5
C4
330
BE
100
AcDbEntity
  8
0
  6
SLD-Punktstrich
 62
     0
370
    15
100
AcDbLine
 10
0.0
 20
0.0
 30
0.0
 11
2.5
 21
0.0
 31
0.0
  0
LINE
  5
C5
330
BE
100
AcDbEntity
  8
0
  6
SLD-Punktstrich
 62
     0
370
    15
100
AcDbLine
 10
0.0
 20
2.5
 30
0.0
 11
0.0
 21
4.7
 31
0.0
  0
LINE
  5
C6
330
BE
100
AcDbEntity
  8
0
  6
SLD-Punktstrich
 62
     0
370
    15
100
AcDbLine
 10
-2.5
 20
0.0
 30
0.0
 11
-4.7
 21
0.0
 31
0.0
  0
LINE
  5
C7
330
BE
100
AcDbEntity
  8
0
  6
SLD-Punktstrich
 62
     0
370
    15
100
AcDbLine
 10
0.0
 20
-2.5
 30
0.0
 11
0.0
 21
-4.7
 31
0.0
  0
LINE
  5
C8
330
BE
100
AcDbEntity
  8
0
  6
SLD-Punktstrich
 62
     0
370
    15
100
AcDbLine
 10
2.5
 20
0.0
 30
0.0
 11
4.7
 21
0.0
 31
0.0
  0
ENDBLK
  5
C0
330
BE
100
AcDbEntity
  8
0
100
AcDbBlockEnd
  0
BLOCK
  5
CB
330
CA
100
AcDbEntity
  8
0
100
AcDbBlockBegin
  2
SW_CENTERMARKSYMBOL_1
 70
     0
 10
0.0
 20
0.0
 30
0.0
  3
SW_CENTERMARKSYMBOL_1
  1

  0
LINE
  5
CD
330
CA
100
AcDbEntity
  8
0
  6
SLD-Punktstrich
 62
     0
370
    15
100
AcDbLine
 10
0.0
 20
0.0
 30
0.0
 11
0.0
 21
2.5
 31
0.0
  0
LINE
  5
CE
330
CA
100
AcDbEntity
  8
0
  6
SLD-Punktstrich
 62
     0
370
    15
100
AcDbLine
 10
0.0
 20
0.0
 30
0.0
 11
-2.5
 21
0.0
 31
0.0
  0
LINE
  5
CF
330
CA
100
AcDbEntity
  8
0
  6
SLD-Punktstrich
 62
     0
370
    15
100
AcDbLine
 10
0.0
 20
0.0
 30
0.0
 11
0.0
 21
-2.5
 31
0.0
  0
LINE
  5
D0
330
CA
100
AcDbEntity
  8
0
  6
SLD-Punktstrich
 62
     0
370
    15
100
AcDbLine
 10
0.0
 20
0.0
 30
0.0
 11
2.5
 21
0.0
 31
0.0
  0
LINE
  5
D1
330
CA
100
AcDbEntity
  8
0
  6
SLD-Punktstrich
 62
     0
370
    15
100
AcDbLine
 10
0.0
 20
2.5
 30
0.0
 11
0.0
 21
4.7
 31
0.0
  0
LINE
  5
D2
330
CA
100
AcDbEntity
  8
0
  6
SLD-Punktstrich
 62
     0
370
    15
100
AcDbLine
 10
-2.5
 20
0.0
 30
0.0
 11
-4.7
 21
0.0
 31
0.0
  0
LINE
  5
D3
330
CA
100
AcDbEntity
  8
0
  6
SLD-Punktstrich
 62
     0
370
    15
100
AcDbLine
 10
0.0
 20
-2.5
 30
0.0
 11
0.0
 21
-4.7
 31
0.0
  0
LINE
  5
D4
330
CA
100
AcDbEntity
  8
0
  6
SLD-Punktstrich
 62
     0
370
    15
100
AcDbLine
 10
2.5
 20
0.0
 30
0.0
 11
4.7
 21
0.0
 31
0.0
  0
ENDBLK
  5
CC
330
CA
100
AcDbEntity
  8
0
100
AcDbBlockEnd
  0
ENDSEC
  0
SECTION
  2
ENTITIES
  0
LINE
  5
46
330
1F
100
AcDbEntity
  8
0
  6
SLD-Punktstrich
 62
     7
100
AcDbLine
 10
0.0027086782
 20
-0.0019940657
 30
0.0
 11
250.0027086782
 21
-0.0019940657
 31
0.0
  0
LINE
  5
47
330
1F
100
AcDbEntity
  8
0
  6
SLD-Punktstrich
 62
     7
100
AcDbLine
 10
249.0027086782
 20
27.4980059343
 30
0.0
 11
249.0027086782
 21
22.4980059343
 31
0.0
  0
LINE
  5
48
330
1F
100
AcDbEntity
  8
0
  6
SLD-Punktstrich
 62
     7
100
AcDbLine
 10
249.0027086782
 20
27.4980059343
 30
0.0
 11
249.0027086782
 21
22.4980059343
 31
0.0
  0
POINT
  5
49
330
1F
100
AcDbEntity
  8
0
  6
SLD-Durchgehend
 62
     7
100
AcDbPoint
 10
0.0027086782
 20
-0.0019940657
 30
0.0
  0
POINT
  5
4A
330
1F
100
AcDbEntity
  8
0
  6
SLD-Durchgehend
 62
     7
100
AcDbPoint
 10
250.0027086782
 20
-0.0019940657
 30
0.0
  0
POINT
  5
4B
330
1F
100
AcDbEntity
  8
0
  6
SLD-Durchgehend
 62
     7
100
AcDbPoint
 10
0.0027086782
 20
-0.0019940657
 30
0.0
  0
POINT
  5
4C
330
1F
100
AcDbEntity
  8
0
  6
SLD-Durchgehend
 62
     7
100
AcDbPoint
 10
186.0027086782
 20
-0.0019940657
 30
0.0
  0
POINT
  5
4D
330
1F
100
AcDbEntity
  8
0
  6
SLD-Durchgehend
 62
     7
100
AcDbPoint
 10
249.0027086782
 20
27.4980059343
 30
0.0
  0
POINT
  5
4E
330
1F
100
AcDbEntity
  8
0
  6
SLD-Durchgehend
 62
     7
100
AcDbPoint
 10
249.0027086782
 20
27.4980059343
 30
0.0
  0
POINT
  5
4F
330
1F
100
AcDbEntity
  8
0
  6
SLD-Durchgehend
 62
     7
100
AcDbPoint
 10
249.0027086782
 20
22.4980059343
 30
0.0
  0
POINT
  5
50
330
1F
100
AcDbEntity
  8
0
  6
SLD-Durchgehend
 62
     7
100
AcDbPoint
 10
249.0027086782
 20
22.4980059343
 30
0.0
  0
LINE
  5
51
330
1F
100
AcDbEntity
  8
0
  6
SLD-Durchgehend
 62
   131
420
  8454143
370
    15
100
AcDbLine
 10
186.0027086782
 20
15.9980059343
 30
0.0
 11
1.0027086782
 21
15.9980059343
 31
0.0
  0
LINE
  5
52
330
1F
100
AcDbEntity
  8
0
  6
SLD-Durchgehend
 62
   131
420
  8454143
370
    15
100
AcDbLine
 10
1.0027086782
 20
-16.0019940657
 30
0.0
 11
181.970532539
 21
-16.0019940657
 31
0.0
  0
LINE
  5
53
330
1F
100
AcDbEntity
  8
0
  6
SLD-Durchgehend
 62
   131
420
  8454143
370
    15
100
AcDbLine
 10
246.5027086782
 20
15.7480059343
 30
0.0
 11
186.0027086782
 21
15.7480059343
 31
0.0
  0
LINE
  5
54
330
1F
100
AcDbEntity
  8
0
  6
SLD-Durchgehend
 62
   131
420
  8454143
370
    15
100
AcDbLine
 10
1.0027086782
 20
15.9980059343
 30
0.0
 11
0.0027086782
 21
14.9980059343
 31
0.0
  0
LINE
  5
55
330
1F
100
AcDbEntity
  8
0
  6
SLD-Durchgehend
 62
   131
420
  8454143
370
    15
100
AcDbLine
 10
0.0027086782
 20
-15.0019940657
 30
0.0
 11
1.0027086782
 21
-16.0019940657
 31
0.0
  0
LINE
  5
56
330
1F
100
AcDbEntity
  8
0
  6
SLD-Durchgehend
 62
   131
420
  8454143
370
    15
100
AcDbLine
 10
181.9527086782
 20
-16.0019940657
 30
0.0
 11
186.0027086782
 21
-11.9519940657
 31
0.0
  0
LINE
  5
57
330
1F
100
AcDbEntity
  8
0
  6
SLD-Durchgehend
 62
   131
420
  8454143
370
    15
100
AcDbLine
 10
186.0027086782
 20
-11.9519940657
 30
0.0
 11
236.0027086782
 21
-11.9519940657
 31
0.0
  0
LINE
  5
58
330
1F
100
AcDbEntity
  8
0
  6
SLD-Durchgehend
 62
   131
420
  8454143
370
    15
100
AcDbLine
 10
186.0027086782
 20
5.5657702971
 30
0.0
 11
1.0027086782
 21
5.5657702971
 31
0.0
  0
LINE
  5
59
330
1F
100
AcDbEntity
  8
0
  6
SLD-Durchgehend
 62
   131
420
  8454143
370
    15
100
AcDbLine
 10
1.0027086782
 20
-5.5697584285
 30
0.0
 11
1.0027086782
 21
-16.0019940657
 31
0.0
  0
LINE
  5
5A
330
1F
100
AcDbEntity
  8
0
  6
SLD-Durchgehend
 62
   131
420
  8454143
370
    15
100
AcDbLine
 10
1.0027086782
 20
15.9980059343
 30
0.0
 11
1.0027086782
 21
5.5657702971
 31
0.0
  0
LINE
  5
5B
330
1F
100
AcDbEntity
  8
0
  6
SLD-Durchgehend
 62
   131
420
  8454143
370
    15
100
AcDbLine
 10
1.0027086782
 20
-5.5697584285
 30
0.0
 11
185.5759492357
 21
-5.5697584285
 31
0.0
  0
SPLINE
  5
5C
330
1F
100
AcDbEntity
  8
0
  6
SLD-Durchgehend
 62
   131
420
  8454143
370
    15
100
AcDbSpline
210
0.0
220
0.0
230
1.0
 70
     8
 71
     3
 72
    15
 73
    11
 74
     0
 42
0.00000001
 43
0.00000001
 12
1.0
 22
0.0
 32
0.0
 13
1.0
 23
0.0
 33
0.0
 40
0.0
 40
0.0
 40
0.0
 40
0.0
 40
0.0654769001359941
 40
0.1931579252557941
 40
0.3245080253712814
 40
0.4529545501568956
 40
0.5849257168288883
 40
0.7172131124405217
 40
0.8530045268854466
 40
1.0
 40
1.0
 40
1.0
 40
1.0
 10
181.9705325389716
 20
-15.94641887401192
 30
0.0
 10
181.9669115445485
 20
-15.95770463645274
 30
0.0
 10
181.9562295518355
 20
-15.99099782005598
 30
0.0
 10
182.0846679798484
 20
-15.59068739783597
 30
0.0
 10
182.3408529122075
 20
-14.79897195987942
 30
0.0
 10
182.7338988766901
 20
-13.60137922532508
 30
0.0
 10
183.2456467952564
 20
-12.07207848736897
 30
0.0
 10
183.8840936636111
 20
-10.21557185490077
 30
0.0
 10
184.6500608507437
 20
-8.049011232404144
 30
0.0
 10
185.2592740678437
 20
-6.417720030088202
 30
0.0
 10
185.575949235664
 20
-5.569758428539033
 30
0.0
  0
LINE
  5
5D
330
1F
100
AcDbEntity
  8
0
  6
SLD-Durchgehend
 62
   131
420
  8454143
370
    15
100
AcDbLine
 10
186.0027086782
 20
15.9980059343
 30
0.0
 11
186.0027086782
 21
5.5657702971
 31
0.0
  0
LINE
  5
5E
330
1F
100
AcDbEntity
  8
0
  6
SLD-Durchgehend
 62
   131
420
  8454143
370
    15
100
AcDbLine
 10
246.5027086782
 20
15.70657022
 30
0.0
 11
246.5027086782
 21
15.7480059343
 31
0.0
  0
ELLIPSE
  5
5F
330
1F
100
AcDbEntity
  8
0
  6
SLD-Durchgehend
 62
   131
420
  8454143
370
    15
100
AcDbEllipse
 10
249.8105209516
 20
-0.0019940657
 30
0.0
 11
45.74132131079136
 21
0.00311864476176943
 31
0.0
210
0.0
220
0.0
230
1.0
 40
0.3443276066
 41
1.610305666698487
 42
1.643151654747302
  0
LINE
  5
60
330
1F
100
AcDbEntity
  8
0
  6
SLD-Durchgehend
 62
   131
420
  8454143
370
    15
100
AcDbLine
 10
248.0027086782
 20
15.347100639
 30
0.0
 11
246.5027086782
 21
15.347100639
 31
0.0
  0
ELLIPSE
  5
61
330
1F
100
AcDbEntity
  8
0
  6
SLD-Durchgehend
 62
   131
420
  8454143
370
    15
100
AcDbEllipse
 10
258.1989939559
 20
-0.0019940657
 30
0.0
 11
-13.97042062255693
 21
13.97042062255697
 31
0.0
210
0.0
220
0.0
230
1.0
 40
0.5205670506
 41
6.029330489943737
 42
6.367936724532206
  0
ELLIPSE
  5
62
330
1F
100
AcDbEntity
  8
0
  6
SLD-Durchgehend
 62
   131
420
  8454143
370
    15
100
AcDbEllipse
 10
260.122267247
 20
-0.0019940657
 30
0.0
 11
43.25830943906851
 21
3.134991266583514
 31
0.0
210
0.0
220
0.0
230
1.0
 40
0.3568063945
 41
1.935127856961284
 42
2.631362582363503
  0
LINE
  5
63
330
1F
100
AcDbEntity
  8
0
  6
SLD-Durchgehend
 62
   131
420
  8454143
370
    15
100
AcDbLine
 10
221.8273825516
 20
4.8003491124
 30
0.0
 11
186.0027086782
 21
4.8003491124
 31
0.0
  0
LINE
  5
64
330
1F
100
AcDbEntity
  8
0
  6
SLD-Durchgehend
 62
   131
420
  8454143
370
    15
100
AcDbLine
 10
0.0027086782
 20
-0.0019940657
 30
0.0
 11
0.0027086782
 21
-15.0019940657
 31
0.0
  0
LINE
  5
65
330
1F
100
AcDbEntity
  8
0
  6
SLD-Durchgehend
 62
   131
420
  8454143
370
    15
100
AcDbLine
 10
0.0027086782
 20
14.9980059343
 30
0.0
 11
0.0027086782
 21
-0.0019940657
 31
0.0
  0
SPLINE
  5
66
330
1F
100
AcDbEntity
  8
0
  6
SLD-Durchgehend
 62
   131
420
  8454143
370
    15
100
AcDbSpline
210
0.0
220
0.0
230
1.0
 70
     8
 71
     3
 72
    12
 73
     8
 74
     0
 42
0.00000001
 43
0.00000001
 12
1.0
 22
0.0
 32
0.0
 13
1.0
 23
0.0
 33
0.0
 40
0.0
 40
0.0
 40
0.0
 40
0.0
 40
0.25
 40
0.25
 40
0.5
 40
0.5
 40
1.0
 40
1.0
 40
1.0
 40
1.0
 10
0.0027086781506213
 20
-0.0019940657091769
 30
0.0
 10
0.0027086781506213
 20
-0.4775919172139335
 30
0.0
 10
0.0256970064579382
 20
-0.9565256974144528
 30
0.0
 10
0.1151146743587905
 20
-1.900879875255567
 30
0.0
 10
0.1814218842558293
 20
-2.368633214927142
 30
0.0
 10
0.4393710485621292
 20
-3.759803296598033
 30
0.0
 10
0.6900020012764914
 20
-4.671137994206818
 30
0.0
 10
1.0027086781506
 20
-5.569758428539028
 30
0.0
  0
SPLINE
  5
67
330
1F
100
AcDbEntity
  8
0
  6
SLD-Durchgehend
 62
   131
420
  8454143
370
    15
100
AcDbSpline
210
0.0
220
0.0
230
1.0
 70
     8
 71
     3
 72
    12
 73
     8
 74
     0
 42
0.00000001
 43
0.00000001
 12
1.0
 22
0.0
 32
0.0
 13
1.0
 23
0.0
 33
0.0
 40
0.0
 40
0.0
 40
0.0
 40
0.0
 40
0.25
 40
0.25
 40
0.5
 40
0.5
 40
1.0
 40
1.0
 40
1.0
 40
1.0
 10
1.002708678150503
 20
5.565770297120717
 30
0.0
 10
0.8475883740522612
 20
5.120003432031924
 30
0.0
 10
0.7066281240314717
 20
4.66798892755456
 30
0.0
 10
0.4583010728059604
 20
3.749137958678394
 30
0.0
 10
0.3517378103574837
 20
3.284637488405645
 30
0.0
 10
0.0936343297024377
 20
1.888255575301114
 30
0.0
 10
0.0027086781506213
 20
0.9482310855350701
 30
0.0
 10
0.0027086781506213
 20
-0.0019940657091776
 30
0.0
  0
ELLIPSE
  5
68
330
1F
100
AcDbEntity
  8
0
  6
SLD-Durchgehend
 62
   131
420
  8454143
370
    15
100
AcDbEllipse
 10
263.7243303223
 20
7.5480059343
 30
0.0
 11
53.55790692456117
 21
3.881417758627222
 31
0.0
210
0.0
220
0.0
230
1.0
 40
0.3568063945
 41
3.638989572397305
 42
4.181990927794162
  0
ELLIPSE
  5
69
330
1F
100
AcDbEntity
  8
0
  6
SLD-Durchgehend
 62
   131
420
  8454143
370
    15
100
AcDbEllipse
 10
260.122267247
 20
-0.0019940657
 30
0.0
 11
43.25830943906851
 21
3.134991266583514
 31
0.0
210
0.0
220
0.0
230
1.0
 40
0.3568063945
 41
3.251051861846769
 42
3.262860852288272
  0
LINE
  5
6A
330
1F
100
AcDbEntity
  8
0
  6
SLD-Durchgehend
 62
   131
420
  8454143
370
    15
100
AcDbLine
 10
221.8273825516
 20
4.8003491124
 30
0.0
 11
217.2450400252
 21
-4.8043372438
 31
0.0
  0
LINE
  5
6B
330
1F
100
AcDbEntity
  8
0
  6
SLD-Durchgehend
 62
   131
420
  8454143
370
    15
100
AcDbLine
 10
246.5027086782
 20
10.5451575353
 30
0.0
 11
243.6630961658
 21
13.3026626636
 31
0.0
  0
LINE
  5
6C
330
1F
100
AcDbEntity
  8
0
  6
SLD-Durchgehend
 62
   131
420
  8454143
370
    15
100
AcDbLine
 10
250.0027086782
 20
12.0209097029
 30
0.0
 11
246.5027086782
 21
10.5451575353
 31
0.0
  0
LINE
  5
6D
330
1F
100
AcDbEntity
  8
0
  6
SLD-Durchgehend
 62
   131
420
  8454143
370
    15
100
AcDbLine
 10
250.0027086782
 20
12.0209097029
 30
0.0
 11
250.0027086782
 21
-3.8690902971
 31
0.0
  0
LINE
  5
6E
330
1F
100
AcDbEntity
  8
0
  6
SLD-Durchgehend
 62
   131
420
  8454143
370
    15
100
AcDbLine
 10
237.8252661611
 20
-10.8997400123
 30
0.0
 11
250.0027086782
 21
-3.8690902971
 31
0.0
  0
LINE
  5
6F
330
1F
100
AcDbEntity
  8
0
  6
SLD-Durchgehend
 62
   131
420
  8454143
370
    15
100
AcDbLine
 10
186.0027086782
 20
-4.8043372438
 30
0.0
 11
217.2450400252
 21
-4.8043372438
 31
0.0
  0
LINE
  5
70
330
1F
100
AcDbEntity
  8
0
  6
SLD-Durchgehend
 62
   131
420
  8454143
370
    15
100
AcDbLine
 10
186.0027086782
 20
-4.9119298601
 30
0.0
 11
186.0027086782
 21
-4.8043372438
 31
0.0
  0
SPLINE
  5
71
330
1F
100
AcDbEntity
  8
0
  6
SLD-Durchgehend
 62
   131
420
  8454143
370
    15
100
AcDbSpline
210
0.0
220
0.0
230
1.0
 70
     8
 71
     3
 72
     8
 73
     4
 74
     0
 42
0.00000001
 43
0.00000001
 12
1.0
 22
0.0
 32
0.0
 13
1.0
 23
0.0
 33
0.0
 40
0.0
 40
0.0
 40
0.0
 40
0.0
 40
1.0
 40
1.0
 40
1.0
 40
1.0
 10
186.0027086781506
 20
-4.911929860086255
 30
0.0
 10
185.862072613253
 20
-5.132027564501417
 30
0.0
 10
185.7197731897
 20
-5.351280244690495
 30
0.0
 10
185.575949235664
 20
-5.569758428539034
 30
0.0
  0
LINE
  5
72
330
1F
100
AcDbEntity
  8
0
  6
SLD-Durchgehend
 62
   131
420
  8454143
370
    15
100
AcDbLine
 10
186.0027086782
 20
4.8003491124
 30
0.0
 11
186.0027086782
 21
5.5657702971
 31
0.0
  0
LINE
  5
73
330
1F
100
AcDbEntity
  8
0
  6
SLD-Durchgehend
 62
   131
420
  8454143
370
    15
100
AcDbLine
 10
186.0027086782
 20
-4.9119298601
 30
0.0
 11
186.0027086782
 21
-4.9811331386
 31
0.0
  0
LINE
  5
74
330
1F
100
AcDbEntity
  8
0
  6
SLD-Durchgehend
 62
   131
420
  8454143
370
    15
100
AcDbLine
 10
186.0027086782
 20
-4.9811331386
 30
0.0
 11
186.0027086782
 21
-11.9519940657
 31
0.0
  0
LINE
  5
75
330
1F
100
AcDbEntity
  8
0
  6
SLD-Durchgehend
 62
   131
420
  8454143
370
    15
100
AcDbLine
 10
186.0027086782
 20
-4.9811331386
 30
0.0
 11
217.3169625751
 21
-4.9811331386
 31
0.0
  0
ELLIPSE
  5
76
330
1F
100
AcDbEntity
  8
0
  6
SLD-Durchgehend
 62
   131
420
  8454143
370
    15
100
AcDbEllipse
 10
238.244252149
 20
7.5480059343
 30
0.0
 11
56.63211209907391
 21
0.003861179228865197
 31
0.0
210
0.0
220
0.0
230
1.0
 40
0.3443276066
 41
1.364041808497521
 42
1.377297570574811
  0
SPLINE
  5
77
330
1F
100
AcDbEntity
  8
0
  6
SLD-Durchgehend
 62
   131
420
  8454143
370
    15
100
AcDbSpline
210
0.0
220
0.0
230
1.0
 70
     8
 71
     3
 72
     8
 73
     4
 74
     0
 42
0.00000001
 43
0.00000001
 12
1.0
 22
0.0
 32
0.0
 13
1.0
 23
0.0
 33
0.0
 40
0.0
 40
0.0
 40
0.0
 40
0.0
 40
1.0
 40
1.0
 40
1.0
 40
1.0
 10
248.8724814163678
 20
26.68482840627258
 30
0.0
 10
248.9567803232908
 20
26.69051037706509
 30
0.0
 10
249.0486370457154
 20
26.69051037620875
 30
0.0
 10
249.1329359399334
 20
26.68482840627258
 30
0.0
  0
ELLIPSE
  5
78
330
1F
100
AcDbEntity
  8
0
  6
SLD-Durchgehend
 62
   131
420
  8454143
370
    15
100
AcDbEllipse
 10
259.7611652073
 20
7.5480059343
 30
0.0
 11
56.63211209907638
 21
-0.003861179228850097
 31
0.0
210
0.0
220
0.0
230
1.0
 40
0.3443276066
 41
1.764295083014982
 42
1.777550845092272
  0
LINE
  5
79
330
1F
100
AcDbEntity
  8
0
  6
SLD-Durchgehend
 62
   131
420
  8454143
370
    15
100
AcDbLine
 10
237.8252661611
 20
-10.8997400123
 30
0.0
 11
236.0027086782
 21
-11.9519940657
 31
0.0
  0
LINE
  5
7A
330
1F
100
AcDbEntity
  8
0
  6
SLD-Durchgehend
 62
   131
420
  8454143
370
    15
100
AcDbLine
 10
246.5027086782
 20
15.347100639
 30
0.0
 11
246.5027086782
 21
10.5451575353
 31
0.0
  0
LINE
  5
7B
330
1F
100
AcDbEntity
  8
0
  6
SLD-Durchgehend
 62
   131
420
  8454143
370
    15
100
AcDbLine
 10
248.0027086782
 20
19.4960038384
 30
0.0
 11
248.0027086782
 21
15.347100639
 31
0.0
  0
LINE
  5
7C
330
1F
100
AcDbEntity
  8
0
  6
SLD-Durchgehend
 62
   131
420
  8454143
370
    15
100
AcDbLine
 10
248.0027086782
 20
19.4960038384
 30
0.0
 11
248.8724814164
 21
19.9236086958
 31
0.0
  0
ELLIPSE
  5
7D
330
1F
100
AcDbEntity
  8
0
  6
SLD-Durchgehend
 62
   131
420
  8454143
370
    15
100
AcDbEllipse
 10
249.0027086782
 20
19.3836071001
 30
0.0
 11
0.0
 21
0.5711168554660055
 31
0.0
210
0.0
220
0.0
230
1.0
 40
0.7003820605
 41
5.95157274930069
 42
6.614797865058494
  0
LINE
  5
7E
330
1F
100
AcDbEntity
  8
0
  6
SLD-Durchgehend
 62
   131
420
  8454143
370
    15
100
AcDbLine
 10
249.1329359399
 20
19.9236086958
 30
0.0
 11
250.0027086782
 21
19.4960038384
 31
0.0
  0
LINE
  5
7F
330
1F
100
AcDbEntity
  8
0
  6
SLD-Durchgehend
 62
   131
420
  8454143
370
    15
100
AcDbLine
 10
250.0027086782
 20
12.0209097029
 30
0.0
 11
250.0027086782
 21
19.4960038384
 31
0.0
  0
SPLINE
  5
80
330
1F
100
AcDbEntity
  8
0
  6
SLD-Durchgehend
 62
   131
420
  8454143
370
    15
100
AcDbSpline
210
0.0
220
0.0
230
1.0
 70
     8
 71
     3
 72
     8
 73
     4
 74
     0
 42
0.00000001
 43
0.00000001
 12
1.0
 22
0.0
 32
0.0
 13
1.0
 23
0.0
 33
0.0
 40
0.0001356425589012
 40
0.0001356425589012
 40
0.0001356425589012
 40
0.0001356425589012
 40
0.0003367200616227
 40
0.0003367200616227
 40
0.0003367200616227
 40
0.0003367200616227
 10
249.8686529120351
 20
26.63349335231849
 30
0.0
 10
249.9133514526652
 20
26.58598159927271
 30
0.0
 10
249.958036775515
 20
26.53845593253411
 30
0.0
 10
250.0027086781506
 20
26.49091616410972
 30
0.0
  0
LINE
  5
81
330
1F
100
AcDbEntity
  8
0
  6
SLD-Durchgehend
 62
   131
420
  8454143
370
    15
100
AcDbLine
 10
250.0027086782
 20
26.4909161641
 30
0.0
 11
250.0027086782
 21
19.4960038384
 31
0.0
  0
LINE
  5
82
330
1F
100
AcDbEntity
  8
0
  6
SLD-Durchgehend
 62
   131
420
  8454143
370
    15
100
AcDbLine
 10
248.0027086782
 20
19.4960038384
 30
0.0
 11
248.0027086782
 21
26.4909161641
 31
0.0
  0
SPLINE
  5
83
330
1F
100
AcDbEntity
  8
0
  6
SLD-Durchgehend
 62
   131
420
  8454143
370
    15
100
AcDbSpline
210
0.0
220
0.0
230
1.0
 70
     8
 71
     3
 72
     8
 73
     4
 74
     0
 42
0.00000001
 43
0.00000001
 12
1.0
 22
0.0
 32
0.0
 13
1.0
 23
0.0
 33
0.0
 40
0.0000003000806028
 40
0.0000003000806028
 40
0.0000003000806028
 40
0.0000003000806028
 40
0.0002013775833244
 40
0.0002013775833244
 40
0.0002013775833244
 40
0.0002013775833244
 10
248.0027086781506
 20
26.49091616410972
 30
0.0
 10
248.0473805807863
 20
26.5384559325341
 30
0.0
 10
248.0920659036361
 20
26.58598159927271
 30
0.0
 10
248.136764444266
 20
26.6334933523185
 30
0.0
  0
LINE
  5
84
330
1F
100
AcDbEntity
  8
0
  6
SLD-Durchgehend
 62
   131
420
  8454143
370
    15
100
AcDbLine
 10
248.8724814164
 20
19.9236086958
 30
0.0
 11
248.8724814164
 21
26.6848284063
 31
0.0
  0
LINE
  5
85
330
1F
100
AcDbEntity
  8
0
  6
SLD-Durchgehend
 62
   131
420
  8454143
370
    15
100
AcDbLine
 10
249.1329359399
 20
19.9236086958
 30
0.0
 11
249.1329359399
 21
26.6848284063
 31
0.0
  0
DIMENSION
  5
86
330
1F
100
AcDbEntity
  8
0
 62
     7
420
 16777215
100
AcDbDimension
  2
_D
 10
250.0027086782
 20
44.7113168595
 30
0.0
 11
125.0027086782
 21
44.7113168595
 31
0.0
 70
   160
  1
<>
 71
     2
 42
-1.0
 73
     0
 74
     0
 75
     0
  3
SLDDIMSTYLE0
100
AcDbAlignedDimension
 13
0.0027086782
 23
-0.0019940657
 33
0.0
 14
250.0027086782
 24
-0.0019940657
 34
0.0
 50
0.0
100
AcDbRotatedDimension
  0
DIMENSION
  5
92
330
1F
100
AcDbEntity
  8
0
  6
SLD-Durchgehend
 62
   208
420
  4194368
370
    15
100
AcDbDimension
  2
_D_1
 10
-5.9972913218
 20
15.9980059343
 30
0.0
 11
-5.9972913218
 21
-0.0019940657
 31
0.0
 70
   160
  1
%%c<>
 71
     2
 42
-1.0
 73
     0
 74
     0
 75
     0
  3
SLDDIMSTYLE0
100
AcDbAlignedDimension
 13
1.0027086782
 23
-16.0019940657
 33
0.0
 14
1.0027086782
 24
15.9980059343
 34
0.0
 50
90.0
100
AcDbRotatedDimension
  0
DIMENSION
  5
9D
330
1F
100
AcDbEntity
  8
0
  6
SLD-Durchgehend
 62
   208
420
  4194368
370
    15
100
AcDbDimension
  2
_D_2
 10
186.0027086782
 20
38.7113168595
 30
0.0
 11
218.0027086782
 21
38.7113168595
 31
0.0
 70
   160
  1
<>
 71
     2
 42
-1.0
 73
     0
 74
     0
 75
     0
  3
SLDDIMSTYLE0
100
AcDbAlignedDimension
 13
250.0027086782
 23
12.0209097029
 33
0.0
 14
186.0027086782
 24
-0.0019940657
 34
0.0
 50
0.0
100
AcDbRotatedDimension
  0
DIMENSION
  5
A7
330
1F
100
AcDbEntity
  8
0
  6
SLD-Durchgehend
 62
   208
420
  4194368
370
    15
100
AcDbDimension
  2
_D_3
 10
274.868615024
 20
-0.0019940657
 30
0.0
 11
274.868615024
 21
13.7480059343
 31
0.0
 70
   160
  1
<>
 71
     2
 42
-1.0
 73
     0
 74
     0
 75
     0
  3
SLDDIMSTYLE0
100
AcDbAlignedDimension
 13
249.0027086782
 23
27.4980059343
 33
0.0
 14
250.0027086782
 24
-0.0019940657
 34
0.0
 50
90.0
100
AcDbRotatedDimension
  0
DIMENSION
  5
B1
330
1F
100
AcDbEntity
  8
0
  6
SLD-Durchgehend
 62
   208
420
  4194368
370
    15
100
AcDbDimension
  2
_D_4
 10
250.0027086782
 20
32.7113168595
 30
0.0
 11
257.5888198717
 21
32.7113168595
 31
0.0
 70
   160
  1
<>
 71
     2
 42
-1.0
 73
     0
 74
     0
 75
     0
  3
SLDDIMSTYLE1
100
AcDbAlignedDimension
 13
248.0027086782
 23
26.4909161641
 33
0.0
 14
250.0027086782
 24
26.4909161641
 34
0.0
100
AcDbRotatedDimension
  0
INSERT
  5
C9
330
1F
100
AcDbEntity
  8
0
  6
SLD-Punktstrich
 62
     2
420
 16776960
370
    15
100
AcDbBlockReference
  2
SW_CENTERMARKSYMBOL_0
 10
139.8836073308
 20
6.6862783167
 30
0.0
  0
INSERT
  5
D5
330
1F
100
AcDbEntity
  8
0
  6
SLD-Punktstrich
 62
     2
420
 16776960
370
    15
100
AcDbBlockReference
  2
SW_CENTERMARKSYMBOL_1
 10
139.8836073308
 20
-11.6637216833
 30
0.0
  0
ENDSEC
  0
SECTION
  2
OBJECTS
  0
DICTIONARY
  5
C
330
0
100
AcDbDictionary
281
     1
  3
ACAD_GROUP
350
D
  3
ACAD_LAYOUT
350
1A
  3
ACAD_MATERIAL
350
3B
  3
ACAD_MLEADERSTYLE
350
D7
  3
ACAD_MLINESTYLE
350
17
  3
ACAD_PLOTSETTINGS
350
19
  3
ACAD_PLOTSTYLENAME
350
E
  3
ACAD_TABLESTYLE
350
D6
  3
ACAD_VISUALSTYLE
350
2A
  0
DICTIONARY
  5
D
102
{ACAD_REACTORS
330
C
102
}
330
C
100
AcDbDictionary
281
     1
  0
DICTIONARY
  5
1A
102
{ACAD_REACTORS
330
C
102
}
330
C
100
AcDbDictionary
281
     1
  3
Layout1
350
1E
  3
Layout2
350
26
  3
Model
350
22
  0
DICTIONARY
  5
3B
102
{ACAD_REACTORS
330
C
102
}
330
C
100
AcDbDictionary
281
     1
  3
ByBlock
350
3D
  3
ByLayer
350
3C
  3
Global
350
3E
  0
DICTIONARY
  5
D7
102
{ACAD_REACTORS
330
C
102
}
330
C
100
AcDbDictionary
281
     1
  0
DICTIONARY
  5
17
102
{ACAD_REACTORS
330
C
102
}
330
C
100
AcDbDictionary
281
     1
  3
Standard
350
18
  0
DICTIONARY
  5
19
102
{ACAD_REACTORS
330
C
102
}
330
C
100
AcDbDictionary
281
     1
  0
ACDBDICTIONARYWDFLT
  5
E
102
{ACAD_REACTORS
330
C
102
}
330
C
100
AcDbDictionary
281
     1
  3
Normal
350
F
100
AcDbDictionaryWithDefault
340
F
  0
DICTIONARY
  5
D6
102
{ACAD_REACTORS
330
C
102
}
330
C
100
AcDbDictionary
281
     1
  0
DICTIONARY
  5
2A
102
{ACAD_REACTORS
330
C
102
}
330
C
100
AcDbDictionary
281
     1
  3
2dWireframe
350
2F
  3
3D Hidden
350
31
  3
3dWireframe
350
30
  3
Basic
350
32
  3
Brighten
350
36
  3
ColorChange
350
3A
  3
Conceptual
350
34
  3
Dim
350
35
  3
Facepattern
350
39
  3
Flat
350
2B
  3
FlatWithEdges
350
2C
  3
Gouraud
350
2D
  3
GouraudWithEdges
350
2E
  3
Linepattern
350
38
  3
Realistic
350
33
  3
Thicken
350
37
  0
LAYOUT
  5
1E
102
{ACAD_REACTORS
330
1A
102
}
330
1A
100
AcDbPlotSettings
  1

  2
none_device
  4

  6

 40
0.0
 41
0.0
 42
0.0
 43
0.0
 44
0.0
 45
0.0
 46
0.0
 47
0.0
 48
0.0
 49
0.0
140
0.0
141
0.0
142
1.0
143
1.0
 70
   688
 72
     0
 73
     0
 74
     5
  7

 75
    16
 76
     0
 77
     2
 78
   300
147
1.0
148
0.0
149
0.0
100
AcDbLayout
  1
Layout1
 70
     1
 71
     1
 10
0.0
 20
0.0
 11
420.0
 21
297.0
 12
0.0
 22
0.0
 32
0.0
 14
1.0000000000E+20
 24
1.0000000000E+20
 34
1.0000000000E+20
 15
-1.0000000000E+20
 25
-1.0000000000E+20
 35
-1.0000000000E+20
146
0.0
 13
0.0
 23
0.0
 33
0.0
 16
1.0
 26
0.0
 36
0.0
 17
0.0
 27
1.0
 37
0.0
 76
     0
330
1B
  0
LAYOUT
  5
26
102
{ACAD_REACTORS
330
1A
102
}
330
1A
100
AcDbPlotSettings
  1

  2
none_device
  4

  6

 40
0.0
 41
0.0
 42
0.0
 43
0.0
 44
0.0
 45
0.0
 46
0.0
 47
0.0
 48
0.0
 49
0.0
140
0.0
141
0.0
142
1.0
143
1.0
 70
   688
 72
     0
 73
     0
 74
     5
  7

 75
    16
 76
     0
 77
     2
 78
   300
147
1.0
148
0.0
149
0.0
100
AcDbLayout
  1
Layout2
 70
     1
 71
     2
 10
0.0
 20
0.0
 11
0.0
 21
0.0
 12
0.0
 22
0.0
 32
0.0
 14
0.0
 24
0.0
 34
0.0
 15
0.0
 25
0.0
 35
0.0
146
0.0
 13
0.0
 23
0.0
 33
0.0
 16
1.0
 26
0.0
 36
0.0
 17
0.0
 27
1.0
 37
0.0
 76
     0
330
23
  0
LAYOUT
  5
22
102
{ACAD_REACTORS
330
1A
102
}
330
1A
100
AcDbPlotSettings
  1

  2
none_device
  4

  6

 40
0.0
 41
0.0
 42
0.0
 43
0.0
 44
0.0
 45
0.0
 46
0.0
 47
0.0
 48
0.0
 49
0.0
140
0.0
141
0.0
142
1.0
143
1.0
 70
  1712
 72
     0
 73
     0
 74
     0
  7

 75
     0
 76
     0
 77
     2
 78
   300
147
1.0
148
0.0
149
0.0
100
AcDbLayout
  1
Model
 70
     1
 71
     0
 10
0.0
 20
0.0
 11
297.0
 21
210.0
 12
0.0
 22
0.0
 32
0.0
 14
0.0
 24
0.0
 34
0.0
 15
297.0
 25
210.0
 35
0.0
146
0.0
 13
0.0
 23
0.0
 33
0.0
 16
1.0
 26
0.0
 36
0.0
 17
0.0
 27
1.0
 37
0.0
 76
     0
330
1F
331
29
  0
MATERIAL
  5
3D
102
{ACAD_REACTORS
330
3B
102
}
330
3B
100
AcDbMaterial
  1
ByBlock
 72
     1
 94
      127
  0
MATERIAL
  5
3C
102
{ACAD_REACTORS
330
3B
102
}
330
3B
100
AcDbMaterial
  1
ByLayer
 72
     1
 94
      127
  0
MATERIAL
  5
3E
102
{ACAD_REACTORS
330
3B
102
}
330
3B
100
AcDbMaterial
  1
Global
 72
     1
 94
      127
  0
MLINESTYLE
  5
18
102
{ACAD_REACTORS
330
17
102
}
330
17
100
AcDbMlineStyle
  2
Standard
 70
     0
  3

 62
   256
 51
90.0
 52
90.0
 71
     2
 49
0.5
 62
   256
  6
BYLAYER
 49
-0.5
 62
   256
  6
BYLAYER
  0
ACDBPLACEHOLDER
  5
F
102
{ACAD_REACTORS
330
E
102
}
330
E
  0
VISUALSTYLE
  5
2F
102
{ACAD_REACTORS
330
2A
102
}
330
2A
100
AcDbVisualStyle
  2
2dWireframe
 70
     4
 71
     0
 72
     2
 73
     0
 90
        0
 40
-0.6
 41
-30.0
 62
     5
 63
     7
421
 16777215
 74
     1
 91
        4
 64
     7
 65
   257
 75
     1
175
     1
 42
1.0
 92
        0
 66
   257
 43
1.0
 76
     1
 77
     6
 78
     2
 67
     7
 79
     5
170
     0
171
     0
290
     0
174
     0
 93
        1
 44
0.0
173
     0
291
     0
 45
0.0
  0
VISUALSTYLE
  5
31
102
{ACAD_REACTORS
330
2A
102
}
330
2A
100
AcDbVisualStyle
  2
3D Hidden
 70
     6
 71
     1
 72
     2
 73
     2
 90
        0
 40
-0.6
 41
-30.0
 62
     5
 63
     7
421
 16777215
 74
     2
 91
        2
 64
     7
 65
   257
 75
     2
175
     1
 42
40.0
 92
        0
 66
   257
 43
1.0
 76
     1
 77
     6
 78
     2
 67
     7
 79
     3
170
     0
171
     0
290
     0
174
     0
 93
        1
 44
0.0
173
     0
291
     0
 45
0.0
  0
VISUALSTYLE
  5
30
102
{ACAD_REACTORS
330
2A
102
}
330
2A
100
AcDbVisualStyle
  2
3dWireframe
 70
     5
 71
     0
 72
     2
 73
     0
 90
        0
 40
-0.6
 41
-30.0
 62
     5
 63
     7
421
 16777215
 74
     1
 91
        4
 64
     7
 65
   257
 75
     1
175
     1
 42
1.0
 92
        0
 66
   257
 43
1.0
 76
     1
 77
     6
 78
     2
 67
     7
 79
     5
170
     0
171
     0
290
     0
174
     0
 93
        1
 44
0.0
173
     0
291
     0
 45
0.0
  0
VISUALSTYLE
  5
32
102
{ACAD_REACTORS
330
2A
102
}
330
2A
100
AcDbVisualStyle
  2
Basic
 70
     7
 71
     1
 72
     0
 73
     1
 90
        0
 40
-0.6
 41
-30.0
 62
     5
 63
     7
421
 16777215
 74
     0
 91
        4
 64
     7
 65
   257
 75
     1
175
     1
 42
1.0
 92
        8
 66
     7
 43
1.0
 76
     1
 77
     6
 78
     2
 67
     7
 79
     5
170
     0
171
     0
290
     0
174
     0
 93
        1
 44
0.0
173
     0
291
     1
 45
0.0
  0
VISUALSTYLE
  5
36
102
{ACAD_REACTORS
330
2A
102
}
330
2A
100
AcDbVisualStyle
  2
Brighten
 70
    12
 71
     2
 72
     2
 73
     0
 90
        0
 40
-0.6
 41
-30.0
 62
     5
 63
     7
421
 16777215
 74
     1
 91
        4
 64
     7
 65
   257
 75
     1
175
     1
 42
1.0
 92
        8
 66
     7
 43
1.0
 76
     1
 77
     6
 78
     2
 67
     7
 79
     5
170
     0
171
     0
290
     0
174
     0
 93
        1
 44
50.0
173
     0
291
     1
 45
0.0
  0
VISUALSTYLE
  5
3A
102
{ACAD_REACTORS
330
2A
102
}
330
2A
100
AcDbVisualStyle
  2
ColorChange
 70
    16
 71
     2
 72
     2
 73
     3
 90
        0
 40
-0.6
 41
-30.0
 62
     5
 63
     8
421
  8421504
 74
     1
 91
        4
 64
     7
 65
   257
 75
     1
175
     1
 42
1.0
 92
        8
 66
     8
424
  8421504
 43
1.0
 76
     1
 77
     6
 78
     2
 67
     7
 79
     5
170
     0
171
     0
290
     0
174
     0
 93
        1
 44
0.0
173
     0
291
     1
 45
0.0
  0
VISUALSTYLE
  5
34
102
{ACAD_REACTORS
330
2A
102
}
330
2A
100
AcDbVisualStyle
  2
Conceptual
 70
     9
 71
     3
 72
     2
 73
     0
 90
        0
 40
-0.6
 41
-30.0
 62
     5
 63
     7
421
 16777215
 74
     2
 91
        2
 64
     7
 65
   257
 75
     1
175
     1
 42
40.0
 92
        8
 66
     7
 43
1.0
 76
     1
 77
     6
 78
     2
 67
     7
 79
     3
170
     0
171
     0
290
     0
174
     0
 93
        1
 44
0.0
173
     0
291
     0
 45
0.0
  0
VISUALSTYLE
  5
35
102
{ACAD_REACTORS
330
2A
102
}
330
2A
100
AcDbVisualStyle
  2
Dim
 70
    11
 71
     2
 72
     2
 73
     0
 90
        0
 40
-0.6
 41
-30.0
 62
     5
 63
     7
421
 16777215
 74
     1
 91
        4
 64
     7
 65
   257
 75
     1
175
     1
 42
1.0
 92
        8
 66
     7
 43
1.0
 76
     1
 77
     6
 78
     2
 67
     7
 79
     5
170
     0
171
     0
290
     0
174
     0
 93
        1
 44
-50.0
173
     0
291
     1
 45
0.0
  0
VISUALSTYLE
  5
39
102
{ACAD_REACTORS
330
2A
102
}
330
2A
100
AcDbVisualStyle
  2
Facepattern
 70
    15
 71
     2
 72
     2
 73
     0
 90
        0
 40
-0.6
 41
-30.0
 62
     5
 63
     7
421
 16777215
 74
     1
 91
        4
 64
     7
 65
   257
 75
     1
175
     1
 42
1.0
 92
        8
 66
     7
 43
1.0
 76
     1
 77
     6
 78
     2
 67
     7
 79
     5
170
     0
171
     0
290
     0
174
     0
 93
        1
 44
0.0
173
     0
291
     1
 45
0.0
  0
VISUALSTYLE
  5
2B
102
{ACAD_REACTORS
330
2A
102
}
330
2A
100
AcDbVisualStyle
  2
Flat
 70
     0
 71
     2
 72
     1
 73
     1
 90
        2
 40
-0.6
 41
30.0
 62
     5
 63
     7
421
 16777215
 74
     0
 91
        4
 64
     7
 65
   257
 75
     1
175
     1
 42
1.0
 92
        8
 66
     7
 43
1.0
 76
     1
 77
     6
 78
     2
 67
     7
 79
     5
170
     0
171
     0
290
     0
174
     0
 93
       13
 44
0.0
173
     0
291
     1
 45
0.0
  0
VISUALSTYLE
  5
2C
102
{ACAD_REACTORS
330
2A
102
}
330
2A
100
AcDbVisualStyle
  2
FlatWithEdges
 70
     1
 71
     2
 72
     1
 73
     1
 90
        2
 40
-0.6
 41
30.0
 62
     5
 63
     7
421
 16777215
 74
     1
 91
        4
 64
     7
 65
   257
 75
     1
175
     1
 42
1.0
 92
        0
 66
   257
 43
1.0
 76
     1
 77
     6
 78
     2
 67
     7
 79
     5
170
     0
171
     0
290
     0
174
     0
 93
       13
 44
0.0
173
     0
291
     1
 45
0.0
  0
VISUALSTYLE
  5
2D
102
{ACAD_REACTORS
330
2A
102
}
330
2A
100
AcDbVisualStyle
  2
Gouraud
 70
     2
 71
     2
 72
     2
 73
     1
 90
        2
 40
-0.6
 41
30.0
 62
     5
 63
     7
421
 16777215
 74
     0
 91
        4
 64
     7
 65
   257
 75
     1
175
     1
 42
1.0
 92
        0
 66
     7
 43
1.0
 76
     1
 77
     6
 78
     2
 67
     7
 79
     5
170
     0
171
     0
290
     0
174
     0
 93
       13
 44
0.0
173
     0
291
     1
 45
0.0
  0
VISUALSTYLE
  5
2E
102
{ACAD_REACTORS
330
2A
102
}
330
2A
100
AcDbVisualStyle
  2
GouraudWithEdges
 70
     3
 71
     2
 72
     2
 73
     1
 90
        2
 40
-0.6
 41
30.0
 62
     5
 63
     7
421
 16777215
 74
     1
 91
        4
 64
     7
 65
   257
 75
     1
175
     1
 42
1.0
 92
        0
 66
   257
 43
1.0
 76
     1
 77
     6
 78
     2
 67
     7
 79
     5
170
     0
171
     0
290
     0
174
     0
 93
       13
 44
0.0
173
     0
291
     1
 45
0.0
  0
VISUALSTYLE
  5
38
102
{ACAD_REACTORS
330
2A
102
}
330
2A
100
AcDbVisualStyle
  2
Linepattern
 70
    14
 71
     2
 72
     2
 73
     0
 90
        0
 40
-0.6
 41
-30.0
 62
     5
 63
     7
421
 16777215
 74
     1
 91
        4
 64
     7
 65
   257
 75
     7
175
     7
 42
1.0
 92
        8
 66
     7
 43
1.0
 76
     1
 77
     6
 78
     2
 67
     7
 79
     5
170
     0
171
     0
290
     0
174
     0
 93
        1
 44
0.0
173
     0
291
     1
 45
0.0
  0
VISUALSTYLE
  5
33
102
{ACAD_REACTORS
330
2A
102
}
330
2A
100
AcDbVisualStyle
  2
Realistic
 70
     8
 71
     2
 72
     2
 73
     0
 90
        0
 40
-0.6
 41
-30.0
 62
     5
 63
     7
421
 16777215
 74
     1
 91
        0
 64
     7
 65
   257
 75
     1
175
     1
 42
1.0
 92
        8
 66
     8
424
  7895160
 43
1.0
 76
     1
 77
     6
 78
     2
 67
     7
 79
     5
170
     0
171
     0
290
     0
174
     0
 93
       13
 44
0.0
173
     0
291
     0
 45
0.0
  0
VISUALSTYLE
  5
37
102
{ACAD_REACTORS
330
2A
102
}
330
2A
100
AcDbVisualStyle
  2
Thicken
 70
    13
 71
     2
 72
     2
 73
     0
 90
        0
 40
-0.6
 41
-30.0
 62
     5
 63
     7
421
 16777215
 74
     1
 91
        4
 64
     7
 65
   257
 75
     1
175
     1
 42
1.0
 92
       12
 66
     7
 43
1.0
 76
     1
 77
     6
 78
     2
 67
     7
 79
     5
170
     0
171
     0
290
     0
174
     0
 93
        1
 44
0.0
173
     0
291
     1
 45
0.0
  0
ENDSEC
  0
EOF
