  0
SECTION
  2
HEADER
  9
$ACADVER
  1
AC1021
  9
$ACADMAINTVER
 70
    25
  9
$DWGCODEPAGE
  3
ANSI_1252
  9
$INSBASE
 10
0.0
 20
0.0
 30
0.0
  9
$EXTMIN
 10
0.0
 20
0.0
 30
0.0
  9
$EXTMAX
 10
297.0
 20
210.0
 30
0.0
  9
$LIMMIN
 10
0.0
 20
0.0
  9
$LIMMAX
 10
297.0
 20
210.0
  9
$ORTHOMODE
 70
     0
  9
$REGENMODE
 70
     1
  9
$FILLMODE
 70
     1
  9
$QTEXTMODE
 70
     0
  9
$MIRRTEXT
 70
     1
  9
$LTSCALE
 40
1.0
  9
$ATTMODE
 70
     1
  9
$TEXTSIZE
 40
3.5
  9
$TRACEWID
 40
1.0
  9
$TEXTSTYLE
  7
Standard
  9
$CLAYER
  8
0
  9
$CELTYPE
  6
ByLayer
  9
$CECOLOR
 62
   256
  9
$CELTSCALE
 40
1.0
  9
$DISPSILH
 70
     0
  9
$DIMSCALE
 40
1.0
  9
$DIMASZ
 40
3.302
  9
$DIMEXO
 40
1.0
  9
$DIMDLI
 40
3.75
  9
$DIMRND
 40
0.0
  9
$DIMDLE
 40
0.0
  9
$DIMEXE
 40
1.0
  9
$DIMTP
 40
0.0
  9
$DIMTM
 40
0.0
  9
$DIMTXT
 40
3.5
  9
$DIMCEN
 40
2.5
  9
$DIMTSZ
 40
0.0
  9
$DIMTOL
 70
     0
  9
$DIMLIM
 70
     0
  9
$DIMTIH
 70
     1
  9
$DIMTOH
 70
     1
  9
$DIMSE1
 70
     0
  9
$DIMSE2
 70
     0
  9
$DIMTAD
 70
     1
  9
$DIMZIN
 70
     0
  9
$DIMBLK
  1

  9
$DIMASO
 70
     1
  9
$DIMSHO
 70
     1
  9
$DIMPOST
  1

  9
$DIMAPOST
  1

  9
$DIMALT
 70
     0
  9
$DIMALTD
 70
     3
  9
$DIMALTF
 40
0.0393700787
  9
$DIMLFAC
 40
1.0
  9
$DIMTOFL
 70
     1
  9
$DIMTVP
 40
0.0
  9
$DIMTIX
 70
     0
  9
$DIMSOXD
 70
     0
  9
$DIMSAH
 70
     0
  9
$DIMBLK1
  1

  9
$DIMBLK2
  1

  9
$DIMSTYLE
  2
ISO-25
  9
$DIMCLRD
 70
     0
  9
$DIMCLRE
 70
     0
  9
$DIMCLRT
 70
     0
  9
$DIMTFAC
 40
1.0
  9
$DIMGAP
 40
1.524
  9
$DIMJUST
 70
     0
  9
$DIMSD1
 70
     0
  9
$DIMSD2
 70
     0
  9
$DIMTOLJ
 70
     0
  9
$DIMTZIN
 70
     0
  9
$DIMALTZ
 70
     0
  9
$DIMALTTZ
 70
     0
  9
$DIMUPT
 70
     0
  9
$DIMDEC
 70
     2
  9
$DIMTDEC
 70
     2
  9
$DIMALTU
 70
     2
  9
$DIMALTTD
 70
     3
  9
$DIMTXSTY
  7
Standard
  9
$DIMAUNIT
 70
     0
  9
$DIMADEC
 70
     2
  9
$DIMALTRND
 40
0.0
  9
$DIMAZIN
 70
     0
  9
$DIMDSEP
 70
    44
  9
$DIMATFIT
 70
     3
  9
$DIMFRAC
 70
     0
  9
$DIMLDRBLK
  1

  9
$DIMLUNIT
 70
     2
  9
$DIMLWD
 70
    -2
  9
$DIMLWE
 70
    -2
  9
$DIMTMOVE
 70
     0
  9
$DIMFXL
 40
1.0
  9
$DIMFXLON
 70
     0
  9
$DIMJOGANG
 40
0.7853981634
  9
$DIMTFILL
 70
     0
  9
$DIMTFILLCLR
 70
     0
  9
$DIMARCSYM
 70
     0
  9
$DIMLTYPE
  6

  9
$DIMLTEX1
  6

  9
$DIMLTEX2
  6

  9
$LUNITS
 70
     2
  9
$LUPREC
 70
     2
  9
$SKETCHINC
 40
1.0
  9
$FILLETRAD
 40
10.0
  9
$AUNITS
 70
     0
  9
$AUPREC
 70
     2
  9
$MENU
  1
.
  9
$ELEVATION
 40
0.0
  9
$PELEVATION
 40
0.0
  9
$THICKNESS
 40
0.0
  9
$LIMCHECK
 70
     0
  9
$CHAMFERA
 40
10.0
  9
$CHAMFERB
 40
10.0
  9
$CHAMFERC
 40
20.0
  9
$CHAMFERD
 40
0.0
  9
$SKPOLY
 70
     0
  9
$TDCREATE
 40
2456526.547517963
  9
$TDUCREATE
 40
2456526.46418463
  9
$TDUPDATE
 40
2456526.547518449
  9
$TDUUPDATE
 40
2456526.464185116
  9
$TDINDWG
 40
0.0000000116
  9
$TDUSRTIMER
 40
0.0000000116
  9
$USRTIMER
 70
     1
  9
$ANGBASE
 50
0.0
  9
$ANGDIR
 70
     0
  9
$PDMODE
 70
     0
  9
$PDSIZE
 40
-1.0
  9
$PLINEWID
 40
0.0
  9
$SPLFRAME
 70
     0
  9
$SPLINETYPE
 70
     6
  9
$SPLINESEGS
 70
     8
  9
$HANDSEED
  5
E6
  9
$SURFTAB1
 70
     6
  9
$SURFTAB2
 70
     6
  9
$SURFTYPE
 70
     6
  9
$SURFU
 70
     6
  9
$SURFV
 70
     6
  9
$UCSBASE
  2

  9
$UCSNAME
  2

  9
$UCSORG
 10
0.0
 20
0.0
 30
0.0
  9
$UCSXDIR
 10
1.0
 20
0.0
 30
0.0
  9
$UCSYDIR
 10
0.0
 20
1.0
 30
0.0
  9
$UCSORTHOREF
  2

  9
$UCSORTHOVIEW
 70
     0
  9
$UCSORGTOP
 10
0.0
 20
0.0
 30
0.0
  9
$UCSORGBOTTOM
 10
0.0
 20
0.0
 30
0.0
  9
$UCSORGLEFT
 10
0.0
 20
0.0
 30
0.0
  9
$UCSORGRIGHT
 10
0.0
 20
0.0
 30
0.0
  9
$UCSORGFRONT
 10
0.0
 20
0.0
 30
0.0
  9
$UCSORGBACK
 10
0.0
 20
0.0
 30
0.0
  9
$PUCSBASE
  2

  9
$PUCSNAME
  2

  9
$PUCSORG
 10
0.0
 20
0.0
 30
0.0
  9
$PUCSXDIR
 10
1.0
 20
0.0
 30
0.0
  9
$PUCSYDIR
 10
0.0
 20
1.0
 30
0.0
  9
$PUCSORTHOREF
  2

  9
$PUCSORTHOVIEW
 70
     0
  9
$PUCSORGTOP
 10
0.0
 20
0.0
 30
0.0
  9
$PUCSORGBOTTOM
 10
0.0
 20
0.0
 30
0.0
  9
$PUCSORGLEFT
 10
0.0
 20
0.0
 30
0.0
  9
$PUCSORGRIGHT
 10
0.0
 20
0.0
 30
0.0
  9
$PUCSORGFRONT
 10
0.0
 20
0.0
 30
0.0
  9
$PUCSORGBACK
 10
0.0
 20
0.0
 30
0.0
  9
$USERI1
 70
     0
  9
$USERI2
 70
     0
  9
$USERI3
 70
     0
  9
$USERI4
 70
     0
  9
$USERI5
 70
     0
  9
$USERR1
 40
0.0
  9
$USERR2
 40
0.0
  9
$USERR3
 40
0.0
  9
$USERR4
 40
0.0
  9
$USERR5
 40
0.0
  9
$WORLDVIEW
 70
     1
  9
$SHADEDGE
 70
     3
  9
$SHADEDIF
 70
    70
  9
$TILEMODE
 70
     1
  9
$MAXACTVP
 70
    64
  9
$PINSBASE
 10
0.0
 20
0.0
 30
0.0
  9
$PLIMCHECK
 70
     0
  9
$PEXTMIN
 10
1.0000000000E+20
 20
1.0000000000E+20
 30
1.0000000000E+20
  9
$PEXTMAX
 10
-1.0000000000E+20
 20
-1.0000000000E+20
 30
-1.0000000000E+20
  9
$PLIMMIN
 10
0.0
 20
0.0
  9
$PLIMMAX
 10
420.0
 20
297.0
  9
$UNITMODE
 70
     0
  9
$VISRETAIN
 70
     1
  9
$PLINEGEN
 70
     0
  9
$PSLTSCALE
 70
     1
  9
$TREEDEPTH
 70
  3020
  9
$CMLSTYLE
  2
Standard
  9
$CMLJUST
 70
     0
  9
$CMLSCALE
 40
20.0
  9
$PROXYGRAPHICS
 70
     1
  9
$MEASUREMENT
 70
     1
  9
$CELWEIGHT
370
    -1
  9
$ENDCAPS
280
     0
  9
$JOINSTYLE
280
     0
  9
$LWDISPLAY
290
     1
  9
$INSUNITS
 70
     4
  9
$HYPERLINKBASE
  1

  9
$STYLESHEET
  1

  9
$XEDIT
290
     1
  9
$CEPSNTYPE
380
     0
  9
$PSTYLEMODE
290
     1
  9
$FINGERPRINTGUID
  2
{B1663E6F-4F7E-4F11-B086-5C04423A34B1}
  9
$VERSIONGUID
  2
{FAEB1C32-E019-11D5-929B-00C0DF256EC4}
  9
$EXTNAMES
290
     1
  9
$PSVPSCALE
 40
0.0
  9
$OLESTARTUP
290
     0
  9
$SORTENTS
280
   127
  9
$INDEXCTL
280
     0
  9
$HIDETEXT
280
     1
  9
$XCLIPFRAME
290
     0
  9
$HALOGAP
280
     0
  9
$OBSCOLOR
 70
   257
  9
$OBSLTYPE
280
     0
  9
$INTERSECTIONDISPLAY
280
     0
  9
$INTERSECTIONCOLOR
 70
   257
  9
$DIMASSOC
280
     2
  9
$PROJECTNAME
  1

  9
$CAMERADISPLAY
290
     0
  9
$LENSLENGTH
 40
50.0
  9
$CAMERAHEIGHT
 40
0.0
  9
$STEPSPERSEC
 40
2.0
  9
$STEPSIZE
 40
6.0
  9
$3DDWFPREC
 40
2.0
  9
$PSOLWIDTH
 40
5.0
  9
$PSOLHEIGHT
 40
80.0
  9
$LOFTANG1
 40
1.5707963268
  9
$LOFTANG2
 40
1.5707963268
  9
$LOFTMAG1
 40
0.0
  9
$LOFTMAG2
 40
0.0
  9
$LOFTPARAM
 70
     7
  9
$LOFTNORMALS
280
     1
  9
$LATITUDE
 40
37.795
  9
$LONGITUDE
 40
-122.394
  9
$NORTHDIRECTION
 40
0.0
  9
$TIMEZONE
 70
 -8000
  9
$LIGHTGLYPHDISPLAY
280
     1
  9
$TILEMODELIGHTSYNCH
280
     1
  9
$SOLIDHIST
280
     1
  9
$SHOWHIST
280
     1
  9
$DWFFRAME
280
     2
  9
$DGNFRAME
280
     2
  9
$REALWORLDSCALE
290
     1
  9
$INTERFERECOLOR
 62
   256
  9
$CSHADOW
280
     0
  9
$SHADOWPLANELOCATION
 40
0.0
  0
ENDSEC
  0
SECTION
  2
CLASSES
  0
CLASS
  1
ACDBDICTIONARYWDFLT
  2
AcDbDictionaryWithDefault
  3
ObjectDBX Classes
 90
        0
 91
        4
280
     0
281
     0
  0
CLASS
  1
VISUALSTYLE
  2
AcDbVisualStyle
  3
ObjectDBX Classes
 90
     4095
 91
        4
280
     0
281
     0
  0
CLASS
  1
MATERIAL
  2
AcDbMaterial
  3
ObjectDBX Classes
 90
     1153
 91
        4
280
     0
281
     0
  0
ENDSEC
  0
SECTION
  2
TABLES
  0
TABLE
  2
VPORT
  5
8
330
0
100
AcDbSymbolTable
 70
     1
  0
VPORT
  5
29
330
8
100
AcDbSymbolTableRecord
100
AcDbViewportTableRecord
  2
*Active
 70
     0
 10
0.0
 20
0.0
 11
1.0
 21
1.0
 12
148.5
 22
105.0
 13
0.0
 23
0.0
 14
10.0
 24
10.0
 15
10.0
 25
10.0
 16
0.0
 26
0.0
 36
1.0
 17
0.0
 27
0.0
 37
0.0
 40
210.0
 41
1.4142857143
 42
50.0
 43
0.0
 44
0.0
 50
0.0
 51
0.0
 71
     0
 72
  2000
 73
     1
 74
     3
 75
     0
 76
     0
 77
     0
 78
     0
281
     0
 65
     1
110
0.0
120
0.0
130
0.0
111
1.0
121
0.0
131
0.0
112
0.0
122
1.0
132
0.0
 79
     0
146
0.0
 60
     3
 61
     5
292
     1
282
     1
141
0.0
142
0.0
 63
   250
  0
ENDTAB
  0
TABLE
  2
LTYPE
  5
5
330
0
100
AcDbSymbolTable
 70
     8
  0
LTYPE
  5
14
330
5
100
AcDbSymbolTableRecord
100
AcDbLinetypeTableRecord
  2
ByBlock
 70
     0
  3

 72
    65
 73
     0
 40
0.0
  0
LTYPE
  5
15
330
5
100
AcDbSymbolTableRecord
100
AcDbLinetypeTableRecord
  2
ByLayer
 70
     0
  3

 72
    65
 73
     0
 40
0.0
  0
LTYPE
  5
16
330
5
100
AcDbSymbolTableRecord
100
AcDbLinetypeTableRecord
  2
Continuous
 70
     0
  3
Solid line
 72
    65
 73
     0
 40
0.0
  0
LTYPE
  5
3F
330
5
100
AcDbSymbolTableRecord
100
AcDbLinetypeTableRecord
  2
SLD-Durchgehend
 70
     0
  3
SolidWorks Line Style
 72
    65
 73
     0
 40
0.0
  0
LTYPE
  5
40
330
5
100
AcDbSymbolTableRecord
100
AcDbLinetypeTableRecord
  2
SLD-Gestrichelt
 70
     0
  3
SolidWorks Line Style
 72
    65
 73
     2
 40
1.905
 49
1.27
 74
     0
 49
-0.635
 74
     0
  0
LTYPE
  5
41
330
5
100
AcDbSymbolTableRecord
100
AcDbLinetypeTableRecord
  2
SLD-Phantom
 70
     0
  3
SolidWorks Line Style
 72
    65
 73
     6
 40
12.7
 49
6.35
 74
     0
 49
-1.27
 74
     0
 49
1.27
 74
     0
 49
-1.27
 74
     0
 49
1.27
 74
     0
 49
-1.27
 74
     0
  0
LTYPE
  5
42
330
5
100
AcDbSymbolTableRecord
100
AcDbLinetypeTableRecord
  2
SLD-Kette
 70
     0
  3
SolidWorks Line Style
 72
    65
 73
     4
 40
10.16
 49
6.35
 74
     0
 49
-1.27
 74
     0
 49
1.27
 74
     0
 49
-1.27
 74
     0
  0
LTYPE
  5
43
330
5
100
AcDbSymbolTableRecord
100
AcDbLinetypeTableRecord
  2
SLD-Punktstrich
 70
     0
  3
SolidWorks Line Style
 72
    65
 73
     4
 40
19.05
 49
15.24
 74
     0
 49
-1.27
 74
     0
 49
1.27
 74
     0
 49
-1.27
 74
     0
  0
LTYPE
  5
44
330
5
100
AcDbSymbolTableRecord
100
AcDbLinetypeTableRecord
  2
SLD-Naht
 70
     0
  3
SolidWorks Line Style
 72
    65
 73
     2
 40
0.635
 49
0.0
 74
     0
 49
-0.635
 74
     0
  0
LTYPE
  5
45
330
5
100
AcDbSymbolTableRecord
100
AcDbLinetypeTableRecord
  2
SLD-Dicke-Dünne-Kette
 70
     0
  3
SolidWorks Line Style
 72
    65
 73
     4
 40
10.16
 49
6.35
 74
     0
 49
-1.27
 74
     0
 49
1.27
 74
     0
 49
-1.27
 74
     0
  0
ENDTAB
  0
TABLE
  2
LAYER
  5
2
330
0
100
AcDbSymbolTable
 70
     3
  0
LAYER
  5
10
330
2
100
AcDbSymbolTableRecord
100
AcDbLayerTableRecord
  2
0
 70
     0
 62
     7
  6
Continuous
370
    -3
390
F
347
3E
  0
LAYER
  5
46
330
2
100
AcDbSymbolTableRecord
100
AcDbLayerTableRecord
  2
1
 70
     0
 62
     4
  6
Continuous
370
    -1
390
F
347
3E
  0
LAYER
  5
47
330
2
100
AcDbSymbolTableRecord
100
AcDbLayerTableRecord
  2
2
 70
     0
 62
     7
  6
SLD-Durchgehend
370
    -3
390
F
347
3E
  0
ENDTAB
  0
TABLE
  2
STYLE
  5
3
330
0
100
AcDbSymbolTable
 70
     2
  0
STYLE
  5
11
330
3
100
AcDbSymbolTableRecord
100
AcDbTextStyleTableRecord
  2
Standard
 70
     0
 40
0.0
 41
1.0
 50
0.0
 71
     0
 42
3.5
  3
txt
  4

  0
STYLE
  5
7D
330
3
100
AcDbSymbolTableRecord
100
AcDbTextStyleTableRecord
  2
SLDTEXTSTYLE0
 70
     0
 40
0.0
 41
0.75
 50
0.0
 71
     0
 42
0.2
  3
TXT
  4

  0
ENDTAB
  0
TABLE
  2
VIEW
  5
6
330
0
100
AcDbSymbolTable
 70
     0
  0
ENDTAB
  0
TABLE
  2
UCS
  5
7
330
0
100
AcDbSymbolTable
 70
     0
  0
ENDTAB
  0
TABLE
  2
APPID
  5
9
330
0
100
AcDbSymbolTable
 70
     1
  0
APPID
  5
12
330
9
100
AcDbSymbolTableRecord
100
AcDbRegAppTableRecord
  2
ACAD
 70
     0
  0
ENDTAB
  0
TABLE
  2
DIMSTYLE
  5
A
330
0
100
AcDbSymbolTable
 70
     3
100
AcDbDimStyleTable
  0
DIMSTYLE
105
27
330
A
100
AcDbSymbolTableRecord
100
AcDbDimStyleTableRecord
  2
ISO-25
 70
     0
 41
2.5
 42
0.625
 43
3.75
 44
1.25
 73
     0
 74
     0
 77
     1
 78
     8
140
2.5
141
2.5
143
0.0393700787
147
0.625
171
     3
172
     1
178
     0
271
     2
272
     2
274
     3
278
    44
283
     0
284
     8
340
11
  0
DIMSTYLE
105
7E
102
{ACAD_REACTORS
330
7C
330
88
330
92
330
9C
330
D9
102
}
330
A
100
AcDbSymbolTableRecord
100
AcDbDimStyleTableRecord
  2
SLDDIMSTYLE0
 70
     0
 41
3.302
 44
0.0
 45
0.000000001
 73
     0
 74
     0
 77
     1
 78
    12
 79
     3
140
3.5
147
0.875
173
     1
178
     0
271
     2
272
     2
276
     2
284
    12
340
7D
  0
DIMSTYLE
105
CD
102
{ACAD_REACTORS
330
CC
102
}
330
A
100
AcDbSymbolTableRecord
100
AcDbDimStyleTableRecord
  2
SLDDIMSTYLE1
 70
     0
 41
3.302
 44
0.0
 45
0.000000001
 73
     0
 74
     0
 77
     1
 78
    12
 79
     3
140
3.5
147
0.875
172
     1
173
     1
178
     0
271
     2
272
     2
276
     2
284
    12
289
     0
340
7D
  0
ENDTAB
  0
TABLE
  2
BLOCK_RECORD
  5
1
330
0
100
AcDbSymbolTable
 70
     7
  0
BLOCK_RECORD
  5
1F
330
1
100
AcDbSymbolTableRecord
100
AcDbBlockTableRecord
  2
*Model_Space
340
22
 70
     0
280
     1
281
     0
  0
BLOCK_RECORD
  5
1B
330
1
100
AcDbSymbolTableRecord
100
AcDbBlockTableRecord
  2
*Paper_Space
340
1E
 70
     0
280
     1
281
     0
  0
BLOCK_RECORD
  5
23
330
1
100
AcDbSymbolTableRecord
100
AcDbBlockTableRecord
  2
*Paper_Space0
340
26
 70
     0
280
     1
281
     0
  0
BLOCK_RECORD
  5
7F
330
1
100
AcDbSymbolTableRecord
100
AcDbBlockTableRecord
  2
_D
340
0
 70
     0
280
     1
281
     0
  0
BLOCK_RECORD
  5
89
330
1
100
AcDbSymbolTableRecord
100
AcDbBlockTableRecord
  2
_D_1
340
0
 70
     0
280
     1
281
     0
  0
BLOCK_RECORD
  5
93
330
1
100
AcDbSymbolTableRecord
100
AcDbBlockTableRecord
  2
_D_2
340
0
 70
     0
280
     1
281
     0
  0
BLOCK_RECORD
  5
9D
330
1
100
AcDbSymbolTableRecord
100
AcDbBlockTableRecord
  2
_D_3
340
0
 70
     0
280
     1
281
     0
  0
BLOCK_RECORD
  5
CE
330
1
100
AcDbSymbolTableRecord
100
AcDbBlockTableRecord
  2
_D_4
340
0
 70
     0
280
     1
281
     0
  0
BLOCK_RECORD
  5
DA
330
1
100
AcDbSymbolTableRecord
100
AcDbBlockTableRecord
  2
_D_5
340
0
 70
     0
280
     1
281
     0
  0
ENDTAB
  0
ENDSEC
  0
SECTION
  2
BLOCKS
  0
BLOCK
  5
20
330
1F
100
AcDbEntity
  8
0
100
AcDbBlockBegin
  2
*Model_Space
 70
     0
 10
0.0
 20
0.0
 30
0.0
  3
*Model_Space
  1

  0
ENDBLK
  5
21
330
1F
100
AcDbEntity
  8
0
100
AcDbBlockEnd
  0
BLOCK
  5
1C
330
1B
100
AcDbEntity
 67
     1
  8
0
100
AcDbBlockBegin
  2
*Paper_Space
 70
     0
 10
0.0
 20
0.0
 30
0.0
  3
*Paper_Space
  1

  0
ENDBLK
  5
1D
330
1B
100
AcDbEntity
 67
     1
  8
0
100
AcDbBlockEnd
  0
BLOCK
  5
24
330
23
100
AcDbEntity
  8
0
100
AcDbBlockBegin
  2
*Paper_Space0
 70
     0
 10
0.0
 20
0.0
 30
0.0
  3
*Paper_Space0
  1

  0
ENDBLK
  5
25
330
23
100
AcDbEntity
  8
0
100
AcDbBlockEnd
  0
BLOCK
  5
80
330
7F
100
AcDbEntity
  8
0
100
AcDbBlockBegin
  2
_D
 70
     0
 10
0.0
 20
0.0
 30
0.0
  3
_D
  1

  0
SOLID
  5
82
330
7F
100
AcDbEntity
  8
2
 62
     7
420
 16777215
100
AcDbTrace
 10
63.7481221453
 20
5.9998362224
 30
0.0
 11
63.2401221453
 21
2.6978362224
 31
0.0
 12
64.2561221453
 22
2.6978362224
 32
0.0
 13
64.2561221453
 23
2.6978362224
 33
0.0
  0
SOLID
  5
83
330
7F
100
AcDbEntity
  8
2
 62
     7
420
 16777215
100
AcDbTrace
 10
63.7481221453
 20
-19.0001637776
 30
0.0
 11
64.2561221453
 21
-15.6981637776
 31
0.0
 12
63.2401221453
 22
-15.6981637776
 32
0.0
 13
63.2401221453
 23
-15.6981637776
 33
0.0
  0
LINE
  5
84
330
7F
100
AcDbEntity
  8
2
 62
     7
420
 16777215
100
AcDbLine
 10
55.4981221453
 20
5.9998362224
 30
0.0
 11
64.7481221453
 21
5.9998362224
 31
0.0
  0
LINE
  5
85
330
7F
100
AcDbEntity
  8
2
 62
     7
420
 16777215
100
AcDbLine
 10
20.4981221453
 20
-19.0001637776
 30
0.0
 11
64.7481221453
 21
-19.0001637776
 31
0.0
  0
LINE
  5
86
330
7F
100
AcDbEntity
  8
2
 62
     7
420
 16777215
100
AcDbLine
 10
63.7481221453
 20
5.9998362224
 30
0.0
 11
63.7481221453
 21
-19.0001637776
 31
0.0
  0
MTEXT
  5
87
330
7F
100
AcDbEntity
  8
2
 62
     7
420
 16777215
100
AcDbMText
 10
59.2363852307
 20
-10.5081500586
 30
-5.4997908101
 40
3.5
 41
0.0
 46
0.0
 71
     1
 72
     1
  1
25
  7
SLDTEXTSTYLE0
 11
-7.044195017643634E-15
 21
1.0
 31
0.0
 73
     1
 44
1.0
  0
ENDBLK
  5
81
330
7F
100
AcDbEntity
  8
0
100
AcDbBlockEnd
  0
BLOCK
  5
8A
330
89
100
AcDbEntity
  8
0
100
AcDbBlockBegin
  2
_D_1
 70
     0
 10
0.0
 20
0.0
 30
0.0
  3
_D_1
  1

  0
SOLID
  5
8C
330
89
100
AcDbEntity
  8
2
 62
     7
420
 16777215
100
AcDbTrace
 10
69.7481221453
 20
-19.0001637776
 30
0.0
 11
70.2561221453
 21
-15.6981637776
 31
0.0
 12
69.2401221453
 22
-15.6981637776
 32
0.0
 13
69.2401221453
 23
-15.6981637776
 33
0.0
  0
SOLID
  5
8D
330
89
100
AcDbEntity
  8
2
 62
     7
420
 16777215
100
AcDbTrace
 10
69.7481221453
 20
10.9998362224
 30
0.0
 11
69.2401221453
 21
7.6978362224
 31
0.0
 12
70.2561221453
 22
7.6978362224
 32
0.0
 13
70.2561221453
 23
7.6978362224
 33
0.0
  0
LINE
  5
8E
330
89
100
AcDbEntity
  8
2
 62
     7
420
 16777215
100
AcDbLine
 10
20.4981221453
 20
-19.0001637776
 30
0.0
 11
70.7481221453
 21
-19.0001637776
 31
0.0
  0
LINE
  5
8F
330
89
100
AcDbEntity
  8
2
 62
     7
420
 16777215
100
AcDbLine
 10
30.1881221453
 20
10.9998362224
 30
0.0
 11
70.7481221453
 21
10.9998362224
 31
0.0
  0
LINE
  5
90
330
89
100
AcDbEntity
  8
2
 62
     7
420
 16777215
100
AcDbLine
 10
69.7481221453
 20
-19.0001637776
 30
0.0
 11
69.7481221453
 21
10.9998362224
 31
0.0
  0
MTEXT
  5
91
330
89
100
AcDbEntity
  8
2
 62
     7
420
 16777215
100
AcDbMText
 10
65.2363852307
 20
-8.0081500586
 30
-5.4997908101
 40
3.5
 41
0.0
 46
0.0
 71
     1
 72
     1
  1
30
  7
SLDTEXTSTYLE0
 11
6.123233995736766E-17
 21
1.0
 31
0.0
 73
     1
 44
1.0
  0
ENDBLK
  5
8B
330
89
100
AcDbEntity
  8
0
100
AcDbBlockEnd
  0
BLOCK
  5
94
330
93
100
AcDbEntity
  8
0
100
AcDbBlockBegin
  2
_D_2
 70
     0
 10
0.0
 20
0.0
 30
0.0
  3
_D_2
  1

  0
SOLID
  5
96
330
93
100
AcDbEntity
  8
2
 62
     7
420
 16777215
100
AcDbTrace
 10
54.4981221453
 20
-29.1297355481
 30
0.0
 11
51.1961221453
 21
-28.6217355481
 31
0.0
 12
51.1961221453
 22
-29.6377355481
 32
0.0
 13
51.1961221453
 23
-29.6377355481
 33
0.0
  0
SOLID
  5
97
330
93
100
AcDbEntity
  8
2
 62
     7
420
 16777215
100
AcDbTrace
 10
19.4981221453
 20
-29.1297355481
 30
0.0
 11
22.8001221453
 21
-29.6377355481
 31
0.0
 12
22.8001221453
 22
-28.6217355481
 32
0.0
 13
22.8001221453
 23
-28.6217355481
 33
0.0
  0
LINE
  5
98
330
93
100
AcDbEntity
  8
2
 62
     7
420
 16777215
100
AcDbLine
 10
54.4981221453
 20
4.9998362224
 30
0.0
 11
54.4981221453
 21
-30.1297355481
 31
0.0
  0
LINE
  5
99
330
93
100
AcDbEntity
  8
2
 62
     7
420
 16777215
100
AcDbLine
 10
19.4981221453
 20
-20.0001637776
 30
0.0
 11
19.4981221453
 21
-30.1297355481
 31
0.0
  0
LINE
  5
9A
330
93
100
AcDbEntity
  8
2
 62
     7
420
 16777215
100
AcDbLine
 10
54.4981221453
 20
-29.1297355481
 30
0.0
 11
19.4981221453
 21
-29.1297355481
 31
0.0
  0
MTEXT
  5
9B
330
93
100
AcDbEntity
  8
2
 62
     7
420
 16777215
100
AcDbMText
 10
32.9901358642
 20
-24.6179986335
 30
-5.4997908101
 40
3.5
 41
0.0
 46
0.0
 71
     1
 72
     1
  1
35
  7
SLDTEXTSTYLE0
 73
     1
 44
1.0
  0
ENDBLK
  5
95
330
93
100
AcDbEntity
  8
0
100
AcDbBlockEnd
  0
BLOCK
  5
9E
330
9D
100
AcDbEntity
  8
0
100
AcDbBlockBegin
  2
_D_3
 70
     0
 10
0.0
 20
0.0
 30
0.0
  3
_D_3
  1

  0
SOLID
  5
A0
330
9D
100
AcDbEntity
  8
2
 62
     7
420
 16777215
100
AcDbTrace
 10
54.4981221453
 20
-35.1297355481
 30
0.0
 11
51.1961221453
 21
-34.6217355481
 31
0.0
 12
51.1961221453
 22
-35.6377355481
 32
0.0
 13
51.1961221453
 23
-35.6377355481
 33
0.0
  0
SOLID
  5
A1
330
9D
100
AcDbEntity
  8
2
 62
     7
420
 16777215
100
AcDbTrace
 10
-5.5018778547
 20
-35.1297355481
 30
0.0
 11
-2.1998778547
 21
-35.6377355481
 31
0.0
 12
-2.1998778547
 22
-34.6217355481
 32
0.0
 13
-2.1998778547
 23
-34.6217355481
 33
0.0
  0
LINE
  5
A2
330
9D
100
AcDbEntity
  8
2
 62
     7
420
 16777215
100
AcDbLine
 10
54.4981221453
 20
4.9998362224
 30
0.0
 11
54.4981221453
 21
-36.1297355481
 31
0.0
  0
LINE
  5
A3
330
9D
100
AcDbEntity
  8
2
 62
     7
420
 16777215
100
AcDbLine
 10
-5.5018778547
 20
-15.0001637776
 30
0.0
 11
-5.5018778547
 21
-36.1297355481
 31
0.0
  0
LINE
  5
A4
330
9D
100
AcDbEntity
  8
2
 62
     7
420
 16777215
100
AcDbLine
 10
54.4981221453
 20
-35.1297355481
 30
0.0
 11
-5.5018778547
 21
-35.1297355481
 31
0.0
  0
MTEXT
  5
A5
330
9D
100
AcDbEntity
  8
2
 62
     7
420
 16777215
100
AcDbMText
 10
20.4901358642
 20
-30.6179986335
 30
-5.4997908101
 40
3.5
 41
0.0
 46
0.0
 71
     1
 72
     1
  1
60
  7
SLDTEXTSTYLE0
 73
     1
 44
1.0
  0
ENDBLK
  5
9F
330
9D
100
AcDbEntity
  8
0
100
AcDbBlockEnd
  0
BLOCK
  5
CF
330
CE
100
AcDbEntity
  8
0
100
AcDbBlockBegin
  2
_D_4
 70
     0
 10
0.0
 20
0.0
 30
0.0
  3
_D_4
  1

  0
SOLID
  5
D1
330
CE
100
AcDbEntity
  8
2
 62
     7
420
 16777215
100
AcDbTrace
 10
-15.3718778547
 20
-67.0288473434
 30
0.0
 11
-14.8638778547
 21
-63.7268473434
 31
0.0
 12
-15.8798778547
 22
-63.7268473434
 32
0.0
 13
-15.8798778547
 23
-63.7268473434
 33
0.0
  0
SOLID
  5
D2
330
CE
100
AcDbEntity
  8
2
 62
     7
420
 16777215
100
AcDbTrace
 10
-15.3718778547
 20
-73.2288473434
 30
0.0
 11
-15.8798778547
 21
-76.5308473434
 31
0.0
 12
-14.8638778547
 22
-76.5308473434
 32
0.0
 13
-14.8638778547
 23
-76.5308473434
 33
0.0
  0
LINE
  5
D3
330
CE
100
AcDbEntity
  8
2
 62
     7
420
 16777215
100
AcDbLine
 10
-6.3718778547
 20
-67.0288473434
 30
0.0
 11
-16.3718778547
 21
-67.0288473434
 31
0.0
  0
LINE
  5
D4
330
CE
100
AcDbEntity
  8
2
 62
     7
420
 16777215
100
AcDbLine
 10
-6.3718778547
 20
-73.2288473434
 30
0.0
 11
-16.3718778547
 21
-73.2288473434
 31
0.0
  0
LINE
  5
D5
330
CE
100
AcDbEntity
  8
2
 62
     7
420
 16777215
100
AcDbLine
 10
-15.3718778547
 20
-67.0288473434
 30
0.0
 11
-15.3718778547
 21
-60.6788473434
 31
0.0
  0
LINE
  5
D6
330
CE
100
AcDbEntity
  8
2
 62
     7
420
 16777215
100
AcDbLine
 10
-15.3718778547
 20
-67.0288473434
 30
0.0
 11
-15.3718778547
 21
-73.2288473434
 31
0.0
  0
LINE
  5
D7
330
CE
100
AcDbEntity
  8
2
 62
     7
420
 16777215
100
AcDbLine
 10
-15.3718778547
 20
-73.2288473434
 30
0.0
 11
-15.3718778547
 21
-91.3451669722
 31
0.0
  0
MTEXT
  5
D8
330
CE
100
AcDbEntity
  8
2
 62
     7
420
 16777215
100
AcDbMText
 10
-19.8836147693
 20
-91.3451669722
 30
1.1735079227
 40
3.5
 41
0.0
 46
0.0
 71
     1
 72
     1
  1
6,20
  7
SLDTEXTSTYLE0
 11
-7.044195017643634E-15
 21
1.0
 31
0.0
 73
     1
 44
1.0
  0
ENDBLK
  5
D0
330
CE
100
AcDbEntity
  8
0
100
AcDbBlockEnd
  0
BLOCK
  5
DB
330
DA
100
AcDbEntity
  8
0
100
AcDbBlockBegin
  2
_D_5
 70
     0
 10
0.0
 20
0.0
 30
0.0
  3
_D_5
  1

  0
SOLID
  5
DD
330
DA
100
AcDbEntity
  8
2
 62
     7
420
 16777215
100
AcDbTrace
 10
63.8781221453
 20
-61.8288473434
 30
0.0
 11
63.3701221453
 21
-65.1308473434
 31
0.0
 12
64.3861221453
 22
-65.1308473434
 32
0.0
 13
64.3861221453
 23
-65.1308473434
 33
0.0
  0
SOLID
  5
DE
330
DA
100
AcDbEntity
  8
2
 62
     7
420
 16777215
100
AcDbTrace
 10
63.8781221453
 20
-73.2288473434
 30
0.0
 11
64.3861221453
 21
-69.9268473434
 31
0.0
 12
63.3701221453
 22
-69.9268473434
 32
0.0
 13
63.3701221453
 23
-69.9268473434
 33
0.0
  0
LINE
  5
DF
330
DA
100
AcDbEntity
  8
2
 62
     7
420
 16777215
100
AcDbLine
 10
27.961457946
 20
-61.8288473434
 30
0.0
 11
64.8781221453
 21
-61.8288473434
 31
0.0
  0
LINE
  5
E0
330
DA
100
AcDbEntity
  8
2
 62
     7
420
 16777215
100
AcDbLine
 10
30.3181221453
 20
-73.2288473434
 30
0.0
 11
64.8781221453
 21
-73.2288473434
 31
0.0
  0
LINE
  5
E1
330
DA
100
AcDbEntity
  8
2
 62
     7
420
 16777215
100
AcDbLine
 10
63.8781221453
 20
-61.8288473434
 30
0.0
 11
63.8781221453
 21
-41.1264162882
 31
0.0
  0
LINE
  5
E2
330
DA
100
AcDbEntity
  8
2
 62
     7
420
 16777215
100
AcDbLine
 10
63.8781221453
 20
-61.8288473434
 30
0.0
 11
63.8781221453
 21
-73.2288473434
 31
0.0
  0
MTEXT
  5
E3
330
DA
100
AcDbEntity
  8
2
 62
     7
420
 16777215
100
AcDbMText
 10
59.3663852307
 20
-55.6076664849
 30
1.1735079227
 40
3.5
 41
0.0
 46
0.0
 71
     1
 72
     1
  1
11,40
  7
SLDTEXTSTYLE0
 11
-6.156016597943509E-15
 21
1.0
 31
0.0
 73
     1
 44
1.0
  0
ENDBLK
  5
DC
330
DA
100
AcDbEntity
  8
0
100
AcDbBlockEnd
  0
ENDSEC
  0
SECTION
  2
ENTITIES
  0
LINE
  5
48
330
1F
100
AcDbEntity
  8
0
  6
SLD-Punktstrich
 62
     7
100
AcDbLine
 10
-5.5018778547
 20
-0.0001637776
 30
0.0
 11
54.4981221453
 21
-0.0001637776
 31
0.0
  0
POINT
  5
49
330
1F
100
AcDbEntity
  8
1
 62
     4
420
    65535
100
AcDbPoint
 10
-5.5018778547
 20
-0.0001637776
 30
0.0
  0
POINT
  5
4A
330
1F
100
AcDbEntity
  8
1
 62
     4
420
    65535
100
AcDbPoint
 10
54.4981221453
 20
-0.0001637776
 30
0.0
  0
POINT
  5
4B
330
1F
100
AcDbEntity
  8
1
 62
     4
420
    65535
100
AcDbPoint
 10
54.4981221453
 20
-0.0001637776
 30
0.0
  0
POINT
  5
4C
330
1F
100
AcDbEntity
  8
1
 62
     4
420
    65535
100
AcDbPoint
 10
53.7481221453
 20
-0.0001637776
 30
0.0
  0
POINT
  5
4D
330
1F
100
AcDbEntity
  8
1
 62
     4
420
    65535
100
AcDbPoint
 10
54.4981221453
 20
5.9998362224
 30
0.0
  0
LINE
  5
4E
330
1F
100
AcDbEntity
  8
1
 62
     4
420
    65535
100
AcDbLine
 10
30.4813956384
 20
4.5172776744
 30
0.0
 11
47.3099089296
 21
5.6908187396
 31
0.0
  0
LINE
  5
4F
330
1F
100
AcDbEntity
  8
1
 62
     4
420
    65535
100
AcDbLine
 10
53.7481221453
 20
2.1066055424
 30
0.0
 11
31.4712702324
 21
0.5531230647
 31
0.0
  0
LINE
  5
50
330
1F
100
AcDbEntity
  8
1
 62
     4
420
    65535
100
AcDbLine
 10
31.1881221453
 20
10.9998362224
 30
0.0
 11
31.1881221453
 21
10.2926277649
 31
0.0
  0
ARC
  5
51
330
1F
100
AcDbEntity
  8
1
 62
     4
420
    65535
100
AcDbCircle
 10
30.6961921395
 20
14.4188601087
 30
0.0
 40
4.15545286166402
100
AcDbArc
 50
248.7207670158
 51
276.798721079
  0
SPLINE
  5
52
330
1F
100
AcDbEntity
  8
1
 62
     4
420
    65535
100
AcDbSpline
210
0.0
220
0.0
230
1.0
 70
    24
 71
     3
 72
    20
 73
    16
 74
     0
 42
0.00000001
 43
0.00000001
 12
1.0
 22
0.0
 32
0.0
 13
1.0
 23
0.0
 33
0.0
 40
0.0
 40
0.0
 40
0.0
 40
0.0
 40
0.1250000000000005
 40
0.1250000000000005
 40
0.2500000000000009
 40
0.2500000000000009
 40
0.3750000000000013
 40
0.3750000000000013
 40
0.5000000000000017
 40
0.5000000000000017
 40
0.625000000000002
 40
0.625000000000002
 40
0.7500000000000023
 40
0.7500000000000023
 40
1.0
 40
1.0
 40
1.0
 40
1.0
 10
29.18812214530969
 20
10.99983622243834
 30
0.0
 10
29.18812214530969
 20
10.99983622243834
 30
0.0
 10
29.20095250753993
 20
10.99983622243834
 30
0.0
 10
29.25123422830227
 20
10.99983622243834
 30
0.0
 10
29.28926398488286
 20
10.99983622243834
 30
0.0
 10
29.38881586509725
 20
10.99983622243835
 30
0.0
 10
29.4497674702907
 20
10.99983622243834
 30
0.0
 10
29.59384023083656
 20
10.99983622243835
 30
0.0
 10
29.67788037194446
 20
10.99983622243834
 30
0.0
 10
29.86181579783151
 20
10.99983622243834
 30
0.0
 10
29.96222265440846
 20
10.99983622243834
 30
0.0
 10
30.18031641397934
 20
10.99983622243835
 30
0.0
 10
30.29717977972318
 20
10.99983622243834
 30
0.0
 10
30.6588791385744
 20
10.99983622243835
 30
0.0
 10
30.92257068970001
 20
10.99983622243834
 30
0.0
 10
31.18812214530969
 20
10.99983622243834
 30
0.0
  0
LINE
  5
53
330
1F
100
AcDbEntity
  8
1
 62
     4
420
    65535
100
AcDbLine
 10
31.1881221453
 20
1.5753611798
 30
0.0
 11
31.1881221453
 21
-17.6846333726
 31
0.0
  0
SPLINE
  5
54
330
1F
100
AcDbEntity
  8
1
 62
     4
420
    65535
100
AcDbSpline
210
0.0
220
0.0
230
1.0
 70
     8
 71
     3
 72
    14
 73
    10
 74
     0
 42
0.00000001
 43
0.00000001
 12
1.0
 22
0.0
 32
0.0
 13
1.0
 23
0.0
 33
0.0
 40
0.0
 40
0.0
 40
0.0
 40
0.0
 40
0.25
 40
0.25
 40
0.5
 40
0.5
 40
0.75
 40
0.75
 40
1.0
 40
1.0
 40
1.0
 40
1.0
 10
31.18812214530969
 20
-17.68463337263598
 30
0.0
 10
30.99720957112055
 20
-17.68463337263597
 30
0.0
 10
30.81246261095822
 20
-17.72330884818334
 30
0.0
 10
30.4604572571091
 20
-17.86708073508054
 30
0.0
 10
30.30020665379287
 20
-17.96929509613383
 30
0.0
 10
30.0119660668794
 20
-18.21490211224506
 30
0.0
 10
29.88724464816629
 20
-18.35493520431959
 30
0.0
 10
29.66759689536615
 20
-18.66146462000661
 30
0.0
 10
29.57369264868436
 20
-18.82736396057724
 30
0.0
 10
29.49540369968226
 20
-19.00016377756165
 30
0.0
  0
SPLINE
  5
55
330
1F
100
AcDbEntity
  8
1
 62
     4
420
    65535
100
AcDbSpline
210
0.0
220
0.0
230
1.0
 70
    24
 71
     3
 72
    10
 73
     6
 74
     0
 42
0.00000001
 43
0.00000001
 12
1.0
 22
0.0
 32
0.0
 13
1.0
 23
0.0
 33
0.0
 40
0.0
 40
0.0
 40
0.0
 40
0.0
 40
0.5
 40
0.5
 40
1.0
 40
1.0
 40
1.0
 40
1.0
 10
29.49540369968227
 20
-19.00016377756166
 30
0.0
 10
29.39093859016934
 20
-19.00016377756166
 30
0.0
 10
29.31575519373067
 20
-19.00016377756166
 30
0.0
 10
29.21419124331288
 20
-19.00016377756165
 30
0.0
 10
29.18812214530969
 20
-19.00016377756166
 30
0.0
 10
29.18812214530969
 20
-19.00016377756166
 30
0.0
  0
ARC
  5
56
330
1F
100
AcDbEntity
  8
1
 62
     4
420
    65535
100
AcDbCircle
 10
30.6773300767
 20
-2.3354510278
 30
0.0
 40
4.070600021236264
100
AcDbArc
 50
83.2591855513
 51
111.4595836061
  0
LINE
  5
57
330
1F
100
AcDbEntity
  8
1
 62
     4
420
    65535
100
AcDbLine
 10
31.1551297357
 20
1.707010106
 30
0.0
 11
31.1881221453
 21
1.5753611798
 31
0.0
  0
SPLINE
  5
58
330
1F
100
AcDbEntity
  8
1
 62
     4
420
    65535
100
AcDbSpline
210
0.0
220
0.0
230
1.0
 70
     8
 71
     3
 72
    10
 73
     6
 74
     0
 42
0.00000001
 43
0.00000001
 12
1.0
 22
0.0
 32
0.0
 13
1.0
 23
0.0
 33
0.0
 40
0.0
 40
0.0
 40
0.0
 40
0.0
 40
0.4999999999999998
 40
0.4999999999999998
 40
1.0
 40
1.0
 40
1.0
 40
1.0
 10
30.28226830120851
 20
5.189416084828707
 30
0.0
 10
30.42760109209982
 20
4.609917434224855
 30
0.0
 10
30.57310061952407
 20
4.029393098408918
 30
0.0
 10
30.86410470686959
 20
2.868272713806951
 30
0.0
 10
31.0096166306735
 20
2.287645421030054
 30
0.0
 10
31.15512973569929
 20
1.707010106036542
 30
0.0
  0
LINE
  5
59
330
1F
100
AcDbEntity
  8
1
 62
     4
420
    65535
100
AcDbLine
 10
29.1881221453
 20
10.5467142723
 30
0.0
 11
29.1881221453
 21
1.4529581726
 31
0.0
  0
SPLINE
  5
5A
330
1F
100
AcDbEntity
  8
1
 62
     4
420
    65535
100
AcDbSpline
210
0.0
220
0.0
230
1.0
 70
     8
 71
     3
 72
    10
 73
     6
 74
     0
 42
0.00000001
 43
0.00000001
 12
1.0
 22
0.0
 32
0.0
 13
1.0
 23
0.0
 33
0.0
 40
0.0
 40
0.0
 40
0.0
 40
0.0
 40
0.4999999999999998
 40
0.4999999999999998
 40
1.0
 40
1.0
 40
1.0
 40
1.0
 10
31.18812214530969
 20
10.29262776487083
 30
0.0
 10
31.1881221453097
 20
9.444238356811967
 30
0.0
 10
31.17905090383648
 20
8.591806669152419
 30
0.0
 10
31.1676953046436
 20
6.890557530695035
 30
0.0
 10
31.16541723077027
 20
6.040410584812832
 30
0.0
 10
31.16846213590111
 20
5.190739076624091
 30
0.0
  0
SPLINE
  5
5B
330
1F
100
AcDbEntity
  8
1
 62
     4
420
    65535
100
AcDbSpline
210
0.0
220
0.0
230
1.0
 70
     8
 71
     3
 72
    10
 73
     6
 74
     0
 42
0.00000001
 43
0.00000001
 12
1.0
 22
0.0
 32
0.0
 13
1.0
 23
0.0
 33
0.0
 40
0.0
 40
0.0
 40
0.0
 40
0.0
 40
0.5
 40
0.5
 40
1.0
 40
1.0
 40
1.0
 40
1.0
 10
31.16846213590111
 20
5.190739076624089
 30
0.0
 10
31.01424856820648
 20
5.180073558821854
 30
0.0
 10
30.8627939523746
 20
5.174698167580174
 30
0.0
 10
30.56524714347943
 20
5.174229512704879
 30
0.0
 10
30.41855461727188
 20
5.179338376304771
 30
0.0
 10
30.28226830120858
 20
5.189416084828737
 30
0.0
  0
CIRCLE
  5
5C
330
1F
100
AcDbEntity
  8
1
 62
     4
420
    65535
100
AcDbCircle
 10
15.4981221453
 20
-8.5001637776
 30
0.0
 40
2.500000000000002
  0
LINE
  5
5D
330
1F
100
AcDbEntity
  8
1
 62
     4
420
    65535
100
AcDbLine
 10
29.1881221453
 20
-19.0001637776
 30
0.0
 11
19.4981221453
 21
-19.0001637776
 31
0.0
  0
CIRCLE
  5
5E
330
1F
100
AcDbEntity
  8
1
 62
     4
420
    65535
100
AcDbCircle
 10
10.2481221453
 20
5.4998362224
 30
0.0
 40
2.500000000000001
  0
LINE
  5
5F
330
1F
100
AcDbEntity
  8
1
 62
     4
420
    65535
100
AcDbLine
 10
29.1881221453
 20
10.9998362224
 30
0.0
 11
29.1881221453
 21
10.5467142723
 31
0.0
  0
LINE
  5
60
330
1F
100
AcDbEntity
  8
1
 62
     4
420
    65535
100
AcDbLine
 10
-5.5018778547
 20
-14.0001637776
 30
0.0
 11
-5.5018778547
 21
5.0538362224
 31
0.0
  0
CIRCLE
  5
61
330
1F
100
AcDbEntity
  8
1
 62
     4
420
    65535
100
AcDbCircle
 10
-0.0018778547
 20
-0.0001637776
 30
0.0
 40
2.5
  0
LINE
  5
62
330
1F
100
AcDbEntity
  8
1
 62
     4
420
    65535
100
AcDbLine
 10
-5.5018778547
 20
5.0538362224
 30
0.0
 11
3.4981221453
 21
5.9997743398
 31
0.0
  0
LINE
  5
63
330
1F
100
AcDbEntity
  8
1
 62
     4
420
    65535
100
AcDbLine
 10
29.1881221453
 20
1.4529581726
 30
0.0
 11
29.1881221453
 21
-19.0001637776
 31
0.0
  0
LINE
  5
64
330
1F
100
AcDbEntity
  8
1
 62
     4
420
    65535
100
AcDbLine
 10
3.4981221453
 20
5.9997743398
 30
0.0
 11
3.4981221453
 21
10.9998362224
 31
0.0
  0
LINE
  5
65
330
1F
100
AcDbEntity
  8
1
 62
     4
420
    65535
100
AcDbLine
 10
19.4981221453
 20
-14.0001637776
 30
0.0
 11
-5.5018778547
 21
-14.0001637776
 31
0.0
  0
LINE
  5
66
330
1F
100
AcDbEntity
  8
1
 62
     4
420
    65535
100
AcDbLine
 10
19.4981221453
 20
-19.0001637776
 30
0.0
 11
19.4981221453
 21
-14.0001637776
 31
0.0
  0
LINE
  5
67
330
1F
100
AcDbEntity
  8
1
 62
     4
420
    65535
100
AcDbLine
 10
3.4981221453
 20
10.9998362224
 30
0.0
 11
29.1881221453
 21
10.9998362224
 31
0.0
  0
LINE
  5
68
330
1F
100
AcDbEntity
  8
1
 62
     4
420
    65535
100
AcDbLine
 10
47.3099089296
 20
5.7063657283
 30
0.0
 11
47.3099089296
 21
5.9998362224
 31
0.0
  0
LINE
  5
69
330
1F
100
AcDbEntity
  8
1
 62
     4
420
    65535
100
AcDbLine
 10
30.4761782164
 20
4.5324608246
 30
0.0
 11
47.3099089296
 21
5.7063657283
 31
0.0
  0
LINE
  5
6A
330
1F
100
AcDbEntity
  8
1
 62
     4
420
    65535
100
AcDbLine
 10
30.4761782164
 20
4.5324608246
 30
0.0
 11
30.2822683012
 21
5.1894160848
 31
0.0
  0
ELLIPSE
  5
6B
330
1F
100
AcDbEntity
  8
1
 62
     4
420
    65535
100
AcDbEllipse
 10
184.3743804498
 20
5.9998362224
 30
0.0
 11
511.8962055890065
 21
32.4847887526368
 31
0.0
210
0.0
220
0.0
230
1.0
 40
0.0181690688
 41
1.841361705480845
 42
1.873592603336171
  0
LINE
  5
6C
330
1F
100
AcDbEntity
  8
1
 62
     4
420
    65535
100
AcDbLine
 10
47.3099089296
 20
5.9998362224
 30
0.0
 11
46.9879158029
 21
6.2797405771
 31
0.0
  0
ELLIPSE
  5
6D
330
1F
100
AcDbEntity
  8
1
 62
     4
420
    65535
100
AcDbEllipse
 10
30.3833056117
 20
4.9114087612
 30
0.0
 11
-0.09810104806130225
 21
0.3941293521360087
 31
0.0
210
0.0
220
0.0
230
1.0
 40
0.0124650616
 41
2.860017744193128
 42
3.139397390951029
  0
ELLIPSE
  5
6E
330
1F
100
AcDbEntity
  8
1
 62
     4
420
    65535
100
AcDbEllipse
 10
30.7350563669
 20
5.9998362224
 30
0.0
 11
-11.36835314316304
 21
45.6697865415191
 31
0.0
210
0.0
220
0.0
230
1.0
 40
0.0122825672
 41
1.600166077685925
 42
1.687243589240687
  0
ELLIPSE
  5
6F
330
1F
100
AcDbEntity
  8
1
 62
     4
420
    65535
100
AcDbEllipse
 10
31.5693602591
 20
0.1589919778
 30
0.0
 11
-0.09810104806129871
 21
0.3941293521360072
 31
0.0
210
0.0
220
0.0
230
1.0
 40
0.0124650616
 41
6.280990044541134
 42
6.664835513540385
  0
LINE
  5
70
330
1F
100
AcDbEntity
  8
1
 62
     4
420
    65535
100
AcDbLine
 10
31.6293380922
 20
-0.1827595831
 30
0.0
 11
31.4764876545
 21
0.5243087779
 31
0.0
  0
ELLIPSE
  5
71
330
1F
100
AcDbEntity
  8
1
 62
     4
420
    65535
100
AcDbEllipse
 10
30.5238818072
 20
5.9998362224
 30
0.0
 11
-8.411137567494478
 21
33.78984206783239
 31
0.0
210
0.0
220
0.0
230
1.0
 40
0.0122825672
 41
1.699056353202089
 42
1.751746693153061
  0
LINE
  5
72
330
1F
100
AcDbEntity
  8
1
 62
     4
420
    65535
100
AcDbLine
 10
36.8481221453
 20
10.9998362224
 30
0.0
 11
45.6481221453
 21
7.4444054351
 31
0.0
  0
LINE
  5
73
330
1F
100
AcDbEntity
  8
1
 62
     4
420
    65535
100
AcDbLine
 10
45.6481221453
 20
7.4444054351
 30
0.0
 11
46.9879158029
 21
6.2797405771
 31
0.0
  0
LINE
  5
74
330
1F
100
AcDbEntity
  8
1
 62
     4
420
    65535
100
AcDbLine
 10
36.8481221453
 20
10.9998362224
 30
0.0
 11
31.1881221453
 21
10.9998362224
 31
0.0
  0
LINE
  5
75
330
1F
100
AcDbEntity
  8
1
 62
     4
420
    65535
100
AcDbLine
 10
53.7481221453
 20
-17.6846333726
 30
0.0
 11
31.1881221453
 21
-17.6846333726
 31
0.0
  0
ELLIPSE
  5
76
330
1F
100
AcDbEntity
  8
1
 62
     4
420
    65535
100
AcDbEllipse
 10
-70.4270295947
 20
5.9998362224
 30
0.0
 11
511.8959614809834
 21
31.33917328744388
 31
0.0
210
0.0
220
0.0
230
1.0
 40
0.024680979
 41
4.911592049931816
 42
4.955900938101382
  0
LINE
  5
77
330
1F
100
AcDbEntity
  8
1
 62
     4
420
    65535
100
AcDbLine
 10
53.7481221453
 20
-17.6846333726
 30
0.0
 11
53.7481221453
 21
1.2947489794
 31
0.0
  0
LINE
  5
78
330
1F
100
AcDbEntity
  8
1
 62
     4
420
    65535
100
AcDbLine
 10
31.4764876545
 20
0.5243087779
 30
0.0
 11
53.7481221453
 21
2.0774274172
 31
0.0
  0
LINE
  5
79
330
1F
100
AcDbEntity
  8
1
 62
     4
420
    65535
100
AcDbLine
 10
53.7481221453
 20
2.0774274172
 30
0.0
 11
53.7481221453
 21
1.2947489794
 31
0.0
  0
LINE
  5
7A
330
1F
100
AcDbEntity
  8
1
 62
     4
420
    65535
100
AcDbLine
 10
47.3099089296
 20
5.6908187396
 30
0.0
 11
47.3099089296
 21
5.7063657283
 31
0.0
  0
LINE
  5
7B
330
1F
100
AcDbEntity
  8
1
 62
     4
420
    65535
100
AcDbLine
 10
53.7481221453
 20
2.1066055424
 30
0.0
 11
53.7481221453
 21
2.0774274172
 31
0.0
  0
DIMENSION
  5
7C
330
1F
100
AcDbEntity
  8
2
 62
     7
420
 16777215
100
AcDbDimension
  2
_D
 10
63.7481221453
 20
-19.0001637776
 30
0.0
 11
63.7481221453
 21
-6.5001637776
 31
0.0
 70
   160
  1
<>
 71
     2
 42
-1.0
 73
     0
 74
     0
 75
     0
  3
SLDDIMSTYLE0
100
AcDbAlignedDimension
 13
54.4981221453
 23
5.9998362224
 33
0.0
 14
19.4981221453
 24
-19.0001637776
 34
0.0
 50
90.0
100
AcDbRotatedDimension
  0
DIMENSION
  5
88
330
1F
100
AcDbEntity
  8
2
 62
     7
420
 16777215
100
AcDbDimension
  2
_D_1
 10
69.7481221453
 20
10.9998362224
 30
0.0
 11
69.7481221453
 21
-4.0001637776
 31
0.0
 70
   160
  1
<>
 71
     2
 42
-1.0
 73
     0
 74
     0
 75
     0
  3
SLDDIMSTYLE0
100
AcDbAlignedDimension
 13
19.4981221453
 23
-19.0001637776
 33
0.0
 14
29.1881221453
 24
10.9998362224
 34
0.0
 50
90.0
100
AcDbRotatedDimension
  0
DIMENSION
  5
92
330
1F
100
AcDbEntity
  8
2
 62
     7
420
 16777215
100
AcDbDimension
  2
_D_2
 10
19.4981221453
 20
-29.1297355481
 30
0.0
 11
36.9981221453
 21
-29.1297355481
 31
0.0
 70
   160
  1
<>
 71
     2
 42
-1.0
 73
     0
 74
     0
 75
     0
  3
SLDDIMSTYLE0
100
AcDbAlignedDimension
 13
54.4981221453
 23
5.9998362224
 33
0.0
 14
19.4981221453
 24
-19.0001637776
 34
0.0
100
AcDbRotatedDimension
  0
DIMENSION
  5
9C
330
1F
100
AcDbEntity
  8
2
 62
     7
420
 16777215
100
AcDbDimension
  2
_D_3
 10
-5.5018778547
 20
-35.1297355481
 30
0.0
 11
24.4981221453
 21
-35.1297355481
 31
0.0
 70
   160
  1
<>
 71
     2
 42
-1.0
 73
     0
 74
     0
 75
     0
  3
SLDDIMSTYLE0
100
AcDbAlignedDimension
 13
54.4981221453
 23
5.9998362224
 33
0.0
 14
-5.5018778547
 24
-14.0001637776
 34
0.0
 50
0.0
100
AcDbRotatedDimension
  0
LINE
  5
A6
330
1F
100
AcDbEntity
  8
1
 62
     4
420
    65535
100
AcDbLine
 10
31.2984656296
 20
-71.5188473434
 30
0.0
 11
43.0378347795
 21
-71.5188473434
 31
0.0
  0
SPLINE
  5
A7
330
1F
100
AcDbEntity
  8
1
 62
     4
420
    65535
100
AcDbSpline
210
0.0
220
0.0
230
1.0
 70
     8
 71
     3
 72
    25
 73
    21
 74
     0
 42
0.00000001
 43
0.00000001
 12
1.0
 22
0.0
 32
0.0
 13
1.0
 23
0.0
 33
0.0
 40
0.0
 40
0.0
 40
0.0
 40
0.0
 40
0.0537307419598349
 40
0.2050249540645991
 40
0.3085170130738416
 40
0.3811928875461301
 40
0.4357212511456045
 40
0.47863693965873
 40
0.5142861718216502
 40
0.546336212936423
 40
0.5776531786159791
 40
0.6107873388044888
 40
0.6491604634452455
 40
0.6930545881827936
 40
0.7402791530338603
 40
0.789808357487465
 40
0.8411078156795545
 40
0.8936063871642002
 40
0.9468734349609117
 40
1.0
 40
1.0
 40
1.0
 40
1.0
 10
29.33602328828842
 20
-73.18820747581982
 30
0.0
 10
29.33650183553447
 20
-73.18147852617683
 30
0.0
 10
29.33832786889191
 20
-73.15580230170767
 30
0.0
 10
29.34811730594907
 20
-73.09400128853768
 30
0.0
 10
29.36535639352158
 20
-73.01370791866701
 30
0.0
 10
29.38528727512325
 20
-72.9393212974322
 30
0.0
 10
29.40767151450128
 20
-72.86804471004146
 30
0.0
 10
29.43410813318969
 20
-72.79446889196709
 30
0.0
 10
29.46709668764555
 20
-72.71360089750948
 30
0.0
 10
29.5106153286566
 20
-72.61996002500575
 30
0.0
 10
29.56996614041032
 20
-72.50927573227413
 30
0.0
 10
29.65160194860427
 20
-72.3794534809875
 30
0.0
 10
29.76240539892283
 20
-72.2322775251449
 30
0.0
 10
29.90691804872732
 20
-72.07592024736987
 30
0.0
 10
30.08423711127926
 20
-71.9230651323015
 30
0.0
 10
30.29007203604908
 20
-71.785194375744
 30
0.0
 10
30.52016403175832
 20
-71.66998431076438
 30
0.0
 10
30.76954100283706
 20
-71.5842218471078
 30
0.0
 10
31.03136435256062
 20
-71.52900535324655
 30
0.0
 10
31.20994162960437
 20
-71.52239650220199
 30
0.0
 10
31.29911237087819
 20
-71.51909643986278
 30
0.0
  0
ELLIPSE
  5
A8
330
1F
100
AcDbEntity
  8
1
 62
     4
420
    65535
100
AcDbEllipse
 10
49.3535564124
 20
-21.5388473434
 30
0.0
 11
113.0372165955217
 21
0.0
 31
0.0
210
0.0
220
0.0
230
1.0
 40
0.4040262258
 41
4.602688023930968
 42
4.680753109972031
  0
LINE
  5
A9
330
1F
100
AcDbEntity
  8
1
 62
     4
420
    65535
100
AcDbLine
 10
25.5934507819
 20
-66.9343195846
 30
0.0
 11
36.9781221453
 21
-66.9343195846
 31
0.0
  0
LINE
  5
AA
330
1F
100
AcDbEntity
  8
1
 62
     4
420
    65535
100
AcDbLine
 10
26.961457946
 20
-61.8288473434
 30
0.0
 11
25.5934507819
 21
-66.9343195846
 31
0.0
  0
LINE
  5
AB
330
1F
100
AcDbEntity
  8
1
 62
     4
420
    65535
100
AcDbLine
 10
26.961457946
 20
-61.8288473434
 30
0.0
 11
53.8781221453
 21
-61.8288473434
 31
0.0
  0
LINE
  5
AC
330
1F
100
AcDbEntity
  8
1
 62
     4
420
    65535
100
AcDbLine
 10
53.8781221453
 20
-66.9879559835
 30
0.0
 11
53.8781221453
 21
-61.8288473434
 31
0.0
  0
ELLIPSE
  5
AD
330
1F
100
AcDbEntity
  8
1
 62
     4
420
    65535
100
AcDbEllipse
 10
309.4756629339
 20
-21.5388473434
 30
0.0
 11
691.8703604047111
 21
12.6722290048748
 31
0.0
210
0.0
220
0.0
230
1.0
 40
0.0634174952
 41
4.298219284975518
 42
4.332832343620645
  0
ELLIPSE
  5
AE
330
1F
100
AcDbEntity
  8
1
 62
     4
420
    65535
100
AcDbEllipse
 10
30.8650563669
 20
-21.5388473434
 30
0.0
 11
0.6350224967398539
 21
45.66972662488469
 31
0.0
210
0.0
220
0.0
230
1.0
 40
0.2488400226
 41
3.254753634737189
 42
3.278058704052769
  0
ELLIPSE
  5
AF
330
1F
100
AcDbEntity
  8
1
 62
     4
420
    65535
100
AcDbEllipse
 10
47.4399089296
 20
-21.5388473434
 30
0.0
 11
52.53732515778366
 21
0.0
 31
0.0
210
0.0
220
0.0
230
1.0
 40
0.8692867378
 41
4.680753109972036
 42
4.701823774912466
  0
SPLINE
  5
B0
330
1F
100
AcDbEntity
  8
1
 62
     4
420
    65535
100
AcDbSpline
210
0.0
220
0.0
230
1.0
 70
     8
 71
     3
 72
    20
 73
    16
 74
     0
 42
0.00000001
 43
0.00000001
 12
1.0
 22
0.0
 32
0.0
 13
1.0
 23
0.0
 33
0.0
 40
0.0
 40
0.0
 40
0.0
 40
0.0
 40
0.1250000000000005
 40
0.1250000000000005
 40
0.2500000000000009
 40
0.2500000000000009
 40
0.3750000000000013
 40
0.3750000000000013
 40
0.5000000000000017
 40
0.5000000000000017
 40
0.625000000000002
 40
0.625000000000002
 40
0.7500000000000023
 40
0.7500000000000023
 40
1.0
 40
1.0
 40
1.0
 40
1.0
 10
29.31812214530968
 20
-73.1678667993291
 30
0.0
 10
29.31812214530969
 20
-73.03512997762547
 30
0.0
 10
29.33095250753992
 20
-72.904574766915
 30
0.0
 10
29.38123422830227
 20
-72.64765077727448
 30
0.0
 10
29.41926398488285
 20
-72.51999755486858
 30
0.0
 10
29.51881586509724
 20
-72.27597659774324
 30
0.0
 10
29.57976747029069
 20
-72.1601614270659
 30
0.0
 10
29.72384023083655
 20
-71.94082093046356
 30
0.0
 10
29.80788037194446
 20
-71.83666997132737
 30
0.0
 10
29.99181579783151
 20
-71.64968571263387
 30
0.0
 10
30.09222265440845
 20
-71.5657227033266
 30
0.0
 10
30.31031641397933
 20
-71.41730857403977
 30
0.0
 10
30.42717977972316
 20
-71.35378031708838
 30
0.0
 10
30.78887913857439
 20
-71.20114386040191
 30
0.0
 10
31.0525706897
 20
-71.14686793106873
 30
0.0
 10
31.31812214530968
 20
-71.14686793106873
 30
0.0
  0
LINE
  5
B1
330
1F
100
AcDbEntity
  8
1
 62
     4
420
    65535
100
AcDbLine
 10
29.3181221453
 20
-73.1678667993
 30
0.0
 11
29.3181221453
 21
-73.2288473434
 31
0.0
  0
LINE
  5
B2
330
1F
100
AcDbEntity
  8
1
 62
     4
420
    65535
100
AcDbLine
 10
3.6281221453
 20
-73.2288473434
 30
0.0
 11
29.3181221453
 21
-73.2288473434
 31
0.0
  0
LINE
  5
B3
330
1F
100
AcDbEntity
  8
1
 62
     4
420
    65535
100
AcDbLine
 10
3.6281221453
 20
-67.0288473434
 30
0.0
 11
3.6281221453
 21
-73.2288473434
 31
0.0
  0
LINE
  5
B4
330
1F
100
AcDbEntity
  8
1
 62
     4
420
    65535
100
AcDbLine
 10
3.6281221453
 20
-67.0288473434
 30
0.0
 11
25.5681221453
 21
-67.0288473434
 31
0.0
  0
LINE
  5
B5
330
1F
100
AcDbEntity
  8
1
 62
     4
420
    65535
100
AcDbLine
 10
36.9781221453
 20
-66.9343195846
 30
0.0
 11
36.9781221453
 21
-71.1468679311
 31
0.0
  0
LINE
  5
B6
330
1F
100
AcDbEntity
  8
1
 62
     4
420
    65535
100
AcDbLine
 10
36.9781221453
 20
-71.1468679311
 30
0.0
 11
31.3181221453
 21
-71.1468679311
 31
0.0
  0
LINE
  5
B7
330
1F
100
AcDbEntity
  8
1
 62
     4
420
    65535
100
AcDbLine
 10
25.5681221453
 20
-67.0288473434
 30
0.0
 11
25.5934507819
 21
-66.9343195846
 31
0.0
  0
LINE
  5
B8
330
1F
100
AcDbEntity
  8
1
 62
     4
420
    65535
100
AcDbLine
 10
45.7781221453
 20
-67.1859953352
 30
0.0
 11
45.7781221453
 21
-71.4879545559
 31
0.0
  0
ELLIPSE
  5
B9
330
1F
100
AcDbEntity
  8
1
 62
     4
420
    65535
100
AcDbEllipse
 10
49.3535564124
 20
-37.7288473434
 30
0.0
 11
83.63318477693625
 21
0.0
 31
0.0
210
0.0
220
0.0
230
1.0
 40
0.4040262258
 41
4.563870815727542
 42
4.669624564576282
  0
LINE
  5
BA
330
1F
100
AcDbEntity
  8
1
 62
     4
420
    65535
100
AcDbLine
 10
31.3181221453
 20
-71.1468679311
 30
0.0
 11
31.3181221453
 21
-71.2450529874
 31
0.0
  0
ELLIPSE
  5
BB
330
1F
100
AcDbEntity
  8
1
 62
     4
420
    65535
100
AcDbEllipse
 10
47.4399089296
 20
-37.7288473434
 30
0.0
 11
38.87094847999804
 21
0.0
 31
0.0
210
0.0
220
0.0
230
1.0
 40
0.8692867378
 41
4.669624564576288
 42
4.704105240938938
  0
ELLIPSE
  5
BC
330
1F
100
AcDbEntity
  8
1
 62
     4
420
    65535
100
AcDbEllipse
 10
184.5043804498
 20
-37.7288473434
 30
0.0
 11
511.8962005271568
 21
9.375840115496548
 31
0.0
210
0.0
220
0.0
230
1.0
 40
0.0634174952
 41
4.431225310744797
 42
4.439509050190556
  0
ARC
  5
BD
330
1F
100
AcDbEntity
  8
1
 62
     4
420
    65535
100
AcDbCircle
 10
31.3100521512
 20
-73.2369832614
 30
0.0
 40
1.991946621109143
100
AcDbArc
 50
89.7678763749
 51
179.7659801433
  0
LINE
  5
BE
330
1F
100
AcDbEntity
  8
1
 62
     4
420
    65535
100
AcDbLine
 10
47.4399089296
 20
-68.4955911662
 30
0.0
 11
47.4399089296
 21
-70.467389666
 31
0.0
  0
LINE
  5
BF
330
1F
100
AcDbEntity
  8
1
 62
     4
420
    65535
100
AcDbLine
 10
47.4399089296
 20
-70.467389666
 30
0.0
 11
47.1179158029
 21
-71.5176880094
 31
0.0
  0
LINE
  5
C0
330
1F
100
AcDbEntity
  8
1
 62
     4
420
    65535
100
AcDbLine
 10
46.8848516207
 20
-67.2062984429
 30
0.0
 11
47.4399089296
 21
-68.4955911662
 31
0.0
  0
LINE
  5
C1
330
1F
100
AcDbEntity
  8
1
 62
     4
420
    65535
100
AcDbLine
 10
-5.3718778547
 20
-67.0288473434
 30
0.0
 11
-5.3718778547
 21
-73.2288473434
 31
0.0
  0
LINE
  5
C2
330
1F
100
AcDbEntity
  8
1
 62
     4
420
    65535
100
AcDbLine
 10
-5.3718778547
 20
-73.2288473434
 30
0.0
 11
3.6281221453
 21
-73.2288473434
 31
0.0
  0
LINE
  5
C3
330
1F
100
AcDbEntity
  8
1
 62
     4
420
    65535
100
AcDbLine
 10
3.6281221453
 20
-67.0288473434
 30
0.0
 11
-5.3718778547
 21
-67.0288473434
 31
0.0
  0
LINE
  5
C4
330
1F
100
AcDbEntity
  8
1
 62
     4
420
    65535
100
AcDbLine
 10
31.7712726077
 20
-66.9343195846
 30
0.0
 11
31.7819909718
 21
-66.8054776072
 31
0.0
  0
LINE
  5
C5
330
1F
100
AcDbEntity
  8
1
 62
     4
420
    65535
100
AcDbLine
 10
53.8781221453
 20
-68.9965415513
 30
0.0
 11
53.8781221453
 21
-69.256639131
 31
0.0
  0
LINE
  5
C6
330
1F
100
AcDbEntity
  8
1
 62
     4
420
    65535
100
AcDbLine
 10
53.8781221453
 20
-66.9879559835
 30
0.0
 11
53.8781221453
 21
-68.9965415513
 31
0.0
  0
ELLIPSE
  5
C7
330
1F
100
AcDbEntity
  8
1
 62
     4
420
    65535
100
AcDbEllipse
 10
-70.2970295947
 20
-37.7288473434
 30
0.0
 11
511.8959541191767
 21
-12.72904033699938
 31
0.0
210
0.0
220
0.0
230
1.0
 40
0.0611466621
 41
4.945584651233853
 42
4.958932449863447
  0
LINE
  5
C8
330
1F
100
AcDbEntity
  8
1
 62
     4
420
    65535
100
AcDbLine
 10
53.8781221453
 20
-69.256639131
 30
0.0
 11
53.8781221453
 21
-71.1896640404
 31
0.0
  0
SPLINE
  5
C9
330
1F
100
AcDbEntity
  8
1
 62
     4
420
    65535
100
AcDbSpline
210
0.0
220
0.0
230
1.0
 70
     8
 71
     3
 72
    10
 73
     6
 74
     0
 42
0.00000001
 43
0.00000001
 12
1.0
 22
0.0
 32
0.0
 13
1.0
 23
0.0
 33
0.0
 40
0.0
 40
0.0
 40
0.0
 40
0.0
 40
0.2319094438714939
 40
0.6704061645307203
 40
1.0
 40
1.0
 40
1.0
 40
1.0
 10
31.31812214530968
 20
-71.2450529874025
 30
0.0
 10
31.31725562784657
 20
-71.2841295335926
 30
0.0
 10
31.31475069040527
 20
-71.39709240831247
 30
0.0
 10
31.29939004199173
 20
-71.50253232377065
 30
0.0
 10
31.29874319629285
 20
-71.50697556443234
 30
0.0
 10
31.29846562960081
 20
-71.50888219473772
 30
0.0
  0
LINE
  5
CA
330
1F
100
AcDbEntity
  8
1
 62
     4
420
    65535
100
AcDbLine
 10
47.4399089296
 20
-69.2331095792
 30
0.0
 11
53.8781221453
 21
-69.256639131
 31
0.0
  0
LINE
  5
CB
330
1F
100
AcDbEntity
  8
1
 62
     4
420
    65535
100
AcDbLine
 10
47.4399089296
 20
-68.9730119995
 30
0.0
 11
53.8781221453
 21
-68.9965415513
 31
0.0
  0
DIMENSION
  5
CC
330
1F
100
AcDbEntity
  8
2
 62
     7
420
 16777215
100
AcDbDimension
  2
_D_4
 10
-15.3718778547
 20
-73.2288473434
 30
0.0
 11
-15.3718778547
 21
-85.397597587
 31
0.0
 70
   160
  1
<>
 71
     2
 42
-1.0
 73
     0
 74
     0
 75
     0
  3
SLDDIMSTYLE1
100
AcDbAlignedDimension
 13
-5.3718778547
 23
-67.0288473434
 33
0.0
 14
-5.3718778547
 24
-73.2288473434
 34
0.0
 50
90.0
100
AcDbRotatedDimension
  0
DIMENSION
  5
D9
330
1F
100
AcDbEntity
  8
2
 62
     7
420
 16777215
100
AcDbDimension
  2
_D_5
 10
63.8781221453
 20
-73.2288473434
 30
0.0
 11
63.8781221453
 21
-48.3670413866
 31
0.0
 70
   160
  1
<>
 71
     2
 42
-1.0
 73
     0
 74
     0
 75
     0
  3
SLDDIMSTYLE0
100
AcDbAlignedDimension
 13
26.961457946
 23
-61.8288473434
 33
0.0
 14
29.3181221453
 24
-73.2288473434
 34
0.0
 50
90.0
100
AcDbRotatedDimension
  0
ENDSEC
  0
SECTION
  2
OBJECTS
  0
DICTIONARY
  5
C
330
0
100
AcDbDictionary
281
     1
  3
ACAD_GROUP
350
D
  3
ACAD_LAYOUT
350
1A
  3
ACAD_MATERIAL
350
3B
  3
ACAD_MLEADERSTYLE
350
E5
  3
ACAD_MLINESTYLE
350
17
  3
ACAD_PLOTSETTINGS
350
19
  3
ACAD_PLOTSTYLENAME
350
E
  3
ACAD_TABLESTYLE
350
E4
  3
ACAD_VISUALSTYLE
350
2A
  0
DICTIONARY
  5
D
102
{ACAD_REACTORS
330
C
102
}
330
C
100
AcDbDictionary
281
     1
  0
DICTIONARY
  5
1A
102
{ACAD_REACTORS
330
C
102
}
330
C
100
AcDbDictionary
281
     1
  3
Layout1
350
1E
  3
Layout2
350
26
  3
Model
350
22
  0
DICTIONARY
  5
3B
102
{ACAD_REACTORS
330
C
102
}
330
C
100
AcDbDictionary
281
     1
  3
ByBlock
350
3D
  3
ByLayer
350
3C
  3
Global
350
3E
  0
DICTIONARY
  5
E5
102
{ACAD_REACTORS
330
C
102
}
330
C
100
AcDbDictionary
281
     1
  0
DICTIONARY
  5
17
102
{ACAD_REACTORS
330
C
102
}
330
C
100
AcDbDictionary
281
     1
  3
Standard
350
18
  0
DICTIONARY
  5
19
102
{ACAD_REACTORS
330
C
102
}
330
C
100
AcDbDictionary
281
     1
  0
ACDBDICTIONARYWDFLT
  5
E
102
{ACAD_REACTORS
330
C
102
}
330
C
100
AcDbDictionary
281
     1
  3
Normal
350
F
100
AcDbDictionaryWithDefault
340
F
  0
DICTIONARY
  5
E4
102
{ACAD_REACTORS
330
C
102
}
330
C
100
AcDbDictionary
281
     1
  0
DICTIONARY
  5
2A
102
{ACAD_REACTORS
330
C
102
}
330
C
100
AcDbDictionary
281
     1
  3
2dWireframe
350
2F
  3
3D Hidden
350
31
  3
3dWireframe
350
30
  3
Basic
350
32
  3
Brighten
350
36
  3
ColorChange
350
3A
  3
Conceptual
350
34
  3
Dim
350
35
  3
Facepattern
350
39
  3
Flat
350
2B
  3
FlatWithEdges
350
2C
  3
Gouraud
350
2D
  3
GouraudWithEdges
350
2E
  3
Linepattern
350
38
  3
Realistic
350
33
  3
Thicken
350
37
  0
LAYOUT
  5
1E
102
{ACAD_REACTORS
330
1A
102
}
330
1A
100
AcDbPlotSettings
  1

  2
none_device
  4

  6

 40
0.0
 41
0.0
 42
0.0
 43
0.0
 44
0.0
 45
0.0
 46
0.0
 47
0.0
 48
0.0
 49
0.0
140
0.0
141
0.0
142
1.0
143
1.0
 70
   688
 72
     0
 73
     0
 74
     5
  7

 75
    16
 76
     0
 77
     2
 78
   300
147
1.0
148
0.0
149
0.0
100
AcDbLayout
  1
Layout1
 70
     1
 71
     1
 10
0.0
 20
0.0
 11
420.0
 21
297.0
 12
0.0
 22
0.0
 32
0.0
 14
1.0000000000E+20
 24
1.0000000000E+20
 34
1.0000000000E+20
 15
-1.0000000000E+20
 25
-1.0000000000E+20
 35
-1.0000000000E+20
146
0.0
 13
0.0
 23
0.0
 33
0.0
 16
1.0
 26
0.0
 36
0.0
 17
0.0
 27
1.0
 37
0.0
 76
     0
330
1B
  0
LAYOUT
  5
26
102
{ACAD_REACTORS
330
1A
102
}
330
1A
100
AcDbPlotSettings
  1

  2
none_device
  4

  6

 40
0.0
 41
0.0
 42
0.0
 43
0.0
 44
0.0
 45
0.0
 46
0.0
 47
0.0
 48
0.0
 49
0.0
140
0.0
141
0.0
142
1.0
143
1.0
 70
   688
 72
     0
 73
     0
 74
     5
  7

 75
    16
 76
     0
 77
     2
 78
   300
147
1.0
148
0.0
149
0.0
100
AcDbLayout
  1
Layout2
 70
     1
 71
     2
 10
0.0
 20
0.0
 11
0.0
 21
0.0
 12
0.0
 22
0.0
 32
0.0
 14
0.0
 24
0.0
 34
0.0
 15
0.0
 25
0.0
 35
0.0
146
0.0
 13
0.0
 23
0.0
 33
0.0
 16
1.0
 26
0.0
 36
0.0
 17
0.0
 27
1.0
 37
0.0
 76
     0
330
23
  0
LAYOUT
  5
22
102
{ACAD_REACTORS
330
1A
102
}
330
1A
100
AcDbPlotSettings
  1

  2
none_device
  4

  6

 40
0.0
 41
0.0
 42
0.0
 43
0.0
 44
0.0
 45
0.0
 46
0.0
 47
0.0
 48
0.0
 49
0.0
140
0.0
141
0.0
142
1.0
143
1.0
 70
  1712
 72
     0
 73
     0
 74
     0
  7

 75
     0
 76
     0
 77
     2
 78
   300
147
1.0
148
0.0
149
0.0
100
AcDbLayout
  1
Model
 70
     1
 71
     0
 10
0.0
 20
0.0
 11
297.0
 21
210.0
 12
0.0
 22
0.0
 32
0.0
 14
0.0
 24
0.0
 34
0.0
 15
297.0
 25
210.0
 35
0.0
146
0.0
 13
0.0
 23
0.0
 33
0.0
 16
1.0
 26
0.0
 36
0.0
 17
0.0
 27
1.0
 37
0.0
 76
     0
330
1F
331
29
  0
MATERIAL
  5
3D
102
{ACAD_REACTORS
330
3B
102
}
330
3B
100
AcDbMaterial
  1
ByBlock
 72
     1
 94
      127
  0
MATERIAL
  5
3C
102
{ACAD_REACTORS
330
3B
102
}
330
3B
100
AcDbMaterial
  1
ByLayer
 72
     1
 94
      127
  0
MATERIAL
  5
3E
102
{ACAD_REACTORS
330
3B
102
}
330
3B
100
AcDbMaterial
  1
Global
 72
     1
 94
      127
  0
MLINESTYLE
  5
18
102
{ACAD_REACTORS
330
17
102
}
330
17
100
AcDbMlineStyle
  2
Standard
 70
     0
  3

 62
   256
 51
90.0
 52
90.0
 71
     2
 49
0.5
 62
   256
  6
BYLAYER
 49
-0.5
 62
   256
  6
BYLAYER
  0
ACDBPLACEHOLDER
  5
F
102
{ACAD_REACTORS
330
E
102
}
330
E
  0
VISUALSTYLE
  5
2F
102
{ACAD_REACTORS
330
2A
102
}
330
2A
100
AcDbVisualStyle
  2
2dWireframe
 70
     4
 71
     0
 72
     2
 73
     0
 90
        0
 40
-0.6
 41
-30.0
 62
     5
 63
     7
421
 16777215
 74
     1
 91
        4
 64
     7
 65
   257
 75
     1
175
     1
 42
1.0
 92
        0
 66
   257
 43
1.0
 76
     1
 77
     6
 78
     2
 67
     7
 79
     5
170
     0
171
     0
290
     0
174
     0
 93
        1
 44
0.0
173
     0
291
     0
 45
0.0
  0
VISUALSTYLE
  5
31
102
{ACAD_REACTORS
330
2A
102
}
330
2A
100
AcDbVisualStyle
  2
3D Hidden
 70
     6
 71
     1
 72
     2
 73
     2
 90
        0
 40
-0.6
 41
-30.0
 62
     5
 63
     7
421
 16777215
 74
     2
 91
        2
 64
     7
 65
   257
 75
     2
175
     1
 42
40.0
 92
        0
 66
   257
 43
1.0
 76
     1
 77
     6
 78
     2
 67
     7
 79
     3
170
     0
171
     0
290
     0
174
     0
 93
        1
 44
0.0
173
     0
291
     0
 45
0.0
  0
VISUALSTYLE
  5
30
102
{ACAD_REACTORS
330
2A
102
}
330
2A
100
AcDbVisualStyle
  2
3dWireframe
 70
     5
 71
     0
 72
     2
 73
     0
 90
        0
 40
-0.6
 41
-30.0
 62
     5
 63
     7
421
 16777215
 74
     1
 91
        4
 64
     7
 65
   257
 75
     1
175
     1
 42
1.0
 92
        0
 66
   257
 43
1.0
 76
     1
 77
     6
 78
     2
 67
     7
 79
     5
170
     0
171
     0
290
     0
174
     0
 93
        1
 44
0.0
173
     0
291
     0
 45
0.0
  0
VISUALSTYLE
  5
32
102
{ACAD_REACTORS
330
2A
102
}
330
2A
100
AcDbVisualStyle
  2
Basic
 70
     7
 71
     1
 72
     0
 73
     1
 90
        0
 40
-0.6
 41
-30.0
 62
     5
 63
     7
421
 16777215
 74
     0
 91
        4
 64
     7
 65
   257
 75
     1
175
     1
 42
1.0
 92
        8
 66
     7
 43
1.0
 76
     1
 77
     6
 78
     2
 67
     7
 79
     5
170
     0
171
     0
290
     0
174
     0
 93
        1
 44
0.0
173
     0
291
     1
 45
0.0
  0
VISUALSTYLE
  5
36
102
{ACAD_REACTORS
330
2A
102
}
330
2A
100
AcDbVisualStyle
  2
Brighten
 70
    12
 71
     2
 72
     2
 73
     0
 90
        0
 40
-0.6
 41
-30.0
 62
     5
 63
     7
421
 16777215
 74
     1
 91
        4
 64
     7
 65
   257
 75
     1
175
     1
 42
1.0
 92
        8
 66
     7
 43
1.0
 76
     1
 77
     6
 78
     2
 67
     7
 79
     5
170
     0
171
     0
290
     0
174
     0
 93
        1
 44
50.0
173
     0
291
     1
 45
0.0
  0
VISUALSTYLE
  5
3A
102
{ACAD_REACTORS
330
2A
102
}
330
2A
100
AcDbVisualStyle
  2
ColorChange
 70
    16
 71
     2
 72
     2
 73
     3
 90
        0
 40
-0.6
 41
-30.0
 62
     5
 63
     8
421
  8421504
 74
     1
 91
        4
 64
     7
 65
   257
 75
     1
175
     1
 42
1.0
 92
        8
 66
     8
424
  8421504
 43
1.0
 76
     1
 77
     6
 78
     2
 67
     7
 79
     5
170
     0
171
     0
290
     0
174
     0
 93
        1
 44
0.0
173
     0
291
     1
 45
0.0
  0
VISUALSTYLE
  5
34
102
{ACAD_REACTORS
330
2A
102
}
330
2A
100
AcDbVisualStyle
  2
Conceptual
 70
     9
 71
     3
 72
     2
 73
     0
 90
        0
 40
-0.6
 41
-30.0
 62
     5
 63
     7
421
 16777215
 74
     2
 91
        2
 64
     7
 65
   257
 75
     1
175
     1
 42
40.0
 92
        8
 66
     7
 43
1.0
 76
     1
 77
     6
 78
     2
 67
     7
 79
     3
170
     0
171
     0
290
     0
174
     0
 93
        1
 44
0.0
173
     0
291
     0
 45
0.0
  0
VISUALSTYLE
  5
35
102
{ACAD_REACTORS
330
2A
102
}
330
2A
100
AcDbVisualStyle
  2
Dim
 70
    11
 71
     2
 72
     2
 73
     0
 90
        0
 40
-0.6
 41
-30.0
 62
     5
 63
     7
421
 16777215
 74
     1
 91
        4
 64
     7
 65
   257
 75
     1
175
     1
 42
1.0
 92
        8
 66
     7
 43
1.0
 76
     1
 77
     6
 78
     2
 67
     7
 79
     5
170
     0
171
     0
290
     0
174
     0
 93
        1
 44
-50.0
173
     0
291
     1
 45
0.0
  0
VISUALSTYLE
  5
39
102
{ACAD_REACTORS
330
2A
102
}
330
2A
100
AcDbVisualStyle
  2
Facepattern
 70
    15
 71
     2
 72
     2
 73
     0
 90
        0
 40
-0.6
 41
-30.0
 62
     5
 63
     7
421
 16777215
 74
     1
 91
        4
 64
     7
 65
   257
 75
     1
175
     1
 42
1.0
 92
        8
 66
     7
 43
1.0
 76
     1
 77
     6
 78
     2
 67
     7
 79
     5
170
     0
171
     0
290
     0
174
     0
 93
        1
 44
0.0
173
     0
291
     1
 45
0.0
  0
VISUALSTYLE
  5
2B
102
{ACAD_REACTORS
330
2A
102
}
330
2A
100
AcDbVisualStyle
  2
Flat
 70
     0
 71
     2
 72
     1
 73
     1
 90
        2
 40
-0.6
 41
30.0
 62
     5
 63
     7
421
 16777215
 74
     0
 91
        4
 64
     7
 65
   257
 75
     1
175
     1
 42
1.0
 92
        8
 66
     7
 43
1.0
 76
     1
 77
     6
 78
     2
 67
     7
 79
     5
170
     0
171
     0
290
     0
174
     0
 93
       13
 44
0.0
173
     0
291
     1
 45
0.0
  0
VISUALSTYLE
  5
2C
102
{ACAD_REACTORS
330
2A
102
}
330
2A
100
AcDbVisualStyle
  2
FlatWithEdges
 70
     1
 71
     2
 72
     1
 73
     1
 90
        2
 40
-0.6
 41
30.0
 62
     5
 63
     7
421
 16777215
 74
     1
 91
        4
 64
     7
 65
   257
 75
     1
175
     1
 42
1.0
 92
        0
 66
   257
 43
1.0
 76
     1
 77
     6
 78
     2
 67
     7
 79
     5
170
     0
171
     0
290
     0
174
     0
 93
       13
 44
0.0
173
     0
291
     1
 45
0.0
  0
VISUALSTYLE
  5
2D
102
{ACAD_REACTORS
330
2A
102
}
330
2A
100
AcDbVisualStyle
  2
Gouraud
 70
     2
 71
     2
 72
     2
 73
     1
 90
        2
 40
-0.6
 41
30.0
 62
     5
 63
     7
421
 16777215
 74
     0
 91
        4
 64
     7
 65
   257
 75
     1
175
     1
 42
1.0
 92
        0
 66
     7
 43
1.0
 76
     1
 77
     6
 78
     2
 67
     7
 79
     5
170
     0
171
     0
290
     0
174
     0
 93
       13
 44
0.0
173
     0
291
     1
 45
0.0
  0
VISUALSTYLE
  5
2E
102
{ACAD_REACTORS
330
2A
102
}
330
2A
100
AcDbVisualStyle
  2
GouraudWithEdges
 70
     3
 71
     2
 72
     2
 73
     1
 90
        2
 40
-0.6
 41
30.0
 62
     5
 63
     7
421
 16777215
 74
     1
 91
        4
 64
     7
 65
   257
 75
     1
175
     1
 42
1.0
 92
        0
 66
   257
 43
1.0
 76
     1
 77
     6
 78
     2
 67
     7
 79
     5
170
     0
171
     0
290
     0
174
     0
 93
       13
 44
0.0
173
     0
291
     1
 45
0.0
  0
VISUALSTYLE
  5
38
102
{ACAD_REACTORS
330
2A
102
}
330
2A
100
AcDbVisualStyle
  2
Linepattern
 70
    14
 71
     2
 72
     2
 73
     0
 90
        0
 40
-0.6
 41
-30.0
 62
     5
 63
     7
421
 16777215
 74
     1
 91
        4
 64
     7
 65
   257
 75
     7
175
     7
 42
1.0
 92
        8
 66
     7
 43
1.0
 76
     1
 77
     6
 78
     2
 67
     7
 79
     5
170
     0
171
     0
290
     0
174
     0
 93
        1
 44
0.0
173
     0
291
     1
 45
0.0
  0
VISUALSTYLE
  5
33
102
{ACAD_REACTORS
330
2A
102
}
330
2A
100
AcDbVisualStyle
  2
Realistic
 70
     8
 71
     2
 72
     2
 73
     0
 90
        0
 40
-0.6
 41
-30.0
 62
     5
 63
     7
421
 16777215
 74
     1
 91
        0
 64
     7
 65
   257
 75
     1
175
     1
 42
1.0
 92
        8
 66
     8
424
  7895160
 43
1.0
 76
     1
 77
     6
 78
     2
 67
     7
 79
     5
170
     0
171
     0
290
     0
174
     0
 93
       13
 44
0.0
173
     0
291
     0
 45
0.0
  0
VISUALSTYLE
  5
37
102
{ACAD_REACTORS
330
2A
102
}
330
2A
100
AcDbVisualStyle
  2
Thicken
 70
    13
 71
     2
 72
     2
 73
     0
 90
        0
 40
-0.6
 41
-30.0
 62
     5
 63
     7
421
 16777215
 74
     1
 91
        4
 64
     7
 65
   257
 75
     1
175
     1
 42
1.0
 92
       12
 66
     7
 43
1.0
 76
     1
 77
     6
 78
     2
 67
     7
 79
     5
170
     0
171
     0
290
     0
174
     0
 93
        1
 44
0.0
173
     0
291
     1
 45
0.0
  0
ENDSEC
  0
EOF
