  0
SECTION
  2
HEADER
  9
$ACADVER
  1
AC1021
  9
$ACADMAINTVER
 70
    25
  9
$DWGCODEPAGE
  3
ANSI_1252
  9
$INSBASE
 10
0.0
 20
0.0
 30
0.0
  9
$EXTMIN
 10
0.0
 20
0.0
 30
0.0
  9
$EXTMAX
 10
297.0
 20
210.0
 30
0.0
  9
$LIMMIN
 10
0.0
 20
0.0
  9
$LIMMAX
 10
297.0
 20
210.0
  9
$ORTHOMODE
 70
     0
  9
$REGENMODE
 70
     1
  9
$FILLMODE
 70
     1
  9
$QTEXTMODE
 70
     0
  9
$MIRRTEXT
 70
     1
  9
$LTSCALE
 40
1.0
  9
$ATTMODE
 70
     1
  9
$TEXTSIZE
 40
3.5
  9
$TRACEWID
 40
1.0
  9
$TEXTSTYLE
  7
Standard
  9
$CLAYER
  8
0
  9
$CELTYPE
  6
ByLayer
  9
$CECOLOR
 62
   256
  9
$CELTSCALE
 40
1.0
  9
$DISPSILH
 70
     0
  9
$DIMSCALE
 40
1.0
  9
$DIMASZ
 40
3.302
  9
$DIMEXO
 40
1.0
  9
$DIMDLI
 40
3.75
  9
$DIMRND
 40
0.0
  9
$DIMDLE
 40
0.0
  9
$DIMEXE
 40
1.0
  9
$DIMTP
 40
0.0
  9
$DIMTM
 40
0.0
  9
$DIMTXT
 40
3.5
  9
$DIMCEN
 40
2.5
  9
$DIMTSZ
 40
0.0
  9
$DIMTOL
 70
     0
  9
$DIMLIM
 70
     0
  9
$DIMTIH
 70
     1
  9
$DIMTOH
 70
     1
  9
$DIMSE1
 70
     0
  9
$DIMSE2
 70
     0
  9
$DIMTAD
 70
     1
  9
$DIMZIN
 70
     0
  9
$DIMBLK
  1

  9
$DIMASO
 70
     1
  9
$DIMSHO
 70
     1
  9
$DIMPOST
  1

  9
$DIMAPOST
  1

  9
$DIMALT
 70
     0
  9
$DIMALTD
 70
     3
  9
$DIMALTF
 40
0.0393700787
  9
$DIMLFAC
 40
1.0
  9
$DIMTOFL
 70
     1
  9
$DIMTVP
 40
0.0
  9
$DIMTIX
 70
     0
  9
$DIMSOXD
 70
     0
  9
$DIMSAH
 70
     0
  9
$DIMBLK1
  1

  9
$DIMBLK2
  1

  9
$DIMSTYLE
  2
ISO-25
  9
$DIMCLRD
 70
     0
  9
$DIMCLRE
 70
     0
  9
$DIMCLRT
 70
     0
  9
$DIMTFAC
 40
1.0
  9
$DIMGAP
 40
1.524
  9
$DIMJUST
 70
     0
  9
$DIMSD1
 70
     0
  9
$DIMSD2
 70
     0
  9
$DIMTOLJ
 70
     0
  9
$DIMTZIN
 70
     0
  9
$DIMALTZ
 70
     0
  9
$DIMALTTZ
 70
     0
  9
$DIMUPT
 70
     0
  9
$DIMDEC
 70
     2
  9
$DIMTDEC
 70
     2
  9
$DIMALTU
 70
     2
  9
$DIMALTTD
 70
     3
  9
$DIMTXSTY
  7
Standard
  9
$DIMAUNIT
 70
     0
  9
$DIMADEC
 70
     2
  9
$DIMALTRND
 40
0.0
  9
$DIMAZIN
 70
     0
  9
$DIMDSEP
 70
    44
  9
$DIMATFIT
 70
     3
  9
$DIMFRAC
 70
     0
  9
$DIMLDRBLK
  1

  9
$DIMLUNIT
 70
     2
  9
$DIMLWD
 70
    -2
  9
$DIMLWE
 70
    -2
  9
$DIMTMOVE
 70
     0
  9
$DIMFXL
 40
1.0
  9
$DIMFXLON
 70
     0
  9
$DIMJOGANG
 40
0.7853981634
  9
$DIMTFILL
 70
     0
  9
$DIMTFILLCLR
 70
     0
  9
$DIMARCSYM
 70
     0
  9
$DIMLTYPE
  6

  9
$DIMLTEX1
  6

  9
$DIMLTEX2
  6

  9
$LUNITS
 70
     2
  9
$LUPREC
 70
     2
  9
$SKETCHINC
 40
1.0
  9
$FILLETRAD
 40
10.0
  9
$AUNITS
 70
     0
  9
$AUPREC
 70
     2
  9
$MENU
  1
.
  9
$ELEVATION
 40
0.0
  9
$PELEVATION
 40
0.0
  9
$THICKNESS
 40
0.0
  9
$LIMCHECK
 70
     0
  9
$CHAMFERA
 40
10.0
  9
$CHAMFERB
 40
10.0
  9
$CHAMFERC
 40
20.0
  9
$CHAMFERD
 40
0.0
  9
$SKPOLY
 70
     0
  9
$TDCREATE
 40
2456387.654774792
  9
$TDUCREATE
 40
2456387.571441459
  9
$TDUPDATE
 40
2456387.654775405
  9
$TDUUPDATE
 40
2456387.571442072
  9
$TDINDWG
 40
0.0000000116
  9
$TDUSRTIMER
 40
2456401.295217732
  9
$USRTIMER
 70
     1
  9
$ANGBASE
 50
0.0
  9
$ANGDIR
 70
     0
  9
$PDMODE
 70
     0
  9
$PDSIZE
 40
-1.0
  9
$PLINEWID
 40
0.0
  9
$SPLFRAME
 70
     0
  9
$SPLINETYPE
 70
     6
  9
$SPLINESEGS
 70
     8
  9
$HANDSEED
  5
1A3
  9
$SURFTAB1
 70
     6
  9
$SURFTAB2
 70
     6
  9
$SURFTYPE
 70
     6
  9
$SURFU
 70
     6
  9
$SURFV
 70
     6
  9
$UCSBASE
  2

  9
$UCSNAME
  2

  9
$UCSORG
 10
0.0
 20
0.0
 30
0.0
  9
$UCSXDIR
 10
1.0
 20
0.0
 30
0.0
  9
$UCSYDIR
 10
0.0
 20
1.0
 30
0.0
  9
$UCSORTHOREF
  2

  9
$UCSORTHOVIEW
 70
     0
  9
$UCSORGTOP
 10
0.0
 20
0.0
 30
0.0
  9
$UCSORGBOTTOM
 10
0.0
 20
0.0
 30
0.0
  9
$UCSORGLEFT
 10
0.0
 20
0.0
 30
0.0
  9
$UCSORGRIGHT
 10
0.0
 20
0.0
 30
0.0
  9
$UCSORGFRONT
 10
0.0
 20
0.0
 30
0.0
  9
$UCSORGBACK
 10
0.0
 20
0.0
 30
0.0
  9
$PUCSBASE
  2

  9
$PUCSNAME
  2

  9
$PUCSORG
 10
0.0
 20
0.0
 30
0.0
  9
$PUCSXDIR
 10
1.0
 20
0.0
 30
0.0
  9
$PUCSYDIR
 10
0.0
 20
1.0
 30
0.0
  9
$PUCSORTHOREF
  2

  9
$PUCSORTHOVIEW
 70
     0
  9
$PUCSORGTOP
 10
0.0
 20
0.0
 30
0.0
  9
$PUCSORGBOTTOM
 10
0.0
 20
0.0
 30
0.0
  9
$PUCSORGLEFT
 10
0.0
 20
0.0
 30
0.0
  9
$PUCSORGRIGHT
 10
0.0
 20
0.0
 30
0.0
  9
$PUCSORGFRONT
 10
0.0
 20
0.0
 30
0.0
  9
$PUCSORGBACK
 10
0.0
 20
0.0
 30
0.0
  9
$USERI1
 70
     0
  9
$USERI2
 70
     0
  9
$USERI3
 70
     0
  9
$USERI4
 70
     0
  9
$USERI5
 70
     0
  9
$USERR1
 40
0.0
  9
$USERR2
 40
0.0
  9
$USERR3
 40
0.0
  9
$USERR4
 40
0.0
  9
$USERR5
 40
0.0
  9
$WORLDVIEW
 70
     1
  9
$SHADEDGE
 70
     3
  9
$SHADEDIF
 70
    70
  9
$TILEMODE
 70
     1
  9
$MAXACTVP
 70
    64
  9
$PINSBASE
 10
0.0
 20
0.0
 30
0.0
  9
$PLIMCHECK
 70
     0
  9
$PEXTMIN
 10
1.000000000000000E+20
 20
1.000000000000000E+20
 30
1.000000000000000E+20
  9
$PEXTMAX
 10
-1.000000000000000E+20
 20
-1.000000000000000E+20
 30
-1.000000000000000E+20
  9
$PLIMMIN
 10
0.0
 20
0.0
  9
$PLIMMAX
 10
420.0
 20
297.0
  9
$UNITMODE
 70
     0
  9
$VISRETAIN
 70
     1
  9
$PLINEGEN
 70
     0
  9
$PSLTSCALE
 70
     1
  9
$TREEDEPTH
 70
  3020
  9
$CMLSTYLE
  2
Standard
  9
$CMLJUST
 70
     0
  9
$CMLSCALE
 40
20.0
  9
$PROXYGRAPHICS
 70
     1
  9
$MEASUREMENT
 70
     1
  9
$CELWEIGHT
370
    -1
  9
$ENDCAPS
280
     0
  9
$JOINSTYLE
280
     0
  9
$LWDISPLAY
290
     1
  9
$INSUNITS
 70
     4
  9
$HYPERLINKBASE
  1

  9
$STYLESHEET
  1

  9
$XEDIT
290
     1
  9
$CEPSNTYPE
380
     0
  9
$PSTYLEMODE
290
     1
  9
$FINGERPRINTGUID
  2
{62BF6EBF-9550-4011-9B3C-D6DAB06BDB75}
  9
$VERSIONGUID
  2
{FAEB1C32-E019-11D5-929B-00C0DF256EC4}
  9
$EXTNAMES
290
     1
  9
$PSVPSCALE
 40
0.0
  9
$OLESTARTUP
290
     0
  9
$SORTENTS
280
   127
  9
$INDEXCTL
280
     0
  9
$HIDETEXT
280
     1
  9
$XCLIPFRAME
290
     0
  9
$HALOGAP
280
     0
  9
$OBSCOLOR
 70
   257
  9
$OBSLTYPE
280
     0
  9
$INTERSECTIONDISPLAY
280
     0
  9
$INTERSECTIONCOLOR
 70
   257
  9
$DIMASSOC
280
     2
  9
$PROJECTNAME
  1

  9
$CAMERADISPLAY
290
     0
  9
$LENSLENGTH
 40
50.0
  9
$CAMERAHEIGHT
 40
0.0
  9
$STEPSPERSEC
 40
2.0
  9
$STEPSIZE
 40
6.0
  9
$3DDWFPREC
 40
2.0
  9
$PSOLWIDTH
 40
5.0
  9
$PSOLHEIGHT
 40
80.0
  9
$LOFTANG1
 40
1.5707963268
  9
$LOFTANG2
 40
1.5707963268
  9
$LOFTMAG1
 40
0.0
  9
$LOFTMAG2
 40
0.0
  9
$LOFTPARAM
 70
     7
  9
$LOFTNORMALS
280
     1
  9
$LATITUDE
 40
37.795
  9
$LONGITUDE
 40
-122.394
  9
$NORTHDIRECTION
 40
0.0
  9
$TIMEZONE
 70
 -8000
  9
$LIGHTGLYPHDISPLAY
280
     1
  9
$TILEMODELIGHTSYNCH
280
     1
  9
$SOLIDHIST
280
     1
  9
$SHOWHIST
280
     1
  9
$DWFFRAME
280
     2
  9
$DGNFRAME
280
     2
  9
$REALWORLDSCALE
290
     1
  9
$INTERFERECOLOR
 62
   256
  9
$CSHADOW
280
     0
  9
$SHADOWPLANELOCATION
 40
0.0
  0
ENDSEC
  0
SECTION
  2
CLASSES
  0
CLASS
  1
ACDBDICTIONARYWDFLT
  2
AcDbDictionaryWithDefault
  3
ObjectDBX Classes
 90
        0
 91
       10
280
     0
281
     0
  0
CLASS
  1
VISUALSTYLE
  2
AcDbVisualStyle
  3
ObjectDBX Classes
 90
     4095
 91
       10
280
     0
281
     0
  0
CLASS
  1
MATERIAL
  2
AcDbMaterial
  3
ObjectDBX Classes
 90
     1153
 91
       10
280
     0
281
     0
  0
CLASS
  1
SCALE
  2
AcDbScale
  3
ObjectDBX Classes
 90
     1153
 91
       10
280
     0
281
     0
  0
CLASS
  1
TABLESTYLE
  2
AcDbTableStyle
  3
ObjectDBX Classes
 90
     4095
 91
       10
280
     0
281
     0
  0
CLASS
  1
RASTERVARIABLES
  2
AcDbRasterVariables
  3
ISM
 90
        0
 91
       10
280
     0
281
     0
  0
CLASS
  1
DICTIONARYVAR
  2
AcDbDictionaryVar
  3
ObjectDBX Classes
 90
        0
 91
        4
280
     0
281
     0
  0
CLASS
  1
CELLSTYLEMAP
  2
AcDbCellStyleMap
  3
ObjectDBX Classes
 90
     1152
 91
        4
280
     0
281
     0
  0
ENDSEC
  0
SECTION
  2
TABLES
  0
TABLE
  2
VPORT
  5
8
330
0
100
AcDbSymbolTable
 70
     1
  0
VPORT
  5
29
330
8
100
AcDbSymbolTableRecord
100
AcDbViewportTableRecord
  2
*Active
 70
     0
 10
0.0
 20
0.0
 11
1.0
 21
1.0
 12
108.1493688639551
 22
28.42215988779805
 13
0.0
 23
0.0
 14
10.0
 24
10.0
 15
10.0
 25
10.0
 16
0.0
 26
0.0
 36
1.0
 17
0.0
 27
0.0
 37
0.0
 40
210.0
 41
1.485273492286115
 42
50.0
 43
0.0
 44
0.0
 50
0.0
 51
0.0
 71
    16
 72
  2000
 73
     1
 74
     3
 75
     0
 76
     0
 77
     0
 78
     0
281
     0
 65
     1
110
0.0
120
0.0
130
0.0
111
1.0
121
0.0
131
0.0
112
0.0
122
1.0
132
0.0
 79
     0
146
0.0
 60
     3
 61
     5
292
     1
282
     1
141
0.0
142
0.0
 63
   250
  0
ENDTAB
  0
TABLE
  2
LTYPE
  5
5
330
0
100
AcDbSymbolTable
 70
     8
  0
LTYPE
  5
14
330
5
100
AcDbSymbolTableRecord
100
AcDbLinetypeTableRecord
  2
ByBlock
 70
     0
  3

 72
    65
 73
     0
 40
0.0
  0
LTYPE
  5
15
330
5
100
AcDbSymbolTableRecord
100
AcDbLinetypeTableRecord
  2
ByLayer
 70
     0
  3

 72
    65
 73
     0
 40
0.0
  0
LTYPE
  5
16
330
5
100
AcDbSymbolTableRecord
100
AcDbLinetypeTableRecord
  2
Continuous
 70
     0
  3
Solid line
 72
    65
 73
     0
 40
0.0
  0
LTYPE
  5
3F
330
5
100
AcDbSymbolTableRecord
100
AcDbLinetypeTableRecord
  2
SLD-Durchgehend
 70
     0
  3
SolidWorks Line Style
 72
    65
 73
     0
 40
0.0
  0
LTYPE
  5
40
330
5
100
AcDbSymbolTableRecord
100
AcDbLinetypeTableRecord
  2
SLD-Gestrichelt
 70
     0
  3
SolidWorks Line Style
 72
    65
 73
     2
 40
1.905
 49
1.27
 74
     0
 49
-0.635
 74
     0
  0
LTYPE
  5
41
330
5
100
AcDbSymbolTableRecord
100
AcDbLinetypeTableRecord
  2
SLD-Phantom
 70
     0
  3
SolidWorks Line Style
 72
    65
 73
     6
 40
12.7
 49
6.35
 74
     0
 49
-1.27
 74
     0
 49
1.27
 74
     0
 49
-1.27
 74
     0
 49
1.27
 74
     0
 49
-1.27
 74
     0
  0
LTYPE
  5
42
330
5
100
AcDbSymbolTableRecord
100
AcDbLinetypeTableRecord
  2
SLD-Kette
 70
     0
  3
SolidWorks Line Style
 72
    65
 73
     4
 40
10.16
 49
6.35
 74
     0
 49
-1.27
 74
     0
 49
1.27
 74
     0
 49
-1.27
 74
     0
  0
LTYPE
  5
43
330
5
100
AcDbSymbolTableRecord
100
AcDbLinetypeTableRecord
  2
SLD-Punktstrich
 70
     0
  3
SolidWorks Line Style
 72
    65
 73
     4
 40
19.05
 49
15.24
 74
     0
 49
-1.27
 74
     0
 49
1.27
 74
     0
 49
-1.27
 74
     0
  0
LTYPE
  5
44
330
5
100
AcDbSymbolTableRecord
100
AcDbLinetypeTableRecord
  2
SLD-Naht
 70
     0
  3
SolidWorks Line Style
 72
    65
 73
     2
 40
0.635
 49
0.0
 74
     0
 49
-0.635
 74
     0
  0
LTYPE
  5
45
330
5
100
AcDbSymbolTableRecord
100
AcDbLinetypeTableRecord
  2
SLD-Dicke-Dünne-Kette
 70
     0
  3
SolidWorks Line Style
 72
    65
 73
     4
 40
10.16
 49
6.35
 74
     0
 49
-1.27
 74
     0
 49
1.27
 74
     0
 49
-1.27
 74
     0
  0
ENDTAB
  0
TABLE
  2
LAYER
  5
2
330
0
100
AcDbSymbolTable
 70
     1
  0
LAYER
  5
10
330
2
100
AcDbSymbolTableRecord
100
AcDbLayerTableRecord
  2
0
 70
     0
 62
     7
  6
Continuous
370
    -3
390
F
347
3E
  0
ENDTAB
  0
TABLE
  2
STYLE
  5
3
330
0
100
AcDbSymbolTable
 70
     2
  0
STYLE
  5
11
330
3
100
AcDbSymbolTableRecord
100
AcDbTextStyleTableRecord
  2
Standard
 70
     0
 40
0.0
 41
1.0
 50
0.0
 71
     0
 42
3.5
  3
txt
  4

  0
STYLE
  5
126
330
3
100
AcDbSymbolTableRecord
100
AcDbTextStyleTableRecord
  2
SLDTEXTSTYLE0
 70
     0
 40
0.0
 41
0.75
 50
0.0
 71
     0
 42
0.2
  3
TXT
  4

  0
ENDTAB
  0
TABLE
  2
VIEW
  5
6
330
0
100
AcDbSymbolTable
 70
     0
  0
ENDTAB
  0
TABLE
  2
UCS
  5
7
330
0
100
AcDbSymbolTable
 70
     0
  0
ENDTAB
  0
TABLE
  2
APPID
  5
9
330
0
100
AcDbSymbolTable
 70
     1
  0
APPID
  5
12
330
9
100
AcDbSymbolTableRecord
100
AcDbRegAppTableRecord
  2
ACAD
 70
     0
  0
ENDTAB
  0
TABLE
  2
DIMSTYLE
  5
A
330
0
100
AcDbSymbolTable
 70
     3
100
AcDbDimStyleTable
  0
DIMSTYLE
105
27
330
A
100
AcDbSymbolTableRecord
100
AcDbDimStyleTableRecord
  2
ISO-25
 70
     0
 41
2.5
 42
0.625
 43
3.75
 44
1.25
 73
     0
 74
     0
 77
     1
 78
     8
140
2.5
141
2.5
143
0.0393700787
147
0.625
171
     3
172
     1
271
     2
272
     2
274
     3
278
    44
283
     0
284
     8
340
11
  0
DIMSTYLE
105
127
102
{ACAD_REACTORS
330
125
330
13D
330
147
330
151
102
}
330
A
100
AcDbSymbolTableRecord
100
AcDbDimStyleTableRecord
  2
SLDDIMSTYLE0
 70
     0
 41
3.302
 44
0.0
 45
0.000000001
 73
     0
 74
     0
 77
     1
 78
    12
 79
     3
140
3.5
147
0.875
173
     1
271
     2
272
     2
276
     2
284
    12
340
126
  0
DIMSTYLE
105
133
102
{ACAD_REACTORS
330
132
102
}
330
A
100
AcDbSymbolTableRecord
100
AcDbDimStyleTableRecord
  2
SLDDIMSTYLE1
 70
     0
 41
3.302
 44
0.0
 73
     0
 74
     0
 77
     1
 78
    12
 79
     3
140
3.5
147
0.875
173
     1
179
     2
272
     2
276
     2
284
    12
340
126
  0
ENDTAB
  0
TABLE
  2
BLOCK_RECORD
  5
1
330
0
100
AcDbSymbolTable
 70
     8
  0
BLOCK_RECORD
  5
1F
330
1
100
AcDbSymbolTableRecord
100
AcDbBlockTableRecord
  2
*Model_Space
340
22
 70
     0
280
     1
281
     0
  0
BLOCK_RECORD
  5
1B
330
1
100
AcDbSymbolTableRecord
100
AcDbBlockTableRecord
  2
*Paper_Space
340
1E
 70
     0
280
     1
281
     0
  0
BLOCK_RECORD
  5
23
330
1
100
AcDbSymbolTableRecord
100
AcDbBlockTableRecord
  2
*Paper_Space0
340
26
 70
     0
280
     1
281
     0
  0
BLOCK_RECORD
  5
128
330
1
100
AcDbSymbolTableRecord
100
AcDbBlockTableRecord
  2
_D
340
0
 70
     0
280
     1
281
     0
  0
BLOCK_RECORD
  5
134
330
1
100
AcDbSymbolTableRecord
100
AcDbBlockTableRecord
  2
_D_1
340
0
 70
     0
280
     1
281
     0
  0
BLOCK_RECORD
  5
13E
330
1
100
AcDbSymbolTableRecord
100
AcDbBlockTableRecord
  2
_D_2
340
0
 70
     0
280
     1
281
     0
  0
BLOCK_RECORD
  5
148
330
1
100
AcDbSymbolTableRecord
100
AcDbBlockTableRecord
  2
_D_3
340
0
 70
     0
280
     1
281
     0
  0
BLOCK_RECORD
  5
152
330
1
100
AcDbSymbolTableRecord
100
AcDbBlockTableRecord
  2
_D_4
340
0
 70
     0
280
     1
281
     0
  0
BLOCK_RECORD
  5
15C
330
1
100
AcDbSymbolTableRecord
100
AcDbBlockTableRecord
  2
SW_CENTERMARKSYMBOL_0
340
0
102
{BLKREFS
331
0
102
}
 70
     0
280
     1
281
     0
  0
BLOCK_RECORD
  5
168
330
1
100
AcDbSymbolTableRecord
100
AcDbBlockTableRecord
  2
SW_CENTERMARKSYMBOL_1
340
0
102
{BLKREFS
331
0
102
}
 70
     0
280
     1
281
     0
  0
ENDTAB
  0
ENDSEC
  0
SECTION
  2
BLOCKS
  0
BLOCK
  5
20
330
1F
100
AcDbEntity
  8
0
100
AcDbBlockBegin
  2
*Model_Space
 70
     0
 10
0.0
 20
0.0
 30
0.0
  3
*Model_Space
  1

  0
ENDBLK
  5
21
330
1F
100
AcDbEntity
  8
0
100
AcDbBlockEnd
  0
BLOCK
  5
1C
330
1B
100
AcDbEntity
 67
     1
  8
0
100
AcDbBlockBegin
  2
*Paper_Space
 70
     0
 10
0.0
 20
0.0
 30
0.0
  3
*Paper_Space
  1

  0
ENDBLK
  5
1D
330
1B
100
AcDbEntity
 67
     1
  8
0
100
AcDbBlockEnd
  0
BLOCK
  5
24
330
23
100
AcDbEntity
  8
0
100
AcDbBlockBegin
  2
*Paper_Space0
 70
     0
 10
0.0
 20
0.0
 30
0.0
  3
*Paper_Space0
  1

  0
ENDBLK
  5
25
330
23
100
AcDbEntity
  8
0
100
AcDbBlockEnd
  0
BLOCK
  5
129
330
128
100
AcDbEntity
  8
0
100
AcDbBlockBegin
  2
_D
 70
     0
 10
0.0
 20
0.0
 30
0.0
  3
_D
  1

  0
SOLID
  5
12B
330
128
100
AcDbEntity
  8
0
 62
     7
420
 16777215
100
AcDbTrace
 10
-38.2500707927
 20
31.5022280293
 30
0.0
 11
-38.7580707927
 21
28.2002280293
 31
0.0
 12
-37.7420707927
 22
28.2002280293
 32
0.0
 13
-37.7420707927
 23
28.2002280293
 33
0.0
  0
SOLID
  5
12C
330
128
100
AcDbEntity
  8
0
 62
     7
420
 16777215
100
AcDbTrace
 10
-38.2500707927
 20
-31.4977719707
 30
0.0
 11
-37.7420707927
 21
-28.1957719707
 31
0.0
 12
-38.7580707927
 22
-28.1957719707
 32
0.0
 13
-38.7580707927
 23
-28.1957719707
 33
0.0
  0
LINE
  5
12D
330
128
100
AcDbEntity
  8
0
 62
     7
420
 16777215
100
AcDbLine
 10
-0.9904300749
 20
31.5022280293
 30
0.0
 11
-39.2500707927
 21
31.5022280293
 31
0.0
  0
LINE
  5
12E
330
128
100
AcDbEntity
  8
0
 62
     7
420
 16777215
100
AcDbLine
 10
-0.9904300749
 20
-31.4977719707
 30
0.0
 11
-39.2500707927
 21
-31.4977719707
 31
0.0
  0
LINE
  5
12F
330
128
100
AcDbEntity
  8
0
 62
     7
420
 16777215
100
AcDbLine
 10
-38.2500707927
 20
31.5022280293
 30
0.0
 11
-38.2500707927
 21
-31.4977719707
 31
0.0
  0
MTEXT
  5
130
330
128
100
AcDbEntity
  8
0
 62
     7
420
 16777215
100
AcDbMText
 10
-42.7618078819
 20
-6.6449769509
 30
0.0
 40
3.5
 41
0.0
 46
0.0
 71
     1
 72
     1
  1
%%c
  7
SLDTEXTSTYLE0
 11
-7.044195017643634E-15
 21
1.0
 31
0.0
 73
     1
 44
1.0
  0
MTEXT
  5
131
330
128
100
AcDbEntity
  8
0
 62
     7
420
 16777215
100
AcDbMText
 10
-42.8152800586
 20
-1.3665395526
 30
0.0
 40
3.5
 41
0.0
 46
0.0
 71
     1
 72
     1
  1
63
  7
SLDTEXTSTYLE0
 11
-7.044195017643634E-15
 21
1.0
 31
0.0
 73
     1
 44
1.0
  0
ENDBLK
  5
12A
330
128
100
AcDbEntity
  8
0
100
AcDbBlockEnd
  0
BLOCK
  5
135
330
134
100
AcDbEntity
  8
0
100
AcDbBlockBegin
  2
_D_1
 70
     0
 10
0.0
 20
0.0
 30
0.0
  3
_D_1
  1

  0
ARC
  5
137
330
134
100
AcDbEntity
  8
0
 62
     7
420
 16777215
100
AcDbCircle
 10
26.0095699251
 20
-41.2560379175
 30
0.0
 40
26.13773878717195
100
AcDbArc
 50
270.0
 51
354.9952138766001
  0
SOLID
  5
138
330
134
100
AcDbEntity
  8
0
 62
     7
420
 16777215
100
AcDbTrace
 10
26.0095699251
 20
-67.3937767047
 30
0.0
 11
29.3369519678
 21
-67.6934377503
 31
0.0
 12
29.2731561182
 22
-66.6794426371
 32
0.0
 13
29.2731561182
 23
-66.6794426371
 33
0.0
  0
SOLID
  5
139
330
134
100
AcDbEntity
  8
0
 62
     7
420
 16777215
100
AcDbTrace
 10
52.0476563401
 20
-43.5362670186
 30
0.0
 11
51.051333873
 21
-46.7250927495
 31
0.0
 12
52.0558975593
 22
-46.8771052491
 32
0.0
 13
52.0558975593
 23
-46.8771052491
 33
0.0
  0
LINE
  5
13A
330
134
100
AcDbEntity
  8
0
 62
     7
420
 16777215
100
AcDbLine
 10
26.0095699251
 20
-31.1794666506
 30
0.0
 11
26.0095699251
 21
-68.3937767047
 31
0.0
  0
LINE
  5
13B
330
134
100
AcDbEntity
  8
0
 62
     7
420
 16777215
100
AcDbLine
 10
54.1645330862
 20
-43.7216479212
 30
0.0
 11
51.0514689259
 21
-43.4490280605
 31
0.0
  0
MTEXT
  5
13C
330
134
100
AcDbEntity
  8
0
 62
     7
420
 16777215
100
AcDbMText
 10
36.975956694
 20
-60.5391641535
 30
0.0
 40
3.5
 41
0.0
 46
0.0
 71
     1
 72
     1
  1
85°
  7
SLDTEXTSTYLE0
 11
0.7373055534122342
 21
0.6755594133068379
 31
0.0
 73
     1
 44
1.0
  0
ENDBLK
  5
136
330
134
100
AcDbEntity
  8
0
100
AcDbBlockEnd
  0
BLOCK
  5
13F
330
13E
100
AcDbEntity
  8
0
100
AcDbBlockBegin
  2
_D_2
 70
     0
 10
0.0
 20
0.0
 30
0.0
  3
_D_2
  1

  0
SOLID
  5
141
330
13E
100
AcDbEntity
  8
0
 62
     7
420
 16777215
100
AcDbTrace
 10
0.0095699251
 20
-50.9994363733
 30
0.0
 11
3.3115699251
 21
-51.5074363733
 31
0.0
 12
3.3115699251
 22
-50.4914363733
 32
0.0
 13
3.3115699251
 23
-50.4914363733
 33
0.0
  0
SOLID
  5
142
330
13E
100
AcDbEntity
  8
0
 62
     7
420
 16777215
100
AcDbTrace
 10
70.0109288715
 20
-50.9994363733
 30
0.0
 11
66.7089288715
 21
-50.4914363733
 31
0.0
 12
66.7089288715
 22
-51.5074363733
 32
0.0
 13
66.7089288715
 23
-51.5074363733
 33
0.0
  0
LINE
  5
143
330
13E
100
AcDbEntity
  8
0
 62
     7
420
 16777215
100
AcDbLine
 10
0.0095699251
 20
-0.9977719707
 30
0.0
 11
0.0095699251
 21
-51.9994363733
 31
0.0
  0
LINE
  5
144
330
13E
100
AcDbEntity
  8
0
 62
     7
420
 16777215
100
AcDbLine
 10
70.0109288715
 20
-44.7019961455
 30
0.0
 11
70.0109288715
 21
-51.9994363733
 31
0.0
  0
LINE
  5
145
330
13E
100
AcDbEntity
  8
0
 62
     7
420
 16777215
100
AcDbLine
 10
0.0095699251
 20
-50.9994363733
 30
0.0
 11
70.0109288715
 21
-50.9994363733
 31
0.0
  0
MTEXT
  5
146
330
13E
100
AcDbEntity
  8
0
 62
     7
420
 16777215
100
AcDbMText
 10
31.0022631173
 20
-46.4876994587
 30
0.0
 40
3.5
 41
0.0
 46
0.0
 71
     1
 72
     1
  1
70
  7
SLDTEXTSTYLE0
 73
     1
 44
1.0
  0
ENDBLK
  5
140
330
13E
100
AcDbEntity
  8
0
100
AcDbBlockEnd
  0
BLOCK
  5
149
330
148
100
AcDbEntity
  8
0
100
AcDbBlockBegin
  2
_D_3
 70
     0
 10
0.0
 20
0.0
 30
0.0
  3
_D_3
  1

  0
SOLID
  5
14B
330
148
100
AcDbEntity
  8
0
 62
     7
420
 16777215
100
AcDbTrace
 10
76.014399503
 20
-44.994895026
 30
0.0
 11
76.522399503
 21
-41.692895026
 31
0.0
 12
75.506399503
 22
-41.692895026
 32
0.0
 13
75.506399503
 23
-41.692895026
 33
0.0
  0
SOLID
  5
14C
330
148
100
AcDbEntity
  8
0
 62
     7
420
 16777215
100
AcDbTrace
 10
76.014399503
 20
0.0022280293
 30
0.0
 11
75.506399503
 21
-3.2997719707
 31
0.0
 12
76.522399503
 22
-3.2997719707
 32
0.0
 13
76.522399503
 23
-3.2997719707
 33
0.0
  0
LINE
  5
14D
330
148
100
AcDbEntity
  8
0
 62
     7
420
 16777215
100
AcDbLine
 10
69.7038257072
 20
-44.994895026
 30
0.0
 11
77.014399503
 21
-44.994895026
 31
0.0
  0
LINE
  5
14E
330
148
100
AcDbEntity
  8
0
 62
     7
420
 16777215
100
AcDbLine
 10
1.0095699251
 20
0.0022280293
 30
0.0
 11
77.014399503
 21
0.0022280293
 31
0.0
  0
LINE
  5
14F
330
148
100
AcDbEntity
  8
0
 62
     7
420
 16777215
100
AcDbLine
 10
76.014399503
 20
-44.994895026
 30
0.0
 11
76.014399503
 21
0.0022280293
 31
0.0
  0
MTEXT
  5
150
330
148
100
AcDbEntity
  8
0
 62
     7
420
 16777215
100
AcDbMText
 10
71.5026625885
 20
-26.5043197794
 30
0.0
 40
3.5
 41
0.0
 46
0.0
 71
     1
 72
     1
  1
45
  7
SLDTEXTSTYLE0
 11
6.123233995736766E-17
 21
1.0
 31
0.0
 73
     1
 44
1.0
  0
ENDBLK
  5
14A
330
148
100
AcDbEntity
  8
0
100
AcDbBlockEnd
  0
BLOCK
  5
153
330
152
100
AcDbEntity
  8
0
100
AcDbBlockBegin
  2
_D_4
 70
     0
 10
0.0
 20
0.0
 30
0.0
  3
_D_4
  1

  0
SOLID
  5
155
330
152
100
AcDbEntity
  8
0
 62
     7
420
 16777215
100
AcDbTrace
 10
88.014399503
 20
-26.2977719707
 30
0.0
 11
88.522399503
 21
-22.9957719707
 31
0.0
 12
87.506399503
 22
-22.9957719707
 32
0.0
 13
87.506399503
 23
-22.9957719707
 33
0.0
  0
SOLID
  5
156
330
152
100
AcDbEntity
  8
0
 62
     7
420
 16777215
100
AcDbTrace
 10
88.014399503
 20
26.3022280293
 30
0.0
 11
87.506399503
 21
23.0002280293
 31
0.0
 12
88.522399503
 22
23.0002280293
 32
0.0
 13
88.522399503
 23
23.0002280293
 33
0.0
  0
LINE
  5
157
330
152
100
AcDbEntity
  8
0
 62
     7
420
 16777215
100
AcDbLine
 10
42.9559800866
 20
-26.2977719707
 30
0.0
 11
89.014399503
 21
-26.2977719707
 31
0.0
  0
LINE
  5
158
330
152
100
AcDbEntity
  8
0
 62
     7
420
 16777215
100
AcDbLine
 10
40.3076552081
 20
26.3022280293
 30
0.0
 11
89.014399503
 21
26.3022280293
 31
0.0
  0
LINE
  5
159
330
152
100
AcDbEntity
  8
0
 62
     7
420
 16777215
100
AcDbLine
 10
88.014399503
 20
-26.2977719707
 30
0.0
 11
88.014399503
 21
26.3022280293
 31
0.0
  0
MTEXT
  5
15A
330
152
100
AcDbEntity
  8
0
 62
     7
420
 16777215
100
AcDbMText
 10
83.5026624138
 20
-9.8776162339
 30
0.0
 40
3.5
 41
0.0
 46
0.0
 71
     1
 72
     1
  1
%%c
  7
SLDTEXTSTYLE0
 11
6.123233995736766E-17
 21
1.0
 31
0.0
 73
     1
 44
1.0
  0
MTEXT
  5
15B
330
152
100
AcDbEntity
  8
0
 62
     7
420
 16777215
100
AcDbMText
 10
83.4491902372
 20
-4.5991788355
 30
0.0
 40
3.5
 41
0.0
 46
0.0
 71
     1
 72
     1
  1
52,60
  7
SLDTEXTSTYLE0
 11
6.123233995736766E-17
 21
1.0
 31
0.0
 73
     1
 44
1.0
  0
ENDBLK
  5
154
330
152
100
AcDbEntity
  8
0
100
AcDbBlockEnd
  0
BLOCK
  5
15D
330
15C
100
AcDbEntity
  8
0
100
AcDbBlockBegin
  2
SW_CENTERMARKSYMBOL_0
 70
     0
 10
0.0
 20
0.0
 30
0.0
  3
SW_CENTERMARKSYMBOL_0
  1

  0
LINE
  5
15F
330
15C
100
AcDbEntity
  8
0
  6
SLD-Punktstrich
 62
     0
370
    15
100
AcDbLine
 10
0.0
 20
0.0
 30
0.0
 11
0.0
 21
2.5
 31
0.0
  0
LINE
  5
160
330
15C
100
AcDbEntity
  8
0
  6
SLD-Punktstrich
 62
     0
370
    15
100
AcDbLine
 10
0.0
 20
0.0
 30
0.0
 11
-2.5
 21
0.0
 31
0.0
  0
LINE
  5
161
330
15C
100
AcDbEntity
  8
0
  6
SLD-Punktstrich
 62
     0
370
    15
100
AcDbLine
 10
0.0
 20
0.0
 30
0.0
 11
0.0
 21
-2.5
 31
0.0
  0
LINE
  5
162
330
15C
100
AcDbEntity
  8
0
  6
SLD-Punktstrich
 62
     0
370
    15
100
AcDbLine
 10
0.0
 20
0.0
 30
0.0
 11
2.5
 21
0.0
 31
0.0
  0
LINE
  5
163
330
15C
100
AcDbEntity
  8
0
  6
SLD-Punktstrich
 62
     0
370
    15
100
AcDbLine
 10
0.0
 20
2.5
 30
0.0
 11
0.0
 21
3.63
 31
0.0
  0
LINE
  5
164
330
15C
100
AcDbEntity
  8
0
  6
SLD-Punktstrich
 62
     0
370
    15
100
AcDbLine
 10
-2.5
 20
0.0
 30
0.0
 11
-3.63
 21
0.0
 31
0.0
  0
LINE
  5
165
330
15C
100
AcDbEntity
  8
0
  6
SLD-Punktstrich
 62
     0
370
    15
100
AcDbLine
 10
0.0
 20
-2.5
 30
0.0
 11
0.0
 21
-3.63
 31
0.0
  0
LINE
  5
166
330
15C
100
AcDbEntity
  8
0
  6
SLD-Punktstrich
 62
     0
370
    15
100
AcDbLine
 10
2.5
 20
0.0
 30
0.0
 11
3.63
 21
0.0
 31
0.0
  0
ENDBLK
  5
15E
330
15C
100
AcDbEntity
  8
0
100
AcDbBlockEnd
  0
BLOCK
  5
169
330
168
100
AcDbEntity
  8
0
100
AcDbBlockBegin
  2
SW_CENTERMARKSYMBOL_1
 70
     0
 10
0.0
 20
0.0
 30
0.0
  3
SW_CENTERMARKSYMBOL_1
  1

  0
LINE
  5
16B
330
168
100
AcDbEntity
  8
0
  6
SLD-Punktstrich
 62
     0
370
    15
100
AcDbLine
 10
0.0
 20
0.0
 30
0.0
 11
0.0
 21
2.5
 31
0.0
  0
LINE
  5
16C
330
168
100
AcDbEntity
  8
0
  6
SLD-Punktstrich
 62
     0
370
    15
100
AcDbLine
 10
0.0
 20
0.0
 30
0.0
 11
-2.5
 21
0.0
 31
0.0
  0
LINE
  5
16D
330
168
100
AcDbEntity
  8
0
  6
SLD-Punktstrich
 62
     0
370
    15
100
AcDbLine
 10
0.0
 20
0.0
 30
0.0
 11
0.0
 21
-2.5
 31
0.0
  0
LINE
  5
16E
330
168
100
AcDbEntity
  8
0
  6
SLD-Punktstrich
 62
     0
370
    15
100
AcDbLine
 10
0.0
 20
0.0
 30
0.0
 11
2.5
 21
0.0
 31
0.0
  0
LINE
  5
16F
330
168
100
AcDbEntity
  8
0
  6
SLD-Punktstrich
 62
     0
370
    15
100
AcDbLine
 10
0.0
 20
2.5
 30
0.0
 11
0.0
 21
3.63
 31
0.0
  0
LINE
  5
170
330
168
100
AcDbEntity
  8
0
  6
SLD-Punktstrich
 62
     0
370
    15
100
AcDbLine
 10
-2.5
 20
0.0
 30
0.0
 11
-3.63
 21
0.0
 31
0.0
  0
LINE
  5
171
330
168
100
AcDbEntity
  8
0
  6
SLD-Punktstrich
 62
     0
370
    15
100
AcDbLine
 10
0.0
 20
-2.5
 30
0.0
 11
0.0
 21
-3.63
 31
0.0
  0
LINE
  5
172
330
168
100
AcDbEntity
  8
0
  6
SLD-Punktstrich
 62
     0
370
    15
100
AcDbLine
 10
2.5
 20
0.0
 30
0.0
 11
3.63
 21
0.0
 31
0.0
  0
ENDBLK
  5
16A
330
168
100
AcDbEntity
  8
0
100
AcDbBlockEnd
  0
ENDSEC
  0
SECTION
  2
ENTITIES
  0
LINE
  5
46
330
1F
100
AcDbEntity
  8
0
  6
SLD-Durchgehend
 62
     7
100
AcDbLine
 10
0.0095699251
 20
0.0022280293
 30
0.0
 11
0.0095699251
 21
-0.0368831182
 31
0.0
  0
POINT
  5
47
330
1F
100
AcDbEntity
  8
0
  6
SLD-Durchgehend
 62
     7
100
AcDbPoint
 10
0.0095699251
 20
0.0022280293
 30
0.0
  0
LINE
  5
48
330
1F
100
AcDbEntity
  8
0
  6
SLD-Durchgehend
 62
   131
420
  8454143
370
    40
100
AcDbLine
 10
54.1396020975
 20
-43.1772751828
 30
0.0
 11
54.4269405257
 21
-43.4661963515
 31
0.0
  0
LINE
  5
49
330
1F
100
AcDbEntity
  8
0
  6
SLD-Durchgehend
 62
   131
420
  8454143
370
    40
100
AcDbLine
 10
68.634681444
 20
-29.4036805516
 30
0.0
 11
68.4566302223
 21
-29.2246485741
 31
0.0
  0
LINE
  5
4A
330
1F
100
AcDbEntity
  8
0
  6
SLD-Durchgehend
 62
   131
420
  8454143
370
    40
100
AcDbLine
 10
0.0095699251
 20
-31.4977719707
 30
0.0
 11
5.0095699251
 21
-31.4977719707
 31
0.0
  0
LINE
  5
4B
330
1F
100
AcDbEntity
  8
0
  6
SLD-Durchgehend
 62
   131
420
  8454143
370
    40
100
AcDbLine
 10
5.0081386079
 20
31.5022280293
 30
0.0
 11
0.0095699251
 21
31.5022280293
 31
0.0
  0
LINE
  5
4C
330
1F
100
AcDbEntity
  8
0
  6
SLD-Durchgehend
 62
   131
420
  8454143
370
    40
100
AcDbLine
 10
5.0085343195
 20
31.5022280293
 30
0.0
 11
5.0081386079
 21
31.5022280293
 31
0.0
  0
LINE
  5
4D
330
1F
100
AcDbEntity
  8
0
  6
SLD-Durchgehend
 62
   131
420
  8454143
370
    40
100
AcDbLine
 10
5.0095699251
 20
31.5022280293
 30
0.0
 11
5.0085343195
 21
31.5022280293
 31
0.0
  0
LINE
  5
4E
330
1F
100
AcDbEntity
  8
0
  6
SLD-Durchgehend
 62
   131
420
  8454143
370
    40
100
AcDbLine
 10
26.0095699251
 20
-26.2977719707
 30
0.0
 11
41.9559800866
 21
-26.2977719707
 31
0.0
  0
LINE
  5
4F
330
1F
100
AcDbEntity
  8
0
  6
SLD-Durchgehend
 62
   131
420
  8454143
370
    40
100
AcDbLine
 10
39.3076552081
 20
26.3022280293
 30
0.0
 11
26.0095699251
 21
26.3022280293
 31
0.0
  0
LINE
  5
50
330
1F
100
AcDbEntity
  8
0
  6
SLD-Durchgehend
 62
   131
420
  8454143
370
    40
100
AcDbLine
 10
-13.225519329
 20
23.6608361456
 30
0.0
 11
-25.8904300749
 21
23.0291658565
 31
0.0
  0
LINE
  5
51
330
1F
100
AcDbEntity
  8
0
  6
SLD-Durchgehend
 62
   131
420
  8454143
370
    40
100
AcDbLine
 10
0.0095699251
 20
24.320944442
 30
0.0
 11
-4.8000310841
 21
24.0810626046
 31
0.0
  0
LINE
  5
52
330
1F
100
AcDbEntity
  8
0
  6
SLD-Durchgehend
 62
   131
420
  8454143
370
    40
100
AcDbLine
 10
-4.7981932407
 20
-24.0766982096
 30
0.0
 11
0.0095699251
 21
-24.3164883834
 31
0.0
  0
LINE
  5
53
330
1F
100
AcDbEntity
  8
0
  6
SLD-Durchgehend
 62
   131
420
  8454143
370
    40
100
AcDbLine
 10
-21.8904300749
 20
-23.2242122821
 30
0.0
 11
-13.2385782618
 21
-23.6557287646
 31
0.0
  0
LINE
  5
54
330
1F
100
AcDbEntity
  8
0
  6
SLD-Durchgehend
 62
   131
420
  8454143
370
    40
100
AcDbLine
 10
50.8892924407
 20
-33.3066590517
 30
0.0
 11
51.3879895951
 21
-33.5951947653
 31
0.0
  0
LINE
  5
55
330
1F
100
AcDbEntity
  8
0
  6
SLD-Durchgehend
 62
   131
420
  8454143
370
    40
100
AcDbLine
 10
60.7680196689
 20
-25.7990682818
 30
0.0
 11
60.4640750546
 21
-24.9893750255
 31
0.0
  0
LINE
  5
56
330
1F
100
AcDbEntity
  8
0
  6
SLD-Durchgehend
 62
   131
420
  8454143
370
    40
100
AcDbLine
 10
51.3215974101
 20
-33.5933517297
 30
0.0
 11
51.5676310702
 21
-33.7421660327
 31
0.0
  0
LINE
  5
57
330
1F
100
AcDbEntity
  8
0
  6
SLD-Durchgehend
 62
   131
420
  8454143
370
    40
100
AcDbLine
 10
60.8823499577
 20
-26.0278725691
 30
0.0
 11
60.7762129642
 21
-25.7432296219
 31
0.0
  0
LINE
  5
58
330
1F
100
AcDbEntity
  8
0
  6
SLD-Durchgehend
 62
   131
420
  8454143
370
    40
100
AcDbLine
 10
47.173671404
 20
-30.8783111596
 30
0.0
 11
50.9589156017
 21
-33.3646725233
 31
0.0
  0
LINE
  5
59
330
1F
100
AcDbEntity
  8
0
  6
SLD-Durchgehend
 62
   131
420
  8454143
370
    40
100
AcDbLine
 10
60.4958651846
 20
-25.0590359247
 30
0.0
 11
58.636711922
 21
-20.9061802257
 31
0.0
  0
LINE
  5
5A
330
1F
100
AcDbEntity
  8
0
  6
SLD-Durchgehend
 62
   131
420
  8454143
370
    40
100
AcDbLine
 10
51.5747469531
 20
-33.7463675544
 30
0.0
 11
59.7327726545
 21
-38.4471175193
 31
0.0
  0
LINE
  5
5B
330
1F
100
AcDbEntity
  8
0
  6
SLD-Durchgehend
 62
   131
420
  8454143
370
    40
100
AcDbLine
 10
63.9181450453
 20
-35.1611212572
 30
0.0
 11
60.8868087289
 21
-26.0405218913
 31
0.0
  0
LINE
  5
5C
330
1F
100
AcDbEntity
  8
0
  6
SLD-Durchgehend
 62
   131
420
  8454143
370
    40
100
AcDbLine
 10
-29.9904300749
 20
-20.8677719707
 30
0.0
 11
-23.2904300749
 21
-20.8677719707
 31
0.0
  0
ARC
  5
5D
330
1F
100
AcDbEntity
  8
0
  6
SLD-Durchgehend
 62
   131
420
  8454143
370
    40
100
AcDbCircle
 10
-23.2904300749
 20
-22.2677719707
 30
0.0
 40
1.400000000000003
100
AcDbArc
 50
41.2988518426
 51
90.0
  0
LINE
  5
5E
330
1F
100
AcDbEntity
  8
0
  6
SLD-Durchgehend
 62
   131
420
  8454143
370
    40
100
AcDbLine
 10
-31.9887380171
 20
-19.7140483439
 30
0.0
 11
-29.9904300749
 21
-20.8677719707
 31
0.0
  0
ARC
  5
5F
330
1F
100
AcDbEntity
  8
0
  6
SLD-Durchgehend
 62
   131
420
  8454143
370
    40
100
AcDbCircle
 10
-27.2904300749
 20
22.2722280293
 30
0.0
 40
1.400000000000003
100
AcDbArc
 50
270.0
 51
301.8270736612
  0
LINE
  5
60
330
1F
100
AcDbEntity
  8
0
  6
SLD-Durchgehend
 62
   131
420
  8454143
370
    40
100
AcDbLine
 10
-27.2904300749
 20
20.8722280293
 30
0.0
 11
-30.6989051226
 21
20.8722280293
 31
0.0
  0
LINE
  5
61
330
1F
100
AcDbEntity
  8
0
  6
SLD-Durchgehend
 62
   131
420
  8454143
370
    40
100
AcDbLine
 10
-30.8577077791
 20
20.8622527422
 30
0.0
 11
-31.7303454214
 21
20.3584351652
 31
0.0
  0
LINE
  5
62
330
1F
100
AcDbEntity
  8
0
  6
SLD-Durchgehend
 62
   131
420
  8454143
370
    40
100
AcDbLine
 10
41.9559800866
 20
-26.2977719763
 30
0.0
 11
45.3595254788
 21
-38.9999762298
 31
0.0
  0
ARC
  5
63
330
1F
100
AcDbEntity
  8
0
  6
SLD-Durchgehend
 62
   131
420
  8454143
370
    40
100
AcDbCircle
 10
50.1891546103
 20
-37.7058810747
 30
0.0
 40
5.000000000000346
100
AcDbArc
 50
195.0
 51
263.6386510743
  0
LINE
  5
64
330
1F
100
AcDbEntity
  8
0
  6
SLD-Durchgehend
 62
   131
420
  8454143
370
    40
100
AcDbLine
 10
49.6351619979
 20
-42.6750955182
 30
0.0
 11
54.1522839882
 21
-43.1786890295
 31
0.0
  0
LINE
  5
65
330
1F
100
AcDbEntity
  8
0
  6
SLD-Durchgehend
 62
   131
420
  8454143
370
    40
100
AcDbLine
 10
55.1607205004
 20
-43.8088868794
 30
0.0
 11
68.7038257072
 21
-44.994895026
 31
0.0
  0
ARC
  5
66
330
1F
100
AcDbEntity
  8
0
  6
SLD-Durchgehend
 62
   131
420
  8454143
370
    40
100
AcDbCircle
 10
55.2618344314
 20
-42.6358661881
 30
0.0
 40
1.177370616764315
100
AcDbArc
 50
184.2937518474
 51
265.073304225
  0
LINE
  5
67
330
1F
100
AcDbEntity
  8
0
  6
SLD-Durchgehend
 62
   131
420
  8454143
370
    40
100
AcDbLine
 10
53.4851722026
 20
-34.8471769602
 30
0.0
 11
54.0877683359
 21
-42.7240159056
 31
0.0
  0
LINE
  5
68
330
1F
100
AcDbEntity
  8
0
  6
SLD-Durchgehend
 62
   131
420
  8454143
370
    40
100
AcDbLine
 10
67.9009014693
 20
-29.0609900237
 30
0.0
 11
61.710519857
 21
-28.518880743
 31
0.0
  0
ARC
  5
69
330
1F
100
AcDbEntity
  8
0
  6
SLD-Durchgehend
 62
   131
420
  8454143
370
    40
100
AcDbCircle
 10
67.7997875383
 20
-30.234010715
 30
0.0
 40
1.177370616764513
100
AcDbArc
 50
4.293751847399999
 51
85.073304225
  0
LINE
  5
6A
330
1F
100
AcDbEntity
  8
0
  6
SLD-Durchgehend
 62
   131
420
  8454143
370
    40
100
AcDbLine
 10
70.0109288715
 20
-43.7019961455
 30
0.0
 11
68.9738536338
 21
-30.1458609975
 31
0.0
  0
ARC
  5
6B
330
1F
100
AcDbEntity
  8
0
  6
SLD-Durchgehend
 62
   131
420
  8454143
370
    40
100
AcDbCircle
 10
68.8062169705
 20
-43.7912300079
 30
0.0
 40
1.208012188092693
100
AcDbArc
 50
265.1377687674
 51
4.2362029422
  0
LWPOLYLINE
  5
6C
330
1F
100
AcDbEntity
  8
0
  6
SLD-Durchgehend
 62
   131
420
  8454143
370
    40
100
AcDbPolyline
 90
        3
 70
   128
 43
0.0
 10
59.2735156325
 20
-38.6677037862
 10
58.9154956563
 20
-38.2331466837
 10
58.6909110528
 20
-37.8467846609
  0
ARC
  5
6D
330
1F
100
AcDbEntity
  8
0
  6
SLD-Durchgehend
 62
   131
420
  8454143
370
    40
100
AcDbCircle
 10
61.5128390104
 20
-36.4190247368
 30
0.0
 40
3.173503845552095
100
AcDbArc
 50
225.1194383731
 51
50.79155533979999
  0
ARC
  5
6E
330
1F
100
AcDbEntity
  8
0
  6
SLD-Durchgehend
 62
   131
420
  8454143
370
    40
100
AcDbCircle
 10
60.901244927
 20
-35.7327556855
 30
0.0
 40
3.127028334499169
100
AcDbArc
 50
4.6847971854
 51
31.6807933331
  0
ARC
  5
6F
330
1F
100
AcDbEntity
  8
0
  6
SLD-Durchgehend
 62
   131
420
  8454143
370
    40
100
AcDbCircle
 10
60.8319625789
 20
-35.8030493948
 30
0.0
 40
3.125566000942263
100
AcDbArc
 50
233.5426671055
 51
266.9261576119
  0
LINE
  5
70
330
1F
100
AcDbEntity
  8
0
  6
SLD-Durchgehend
 62
   131
420
  8454143
370
    40
100
AcDbLine
 10
14.6320708534
 20
19.8522280293
 30
0.0
 11
14.6320708504
 21
-30.1794666506
 31
0.0
  0
LINE
  5
71
330
1F
100
AcDbEntity
  8
0
  6
SLD-Durchgehend
 62
   131
420
  8454143
370
    40
100
AcDbLine
 10
14.6320708504
 20
-30.1794666506
 30
0.0
 11
13.0095699251
 21
-30.1794666506
 31
0.0
  0
SPLINE
  5
72
330
1F
100
AcDbEntity
  8
0
  6
SLD-Durchgehend
 62
   131
420
  8454143
370
    40
100
AcDbSpline
210
0.0
220
0.0
230
1.0
 70
     8
 71
     3
 72
    30
 73
    26
 74
     0
 42
0.00000001
 43
0.00000001
 12
1.0
 22
0.0
 32
0.0
 13
1.0
 23
0.0
 33
0.0
 40
0.0
 40
0.0
 40
0.0
 40
0.0
 40
0.1250000000000001
 40
0.1250000000000001
 40
0.1875000000000001
 40
0.1875000000000001
 40
0.2500000000000001
 40
0.2500000000000001
 40
0.3750000000000001
 40
0.3750000000000001
 40
0.4375000000000002
 40
0.4375000000000002
 40
0.5000000000000003
 40
0.5000000000000003
 40
0.6250000000000006
 40
0.6250000000000006
 40
0.6875000000000004
 40
0.6875000000000004
 40
0.7500000000000003
 40
0.7500000000000003
 40
0.8125000000000002
 40
0.8125000000000002
 40
0.8750000000000001
 40
0.8750000000000001
 40
1.0
 40
1.0
 40
1.0
 40
1.0
 10
5.009569925119197
 20
-31.4813342492655
 30
0.0
 10
5.009569925119199
 20
-31.46415923022222
 30
0.0
 10
5.061989929784621
 20
-31.43384990378184
 30
0.0
 10
5.215370357347901
 20
-31.37060805375938
 30
0.0
 10
5.279051362709071
 20
-31.34656136318189
 30
0.0
 10
5.432004181895972
 20
-31.292842603072
 30
0.0
 10
5.521575105088504
 20
-31.26309468754275
 30
0.0
 10
5.822793231900381
 20
-31.16823371233644
 30
0.0
 10
6.068101050446875
 20
-31.09694488305138
 30
0.0
 10
6.502180836076176
 20
-30.98255671230866
 30
0.0
 10
6.658842862006644
 20
-30.94297949389871
 30
0.0
 10
6.990825993577309
 20
-30.86322180945868
 30
0.0
 10
7.165526117329966
 20
-30.8231724653454
 30
0.0
 10
7.715178778087367
 20
-30.70391084767184
 30
0.0
 10
8.11541726851794
 20
-30.62554827205078
 30
0.0
 10
8.768985903750858
 20
-30.5155724842026
 30
0.0
 10
8.994665667165501
 20
-30.48040702172596
 30
0.0
 10
9.454379644485856
 20
-30.41501293297965
 30
0.0
 10
9.68943426352584
 20
-30.38460800268259
 30
0.0
 10
10.1699447114744
 20
-30.32914322321027
 30
0.0
 10
10.41540011993361
 20
-30.30408226010757
 30
0.0
 10
10.91702011359905
 20
-30.26010436773318
 30
0.0
 10
11.17451471807546
 20
-30.24111868450283
 30
0.0
 10
11.95262667624244
 20
-30.19529657566386
 30
0.0
 10
12.47781245991005
 20
-30.17946665056154
 30
0.0
 10
13.0095699251192
 20
-30.17946665056152
 30
0.0
  0
LINE
  5
73
330
1F
100
AcDbEntity
  8
0
  6
SLD-Durchgehend
 62
   131
420
  8454143
370
    40
100
AcDbLine
 10
5.0095699251
 20
-31.4813342493
 30
0.0
 11
5.0095699251
 21
-31.4977719707
 31
0.0
  0
SPLINE
  5
74
330
1F
100
AcDbEntity
  8
0
  6
SLD-Durchgehend
 62
   131
420
  8454143
370
    40
100
AcDbSpline
210
0.0
220
0.0
230
1.0
 70
     8
 71
     3
 72
    28
 73
    24
 74
     0
 42
0.00000001
 43
0.00000001
 12
1.0
 22
0.0
 32
0.0
 13
1.0
 23
0.0
 33
0.0
 40
0.0
 40
0.0
 40
0.0
 40
0.0
 40
0.1250000000000004
 40
0.1250000000000004
 40
0.1875000000000003
 40
0.1875000000000003
 40
0.2500000000000003
 40
0.2500000000000003
 40
0.3750000000000003
 40
0.3750000000000003
 40
0.4375000000000003
 40
0.4375000000000003
 40
0.5000000000000002
 40
0.5000000000000002
 40
0.6250000000000002
 40
0.6250000000000002
 40
0.7500000000000001
 40
0.7500000000000001
 40
0.8125000000000001
 40
0.8125000000000001
 40
0.8750000000000001
 40
0.8750000000000001
 40
1.0
 40
1.0
 40
1.0
 40
1.0
 10
13.0095699251192
 20
30.46482302302359
 30
0.0
 10
12.47897770156995
 20
30.46482302302359
 30
0.0
 10
11.95770364803155
 20
30.47871199402559
 30
0.0
 10
11.18908827931204
 20
30.51821682717114
 30
0.0
 10
10.93511494071099
 20
30.53449770589754
 30
0.0
 10
10.4317054024083
 20
30.57291444857792
 30
0.0
 10
10.18209670714881
 20
30.59510839014487
 30
0.0
 10
9.456671805699846
 20
30.66800235074801
 30
0.0
 10
8.998260540405827
 20
30.7253970452251
 30
0.0
 10
8.347563514742522
 20
30.81959671837949
 30
0.0
 10
8.135803502598785
 20
30.85253092116528
 30
0.0
 10
7.73089051090256
 20
30.91927317415932
 30
0.0
 10
7.538009125873661
 20
30.95300537593801
 30
0.0
 10
6.987187415076511
 20
31.05385043790754
 30
0.0
 10
6.656786851042691
 20
31.12062633026048
 30
0.0
 10
6.071707328244305
 20
31.24580895212986
 30
0.0
 10
5.824426816330181
 20
31.30260713255055
 30
0.0
 10
5.524302421597143
 20
31.37371578599664
 30
0.0
 10
5.435820900957403
 20
31.39514444801699
 30
0.0
 10
5.282490713495171
 20
31.43276783865715
 30
0.0
 10
5.217431324936427
 20
31.44901668498766
 30
0.0
 10
5.061833650443314
 20
31.48824427990614
 30
0.0
 10
5.009569925119197
 20
31.50192840882632
 30
0.0
 10
5.009569925119197
 20
31.50222316821533
 30
0.0
  0
LINE
  5
75
330
1F
100
AcDbEntity
  8
0
  6
SLD-Durchgehend
 62
   131
420
  8454143
370
    40
100
AcDbLine
 10
13.0095699251
 20
30.464823023
 30
0.0
 11
14.6320708504
 21
30.464823023
 31
0.0
  0
LINE
  5
76
330
1F
100
AcDbEntity
  8
0
  6
SLD-Durchgehend
 62
   131
420
  8454143
370
    40
100
AcDbLine
 10
14.6320708504
 20
30.464823023
 30
0.0
 11
14.6320708541
 21
24.4609176917
 31
0.0
  0
LINE
  5
77
330
1F
100
AcDbEntity
  8
0
  6
SLD-Durchgehend
 62
   131
420
  8454143
370
    40
100
AcDbLine
 10
14.6320708541
 20
24.4609176917
 30
0.0
 11
12.2551902708
 21
24.4609176917
 31
0.0
  0
SPLINE
  5
78
330
1F
100
AcDbEntity
  8
0
  6
SLD-Durchgehend
 62
   131
420
  8454143
370
    40
100
AcDbSpline
210
0.0
220
0.0
230
1.0
 70
     8
 71
     3
 72
    22
 73
    18
 74
     0
 42
0.00000001
 43
0.00000001
 12
1.0
 22
0.0
 32
0.0
 13
1.0
 23
0.0
 33
0.0
 40
0.0
 40
0.0
 40
0.0
 40
0.0
 40
0.1250000000000007
 40
0.1250000000000007
 40
0.1875000000000009
 40
0.1875000000000009
 40
0.2500000000000011
 40
0.2500000000000011
 40
0.375000000000001
 40
0.375000000000001
 40
0.500000000000001
 40
0.500000000000001
 40
0.6250000000000007
 40
0.6250000000000007
 40
0.7500000000000002
 40
0.7500000000000002
 40
1.0
 40
1.0
 40
1.0
 40
1.0
 10
12.2551902708082
 20
24.46091769169426
 30
0.0
 10
11.81327733821526
 20
24.46091769169425
 30
0.0
 10
11.37970851361027
 20
24.43153915512838
 30
0.0
 10
10.74112907107668
 20
24.34534297040398
 30
0.0
 10
10.53024514548338
 20
24.30952815917468
 30
0.0
 10
10.11245453275431
 20
24.22336571407346
 30
0.0
 10
9.905355821342496
 20
24.17285392873969
 30
0.0
 10
9.30383840762837
 20
24.00281112423661
 30
0.0
 10
8.924177951531226
 20
23.8640457935661
 30
0.0
 10
8.204235677150404
 20
23.53619007112516
 30
0.0
 10
7.864072744378425
 20
23.34626770279244
 30
0.0
 10
7.242986974544566
 20
22.92939911283433
 30
0.0
 10
6.958590305060507
 20
22.70102643356157
 30
0.0
 10
6.436537120505184
 20
22.20479640196929
 30
0.0
 10
6.20260410611107
 20
21.94013243768087
 30
0.0
 10
5.57769877786919
 20
21.11068162908368
 30
0.0
 10
5.25788950253015
 20
20.50594788559624
 30
0.0
 10
5.00956992511892
 20
19.85222802932683
 30
0.0
  0
LINE
  5
79
330
1F
100
AcDbEntity
  8
0
  6
SLD-Durchgehend
 62
   131
420
  8454143
370
    40
100
AcDbLine
 10
5.0095699251
 20
19.8522280293
 30
0.0
 11
14.6320708534
 21
19.8522280293
 31
0.0
  0
LINE
  5
7A
330
1F
100
AcDbEntity
  8
0
  6
SLD-Durchgehend
 62
   131
420
  8454143
370
    40
100
AcDbLine
 10
7.5095699251
 20
7.0476560472
 30
0.0
 11
7.5095699251
 21
-8.0431980951
 31
0.0
  0
SPLINE
  5
7B
330
1F
100
AcDbEntity
  8
0
  6
SLD-Durchgehend
 62
   131
420
  8454143
370
    40
100
AcDbSpline
210
0.0
220
0.0
230
1.0
 70
     8
 71
     3
 72
    38
 73
    34
 74
     0
 42
0.00000001
 43
0.00000001
 12
1.0
 22
0.0
 32
0.0
 13
1.0
 23
0.0
 33
0.0
 40
0.0
 40
0.0
 40
0.0
 40
0.0
 40
0.0625000000000002
 40
0.0625000000000002
 40
0.1250000000000002
 40
0.1250000000000002
 40
0.1875000000000001
 40
0.1875000000000001
 40
0.2500000000000001
 40
0.2500000000000001
 40
0.3125000000000001
 40
0.3125000000000001
 40
0.375
 40
0.375
 40
0.4375
 40
0.4375
 40
0.5
 40
0.5
 40
0.5625
 40
0.5625
 40
0.625
 40
0.625
 40
0.6875
 40
0.6875
 40
0.7499999999999999
 40
0.7499999999999999
 40
0.8125
 40
0.8125
 40
0.8750000000000001
 40
0.8750000000000001
 40
0.9375000000000002
 40
0.9375000000000002
 40
1.0
 40
1.0
 40
1.0
 40
1.0
 10
7.509569925118647
 20
7.0476569936884
 30
0.0
 10
7.509569800927584
 20
7.260873990570454
 30
0.0
 10
7.488794890193644
 20
7.470096690879958
 30
0.0
 10
7.407880247751999
 20
7.88101749759702
 30
0.0
 10
7.346933759140239
 20
8.084538885360537
 30
0.0
 10
7.187107064906869
 20
8.474704406666836
 30
0.0
 10
7.089348859250251
 20
8.659764556234611
 30
0.0
 10
6.858505200409785
 20
9.01032704157804
 30
0.0
 10
6.723690617230938
 20
9.177267467961224
 30
0.0
 10
6.427225528745445
 20
9.478376969638878
 30
0.0
 10
6.265271792904362
 20
9.613796123100466
 30
0.0
 10
5.912987372019188
 20
9.853743209715319
 30
0.0
 10
5.721894017379637
 20
9.957956074917623
 30
0.0
 10
5.327889887569144
 20
10.12449373299107
 30
0.0
 10
5.122957307041981
 20
10.18843174700227
 30
0.0
 10
4.696254245874841
 20
10.2755371489202
 30
0.0
 10
4.479718955645119
 20
10.29735922958388
 30
0.0
 10
4.048245038480686
 20
10.29794498211267
 30
0.0
 10
3.829553928022578
 20
10.27636554830634
 30
0.0
 10
3.404589707485554
 20
10.19066221804821
 30
0.0
 10
3.199256872889344
 20
10.12735244347344
 30
0.0
 10
2.802495712643224
 20
9.960683461557784
 30
0.0
 10
2.611457744829666
 20
9.856823521714945
 30
0.0
 10
2.259534884695657
 20
9.61817271657763
 30
0.0
 10
2.0958770162524
 20
9.482084227532042
 30
0.0
 10
1.796213660992947
 20
9.178356415632242
 30
0.0
 10
1.663885980742814
 20
9.014631436700347
 30
0.0
 10
1.432401920360723
 20
8.664346820962377
 30
0.0
 10
1.332539201421862
 20
8.475659625444267
 30
0.0
 10
1.172944016297892
 20
8.086619142025631
 30
0.0
 10
1.11260245889127
 20
7.886283989806816
 30
0.0
 10
1.030781431361548
 20
7.473832891927389
 30
0.0
 10
1.009570049286366
 20
7.260895159505349
 30
0.0
 10
1.009569925119745
 20
7.04765699312796
 30
0.0
  0
LINE
  5
7C
330
1F
100
AcDbEntity
  8
0
  6
SLD-Durchgehend
 62
   131
420
  8454143
370
    40
100
AcDbLine
 10
1.0095699251
 20
-8.0431980954
 30
0.0
 11
1.0095699251
 21
7.0476560469
 31
0.0
  0
SPLINE
  5
7D
330
1F
100
AcDbEntity
  8
0
  6
SLD-Durchgehend
 62
   131
420
  8454143
370
    40
100
AcDbSpline
210
0.0
220
0.0
230
1.0
 70
     8
 71
     3
 72
    38
 73
    34
 74
     0
 42
0.00000001
 43
0.00000001
 12
1.0
 22
0.0
 32
0.0
 13
1.0
 23
0.0
 33
0.0
 40
0.0
 40
0.0
 40
0.0
 40
0.0
 40
0.0625
 40
0.0625
 40
0.125
 40
0.125
 40
0.1875
 40
0.1875
 40
0.25
 40
0.25
 40
0.3125
 40
0.3125
 40
0.375
 40
0.375
 40
0.4375
 40
0.4375
 40
0.5
 40
0.5
 40
0.5625
 40
0.5625
 40
0.625
 40
0.625
 40
0.6875
 40
0.6875
 40
0.75
 40
0.75
 40
0.8125
 40
0.8125
 40
0.875
 40
0.875
 40
0.9375
 40
0.9375
 40
1.0
 40
1.0
 40
1.0
 40
1.0
 10
1.009569925119748
 20
-8.043197149205787
 30
0.0
 10
1.00956980135193
 20
-8.255750444043086
 30
0.0
 10
1.0302162019681
 20
-8.464281649859029
 30
0.0
 10
1.110573951733782
 20
-8.873777389411842
 30
0.0
 10
1.171025620154386
 20
-9.07644094512088
 30
0.0
 10
1.329876660148142
 20
-9.465729226920592
 30
0.0
 10
1.427055044134928
 20
-9.65041689834266
 30
0.0
 10
1.656559726954562
 20
-10.00039798353743
 30
0.0
 10
1.790664869240124
 20
-10.16725772551334
 30
0.0
 10
2.086373241390639
 20
-10.46896358943234
 30
0.0
 10
2.2479652906314
 20
-10.60471005296142
 30
0.0
 10
2.599583371329503
 20
-10.84540112355015
 30
0.0
 10
2.791056987109112
 20
-10.95043592049129
 30
0.0
 10
3.186089221777058
 20
-11.11829183673025
 30
0.0
 10
3.391536693382128
 20
-11.18273452622339
 30
0.0
 10
3.819244840058507
 20
-11.27062503921589
 30
0.0
 10
4.037729723537859
 20
-11.29286010894026
 30
0.0
 10
4.471365584568885
 20
-11.29353021338281
 30
0.0
 10
4.690833043467041
 20
-11.27182403315149
 30
0.0
 10
5.118087918888638
 20
-11.18532476595937
 30
0.0
 10
5.324184698610391
 20
-11.12145662371335
 30
0.0
 10
5.721855877189812
 20
-10.95366191752363
 30
0.0
 10
5.913147378707142
 20
-10.84917610244602
 30
0.0
 10
6.265068724101545
 20
-10.60948044243256
 30
0.0
 10
6.428565135636207
 20
-10.47288398200945
 30
0.0
 10
6.727248115691737
 20
-10.16886916667455
 30
0.0
 10
6.859028396396618
 20
-10.00513964189352
 30
0.0
 10
7.089419334110816
 20
-9.655138117795351
 30
0.0
 10
7.188697341466884
 20
-9.466791351676743
 30
0.0
 10
7.347248281887368
 20
-9.078884733116437
 30
0.0
 10
7.407200799288497
 20
-8.879162393688274
 30
0.0
 10
7.488494675020764
 20
-8.468004650659074
 30
0.0
 10
7.509570048945215
 20
-8.255788377678735
 30
0.0
 10
7.50956992511865
 20
-8.043197148645378
 30
0.0
  0
LINE
  5
7E
330
1F
100
AcDbEntity
  8
0
  6
SLD-Durchgehend
 62
   131
420
  8454143
370
    40
100
AcDbLine
 10
0.0095699251
 20
0.0022280293
 30
0.0
 11
0.0095699251
 21
31.5022280293
 31
0.0
  0
LINE
  5
7F
330
1F
100
AcDbEntity
  8
0
  6
SLD-Durchgehend
 62
   131
420
  8454143
370
    40
100
AcDbLine
 10
0.0095699251
 20
-31.4977719707
 30
0.0
 11
0.0095699251
 21
0.0022280293
 31
0.0
  0
SPLINE
  5
80
330
1F
100
AcDbEntity
  8
0
  6
SLD-Durchgehend
 62
   131
420
  8454143
370
    40
100
AcDbSpline
210
0.0
220
0.0
230
1.0
 70
     8
 71
     3
 72
    10
 73
     6
 74
     0
 42
0.00000001
 43
0.00000001
 12
1.0
 22
0.0
 32
0.0
 13
1.0
 23
0.0
 33
0.0
 40
0.0
 40
0.0
 40
0.0
 40
0.0
 40
0.711999944551443
 40
0.711999944551443
 40
1.0
 40
1.0
 40
1.0
 40
1.0
 10
19.9220699251192
 20
-27.52074114723719
 30
0.0
 10
20.2686172367905
 20
-28.15237388545639
 30
0.0
 10
20.6160504955805
 20
-28.78352109505869
 30
0.0
 10
21.1050503834367
 20
-29.66939549498249
 30
0.0
 10
21.2460036419061
 20
-29.92446209736109
 30
0.0
 10
21.3870689998785
 20
-30.17946665056149
 30
0.0
  0
LINE
  5
81
330
1F
100
AcDbEntity
  8
0
  6
SLD-Durchgehend
 62
   131
420
  8454143
370
    40
100
AcDbLine
 10
19.9220699251
 20
19.8522280293
 30
0.0
 11
19.9220699251
 21
-27.5207411472
 31
0.0
  0
SPLINE
  5
82
330
1F
100
AcDbEntity
  8
0
  6
SLD-Durchgehend
 62
   131
420
  8454143
370
    40
100
AcDbSpline
210
0.0
220
0.0
230
1.0
 70
    24
 71
     3
 72
     8
 73
     4
 74
     0
 42
0.00000001
 43
0.00000001
 12
1.0
 22
0.0
 32
0.0
 13
1.0
 23
0.0
 33
0.0
 40
0.0
 40
0.0
 40
0.0
 40
0.0
 40
1.0
 40
1.0
 40
1.0
 40
1.0
 10
21.38706900324944
 20
19.85222802932681
 30
0.0
 10
20.8861935145747
 20
19.85222802932681
 30
0.0
 10
20.39662183729953
 20
19.85222802932681
 30
0.0
 10
19.9220699251192
 20
19.85222802932681
 30
0.0
  0
LINE
  5
83
330
1F
100
AcDbEntity
  8
0
  6
SLD-Durchgehend
 62
   131
420
  8454143
370
    40
100
AcDbLine
 10
21.3870689999
 20
-30.1794666506
 30
0.0
 11
21.3870690016
 21
19.8522280293
 31
0.0
  0
LINE
  5
84
330
1F
100
AcDbEntity
  8
0
  6
SLD-Durchgehend
 62
   131
420
  8454143
370
    40
100
AcDbLine
 10
26.0095699251
 20
-30.1794666506
 30
0.0
 11
21.3870689999
 21
-30.1794666506
 31
0.0
  0
LINE
  5
85
330
1F
100
AcDbEntity
  8
0
  6
SLD-Durchgehend
 62
   131
420
  8454143
370
    40
100
AcDbLine
 10
21.3870690016
 20
19.8522280293
 30
0.0
 11
26.0095699251
 21
19.8522280293
 31
0.0
  0
LINE
  5
86
330
1F
100
AcDbEntity
  8
0
  6
SLD-Durchgehend
 62
   131
420
  8454143
370
    40
100
AcDbLine
 10
26.0095699251
 20
-30.1794666506
 30
0.0
 11
26.0095699251
 21
19.8522280293
 31
0.0
  0
SPLINE
  5
87
330
1F
100
AcDbEntity
  8
0
  6
SLD-Durchgehend
 62
   131
420
  8454143
370
    40
100
AcDbSpline
210
0.0
220
0.0
230
1.0
 70
     8
 71
     3
 72
    10
 73
     6
 74
     0
 42
0.00000001
 43
0.00000001
 12
1.0
 22
0.0
 32
0.0
 13
1.0
 23
0.0
 33
0.0
 40
0.0
 40
0.0
 40
0.0
 40
0.0
 40
0.288000055448555
 40
0.288000055448555
 40
1.0
 40
1.0
 40
1.0
 40
1.0
 10
14.6320708503599
 20
-30.17946665056149
 30
0.0
 10
14.7731362083323
 20
-29.92446209736109
 30
0.0
 10
14.9140894668017
 20
-29.66939549498249
 30
0.0
 10
15.4030893546579
 20
-28.78352109505869
 30
0.0
 10
15.7505226134479
 20
-28.15237388545639
 30
0.0
 10
16.0970699251192
 20
-27.52074114723719
 30
0.0
  0
SPLINE
  5
88
330
1F
100
AcDbEntity
  8
0
  6
SLD-Durchgehend
 62
   131
420
  8454143
370
    40
100
AcDbSpline
210
0.0
220
0.0
230
1.0
 70
    24
 71
     3
 72
     8
 73
     4
 74
     0
 42
0.00000001
 43
0.00000001
 12
1.0
 22
0.0
 32
0.0
 13
1.0
 23
0.0
 33
0.0
 40
0.0
 40
0.0
 40
0.0
 40
0.0
 40
1.0
 40
1.0
 40
1.0
 40
1.0
 10
16.097069934864
 20
19.85222802932681
 30
0.0
 10
15.62251802262563
 20
19.85222802932681
 30
0.0
 10
15.13294634526347
 20
19.85222802932681
 30
0.0
 10
14.63207085653732
 20
19.85222802932681
 30
0.0
  0
LINE
  5
89
330
1F
100
AcDbEntity
  8
0
  6
SLD-Durchgehend
 62
   131
420
  8454143
370
    40
100
AcDbLine
 10
16.09706993
 20
19.8522280293
 30
0.0
 11
16.0970699251
 21
-27.5207411472
 31
0.0
  0
SPLINE
  5
8A
330
1F
100
AcDbEntity
  8
0
  6
SLD-Durchgehend
 62
   131
420
  8454143
370
    40
100
AcDbSpline
210
0.0
220
0.0
230
1.0
 70
    24
 71
     3
 72
    14
 73
    10
 74
     0
 42
0.00000001
 43
0.00000001
 12
1.0
 22
0.0
 32
0.0
 13
1.0
 23
0.0
 33
0.0
 40
0.0
 40
0.0
 40
0.0
 40
0.0
 40
0.124999999999999
 40
0.124999999999999
 40
0.249999999999998
 40
0.249999999999998
 40
0.4999999999999987
 40
0.4999999999999987
 40
1.0
 40
1.0
 40
1.0
 40
1.0
 10
19.1720699251192
 20
-26.39777197067319
 30
0.0
 10
19.24193796806166
 20
-26.39777197067318
 30
0.0
 10
19.30540078395319
 20
-26.39777197067319
 30
0.0
 10
19.40759540655043
 20
-26.39777197067319
 30
0.0
 10
19.44856140868503
 20
-26.39777197067318
 30
0.0
 10
19.55722329461727
 20
-26.3977719706732
 30
0.0
 10
19.60955554031821
 20
-26.39777197067318
 30
0.0
 10
19.74556766919938
 20
-26.39777197067319
 30
0.0
 10
19.80451493022212
 20
-26.39777197067319
 30
0.0
 10
19.84682920934383
 20
-26.39777197067319
 30
0.0
  0
LINE
  5
8B
330
1F
100
AcDbEntity
  8
0
  6
SLD-Durchgehend
 62
   131
420
  8454143
370
    40
100
AcDbLine
 10
19.1720699251
 20
-26.3977719707
 30
0.0
 11
19.1720699251
 21
26.4022280293
 31
0.0
  0
SPLINE
  5
8C
330
1F
100
AcDbEntity
  8
0
  6
SLD-Durchgehend
 62
   131
420
  8454143
370
    40
100
AcDbSpline
210
0.0
220
0.0
230
1.0
 70
    24
 71
     3
 72
    12
 73
     8
 74
     0
 42
0.00000001
 43
0.00000001
 12
1.0
 22
0.0
 32
0.0
 13
1.0
 23
0.0
 33
0.0
 40
0.0
 40
0.0
 40
0.0
 40
0.0
 40
0.5000000000000038
 40
0.5000000000000038
 40
0.7500000000000019
 40
0.7500000000000019
 40
1.0
 40
1.0
 40
1.0
 40
1.0
 10
19.57208979613348
 20
26.40222802932681
 30
0.0
 10
19.53036577875312
 20
26.40222802932681
 30
0.0
 10
19.48319458744829
 20
26.40222802932681
 30
0.0
 10
19.39032846109163
 20
26.40222802932681
 30
0.0
 10
19.35482648851285
 20
26.40222802932681
 30
0.0
 10
19.27185051917807
 20
26.40222802932681
 30
0.0
 10
19.22303337317128
 20
26.40222802932681
 30
0.0
 10
19.1720699251192
 20
26.40222802932681
 30
0.0
  0
SPLINE
  5
8D
330
1F
100
AcDbEntity
  8
0
  6
SLD-Durchgehend
 62
   131
420
  8454143
370
    40
100
AcDbSpline
210
0.0
220
0.0
230
1.0
 70
     8
 71
     3
 72
    10
 73
     6
 74
     0
 42
0.00000001
 43
0.00000001
 12
1.0
 22
0.0
 32
0.0
 13
1.0
 23
0.0
 33
0.0
 40
0.0
 40
0.0
 40
0.0
 40
0.0
 40
0.5
 40
0.5
 40
1.0
 40
1.0
 40
1.0
 40
1.0
 10
19.9220699251192
 20
27.06456936835362
 30
0.0
 10
19.9220699251192
 20
26.93335815550688
 30
0.0
 10
19.89023549063574
 20
26.8039949183358
 30
0.0
 10
19.77032431683215
 20
26.57477265209035
 30
0.0
 10
19.68174038545249
 20
26.47448423143846
 30
0.0
 10
19.57208979613375
 20
26.40222802932708
 30
0.0
  0
SPLINE
  5
8E
330
1F
100
AcDbEntity
  8
0
  6
SLD-Durchgehend
 62
   131
420
  8454143
370
    40
100
AcDbSpline
210
0.0
220
0.0
230
1.0
 70
     8
 71
     3
 72
    10
 73
     6
 74
     0
 42
0.00000001
 43
0.00000001
 12
1.0
 22
0.0
 32
0.0
 13
1.0
 23
0.0
 33
0.0
 40
0.0
 40
0.0
 40
0.0
 40
0.0
 40
0.406994329625126
 40
0.406994329625126
 40
1.0
 40
1.0
 40
1.0
 40
1.0
 10
19.9063270870387
 20
19.85222802932681
 30
0.0
 10
19.9105927054273
 20
19.88120474091401
 30
0.0
 10
19.9139889445456
 20
19.91032241261781
 30
0.0
 10
19.9202170422625
 20
19.98215580552941
 30
0.0
 10
19.9220699251192
 20
20.02500969975811
 30
0.0
 10
19.9220699251192
 20
20.06782358490401
 30
0.0
  0
SPLINE
  5
8F
330
1F
100
AcDbEntity
  8
0
  6
SLD-Durchgehend
 62
   131
420
  8454143
370
    40
100
AcDbSpline
210
0.0
220
0.0
230
1.0
 70
     8
 71
     3
 72
     8
 73
     4
 74
     0
 42
0.00000001
 43
0.00000001
 12
1.0
 22
0.0
 32
0.0
 13
1.0
 23
0.0
 33
0.0
 40
0.0
 40
0.0
 40
0.0
 40
0.0
 40
1.0
 40
1.0
 40
1.0
 40
1.0
 10
16.44705005410509
 20
26.4022280293268
 30
0.0
 10
16.22775591460579
 20
26.54673579498427
 30
0.0
 10
16.0970699251192
 20
26.80216297871363
 30
0.0
 10
16.0970699251192
 20
27.06456936835362
 30
0.0
  0
SPLINE
  5
90
330
1F
100
AcDbEntity
  8
0
  6
SLD-Durchgehend
 62
   131
420
  8454143
370
    40
100
AcDbSpline
210
0.0
220
0.0
230
1.0
 70
    24
 71
     3
 72
    12
 73
     8
 74
     0
 42
0.00000001
 43
0.00000001
 12
1.0
 22
0.0
 32
0.0
 13
1.0
 23
0.0
 33
0.0
 40
0.0
 40
0.0
 40
0.0
 40
0.0
 40
0.25
 40
0.25
 40
0.5
 40
0.5
 40
1.0
 40
1.0
 40
1.0
 40
1.0
 10
16.8470699251192
 20
26.40222802932681
 30
0.0
 10
16.79637947747151
 20
26.40222802932681
 30
0.0
 10
16.74832946005552
 20
26.40222802932681
 30
0.0
 10
16.6659494469717
 20
26.40222802932681
 30
0.0
 10
16.63059793611935
 20
26.40222802932681
 30
0.0
 10
16.5370488073847
 20
26.40222802932682
 30
0.0
 10
16.48888149398621
 20
26.40222802932681
 30
0.0
 10
16.44705005410507
 20
26.40222802932681
 30
0.0
  0
LINE
  5
91
330
1F
100
AcDbEntity
  8
0
  6
SLD-Durchgehend
 62
   131
420
  8454143
370
    40
100
AcDbLine
 10
16.8470699251
 20
26.4022280293
 30
0.0
 11
16.8470699251
 21
-26.3977719707
 31
0.0
  0
SPLINE
  5
92
330
1F
100
AcDbEntity
  8
0
  6
SLD-Durchgehend
 62
   131
420
  8454143
370
    40
100
AcDbSpline
210
0.0
220
0.0
230
1.0
 70
    24
 71
     3
 72
    14
 73
    10
 74
     0
 42
0.00000001
 43
0.00000001
 12
1.0
 22
0.0
 32
0.0
 13
1.0
 23
0.0
 33
0.0
 40
0.0
 40
0.0
 40
0.0
 40
0.0
 40
0.500000000000003
 40
0.500000000000003
 40
0.7500000000000019
 40
0.7500000000000019
 40
0.875000000000001
 40
0.875000000000001
 40
1.0
 40
1.0
 40
1.0
 40
1.0
 10
16.17231064089457
 20
-26.39777197067319
 30
0.0
 10
16.21464071893419
 20
-26.39777197067319
 30
0.0
 10
16.27340784754557
 20
-26.39777197067319
 30
0.0
 10
16.41010051995828
 20
-26.39777197067318
 30
0.0
 10
16.46320480575178
 20
-26.39777197067319
 30
0.0
 10
16.57176592556038
 20
-26.39777197067318
 30
0.0
 10
16.61296456021723
 20
-26.39777197067319
 30
0.0
 10
16.71423855185676
 20
-26.3977719706732
 30
0.0
 10
16.77789387016923
 20
-26.39777197067319
 30
0.0
 10
16.84706992511894
 20
-26.39777197067319
 30
0.0
  0
SPLINE
  5
93
330
1F
100
AcDbEntity
  8
0
  6
SLD-Durchgehend
 62
   131
420
  8454143
370
    40
100
AcDbSpline
210
0.0
220
0.0
230
1.0
 70
     8
 71
     3
 72
     8
 73
     4
 74
     0
 42
0.00000001
 43
0.00000001
 12
1.0
 22
0.0
 32
0.0
 13
1.0
 23
0.0
 33
0.0
 40
0.0
 40
0.0
 40
0.0
 40
0.0
 40
1.0
 40
1.0
 40
1.0
 40
1.0
 10
16.0970699251192
 20
20.06782358490401
 30
0.0
 10
16.0970699251192
 20
19.99576706346621
 30
0.0
 10
16.102318527827
 20
19.92351627033231
 30
0.0
 10
16.1128127631997
 20
19.85222802932681
 30
0.0
  0
LINE
  5
94
330
1F
100
AcDbEntity
  8
0
  6
SLD-Durchgehend
 62
   131
420
  8454143
370
    40
100
AcDbLine
 10
16.8470699251
 20
26.4022280293
 30
0.0
 11
19.1720699251
 21
26.4022280293
 31
0.0
  0
LINE
  5
95
330
1F
100
AcDbEntity
  8
0
  6
SLD-Durchgehend
 62
   131
420
  8454143
370
    40
100
AcDbLine
 10
19.1720699251
 20
-26.3977719707
 30
0.0
 11
16.8470699251
 21
-26.3977719707
 31
0.0
  0
LINE
  5
96
330
1F
100
AcDbEntity
  8
0
  6
SLD-Durchgehend
 62
   131
420
  8454143
370
    40
100
AcDbLine
 10
41.9559800866
 20
-25.8829106322
 30
0.0
 11
42.2221715503
 21
-25.8662272739
 31
0.0
  0
LINE
  5
97
330
1F
100
AcDbEntity
  8
0
  6
SLD-Durchgehend
 62
   131
420
  8454143
370
    40
100
AcDbLine
 10
41.9559800866
 20
-25.8829106322
 30
0.0
 11
41.9559800866
 21
-26.2977719707
 31
0.0
  0
ELLIPSE
  5
98
330
1F
100
AcDbEntity
  8
0
  6
SLD-Durchgehend
 62
   131
420
  8454143
370
    40
100
AcDbEllipse
 10
70.7638455947
 20
0.0022280293
 30
0.0
 11
31.54013272128531
 21
-26.27069231102659
 31
0.0
210
0.0
220
0.0
230
0.9999999999999998
 40
0.0393549277
 41
2.329341775490129
 42
3.094378930464457
  0
ELLIPSE
  5
99
330
1F
100
AcDbEntity
  8
0
  6
SLD-Durchgehend
 62
   131
420
  8454143
370
    40
100
AcDbEllipse
 10
202.6573421138
 20
0.0022280293
 30
0.0
 11
274.5039159668428
 21
4.607952593842244
 31
0.0
210
0.0
220
0.0
230
1.0
 40
0.0943271791
 41
2.159717137241025
 42
2.248734417579501
  0
ELLIPSE
  5
9A
330
1F
100
AcDbEntity
  8
0
  6
SLD-Durchgehend
 62
   131
420
  8454143
370
    40
100
AcDbEllipse
 10
34.6499694867
 20
0.0022280293
 30
0.0
 11
1.338329784483747
 21
26.29756679023252
 31
0.0
210
0.0
220
0.0
230
1.0
 40
0.2673064629
 41
0.8676572959140924
 42
2.650206929277161
  0
ELLIPSE
  5
9B
330
1F
100
AcDbEntity
  8
0
  6
SLD-Durchgehend
 62
   131
420
  8454143
370
    40
100
AcDbEllipse
 10
202.6573421138
 20
0.0022280293
 30
0.0
 11
274.5039159668428
 21
4.607952593842244
 31
0.0
210
0.0
220
0.0
230
1.0
 40
0.0943271791
 41
4.031284050942636
 42
4.063655467895869
  0
ELLIPSE
  5
9C
330
1F
100
AcDbEntity
  8
0
  6
SLD-Durchgehend
 62
   131
420
  8454143
370
    40
100
AcDbEllipse
 10
78.4846863649
 20
0.0022280293
 30
0.0
 11
42.58111492483546
 21
21.76712858613519
 31
0.0
210
0.0
220
0.0
230
1.0
 40
0.3466520403
 41
3.264868770043929
 42
3.538454441488036
  0
LINE
  5
9D
330
1F
100
AcDbEntity
  8
0
  6
SLD-Durchgehend
 62
   131
420
  8454143
370
    40
100
AcDbLine
 10
30.153130305
 20
-23.0150058937
 30
0.0
 11
30.153130305
 21
17.2795320519
 31
0.0
  0
LINE
  5
9E
330
1F
100
AcDbEntity
  8
0
  6
SLD-Durchgehend
 62
   131
420
  8454143
370
    40
100
AcDbLine
 10
12.2551902708
 20
24.4609176917
 30
0.0
 11
12.2551902708
 21
19.8522280293
 31
0.0
  0
LINE
  5
9F
330
1F
100
AcDbEntity
  8
0
  6
SLD-Durchgehend
 62
   131
420
  8454143
370
    40
100
AcDbLine
 10
-21.8904300749
 20
-23.2242122816
 30
0.0
 11
-21.8904300749
 21
-21.9709547813
 31
0.0
  0
SPLINE
  5
A0
330
1F
100
AcDbEntity
  8
0
  6
SLD-Durchgehend
 62
   131
420
  8454143
370
    40
100
AcDbSpline
210
0.0
220
0.0
230
1.0
 70
     8
 71
     3
 72
    12
 73
     8
 74
     0
 42
0.00000001
 43
0.00000001
 12
1.0
 22
0.0
 32
0.0
 13
1.0
 23
0.0
 33
0.0
 40
0.0
 40
0.0
 40
0.0
 40
0.0
 40
0.5
 40
0.5
 40
0.75
 40
0.75
 40
1.0
 40
1.0
 40
1.0
 40
1.0
 10
-21.8904300748808
 20
-21.97095478168306
 30
0.0
 10
-21.89043007470626
 20
-21.79076802060919
 30
0.0
 10
-22.02649782251046
 20
-21.59203127047684
 30
0.0
 10
-22.29777351828783
 20
-21.27412249945424
 30
0.0
 10
-22.400603054763
 20
-21.16505868166345
 30
0.0
 10
-22.58146368485371
 20
-20.93717532507226
 30
0.0
 10
-22.65988089589772
 20
-20.81852641206581
 30
0.0
 10
-22.65808677914433
 20
-20.68836246923401
 30
0.0
  0
SPLINE
  5
A1
330
1F
100
AcDbEntity
  8
0
  6
SLD-Durchgehend
 62
   131
420
  8454143
370
    40
100
AcDbSpline
210
0.0
220
0.0
230
1.0
 70
     8
 71
     3
 72
    18
 73
    14
 74
     0
 42
0.00000001
 43
0.00000001
 12
1.0
 22
0.0
 32
0.0
 13
1.0
 23
0.0
 33
0.0
 40
0.0
 40
0.0
 40
0.0
 40
0.0
 40
0.5000000000000022
 40
0.5000000000000022
 40
0.7500000000000051
 40
0.7500000000000051
 40
0.8750000000000061
 40
0.8750000000000061
 40
0.9375000000000047
 40
0.9375000000000047
 40
0.9687500000000023
 40
0.9687500000000023
 40
1.0
 40
1.0
 40
1.0
 40
1.0
 10
-22.65808677902177
 20
-20.68836246879178
 30
0.0
 10
-22.65531606864094
 20
-20.4873462396798
 30
0.0
 10
-22.67710756603936
 20
-20.27362386204397
 30
0.0
 10
-22.77284004660154
 20
-19.93762833694558
 30
0.0
 10
-22.81439423785495
 20
-19.82269770210466
 30
0.0
 10
-22.9176719080211
 20
-19.65114714444181
 30
0.0
 10
-22.95824304473964
 20
-19.59351695092938
 30
0.0
 10
-23.04873069942855
 20
-19.51440021259617
 30
0.0
 10
-23.0839794708568
 20
-19.48876221177532
 30
0.0
 10
-23.15487746902141
 20
-19.46113327093001
 30
0.0
 10
-23.18152915308248
 20
-19.45425428845131
 30
0.0
 10
-23.2369072079781
 20
-19.44943659127512
 30
0.0
 10
-23.2651424233366
 20
-19.45170532185565
 30
0.0
 10
-23.29043007866902
 20
-19.45734879001465
 30
0.0
  0
SPLINE
  5
A2
330
1F
100
AcDbEntity
  8
0
  6
SLD-Durchgehend
 62
   131
420
  8454143
370
    40
100
AcDbSpline
210
0.0
220
0.0
230
1.0
 70
     8
 71
     3
 72
    16
 73
    12
 74
     0
 42
0.00000001
 43
0.00000001
 12
1.0
 22
0.0
 32
0.0
 13
1.0
 23
0.0
 33
0.0
 40
0.0
 40
0.0
 40
0.0
 40
0.0
 40
0.125000000000001
 40
0.125000000000001
 40
0.250000000000002
 40
0.250000000000002
 40
0.5000000000000013
 40
0.5000000000000013
 40
0.7500000000000007
 40
0.7500000000000007
 40
1.0
 40
1.0
 40
1.0
 40
1.0
 10
-25.68447438981707
 20
-20.55387076091102
 30
0.0
 10
-25.69312501366693
 20
-20.48530528141345
 30
0.0
 10
-25.67148533451209
 20
-20.41789112522391
 30
0.0
 10
-25.57774309567759
 20
-20.28806323086349
 30
0.0
 10
-25.50846256314016
 20
-20.22825943220877
 30
0.0
 10
-25.2566821122655
 20
-20.05886766795048
 30
0.0
 10
-25.04175783385327
 20
-19.9647242016356
 30
0.0
 10
-24.57769810068433
 20
-19.79393008563751
 30
0.0
 10
-24.32978237601497
 20
-19.71887196129723
 30
0.0
 10
-23.82037083237613
 20
-19.5804175307983
 30
0.0
 10
-23.55786872939044
 20
-19.5170333037512
 30
0.0
 10
-23.29043007866834
 20
-19.45734879001392
 30
0.0
  0
SPLINE
  5
A3
330
1F
100
AcDbEntity
  8
0
  6
SLD-Durchgehend
 62
   131
420
  8454143
370
    40
100
AcDbSpline
210
0.0
220
0.0
230
1.0
 70
     8
 71
     3
 72
    18
 73
    14
 74
     0
 42
0.00000001
 43
0.00000001
 12
1.0
 22
0.0
 32
0.0
 13
1.0
 23
0.0
 33
0.0
 40
0.0
 40
0.0
 40
0.0
 40
0.0
 40
0.0312499999999998
 40
0.0312499999999998
 40
0.0624999999999996
 40
0.0624999999999996
 40
0.1249999999999998
 40
0.1249999999999998
 40
0.2499999999999999
 40
0.2499999999999999
 40
0.5000000000000008
 40
0.5000000000000008
 40
1.0
 40
1.0
 40
1.0
 40
1.0
 10
-25.68447438980338
 20
-20.55387076041805
 30
0.0
 10
-25.68167034040094
 20
-20.57609586517095
 30
0.0
 10
-25.70226068120842
 20
-20.59606855144205
 30
0.0
 10
-25.76103906252454
 20
-20.62792532029046
 30
0.0
 10
-25.79774196835276
 20
-20.64033684914144
 30
0.0
 10
-25.91444738744932
 20
-20.67293433207927
 30
0.0
 10
-25.9994456159373
 20
-20.68805034086412
 30
0.0
 10
-26.26069806256335
 20
-20.72764751688394
 30
0.0
 10
-26.44322476475043
 20
-20.74511272713729
 30
0.0
 10
-26.99072771683059
 20
-20.78910472237582
 30
0.0
 10
-27.3620261707545
 20
-20.80636933061059
 30
0.0
 10
-28.48163424799408
 20
-20.84727428582832
 30
0.0
 10
-29.23564990684523
 20
-20.85810015186555
 30
0.0
 10
-29.99043007540297
 20
-20.86371258647758
 30
0.0
  0
SPLINE
  5
A4
330
1F
100
AcDbEntity
  8
0
  6
SLD-Durchgehend
 62
   131
420
  8454143
370
    40
100
AcDbSpline
210
0.0
220
0.0
230
1.0
 70
     8
 71
     3
 72
    10
 73
     6
 74
     0
 42
0.00000001
 43
0.00000001
 12
1.0
 22
0.0
 32
0.0
 13
1.0
 23
0.0
 33
0.0
 40
0.0
 40
0.0
 40
0.0
 40
0.0
 40
0.5
 40
0.5
 40
1.0
 40
1.0
 40
1.0
 40
1.0
 10
-30.39758364002035
 20
-20.34442166058026
 30
0.0
 10
-30.39874294221632
 20
-20.44001127283028
 30
0.0
 10
-30.35705763965547
 20
-20.53123464853482
 30
0.0
 10
-30.20957101280301
 20
-20.7068026736171
 30
0.0
 10
-30.10774055188649
 20
-20.78751505350215
 30
0.0
 10
-29.99043007326007
 20
-20.86371258752641
 30
0.0
  0
ELLIPSE
  5
A5
330
1F
100
AcDbEntity
  8
0
  6
SLD-Durchgehend
 62
   131
420
  8454143
370
    40
100
AcDbEllipse
 10
-66.7513712316
 20
-1.6133242546
 30
0.0
 11
36.13247081856336
 21
-19.63370609807891
 31
0.0
210
0.0
220
0.0
230
1.0
 40
0.2040844192
 41
0.1072970384384721
 42
0.2684401628604772
  0
LINE
  5
A6
330
1F
100
AcDbEntity
  8
0
  6
SLD-Durchgehend
 62
   131
420
  8454143
370
    40
100
AcDbLine
 10
-30.8502065171
 20
20.8665741492
 30
0.0
 11
-30.8502065171
 21
-18.5880550946
 31
0.0
  0
SPLINE
  5
A7
330
1F
100
AcDbEntity
  8
0
  6
SLD-Durchgehend
 62
   131
420
  8454143
370
    40
100
AcDbSpline
210
0.0
220
0.0
230
1.0
 70
     8
 71
     3
 72
     8
 73
     4
 74
     0
 42
0.00000001
 43
0.00000001
 12
1.0
 22
0.0
 32
0.0
 13
1.0
 23
0.0
 33
0.0
 40
0.0
 40
0.0
 40
0.0
 40
0.0
 40
1.0
 40
1.0
 40
1.0
 40
1.0
 10
-30.85020651713671
 20
20.86657414921531
 30
0.0
 10
-30.84695559321501
 20
20.86844118819361
 30
0.0
 10
-30.8436967293446
 20
20.87030508151541
 30
0.0
 10
-30.8404300748808
 20
20.87216584966911
 30
0.0
  0
SPLINE
  5
A8
330
1F
100
AcDbEntity
  8
0
  6
SLD-Durchgehend
 62
   131
420
  8454143
370
    40
100
AcDbSpline
210
0.0
220
0.0
230
1.0
 70
     8
 71
     3
 72
    10
 73
     6
 74
     0
 42
0.00000001
 43
0.00000001
 12
1.0
 22
0.0
 32
0.0
 13
1.0
 23
0.0
 33
0.0
 40
0.0
 40
0.0
 40
0.0
 40
0.0
 40
0.5
 40
0.5
 40
1.0
 40
1.0
 40
1.0
 40
1.0
 10
-27.29043007578591
 20
20.82588074117304
 30
0.0
 10
-27.8781005365737
 20
20.84665213004385
 30
0.0
 10
-28.46885698099843
 20
20.85730171959873
 30
0.0
 10
-29.65285886365988
 20
20.87052184276735
 30
0.0
 10
-30.24623990991281
 20
20.87264450422892
 30
0.0
 10
-30.84043007529683
 20
20.87216584969141
 30
0.0
  0
SPLINE
  5
A9
330
1F
100
AcDbEntity
  8
0
  6
SLD-Durchgehend
 62
   131
420
  8454143
370
    40
100
AcDbSpline
210
0.0
220
0.0
230
1.0
 70
     8
 71
     3
 72
    18
 73
    14
 74
     0
 42
0.00000001
 43
0.00000001
 12
1.0
 22
0.0
 32
0.0
 13
1.0
 23
0.0
 33
0.0
 40
0.0
 40
0.0
 40
0.0
 40
0.0
 40
0.0625
 40
0.0625
 40
0.125
 40
0.125
 40
0.250000000000001
 40
0.250000000000001
 40
0.5000000000000009
 40
0.5000000000000009
 40
0.7500000000000009
 40
0.7500000000000009
 40
1.0
 40
1.0
 40
1.0
 40
1.0
 10
-27.29043007577075
 20
20.82588074059773
 30
0.0
 10
-27.22473207773349
 20
20.82355862506369
 30
0.0
 10
-27.15714843224986
 20
20.82953585511775
 30
0.0
 10
-27.03291886566508
 20
20.85406943842345
 30
0.0
 10
-26.97603972197291
 20
20.8718302728393
 30
0.0
 10
-26.82095683668304
 20
20.92979753456073
 30
0.0
 10
-26.73354401029021
 20
20.97533898723348
 30
0.0
 10
-26.49493286868032
 20
21.11217915939593
 30
0.0
 10
-26.36272513506068
 20
21.2086005736036
 30
0.0
 10
-26.14090101631363
 20
21.39740265088751
 30
0.0
 10
-26.05237156483508
 20
21.49038252389225
 30
0.0
 10
-25.92688410630557
 20
21.67255798232554
 30
0.0
 10
-25.89043007477524
 20
21.76208575442287
 30
0.0
 10
-25.89043007488071
 20
21.8456446123944
 30
0.0
  0
LINE
  5
AA
330
1F
100
AcDbEntity
  8
0
  6
SLD-Durchgehend
 62
   131
420
  8454143
370
    40
100
AcDbLine
 10
-25.8904300749
 20
21.8456446119
 30
0.0
 11
-25.8904300749
 21
23.0291658565
 31
0.0
  0
SPLINE
  5
AB
330
1F
100
AcDbEntity
  8
0
  6
SLD-Durchgehend
 62
   131
420
  8454143
370
    40
100
AcDbSpline
210
0.0
220
0.0
230
1.0
 70
     8
 71
     3
 72
    27
 73
    23
 74
     0
 42
0.00000001
 43
0.00000001
 12
1.0
 22
0.0
 32
0.0
 13
1.0
 23
0.0
 33
0.0
 40
0.0
 40
0.0
 40
0.0
 40
0.0
 40
0.0166086541558048
 40
0.0714115797445041
 40
0.1244222982979501
 40
0.1789468740702674
 40
0.232391797755681
 40
0.2873721064447645
 40
0.3410480792527621
 40
0.3963420726921944
 40
0.448906678318751
 40
0.5030887876507943
 40
0.5541096494095503
 40
0.6066428511387008
 40
0.657221054804703
 40
0.7092171242381827
 40
0.7607308445069362
 40
0.8136522586205117
 40
0.8667067805619227
 40
0.9212552656296992
 40
0.9750836582329524
 40
1.0
 40
1.0
 40
1.0
 40
1.0
 10
-4.799917719745752
 20
24.07878966370768
 30
0.0
 10
-4.796380508391271
 20
24.07961026335905
 30
0.0
 10
-4.781171699276218
 20
24.08313856353874
 30
0.0
 10
-4.875833695190392
 20
24.06111490827434
 30
0.0
 10
-5.08426503906758
 20
24.01399747994678
 30
0.0
 10
-5.409342918376886
 20
23.9440398412987
 30
0.0
 10
-5.838766612557437
 20
23.85851654418243
 30
0.0
 10
-6.358169300476287
 20
23.76550528706962
 30
0.0
 10
-6.962121400714068
 20
23.6719787342121
 30
0.0
 10
-7.619785119447598
 20
23.58829393060556
 30
0.0
 10
-8.322475792088815
 20
23.52000445341039
 30
0.0
 10
-9.028985131548977
 20
23.47352398479367
 30
0.0
 10
-9.735424700890698
 20
23.4494352695665
 30
0.0
 10
-10.40631465026819
 20
23.44723704942786
 30
0.0
 10
-11.04213583641742
 20
23.46380152502745
 30
0.0
 10
-11.61830018682916
 20
23.49443583677395
 30
0.0
 10
-12.13140591534002
 20
23.53416730852409
 30
0.0
 10
-12.56179503170824
 20
23.57651272808173
 30
0.0
 10
-12.90274657937941
 20
23.61591177627272
 30
0.0
 10
-13.12860662987625
 20
23.64481347164953
 30
0.0
 10
-13.24000464699362
 20
23.65993144842869
 30
0.0
 10
-13.22889162085248
 20
23.65842422541893
 30
0.0
 10
-13.22537524658806
 20
23.65794731119818
 30
0.0
  0
SPLINE
  5
AC
330
1F
100
AcDbEntity
  8
0
  6
SLD-Durchgehend
 62
   131
420
  8454143
370
    40
100
AcDbSpline
210
0.0
220
0.0
230
1.0
 70
     8
 71
     3
 72
    26
 73
    22
 74
     0
 42
0.00000001
 43
0.00000001
 12
1.0
 22
0.0
 32
0.0
 13
1.0
 23
0.0
 33
0.0
 40
0.0
 40
0.0
 40
0.0
 40
0.0
 40
0.0516515014758163
 40
0.1071382210179926
 40
0.1610801538402701
 40
0.2166008668202732
 40
0.2702399274700918
 40
0.3254852771527373
 40
0.378175944716155
 40
0.4324884567877859
 40
0.483638812340411
 40
0.5363165567191656
 40
0.586792102566647
 40
0.6386782021274033
 40
0.6901756872900814
 40
0.7430823899480964
 40
0.796131457469549
 40
0.8506808909276081
 40
0.9043574882835802
 40
0.9596114524864032
 40
0.9999999999999999
 40
0.9999999999999999
 40
0.9999999999999999
 40
0.9999999999999999
 10
-13.23855611981141
 20
-23.65528482102994
 30
0.0
 10
-13.22893393654143
 20
-23.65396198750839
 30
0.0
 10
-13.20897510536714
 20
-23.6512180976668
 30
0.0
 10
-13.02714354122873
 20
-23.62707488303657
 30
0.0
 10
-12.73321554558116
 20
-23.59118618815722
 30
0.0
 10
-12.33082365791223
 20
-23.54820031128804
 30
0.0
 10
-11.82734829600616
 20
-23.5045587742048
 30
0.0
 10
-11.24824832108204
 20
-23.46832298799744
 30
0.0
 10
-10.59969119832481
 20
-23.44565520908711
 30
0.0
 10
-9.920220665595762
 20
-23.44220049760179
 30
0.0
 10
-9.215232676889444
 20
-23.46061196636636
 30
0.0
 10
-8.522291192930982
 20
-23.50036666355704
 30
0.0
 10
-7.841715571664756
 20
-23.56024005122357
 30
0.0
 10
-7.199473690972375
 20
-23.63542792232013
 30
0.0
 10
-6.598325771733704
 20
-23.72216004516903
 30
0.0
 10
-6.059529699962836
 20
-23.81319728700754
 30
0.0
 10
-5.593522925682624
 20
-23.90195042864875
 30
0.0
 10
-5.220628247376539
 20
-23.97966213801002
 30
0.0
 10
-4.955099711501692
 20
-24.03850398831892
 30
0.0
 10
-4.805602151819937
 20
-24.0729862896499
 30
0.0
 10
-4.800324756143828
 20
-24.07422789709681
 30
0.0
 10
-4.798096182864149
 20
-24.07475221123769
 30
0.0
  0
SPLINE
  5
AD
330
1F
100
AcDbEntity
  8
0
  6
SLD-Durchgehend
 62
   131
420
  8454143
370
    40
100
AcDbSpline
210
0.0
220
0.0
230
1.0
 70
     8
 71
     3
 72
    22
 73
    18
 74
     0
 42
0.00000001
 43
0.00000001
 12
1.0
 22
0.0
 32
0.0
 13
1.0
 23
0.0
 33
0.0
 40
0.0
 40
0.0
 40
0.0
 40
0.0
 40
0.2499999999999995
 40
0.2499999999999995
 40
0.3749999999999965
 40
0.3749999999999965
 40
0.4999999999999934
 40
0.4999999999999934
 40
0.6249999999999905
 40
0.6249999999999905
 40
0.6874999999999881
 40
0.6874999999999881
 40
0.7499999999999858
 40
0.7499999999999858
 40
0.8749999999999929
 40
0.8749999999999929
 40
1.0
 40
1.0
 40
1.0
 40
1.0
 10
-31.9904300748808
 20
19.97829186408179
 30
0.0
 10
-31.990430074805
 20
20.06699845478155
 30
0.0
 10
-31.96330410652231
 20
20.1436025428868
 30
0.0
 10
-31.8887636734555
 20
20.24182431186221
 30
0.0
 10
-31.8584808621757
 20
20.27136197411493
 30
0.0
 10
-31.78645755381044
 20
20.32623512442169
 30
0.0
 10
-31.74495767088187
 20
20.35139612080794
 30
0.0
 10
-31.64392521676475
 20
20.40397460701684
 30
0.0
 10
-31.58474023688679
 20
20.43065082027507
 30
0.0
 10
-31.47145304086209
 20
20.48679544798008
 30
0.0
 10
-31.42902053074954
 20
20.50883886100187
 30
0.0
 10
-31.34298897076412
 20
20.55725468194176
 30
0.0
 10
-31.29921923519911
 20
20.5836847943211
 30
0.0
 10
-31.17639390481885
 20
20.66072009740932
 30
0.0
 10
-31.10563580082735
 20
20.70805681762099
 30
0.0
 10
-30.97258753019953
 20
20.79352698021632
 30
0.0
 10
-30.91062738510098
 20
20.83187382459056
 30
0.0
 10
-30.85020651714603
 20
20.86657414921771
 30
0.0
  0
SPLINE
  5
AE
330
1F
100
AcDbEntity
  8
0
  6
SLD-Durchgehend
 62
   131
420
  8454143
370
    40
100
AcDbSpline
210
0.0
220
0.0
230
1.0
 70
     8
 71
     3
 72
    30
 73
    26
 74
     0
 42
0.00000001
 43
0.00000001
 12
1.0
 22
0.0
 32
0.0
 13
1.0
 23
0.0
 33
0.0
 40
0.0
 40
0.0
 40
0.0
 40
0.0
 40
0.0624999999999966
 40
0.0624999999999966
 40
0.1249999999999932
 40
0.1249999999999932
 40
0.1562499999999911
 40
0.1562499999999911
 40
0.1874999999999889
 40
0.1874999999999889
 40
0.2031249999999893
 40
0.2031249999999893
 40
0.2187499999999897
 40
0.2187499999999897
 40
0.2499999999999886
 40
0.2499999999999886
 40
0.3124999999999892
 40
0.3124999999999892
 40
0.3749999999999897
 40
0.3749999999999897
 40
0.4999999999999917
 40
0.4999999999999917
 40
0.7499999999999958
 40
0.7499999999999958
 40
1.0
 40
1.0
 40
1.0
 40
1.0
 10
-30.85020651713711
 20
-18.58805509460808
 30
0.0
 10
-30.881116394444
 20
-18.52149303869614
 30
0.0
 10
-30.91536147981133
 20
-18.45389104595534
 30
0.0
 10
-30.99469248596423
 20
-18.31530682637674
 30
0.0
 10
-31.0394686402826
 20
-18.24432289242205
 30
0.0
 10
-31.12202444665239
 20
-18.13533896174212
 30
0.0
 10
-31.15239370841503
 20
-18.09822680882704
 30
0.0
 10
-31.22270020045433
 20
-18.02334159996582
 30
0.0
 10
-31.26279283995568
 20
-17.98517078887675
 30
0.0
 10
-31.33362262711914
 20
-17.9335177243895
 30
0.0
 10
-31.35907947816793
 20
-17.91741873550509
 30
0.0
 10
-31.41037740753781
 20
-17.89137050210547
 30
0.0
 10
-31.43570770978393
 20
-17.88173505489607
 30
0.0
 10
-31.50495535982303
 20
-17.86367936398278
 30
0.0
 10
-31.54100589572114
 20
-17.86519080025185
 30
0.0
 10
-31.63020522406922
 20
-17.88404910624973
 30
0.0
 10
-31.66765993330522
 20
-17.91476691192115
 30
0.0
 10
-31.73028825389482
 20
-17.98291724339913
 30
0.0
 10
-31.75427568158583
 20
-18.02233915469564
 30
0.0
 10
-31.81470558596548
 20
-18.14623386096908
 30
0.0
 10
-31.84032779864431
 20
-18.23718630298016
 30
0.0
 10
-31.90084466727316
 20
-18.5193599523949
 30
0.0
 10
-31.91850919581581
 20
-18.7204977467885
 30
0.0
 10
-31.9413059111183
 20
-19.12945724929142
 30
0.0
 10
-31.94526007781755
 20
-19.33782494177946
 30
0.0
 10
-31.94478712942588
 20
-19.54850482153874
 30
0.0
  0
SPLINE
  5
AF
330
1F
100
AcDbEntity
  8
0
  6
SLD-Durchgehend
 62
   131
420
  8454143
370
    40
100
AcDbSpline
210
0.0
220
0.0
230
1.0
 70
     8
 71
     3
 72
     9
 73
     5
 74
     0
 42
0.00000001
 43
0.00000001
 12
1.0
 22
0.0
 32
0.0
 13
1.0
 23
0.0
 33
0.0
 40
0.0
 40
0.0
 40
0.0
 40
0.0
 40
0.382722483829125
 40
1.0
 40
1.0
 40
1.0
 40
1.0
 10
-31.97819017842653
 20
-19.69577895148332
 30
0.0
 10
-31.97325598399862
 20
-19.70346037425301
 30
0.0
 10
-31.96036362821505
 20
-19.7235308511501
 30
0.0
 10
-31.95073231932686
 20
-19.61530822012315
 30
0.0
 10
-31.94478712889888
 20
-19.54850482324936
 30
0.0
  0
LINE
  5
B0
330
1F
100
AcDbEntity
  8
0
  6
SLD-Durchgehend
 62
   131
420
  8454143
370
    40
100
AcDbLine
 10
-31.9904300749
 20
-19.6921455439
 30
0.0
 11
-31.9904300749
 21
19.9782918633
 31
0.0
  0
SPLINE
  5
B1
330
1F
100
AcDbEntity
  8
0
  6
SLD-Durchgehend
 62
   131
420
  8454143
370
    40
100
AcDbSpline
210
0.0
220
0.0
230
1.0
 70
     8
 71
     3
 72
    10
 73
     6
 74
     0
 42
0.00000001
 43
0.00000001
 12
1.0
 22
0.0
 32
0.0
 13
1.0
 23
0.0
 33
0.0
 40
0.0
 40
0.0
 40
0.0
 40
0.0
 40
0.742086789317348
 40
0.742086789317348
 40
1.0
 40
1.0
 40
1.0
 40
1.0
 10
21.3870689998785
 20
30.46482302302361
 30
0.0
 10
21.023839670719
 20
29.81426626413431
 30
0.0
 10
20.6611823950113
 20
29.16338963029751
 30
0.0
 10
20.1734155957704
 20
28.28578195468061
 30
0.0
 10
20.0476978576449
 20
28.05938860503201
 30
0.0
 10
19.9220699251192
 20
27.83294545260021
 30
0.0
  0
LINE
  5
B2
330
1F
100
AcDbEntity
  8
0
  6
SLD-Durchgehend
 62
   131
420
  8454143
370
    40
100
AcDbLine
 10
21.3870690016
 20
24.4609176909
 30
0.0
 11
21.3870689999
 21
30.464823023
 31
0.0
  0
SPLINE
  5
B3
330
1F
100
AcDbEntity
  8
0
  6
SLD-Durchgehend
 62
   131
420
  8454143
370
    40
100
AcDbSpline
210
0.0
220
0.0
230
1.0
 70
     8
 71
     3
 72
     8
 73
     4
 74
     0
 42
0.00000001
 43
0.00000001
 12
1.0
 22
0.0
 32
0.0
 13
1.0
 23
0.0
 33
0.0
 40
0.0
 40
0.0
 40
0.0
 40
0.0
 40
1.0
 40
1.0
 40
1.0
 40
1.0
 10
19.9220699251192
 20
21.09266753503871
 30
0.0
 10
20.39662183730486
 20
22.22141159497513
 30
0.0
 10
20.88619351456908
 20
23.34362290316922
 30
0.0
 10
21.38706900324944
 20
24.46091769018305
 30
0.0
  0
LINE
  5
B4
330
1F
100
AcDbEntity
  8
0
  6
SLD-Durchgehend
 62
   131
420
  8454143
370
    40
100
AcDbLine
 10
19.9220699251
 20
27.8329454526
 30
0.0
 11
19.9220699251
 21
21.092667535
 31
0.0
  0
LINE
  5
B5
330
1F
100
AcDbEntity
  8
0
  6
SLD-Durchgehend
 62
   131
420
  8454143
370
    40
100
AcDbLine
 10
21.3870689999
 20
30.464823023
 30
0.0
 11
26.0095699251
 21
30.464823023
 31
0.0
  0
LINE
  5
B6
330
1F
100
AcDbEntity
  8
0
  6
SLD-Durchgehend
 62
   131
420
  8454143
370
    40
100
AcDbLine
 10
26.0095699251
 20
24.4609176917
 30
0.0
 11
21.3870690016
 21
24.4609176909
 31
0.0
  0
LINE
  5
B7
330
1F
100
AcDbEntity
  8
0
  6
SLD-Durchgehend
 62
   131
420
  8454143
370
    40
100
AcDbLine
 10
26.0095699251
 20
24.4609176917
 30
0.0
 11
26.0095699251
 21
30.464823023
 31
0.0
  0
SPLINE
  5
B8
330
1F
100
AcDbEntity
  8
0
  6
SLD-Durchgehend
 62
   131
420
  8454143
370
    40
100
AcDbSpline
210
0.0
220
0.0
230
1.0
 70
     8
 71
     3
 72
    10
 73
     6
 74
     0
 42
0.00000001
 43
0.00000001
 12
1.0
 22
0.0
 32
0.0
 13
1.0
 23
0.0
 33
0.0
 40
0.0
 40
0.0
 40
0.0
 40
0.0
 40
0.257913210682653
 40
0.257913210682653
 40
1.0
 40
1.0
 40
1.0
 40
1.0
 10
16.0970699251192
 20
27.83294545260021
 30
0.0
 10
15.9714419925935
 20
28.05938860503201
 30
0.0
 10
15.845724254468
 20
28.28578195468061
 30
0.0
 10
15.3579574552271
 20
29.16338963029751
 30
0.0
 10
14.9953001795194
 20
29.81426626413431
 30
0.0
 10
14.6320708503599
 20
30.46482302302361
 30
0.0
  0
LINE
  5
B9
330
1F
100
AcDbEntity
  8
0
  6
SLD-Durchgehend
 62
   131
420
  8454143
370
    40
100
AcDbLine
 10
16.0970699251
 20
27.8329454526
 30
0.0
 11
16.09706993
 21
21.0926675371
 31
0.0
  0
SPLINE
  5
BA
330
1F
100
AcDbEntity
  8
0
  6
SLD-Durchgehend
 62
   131
420
  8454143
370
    40
100
AcDbSpline
210
0.0
220
0.0
230
1.0
 70
     8
 71
     3
 72
     8
 73
     4
 74
     0
 42
0.00000001
 43
0.00000001
 12
1.0
 22
0.0
 32
0.0
 13
1.0
 23
0.0
 33
0.0
 40
0.0
 40
0.0
 40
0.0
 40
0.0
 40
1.0
 40
1.0
 40
1.0
 40
1.0
 10
14.63207085653732
 20
24.46091769446351
 30
0.0
 10
15.13294634505656
 20
23.34362290788675
 30
0.0
 10
15.62251802282166
 20
22.22141159862819
 30
0.0
 10
16.097069934864
 20
21.09266753913566
 30
0.0
  0
LINE
  5
BB
330
1F
100
AcDbEntity
  8
0
  6
SLD-Durchgehend
 62
   131
420
  8454143
370
    40
100
AcDbLine
 10
19.9220699251
 20
20.0678235849
 30
0.0
 11
19.9220699251
 21
21.092667535
 31
0.0
  0
LINE
  5
BC
330
1F
100
AcDbEntity
  8
0
  6
SLD-Durchgehend
 62
   131
420
  8454143
370
    40
100
AcDbLine
 10
26.0095699251
 20
24.4609176917
 30
0.0
 11
26.0095699251
 21
19.8522280293
 31
0.0
  0
LINE
  5
BD
330
1F
100
AcDbEntity
  8
0
  6
SLD-Durchgehend
 62
   131
420
  8454143
370
    40
100
AcDbLine
 10
16.0970699251
 20
20.0678235849
 30
0.0
 11
16.09706993
 21
21.0926675371
 31
0.0
  0
ELLIPSE
  5
BE
330
1F
100
AcDbEntity
  8
0
  6
SLD-Durchgehend
 62
   131
420
  8454143
370
    40
100
AcDbEllipse
 10
55.9545546881
 20
-14.2282955181
 30
0.0
 11
-5.47088312766266
 21
5.766776875809795
 31
0.0
210
0.0
220
0.0
230
1.0
 40
0.7523507308000001
 41
3.328887887455877
 42
5.145605710765075
  0
LINE
  5
BF
330
1F
100
AcDbEntity
  8
0
  6
SLD-Durchgehend
 62
   131
420
  8454143
370
    40
100
AcDbLine
 10
57.5957545008
 20
-8.0716605297
 30
0.0
 11
55.3178742677
 21
-6.8948740565
 31
0.0
  0
LINE
  5
C0
330
1F
100
AcDbEntity
  8
0
  6
SLD-Durchgehend
 62
   131
420
  8454143
370
    40
100
AcDbLine
 10
55.3178742677
 20
-6.8948740565
 30
0.0
 11
37.1545549498
 21
-23.4147648304
 31
0.0
  0
LINE
  5
C1
330
1F
100
AcDbEntity
  8
0
  6
SLD-Durchgehend
 62
   131
420
  8454143
370
    40
100
AcDbLine
 10
49.8188774211
 20
18.9739072864
 30
0.0
 11
66.6817242784
 21
4.5396657896
 31
0.0
  0
LINE
  5
C2
330
1F
100
AcDbEntity
  8
0
  6
SLD-Durchgehend
 62
   131
420
  8454143
370
    40
100
AcDbLine
 10
68.6424573576
 20
-23.5312598253
 30
0.0
 11
66.6817242784
 21
4.5396657896
 31
0.0
  0
LINE
  5
C3
330
1F
100
AcDbEntity
  8
0
  6
SLD-Durchgehend
 62
   131
420
  8454143
370
    40
100
AcDbLine
 10
63.4925395784
 20
-23.0844056125
 30
0.0
 11
68.6424573576
 21
-23.5312598253
 31
0.0
  0
LINE
  5
C4
330
1F
100
AcDbEntity
  8
0
  6
SLD-Durchgehend
 62
   131
420
  8454143
370
    40
100
AcDbLine
 10
62.1376237888
 20
-19.1278077196
 30
0.0
 11
63.4925395784
 21
-23.0844056125
 31
0.0
  0
LINE
  5
C5
330
1F
100
AcDbEntity
  8
0
  6
SLD-Durchgehend
 62
   131
420
  8454143
370
    40
100
AcDbLine
 10
-31.9447871292
 20
-19.5485048224
 30
0.0
 11
-30.397583641
 21
-20.3444216599
 31
0.0
  0
ELLIPSE
  5
C6
330
1F
100
AcDbEntity
  8
0
  6
SLD-Durchgehend
 62
   131
420
  8454143
370
    40
100
AcDbEllipse
 10
50.8040470465
 20
-15.6273863653
 30
0.0
 11
2.24293680606619
 21
1.357549160018629
 31
0.0
210
0.0
220
0.0
230
0.9999999999999998
 40
0.6458978205
 41
0.2959066668930394
 42
1.799665495483014
  0
LINE
  5
C7
330
1F
100
AcDbEntity
  8
0
  6
SLD-Durchgehend
 62
   131
420
  8454143
370
    40
100
AcDbLine
 10
42.4036799856
 20
-20.3756948296
 30
0.0
 11
49.4412045419
 21
-14.524451259
 31
0.0
  0
ELLIPSE
  5
C8
330
1F
100
AcDbEntity
  8
0
  6
SLD-Durchgehend
 62
   131
420
  8454143
370
    40
100
AcDbEllipse
 10
43.1920632763
 20
-21.9562553786
 30
0.0
 11
1.70850342884949
 21
2.008201315380123
 31
0.0
210
0.0
220
0.0
230
1.0
 40
0.6386367784000001
 41
1.304846375989227
 42
2.808605204579219
  0
LINE
  5
C9
330
1F
100
AcDbEntity
  8
0
  6
SLD-Durchgehend
 62
   131
420
  8454143
370
    40
100
AcDbLine
 10
41.9958218632
 20
-25.6602185458
 30
0.0
 11
41.1581961753
 21
-23.4974965376
 31
0.0
  0
LINE
  5
CA
330
1F
100
AcDbEntity
  8
0
  6
SLD-Durchgehend
 62
   131
420
  8454143
370
    40
100
AcDbLine
 10
54.6068754493
 20
-15.1749483881
 30
0.0
 11
52.6938093438
 21
-13.9063850828
 31
0.0
  0
LINE
  5
CB
330
1F
100
AcDbEntity
  8
0
  6
SLD-Durchgehend
 62
   131
420
  8454143
370
    40
100
AcDbLine
 10
56.4992143381
 20
-14.1666710226
 30
0.0
 11
57.0644516059
 21
-13.6967130277
 31
0.0
  0
ARC
  5
CC
330
1F
100
AcDbEntity
  8
0
  6
SLD-Durchgehend
 62
   131
420
  8454143
370
    40
100
AcDbCircle
 10
49.7073083494
 20
-6.8628336223
 30
0.0
 40
9.973766977856565
100
AcDbArc
 50
309.7403456572001
 51
312.9200370991999
  0
LINE
  5
CD
330
1F
100
AcDbEntity
  8
0
  6
SLD-Durchgehend
 62
   131
420
  8454143
370
    40
100
AcDbLine
 10
56.0836317606
 20
-14.532157418
 30
0.0
 11
54.8519818204
 21
-15.5561941707
 31
0.0
  0
ARC
  5
CE
330
1F
100
AcDbEntity
  8
0
  6
SLD-Durchgehend
 62
   131
420
  8454143
370
    40
100
AcDbCircle
 10
53.1494439496
 20
-9.3701860306
 30
0.0
 40
5.786791746389189
100
AcDbArc
 50
312.6010798802
 51
4.7115185107
  0
LINE
  5
CF
330
1F
100
AcDbEntity
  8
0
  6
SLD-Durchgehend
 62
   131
420
  8454143
370
    40
100
AcDbLine
 10
57.066464507
 20
-13.6297527537
 30
0.0
 11
57.0644516059
 21
-13.6967130277
 31
0.0
  0
ARC
  5
D0
330
1F
100
AcDbEntity
  8
0
  6
SLD-Durchgehend
 62
   131
420
  8454143
370
    40
100
AcDbCircle
 10
-38.3086910467
 20
-90.8397361167
 30
0.0
 40
107.4462876915338
100
AcDbArc
 50
39.4537086403
 51
40.8726145572
  0
ARC
  5
D1
330
1F
100
AcDbEntity
  8
0
  6
SLD-Durchgehend
 62
   131
420
  8454143
370
    40
100
AcDbCircle
 10
39.5554248123
 20
-17.0523277038
 30
0.0
 40
7.50763392994206
100
AcDbArc
 50
293.9693903488
 51
312.782063459
  0
ARC
  5
D2
330
1F
100
AcDbEntity
  8
0
  6
SLD-Durchgehend
 62
   131
420
  8454143
370
    40
100
AcDbCircle
 10
44.8606389537
 20
-22.4264879366
 30
0.0
 40
2.700823499674052
100
AcDbArc
 50
135.370055777
 51
213.3818004376
  0
LINE
  5
D3
330
1F
100
AcDbEntity
  8
0
  6
SLD-Durchgehend
 62
   131
420
  8454143
370
    40
100
AcDbLine
 10
49.5160030779
 20
-15.0603872636
 30
0.0
 11
42.938573641
 21
-20.5290916917
 31
0.0
  0
ARC
  5
D4
330
1F
100
AcDbEntity
  8
0
  6
SLD-Durchgehend
 62
   131
420
  8454143
370
    40
100
AcDbCircle
 10
-31.7312616092
 20
-85.3710316881
 30
0.0
 40
107.4462876907963
100
AcDbArc
 50
39.4537086403
 51
40.8726145572
  0
LINE
  5
D5
330
1F
100
AcDbEntity
  8
0
  6
SLD-Durchgehend
 62
   131
420
  8454143
370
    40
100
AcDbLine
 10
44.6546966828
 20
-22.5624995357
 30
0.0
 11
51.2321261197
 21
-17.0937951076
 31
0.0
  0
LINE
  5
D6
330
1F
100
AcDbEntity
  8
0
  6
SLD-Durchgehend
 62
   131
420
  8454143
370
    40
100
AcDbLine
 10
42.6053900846
 20
-23.9125229681
 30
0.0
 11
48.6179087447
 21
-31.1730259029
 31
0.0
  0
LINE
  5
D7
330
1F
100
AcDbEntity
  8
0
  6
SLD-Durchgehend
 62
   131
420
  8454143
370
    40
100
AcDbLine
 10
50.6672153429
 20
-29.8230024705
 30
0.0
 11
44.6546966828
 21
-22.5624995357
 31
0.0
  0
ARC
  5
D8
330
1F
100
AcDbEntity
  8
0
  6
SLD-Durchgehend
 62
   131
420
  8454143
370
    40
100
AcDbCircle
 10
45.5679434724
 20
-24.3128306387
 30
0.0
 40
7.507633929943265
100
AcDbArc
 50
293.9693903488
 51
312.782063459
  0
ELLIPSE
  5
D9
330
1F
100
AcDbEntity
  8
0
  6
SLD-Durchgehend
 62
   131
420
  8454143
370
    40
100
AcDbEllipse
 10
53.5655494621
 20
-28.8382255319
 30
0.0
 11
-2.382962796115315
 21
6.644455139701564
 31
0.0
210
0.0
220
0.0
230
1.0
 40
0.7776787062
 41
4.728536743878148
 42
5.14801684425313
  0
LINE
  5
DA
330
1F
100
AcDbEntity
  8
0
  6
SLD-Durchgehend
 62
   131
420
  8454143
370
    40
100
AcDbLine
 10
58.6936492246
 20
-26.8779992836
 30
0.0
 11
59.123814305
 21
-28.0316352804
 31
0.0
  0
LINE
  5
DB
330
1F
100
AcDbEntity
  8
0
  6
SLD-Durchgehend
 62
   131
420
  8454143
370
    40
100
AcDbLine
 10
59.123814305
 20
-28.0316352804
 30
0.0
 11
57.5463293829
 21
-30.5555140861
 31
0.0
  0
ELLIPSE
  5
DC
330
1F
100
AcDbEntity
  8
0
  6
SLD-Durchgehend
 62
   131
420
  8454143
370
    40
100
AcDbEllipse
 10
53.5871290798
 20
-26.6432993545
 30
0.0
 11
-3.58725477916267
 21
4.339393833551402
 31
0.0
210
0.0
220
0.0
230
1.0
 40
0.5505558484
 41
2.963417781948499
 42
3.322874566134707
  0
LINE
  5
DD
330
1F
100
AcDbEntity
  8
0
  6
SLD-Durchgehend
 62
   131
420
  8454143
370
    40
100
AcDbLine
 10
56.6941682378
 20
-31.2640290133
 30
0.0
 11
53.9275714628
 21
-32.3519729614
 31
0.0
  0
LINE
  5
DE
330
1F
100
AcDbEntity
  8
0
  6
SLD-Durchgehend
 62
   131
420
  8454143
370
    40
100
AcDbLine
 10
53.9275714628
 20
-32.3519729614
 30
0.0
 11
52.8753521955
 21
-31.7155345293
 31
0.0
  0
ELLIPSE
  5
DF
330
1F
100
AcDbEntity
  8
0
  6
SLD-Durchgehend
 62
   131
420
  8454143
370
    40
100
AcDbEllipse
 10
55.7440544247
 20
-27.0269404623
 30
0.0
 11
6.061055848415825
 21
-3.600862092781068
 31
0.0
210
0.0
220
0.0
230
1.0
 40
0.7796296853
 41
4.28276067090057
 42
4.702240771275542
  0
LINE
  5
E0
330
1F
100
AcDbEntity
  8
0
  6
SLD-Durchgehend
 62
   131
420
  8454143
370
    40
100
AcDbLine
 10
51.2321261197
 20
-17.0937951076
 30
0.0
 11
57.2446447798
 21
-24.3542980424
 31
0.0
  0
ARC
  5
E1
330
1F
100
AcDbEntity
  8
0
  6
SLD-Durchgehend
 62
   131
420
  8454143
370
    40
100
AcDbCircle
 10
47.0577634223
 20
-11.4300386373
 30
0.0
 40
7.035868196867521
100
AcDbArc
 50
306.3913564847
 51
326.0790070972
  0
ARC
  5
E2
330
1F
100
AcDbEntity
  8
0
  6
SLD-Durchgehend
 62
   131
420
  8454143
370
    40
100
AcDbCircle
 10
51.0259418408
 20
-17.2655473514
 30
0.0
 40
2.672572932743416
100
AcDbArc
 50
45.58982387579999
 51
124.4006038774
  0
LINE
  5
E3
330
1F
100
AcDbEntity
  8
0
  6
SLD-Durchgehend
 62
   131
420
  8454143
370
    40
100
AcDbLine
 10
58.9087009142
 20
-22.6169020789
 30
0.0
 11
52.896182254
 21
-15.3563991441
 31
0.0
  0
ARC
  5
E4
330
1F
100
AcDbEntity
  8
0
  6
SLD-Durchgehend
 62
   131
420
  8454143
370
    40
100
AcDbCircle
 10
53.0702820824
 20
-18.6905415722
 30
0.0
 40
7.035868196865111
100
AcDbArc
 50
306.3913564847
 51
326.0790070972
  0
ELLIPSE
  5
E5
330
1F
100
AcDbEntity
  8
0
  6
SLD-Durchgehend
 62
   131
420
  8454143
370
    40
100
AcDbEllipse
 10
-24.6908221972
 20
80.8510279669
 30
0.0
 11
-126.9844377511523
 21
141.6278186461407
 31
0.0
210
0.0
220
0.0
230
1.0
 40
0.0153365057
 41
2.287279098320107
 42
2.340682608489536
  0
ARC
  5
E6
330
1F
100
AcDbEntity
  8
0
  6
SLD-Durchgehend
 62
   131
420
  8454143
370
    40
100
AcDbCircle
 10
-23.2875972516
 20
-22.0943502191
 30
0.0
 40
1.540482063471374
100
AcDbArc
 50
65.8802484789
 51
90.105362415
  0
LINE
  5
E7
330
1F
100
AcDbEntity
  8
0
  6
SLD-Durchgehend
 62
   131
420
  8454143
370
    40
100
AcDbLine
 10
-23.2904300787
 20
-19.45734879
 30
0.0
 11
-23.2904300749
 21
-20.5538707603
 31
0.0
  0
LINE
  5
E8
330
1F
100
AcDbEntity
  8
0
  6
SLD-Durchgehend
 62
   131
420
  8454143
370
    40
100
AcDbLine
 10
-23.2904300749
 20
-20.5538707603
 30
0.0
 11
-25.6844743898
 21
-20.5538707609
 31
0.0
  0
LINE
  5
E9
330
1F
100
AcDbEntity
  8
0
  6
SLD-Durchgehend
 62
   131
420
  8454143
370
    40
100
AcDbLine
 10
42.938573641
 20
-20.5290916917
 30
0.0
 11
42.4036799856
 21
-20.3756948296
 31
0.0
  0
LINE
  5
EA
330
1F
100
AcDbEntity
  8
0
  6
SLD-Durchgehend
 62
   131
420
  8454143
370
    40
100
AcDbLine
 10
41.1581961753
 20
-23.4974965376
 30
0.0
 11
42.6053900846
 21
-23.9125229681
 31
0.0
  0
LINE
  5
EB
330
1F
100
AcDbEntity
  8
0
  6
SLD-Durchgehend
 62
   131
420
  8454143
370
    40
100
AcDbLine
 10
51.3115070233
 20
-33.5853924925
 30
0.0
 11
51.3215974101
 21
-33.5933517297
 31
0.0
  0
LINE
  5
EC
330
1F
100
AcDbEntity
  8
0
  6
SLD-Durchgehend
 62
   131
420
  8454143
370
    40
100
AcDbLine
 10
50.7800906062
 20
-33.2345672663
 30
0.0
 11
50.9644509968
 21
-33.3562764828
 31
0.0
  0
LINE
  5
ED
330
1F
100
AcDbEntity
  8
0
  6
SLD-Durchgehend
 62
   131
420
  8454143
370
    40
100
AcDbLine
 10
52.896182254
 20
-15.3563991441
 30
0.0
 11
52.6938093438
 21
-13.9063850828
 31
0.0
  0
LINE
  5
EE
330
1F
100
AcDbEntity
  8
0
  6
SLD-Durchgehend
 62
   131
420
  8454143
370
    40
100
AcDbLine
 10
49.4412045419
 20
-14.524451259
 30
0.0
 11
49.5160030779
 21
-15.0603872636
 31
0.0
  0
SPLINE
  5
EF
330
1F
100
AcDbEntity
  8
0
  6
SLD-Durchgehend
 62
   131
420
  8454143
370
    40
100
AcDbSpline
210
0.0
220
0.0
230
1.0
 70
     8
 71
     3
 72
     8
 73
     4
 74
     0
 42
0.00000001
 43
0.00000001
 12
1.0
 22
0.0
 32
0.0
 13
1.0
 23
0.0
 33
0.0
 40
0.0
 40
0.0
 40
0.0
 40
0.0
 40
1.0
 40
1.0
 40
1.0
 40
1.0
 10
60.7647140485613
 20
-25.7256661943903
 30
0.0
 10
60.34927563533101
 20
-24.57278907436389
 30
0.0
 10
59.7131368783598
 20
-23.5073002710228
 30
0.0
 10
58.9087009141505
 20
-22.6169020789427
 30
0.0
  0
LINE
  5
F0
330
1F
100
AcDbEntity
  8
0
  6
SLD-Durchgehend
 62
   131
420
  8454143
370
    40
100
AcDbLine
 10
60.7647140486
 20
-25.7256661944
 30
0.0
 11
60.7762129642
 21
-25.7432296219
 31
0.0
  0
LINE
  5
F1
330
1F
100
AcDbEntity
  8
0
  6
SLD-Durchgehend
 62
   131
420
  8454143
370
    40
100
AcDbLine
 10
48.6179087447
 20
-31.1730259029
 30
0.0
 11
44.3753675363
 21
-28.3862861331
 31
0.0
  0
LINE
  5
F2
330
1F
100
AcDbEntity
  8
0
  6
SLD-Durchgehend
 62
   131
420
  8454143
370
    40
100
AcDbLine
 10
44.3753682508
 20
-28.3862875598
 30
0.0
 11
42.7976601592
 21
-26.4811030289
 31
0.0
  0
ELLIPSE
  5
F3
330
1F
100
AcDbEntity
  8
0
  6
SLD-Durchgehend
 62
   131
420
  8454143
370
    40
100
AcDbEllipse
 10
42.1777113653
 20
-26.6146281326
 30
0.0
 11
-1.344122161349347
 21
1.483254977125288
 31
0.0
210
0.0
220
0.0
230
1.0
 40
0.2778074431
 41
4.553174428954403
 42
5.139599460064689
  0
ELLIPSE
  5
F4
330
1F
100
AcDbEntity
  8
0
  6
SLD-Durchgehend
 62
   131
420
  8454143
370
    40
100
AcDbEllipse
 10
57.5630391695
 20
-34.4467720366
 30
0.0
 11
4.637297318410212
 21
-1.15132931797153
 31
0.0
210
0.0
220
0.0
230
1.0
 40
0.4516197649000001
 41
2.575654031597924
 42
2.92627878679692
  0
ELLIPSE
  5
F5
330
1F
100
AcDbEntity
  8
0
  6
SLD-Durchgehend
 62
   131
420
  8454143
370
    40
100
AcDbEllipse
 10
52.8423175229
 20
-31.5914273601
 30
0.0
 11
1.27113966462759
 21
2.15285832331157
 31
0.0
210
0.0
220
0.0
230
1.0
 40
0.3945143664
 41
3.137403543322574
 42
4.321929167554127
  0
ELLIPSE
  5
F6
330
1F
100
AcDbEntity
  8
0
  6
SLD-Durchgehend
 62
   131
420
  8454143
370
    40
100
AcDbEllipse
 10
58.526501758
 20
-26.8653981727
 30
0.0
 11
2.358134564912923
 21
0.8312210273544807
 31
0.0
210
0.0
220
0.0
230
1.0
 40
0.3858165088
 41
5.130887715377052
 42
6.290137012687464
  0
ELLIPSE
  5
F7
330
1F
100
AcDbEntity
  8
0
  6
SLD-Durchgehend
 62
   131
420
  8454143
370
    40
100
AcDbEllipse
 10
60.456412823
 20
-32.0411201839
 30
0.0
 11
-0.2297370085827665
 21
4.815409576305928
 31
0.0
210
0.0
220
0.0
230
1.0
 40
0.4407948089
 41
0.2156261396314693
 42
0.5662508948304448
  0
ELLIPSE
  5
F8
330
1F
100
AcDbEntity
  8
0
  6
SLD-Durchgehend
 62
   131
420
  8454143
370
    40
100
AcDbEllipse
 10
51.7598597224
 20
-24.3192861759
 30
0.0
 11
8.816081234059347
 21
-5.237617589499716
 31
0.0
210
0.0
220
0.0
230
0.9999999999999998
 40
0.7796296852999999
 41
4.28276094621909
 42
4.654551684640382
  0
LINE
  5
F9
330
1F
100
AcDbEntity
  8
0
  6
SLD-Durchgehend
 62
   131
420
  8454143
370
    40
100
AcDbLine
 10
56.848739168
 20
-18.0154916327
 30
0.0
 11
55.2710305095
 21
-16.1103075195
 31
0.0
  0
LINE
  5
FA
330
1F
100
AcDbEntity
  8
0
  6
SLD-Durchgehend
 62
   131
420
  8454143
370
    40
100
AcDbLine
 10
56.848737908
 20
-18.015490629
 30
0.0
 11
58.9087009142
 21
-22.6169020789
 31
0.0
  0
ELLIPSE
  5
FB
330
1F
100
AcDbEntity
  8
0
  6
SLD-Durchgehend
 62
   131
420
  8454143
370
    40
100
AcDbEllipse
 10
55.4751559218
 20
-15.5586685627
 30
0.0
 11
-1.2139875027571
 21
1.591491001415158
 31
0.0
210
0.0
220
0.0
230
1.0
 40
0.2513542903
 41
1.142297668255776
 42
1.728722689602388
  0
LINE
  5
FC
330
1F
100
AcDbEntity
  8
0
  6
SLD-Durchgehend
 62
   131
420
  8454143
370
    40
100
AcDbLine
 10
56.6941682378
 20
-31.2640290133
 30
0.0
 11
62.2714109344
 21
-38.1339446942
 31
0.0
  0
LINE
  5
FD
330
1F
100
AcDbEntity
  8
0
  6
SLD-Durchgehend
 62
   131
420
  8454143
370
    40
100
AcDbLine
 10
62.2714109344
 20
-38.1339446942
 30
0.0
 11
53.1439121268
 21
-32.87457297
 31
0.0
  0
LINE
  5
FE
330
1F
100
AcDbEntity
  8
0
  6
SLD-Durchgehend
 62
   131
420
  8454143
370
    40
100
AcDbLine
 10
59.777844701
 20
-27.3588898611
 30
0.0
 11
63.1235741546
 21
-37.425426447
 31
0.0
  0
LINE
  5
FF
330
1F
100
AcDbEntity
  8
0
  6
SLD-Durchgehend
 62
   131
420
  8454143
370
    40
100
AcDbLine
 10
63.1235741546
 20
-37.425426447
 30
0.0
 11
57.5463293829
 21
-30.5555140861
 31
0.0
  0
ELLIPSE
  5
100
330
1F
100
AcDbEntity
  8
0
  6
SLD-Durchgehend
 62
   131
420
  8454143
370
    40
100
AcDbEllipse
 10
51.4973260322
 20
-24.5375658501
 30
0.0
 11
-3.466127703440442
 21
9.664662021384059
 31
0.0
210
0.0
220
0.0
230
0.9999999999999998
 40
0.7776787062000001
 41
4.81072722918953
 42
5.148016564763424
  0
SPLINE
  5
101
330
1F
100
AcDbEntity
  8
0
  6
SLD-Durchgehend
 62
   131
420
  8454143
370
    40
100
AcDbSpline
210
0.0
220
0.0
230
1.0
 70
     8
 71
     3
 72
    10
 73
     6
 74
     0
 42
0.00000001
 43
0.00000001
 12
1.0
 22
0.0
 32
0.0
 13
1.0
 23
0.0
 33
0.0
 40
0.0
 40
0.0
 40
0.0
 40
0.0
 40
0.962676539595031
 40
0.962676539595031
 40
1.0
 40
1.0
 40
1.0
 40
1.0
 10
62.64553607350759
 20
-38.4419730581906
 30
0.0
 10
62.52562320371391
 20
-38.34342937601929
 30
0.0
 10
62.40557419406589
 20
-38.24459569921929
 30
0.0
 10
62.28073072481399
 20
-38.1416319195947
 30
0.0
 10
62.276070931258
 20
-38.13778852288378
 30
0.0
 10
62.271410934434
 20
-38.1339446942003
 30
0.0
  0
SPLINE
  5
102
330
1F
100
AcDbEntity
  8
0
  6
SLD-Durchgehend
 62
   131
420
  8454143
370
    40
100
AcDbSpline
210
0.0
220
0.0
230
1.0
 70
     8
 71
     3
 72
    14
 73
    10
 74
     0
 42
0.00000001
 43
0.00000001
 12
1.0
 22
0.0
 32
0.0
 13
1.0
 23
0.0
 33
0.0
 40
0.0
 40
0.0
 40
0.0
 40
0.0
 40
0.25
 40
0.25
 40
0.5
 40
0.5
 40
0.75
 40
0.75
 40
1.0
 40
1.0
 40
1.0
 40
1.0
 10
61.24894783306338
 20
-39.15360465508495
 30
0.0
 10
61.31698744052089
 20
-39.13036955878392
 30
0.0
 10
61.39940778166263
 20
-39.09830316334156
 30
0.0
 10
61.59919373018545
 20
-39.01601467989296
 30
0.0
 10
61.71663511872868
 20
-38.96567693739844
 30
0.0
 10
61.96727509133826
 20
-38.84860248782275
 30
0.0
 10
62.10323181308831
 20
-38.78019538578259
 30
0.0
 10
62.37462580820986
 20
-38.62566378355363
 30
0.0
 10
62.51087938967012
 20
-38.53930773620439
 30
0.0
 10
62.64553607350784
 20
-38.44197305819079
 30
0.0
  0
SPLINE
  5
103
330
1F
100
AcDbEntity
  8
0
  6
SLD-Durchgehend
 62
   131
420
  8454143
370
    40
100
AcDbSpline
210
0.0
220
0.0
230
1.0
 70
     8
 71
     3
 72
     8
 73
     4
 74
     0
 42
0.00000001
 43
0.00000001
 12
1.0
 22
0.0
 32
0.0
 13
1.0
 23
0.0
 33
0.0
 40
0.0
 40
0.0
 40
0.0
 40
0.0
 40
1.0
 40
1.0
 40
1.0
 40
1.0
 10
61.17842974450709
 20
-39.13793242219229
 30
0.0
 10
61.2018580350885
 20
-39.1434491093127
 30
0.0
 10
61.22536712812219
 20
-39.14867460839669
 30
0.0
 10
61.2489478330631
 20
-39.153604655085
 30
0.0
  0
ELLIPSE
  5
104
330
1F
100
AcDbEntity
  8
0
  6
SLD-Durchgehend
 62
   131
420
  8454143
370
    40
100
AcDbEllipse
 10
60.8403464776
 20
-36.1999853254
 30
0.0
 11
4.437663833992715
 21
-2.67477231011278
 31
0.0
210
0.0
220
0.0
230
1.0
 40
0.4821834266000001
 41
4.753206204749217
 42
5.068453336711016
  0
SPLINE
  5
105
330
1F
100
AcDbEntity
  8
0
  6
SLD-Durchgehend
 62
   131
420
  8454143
370
    40
100
AcDbSpline
210
0.0
220
0.0
230
1.0
 70
     8
 71
     3
 72
    10
 73
     6
 74
     0
 42
0.00000001
 43
0.00000001
 12
1.0
 22
0.0
 32
0.0
 13
1.0
 23
0.0
 33
0.0
 40
0.0
 40
0.0
 40
0.0
 40
0.0
 40
0.0373234604049567
 40
0.0373234604049567
 40
1.0
 40
1.0
 40
1.0
 40
1.0
 10
63.1235741546001
 20
-37.4254264470221
 30
0.0
 10
63.12640188781921
 20
-37.4307936836243
 30
0.0
 10
63.12922922275871
 20
-37.43616065039348
 30
0.0
 10
63.20497076578061
 20
-37.57994948545609
 30
0.0
 10
63.277620576003
 20
-37.71819251119289
 30
0.0
 10
63.350003050898
 20
-37.85625462279699
 30
0.0
  0
SPLINE
  5
106
330
1F
100
AcDbEntity
  8
0
  6
SLD-Durchgehend
 62
   131
420
  8454143
370
    40
100
AcDbSpline
210
0.0
220
0.0
230
1.0
 70
     8
 71
     3
 72
     8
 73
     4
 74
     0
 42
0.00000001
 43
0.00000001
 12
1.0
 22
0.0
 32
0.0
 13
1.0
 23
0.0
 33
0.0
 40
0.0
 40
0.0
 40
0.0
 40
0.0
 40
1.0
 40
1.0
 40
1.0
 40
1.0
 10
62.64553607350764
 20
-38.44197305819061
 30
0.0
 10
62.90933691084982
 20
-38.28114872295311
 30
0.0
 10
63.14415923664662
 20
-38.0859092444886
 30
0.0
 10
63.35000305089808
 20
-37.85625462279707
 30
0.0
  0
SPLINE
  5
107
330
1F
100
AcDbEntity
  8
0
  6
SLD-Durchgehend
 62
   131
420
  8454143
370
    40
100
AcDbSpline
210
0.0
220
0.0
230
1.0
 70
     8
 71
     3
 72
     8
 73
     4
 74
     0
 42
0.00000001
 43
0.00000001
 12
1.0
 22
0.0
 32
0.0
 13
1.0
 23
0.0
 33
0.0
 40
0.0
 40
0.0
 40
0.0
 40
0.0
 40
1.0
 40
1.0
 40
1.0
 40
1.0
 10
64.28072049894051
 20
-36.63288303246939
 30
0.0
 10
64.27998593992521
 20
-36.6089579025824
 30
0.0
 10
64.27894727095001
 20
-36.5850497085751
 30
0.0
 10
64.27760709571209
 20
-36.56116819134189
 30
0.0
  0
SPLINE
  5
108
330
1F
100
AcDbEntity
  8
0
  6
SLD-Durchgehend
 62
   131
420
  8454143
370
    40
100
AcDbSpline
210
0.0
220
0.0
230
1.0
 70
     8
 71
     3
 72
    14
 73
    10
 74
     0
 42
0.00000001
 43
0.00000001
 12
1.0
 22
0.0
 32
0.0
 13
1.0
 23
0.0
 33
0.0
 40
0.0
 40
0.0
 40
0.0
 40
0.0
 40
0.25
 40
0.25
 40
0.5
 40
0.5
 40
0.75
 40
0.75
 40
1.0
 40
1.0
 40
1.0
 40
1.0
 10
63.35000305089808
 20
-37.85625462279705
 30
0.0
 10
63.46948668992947
 20
-37.74229060929142
 30
0.0
 10
63.57811707247141
 20
-37.62506357824784
 30
0.0
 10
63.77658442557432
 20
-37.38910861625815
 30
0.0
 10
63.86713505250774
 20
-37.26917862867528
 30
0.0
 10
64.02416421982177
 20
-37.04726137058302
 30
0.0
 10
64.09247366452523
 20
-36.94334999195144
 30
0.0
 10
64.20492462470558
 20
-36.76575392882258
 30
0.0
 10
64.24861092268766
 20
-36.69292272472951
 30
0.0
 10
64.28072049894043
 20
-36.63288303246982
 30
0.0
  0
ELLIPSE
  5
109
330
1F
100
AcDbEntity
  8
0
  6
SLD-Durchgehend
 62
   131
420
  8454143
370
    40
100
AcDbEllipse
 10
61.4582184975
 20
-35.6862649604
 30
0.0
 11
-1.800499748984386
 21
4.865333151774422
 31
0.0
210
0.0
220
0.0
230
1.0
 40
0.4810009788
 41
4.358252234399483
 42
4.642697848958836
  0
LINE
  5
10A
330
1F
100
AcDbEntity
  8
0
  6
SLD-Durchgehend
 62
   131
420
  8454143
370
    40
100
AcDbLine
 10
-29.9904300743
 20
-20.863712587
 30
0.0
 11
-29.9904300749
 21
-20.8677719707
 31
0.0
  0
LINE
  5
10B
330
1F
100
AcDbEntity
  8
0
  6
SLD-Durchgehend
 62
   131
420
  8454143
370
    40
100
AcDbLine
 10
63.4925395784
 20
-23.0844056125
 30
0.0
 11
61.6663796863
 21
-26.0383700564
 31
0.0
  0
LINE
  5
10C
330
1F
100
AcDbEntity
  8
0
  6
SLD-Durchgehend
 62
   131
420
  8454143
370
    40
100
AcDbLine
 10
57.0644516059
 20
-13.6967130277
 30
0.0
 11
61.6663796863
 21
-26.0383700564
 31
0.0
  0
LINE
  5
10D
330
1F
100
AcDbEntity
  8
0
  6
SLD-Durchgehend
 62
   131
420
  8454143
370
    40
100
AcDbLine
 10
61.6663796863
 20
-26.0383700564
 30
0.0
 11
68.2570268364
 21
-26.6155317259
 31
0.0
  0
LINE
  5
10E
330
1F
100
AcDbEntity
  8
0
  6
SLD-Durchgehend
 62
   131
420
  8454143
370
    40
100
AcDbLine
 10
68.6424573576
 20
-23.5312598253
 30
0.0
 11
68.2570268364
 21
-26.6155317259
 31
0.0
  0
SPLINE
  5
10F
330
1F
100
AcDbEntity
  8
0
  6
SLD-Durchgehend
 62
   131
420
  8454143
370
    40
100
AcDbSpline
210
0.0
220
0.0
230
1.0
 70
     8
 71
     3
 72
     8
 73
     4
 74
     0
 42
0.00000001
 43
0.00000001
 12
1.0
 22
0.0
 32
0.0
 13
1.0
 23
0.0
 33
0.0
 40
0.0
 40
0.0
 40
0.0
 40
0.0
 40
1.0
 40
1.0
 40
1.0
 40
1.0
 10
42.0563782766897
 20
-26.22772770352819
 30
0.0
 10
42.0227115106182
 20
-26.11193342579339
 30
0.0
 10
41.98924384598129
 20
-25.99699664971789
 30
0.0
 10
41.95598008663301
 20
-25.88291063224439
 30
0.0
  0
SPLINE
  5
110
330
1F
100
AcDbEntity
  8
0
  6
SLD-Durchgehend
 62
   131
420
  8454143
370
    40
100
AcDbSpline
210
0.0
220
0.0
230
1.0
 70
     8
 71
     3
 72
     8
 73
     4
 74
     0
 42
0.00000001
 43
0.00000001
 12
1.0
 22
0.0
 32
0.0
 13
1.0
 23
0.0
 33
0.0
 40
0.0
 40
0.0
 40
0.0
 40
0.0
 40
1.0
 40
1.0
 40
1.0
 40
1.0
 10
45.35952549636396
 20
-38.87116200648444
 30
0.0
 10
44.24704642005199
 20
-34.6597863342508
 30
0.0
 10
43.14073196972684
 20
-30.44673740674476
 30
0.0
 10
42.05637827584421
 20
-26.22772770375412
 30
0.0
  0
ARC
  5
111
330
1F
100
AcDbEntity
  8
0
  6
SLD-Durchgehend
 62
   131
420
  8454143
370
    40
100
AcDbCircle
 10
55.2679299108
 20
-42.6341312977
 30
0.0
 40
1.183579564540652
100
AcDbArc
 50
184.3554079748
 51
205.6897471566
  0
SPLINE
  5
112
330
1F
100
AcDbEntity
  8
0
  6
SLD-Durchgehend
 62
   131
420
  8454143
370
    40
100
AcDbSpline
210
0.0
220
0.0
230
1.0
 70
     8
 71
     3
 72
     8
 73
     4
 74
     0
 42
0.00000001
 43
0.00000001
 12
1.0
 22
0.0
 32
0.0
 13
1.0
 23
0.0
 33
0.0
 40
0.0
 40
0.0
 40
0.0
 40
0.0
 40
1.0
 40
1.0
 40
1.0
 40
1.0
 10
54.2013417319322
 20
-43.14721047516399
 30
0.0
 10
52.67912792977249
 20
-42.9699627454508
 30
0.0
 10
51.1570649281647
 20
-42.7915262018371
 30
0.0
 10
49.63516199787819
 20
-42.61185140661829
 30
0.0
  0
SPLINE
  5
113
330
1F
100
AcDbEntity
  8
0
  6
SLD-Durchgehend
 62
   131
420
  8454143
370
    40
100
AcDbSpline
210
0.0
220
0.0
230
1.0
 70
     8
 71
     3
 72
    20
 73
    16
 74
     0
 42
0.00000001
 43
0.00000001
 12
1.0
 22
0.0
 32
0.0
 13
1.0
 23
0.0
 33
0.0
 40
0.0
 40
0.0
 40
0.0
 40
0.0
 40
0.25
 40
0.25
 40
0.375
 40
0.375
 40
0.5
 40
0.5
 40
0.625
 40
0.625
 40
0.75
 40
0.75
 40
0.875
 40
0.875
 40
1.0
 40
1.0
 40
1.0
 40
1.0
 10
49.63516199787824
 20
-42.61185140661758
 30
0.0
 10
49.12999434682451
 20
-42.55221193784225
 30
0.0
 10
48.64757426292631
 20
-42.41833835783704
 30
0.0
 10
47.95696519435253
 20
-42.10976750417859
 30
0.0
 10
47.7335875457382
 20
-41.98879452178679
 30
0.0
 10
47.31254789088244
 20
-41.7183259114035
 30
0.0
 10
47.11300789328008
 20
-41.56804507636856
 30
0.0
 10
46.73592466311123
 20
-41.23733949816638
 30
0.0
 10
46.55750888028989
 20
-41.0555373824286
 30
0.0
 10
46.23379681161988
 20
-40.67241896367424
 30
0.0
 10
46.08714707929641
 20
-40.47021155553487
 30
0.0
 10
45.82388623282013
 20
-40.04476222497504
 30
0.0
 10
45.70673353945526
 20
-39.82019394407519
 30
0.0
 10
45.50683041615591
 20
-39.35548476484427
 30
0.0
 10
45.42436323195482
 20
-39.11661034702232
 30
0.0
 10
45.35952547882347
 20
-38.87116201129611
 30
0.0
  0
LINE
  5
114
330
1F
100
AcDbEntity
  8
0
  6
SLD-Durchgehend
 62
   131
420
  8454143
370
    40
100
AcDbLine
 10
56.0999165944
 20
-14.5514397371
 30
0.0
 11
54.8663882069
 21
-15.5770382965
 31
0.0
  0
LINE
  5
115
330
1F
100
AcDbEntity
  8
0
  6
SLD-Durchgehend
 62
   131
420
  8454143
370
    40
100
AcDbLine
 10
42.3469294646
 20
-25.9861533038
 30
0.0
 11
42.0563782763
 21
-26.2277277036
 31
0.0
  0
SPLINE
  5
116
330
1F
100
AcDbEntity
  8
0
  6
SLD-Durchgehend
 62
   131
420
  8454143
370
    40
100
AcDbSpline
210
0.0
220
0.0
230
1.0
 70
     8
 71
     3
 72
     8
 73
     4
 74
     0
 42
0.00000001
 43
0.00000001
 12
1.0
 22
0.0
 32
0.0
 13
1.0
 23
0.0
 33
0.0
 40
0.0
 40
0.0
 40
0.0
 40
0.0
 40
1.0
 40
1.0
 40
1.0
 40
1.0
 10
56.0999165944104
 20
-14.55143973710679
 30
0.0
 10
56.2436868365527
 20
-14.43190413929119
 30
0.0
 10
56.3765237913375
 20
-14.30343354771479
 30
0.0
 10
56.4992143380744
 20
-14.16667102255639
 30
0.0
  0
ARC
  5
117
330
1F
100
AcDbEntity
  8
0
  6
SLD-Durchgehend
 62
   131
420
  8454143
370
    40
100
AcDbCircle
 10
67.7985165607
 20
-30.2379828477
 30
0.0
 40
1.181437589193669
100
AcDbArc
 50
55.9966753882
 51
85.0284375061
  0
LINE
  5
118
330
1F
100
AcDbEntity
  8
0
  6
SLD-Durchgehend
 62
   131
420
  8454143
370
    40
100
AcDbLine
 10
68.4592249087
 20
-29.2585650329
 30
0.0
 11
68.2570268364
 21
-26.6155317259
 31
0.0
  0
LWPOLYLINE
  5
119
330
1F
100
AcDbEntity
  8
0
  6
SLD-Durchgehend
 62
   131
420
  8454143
370
    40
100
AcDbPolyline
 90
        9
 70
   128
 43
0.0
 10
56.0999165944
 20
-14.5514397371
 10
56.0978801814
 20
-14.5490284281
 10
56.0958439993
 20
-14.54661741
 10
56.0938080482
 20
-14.544206683
 10
56.0917723282
 20
-14.5417962473
 10
56.0897368393
 20
-14.5393861028
 10
56.0877015817
 20
-14.5369762497
 10
56.0856665555
 20
-14.5345666881
 10
56.0836317606
 20
-14.532157418
  0
SPLINE
  5
11A
330
1F
100
AcDbEntity
  8
0
  6
SLD-Durchgehend
 62
   131
420
  8454143
370
    40
100
AcDbSpline
210
0.0
220
0.0
230
1.0
 70
     8
 71
     3
 72
     8
 73
     4
 74
     0
 42
0.00000001
 43
0.00000001
 12
1.0
 22
0.0
 32
0.0
 13
1.0
 23
0.0
 33
0.0
 40
0.0
 40
0.0
 40
0.0
 40
0.0
 40
1.0
 40
1.0
 40
1.0
 40
1.0
 10
64.2737280637135
 20
-36.71160306068109
 30
0.0
 10
64.27650031958679
 20
-36.68539650208088
 30
0.0
 10
64.27883198497761
 20
-36.65915016267029
 30
0.0
 10
64.28072049894051
 20
-36.63288303246939
 30
0.0
  0
ARC
  5
11B
330
1F
100
AcDbEntity
  8
0
  6
SLD-Durchgehend
 62
   131
420
  8454143
370
    40
100
AcDbCircle
 10
61.3699011193
 20
-36.2164366384
 30
0.0
 40
2.945742811004582
100
AcDbArc
 50
269.1597477838
 51
350.3228880258001
  0
SPLINE
  5
11C
330
1F
100
AcDbEntity
  8
0
  6
SLD-Durchgehend
 62
   131
420
  8454143
370
    40
100
AcDbSpline
210
0.0
220
0.0
230
1.0
 70
     8
 71
     3
 72
     8
 73
     4
 74
     0
 42
0.00000001
 43
0.00000001
 12
1.0
 22
0.0
 32
0.0
 13
1.0
 23
0.0
 33
0.0
 40
0.0
 40
0.0
 40
0.0
 40
0.0
 40
1.0
 40
1.0
 40
1.0
 40
1.0
 10
61.3267028554221
 20
-39.16186268883288
 30
0.0
 10
61.30073656735379
 20
-39.15955035882419
 30
0.0
 10
61.27481188742509
 20
-39.15679733123889
 30
0.0
 10
61.2489478330631
 20
-39.153604655085
 30
0.0
  0
LINE
  5
11D
330
1F
100
AcDbEntity
  8
0
  6
SLD-Durchgehend
 62
   131
420
  8454143
370
    40
100
AcDbLine
 10
54.2013417317
 20
-43.1472104746
 30
0.0
 11
54.1536821748
 21
-43.1661476067
 31
0.0
  0
ARC
  5
11E
330
1F
100
AcDbEntity
  8
0
  6
SLD-Durchgehend
 62
   131
420
  8454143
370
    40
100
AcDbCircle
 10
48.8648012941
 20
-29.9788175747
 30
0.0
 40
4.37043525443663
100
AcDbArc
 50
304.2039169022
 51
336.5856029157
  0
SPLINE
  5
11F
330
1F
100
AcDbEntity
  8
0
  6
SLD-Durchgehend
 62
   131
420
  8454143
370
    40
100
AcDbSpline
210
0.0
220
0.0
230
1.0
 70
     8
 71
     3
 72
    12
 73
     8
 74
     0
 42
0.00000001
 43
0.00000001
 12
1.0
 22
0.0
 32
0.0
 13
1.0
 23
0.0
 33
0.0
 40
0.0
 40
0.0
 40
0.0
 40
0.0
 40
0.2241361214741872
 40
0.4710436239267125
 40
0.6926940062117389
 40
0.9203154664276224
 40
1.0
 40
1.0
 40
1.0
 40
1.0
 10
48.61790874469003
 20
-31.17302590292197
 30
0.0
 10
48.75677870744757
 20
-31.3497414340009
 30
0.0
 10
49.04862729517918
 20
-31.72112612476857
 30
0.0
 10
49.52759894342034
 20
-32.22366935078959
 30
0.0
 10
50.04469960831907
 20
-32.68931717314715
 30
0.0
 10
50.45516331984554
 20
-33.02450461643
 30
0.0
 10
50.71318540461863
 20
-33.19131363841488
 30
0.0
 10
50.78009060624865
 20
-33.23456726633367
 30
0.0
  0
ARC
  5
120
330
1F
100
AcDbEntity
  8
0
  6
SLD-Durchgehend
 62
   131
420
  8454143
370
    40
100
AcDbCircle
 10
57.7145312356
 20
-22.6027152839
 30
0.0
 40
4.385969141995733
100
AcDbArc
 50
282.8993281646
 51
314.2717849377
  0
LINE
  5
121
330
1F
100
AcDbEntity
  8
0
  6
SLD-Durchgehend
 62
   131
420
  8454143
370
    40
100
AcDbLine
 10
-23.2904300749
 20
-20.5538707603
 30
0.0
 11
-23.2904300749
 21
-20.8677719707
 31
0.0
  0
LINE
  5
122
330
1F
100
AcDbEntity
  8
0
  6
SLD-Durchgehend
 62
   131
420
  8454143
370
    40
100
AcDbLine
 10
-27.2904300749
 20
20.8722280293
 30
0.0
 11
-27.2904300758
 21
20.8258807412
 31
0.0
  0
LINE
  5
123
330
1F
100
AcDbEntity
  8
0
  6
SLD-Durchgehend
 62
   131
420
  8454143
370
    40
100
AcDbLine
 10
45.3595254788
 20
-38.8711620113
 30
0.0
 11
45.3595254788
 21
-38.9999762298
 31
0.0
  0
LINE
  5
124
330
1F
100
AcDbEntity
  8
0
  6
SLD-Durchgehend
 62
   131
420
  8454143
370
    40
100
AcDbLine
 10
49.6351619979
 20
-42.6118514066
 30
0.0
 11
49.6351619979
 21
-42.6750955182
 31
0.0
  0
DIMENSION
  5
125
330
1F
100
AcDbEntity
  8
0
 62
     7
420
 16777215
100
AcDbDimension
  2
_D
 10
-38.2500707927
 20
-31.4977719707
 30
0.0
 11
-38.2500707927
 21
0.0022280293
 31
0.0
 70
   160
  1
%%c<>
 71
     2
 42
-1.0
 73
     0
 74
     0
 75
     0
  3
SLDDIMSTYLE0
100
AcDbAlignedDimension
 13
0.0095699251
 23
31.5022280293
 33
0.0
 14
0.0095699251
 24
-31.4977719707
 34
0.0
 50
90.0
100
AcDbRotatedDimension
  0
DIMENSION
  5
132
330
1F
100
AcDbEntity
  8
0
 62
     7
420
 16777215
100
AcDbDimension
  2
_D_1
 10
55.1607205004
 20
-43.8088868794
 30
0.0
 11
43.6671654053
 21
-60.527537879
 31
0.0
 70
   162
  1
<>
 71
     1
 42
-1.0
 73
     0
 74
     0
 75
     0
  3
SLDDIMSTYLE1
100
AcDb2LineAngularDimension
 13
26.0095699251
 23
-30.1794666506
 33
0.0
 14
26.0095699251
 24
30.464823023
 34
0.0
 15
68.7038257072
 25
-44.994895026
 35
0.0
 16
43.6671654053
 26
-60.527537879
 36
0.0
  0
DIMENSION
  5
13D
330
1F
100
AcDbEntity
  8
0
 62
     7
420
 16777215
100
AcDbDimension
  2
_D_2
 10
70.0109288715
 20
-50.9994363733
 30
0.0
 11
35.0102493983
 21
-50.9994363733
 31
0.0
 70
   160
  1
<>
 71
     2
 42
-1.0
 73
     0
 74
     0
 75
     0
  3
SLDDIMSTYLE0
100
AcDbAlignedDimension
 13
0.0095699251
 23
0.0022280293
 33
0.0
 14
70.0109288715
 24
-43.7019961455
 34
0.0
100
AcDbRotatedDimension
  0
DIMENSION
  5
147
330
1F
100
AcDbEntity
  8
0
 62
     7
420
 16777215
100
AcDbDimension
  2
_D_3
 10
76.014399503
 20
0.0022280293
 30
0.0
 11
76.014399503
 21
-22.4963334984
 31
0.0
 70
   160
  1
<>
 71
     2
 42
-1.0
 73
     0
 74
     0
 75
     0
  3
SLDDIMSTYLE0
100
AcDbAlignedDimension
 13
68.7038257072
 23
-44.994895026
 33
0.0
 14
0.0095699251
 24
0.0022280293
 34
0.0
 50
90.0
100
AcDbRotatedDimension
  0
DIMENSION
  5
151
330
1F
100
AcDbEntity
  8
0
 62
     7
420
 16777215
100
AcDbDimension
  2
_D_4
 10
88.014399503
 20
26.3022280293
 30
0.0
 11
88.014399503
 21
0.0022280293
 31
0.0
 70
   160
  1
%%c<>
 71
     2
 42
-1.0
 73
     0
 74
     0
 75
     0
  3
SLDDIMSTYLE0
100
AcDbAlignedDimension
 13
41.9559800866
 23
-26.2977719707
 33
0.0
 14
39.3076552081
 24
26.3022280293
 34
0.0
 50
90.0
100
AcDbRotatedDimension
  0
ENDSEC
  0
SECTION
  2
OBJECTS
  0
DICTIONARY
  5
C
330
0
100
AcDbDictionary
281
     1
  3
ACAD_GROUP
350
D
  3
ACAD_IMAGE_VARS
350
19A
  3
ACAD_LAYOUT
350
1A
  3
ACAD_MATERIAL
350
3B
  3
ACAD_MLEADERSTYLE
350
175
  3
ACAD_MLINESTYLE
350
17
  3
ACAD_PLOTSETTINGS
350
19
  3
ACAD_PLOTSTYLENAME
350
E
  3
ACAD_SCALELIST
350
176
  3
ACAD_TABLESTYLE
350
174
  3
ACAD_VISUALSTYLE
350
2A
  3
ACDB_RECOMPOSE_DATA
350
19F
  3
AcDbVariableDictionary
350
19B
  3
APPDATA
350
199
  0
DICTIONARY
  5
D
102
{ACAD_REACTORS
330
C
102
}
330
C
100
AcDbDictionary
281
     1
  0
RASTERVARIABLES
  5
19A
102
{ACAD_REACTORS
330
C
102
}
330
C
100
AcDbRasterVariables
 90
        0
 70
     1
 71
     1
 72
     1
  0
DICTIONARY
  5
1A
102
{ACAD_REACTORS
330
C
102
}
330
C
100
AcDbDictionary
281
     1
  3
Layout1
350
1E
  3
Layout2
350
26
  3
Model
350
22
  0
DICTIONARY
  5
3B
102
{ACAD_REACTORS
330
C
102
}
330
C
100
AcDbDictionary
281
     1
  3
ByBlock
350
3D
  3
ByLayer
350
3C
  3
Global
350
3E
  0
DICTIONARY
  5
175
102
{ACAD_REACTORS
330
C
102
}
330
C
100
AcDbDictionary
281
     1
  0
DICTIONARY
  5
17
102
{ACAD_REACTORS
330
C
102
}
330
C
100
AcDbDictionary
281
     1
  3
Standard
350
18
  0
DICTIONARY
  5
19
102
{ACAD_REACTORS
330
C
102
}
330
C
100
AcDbDictionary
281
     1
  0
ACDBDICTIONARYWDFLT
  5
E
102
{ACAD_REACTORS
330
C
102
}
330
C
100
AcDbDictionary
281
     1
  3
Normal
350
F
100
AcDbDictionaryWithDefault
340
F
  0
DICTIONARY
  5
176
102
{ACAD_REACTORS
330
C
102
}
330
C
100
AcDbDictionary
281
     1
  3
A0
350
177
  3
A1
350
178
  3
A2
350
179
  3
A3
350
17A
  3
A4
350
17B
  3
A5
350
17C
  3
A6
350
17D
  3
A7
350
17E
  3
A8
350
17F
  3
A9
350
180
  3
B0
350
181
  3
B1
350
182
  3
B2
350
183
  3
B3
350
184
  3
B4
350
185
  3
B5
350
186
  3
B6
350
187
  3
B7
350
188
  3
B8
350
189
  3
B9
350
18A
  3
C0
350
18B
  3
C1
350
18C
  3
C2
350
18D
  3
C3
350
18E
  3
C4
350
18F
  3
C5
350
190
  3
C6
350
191
  3
C7
350
192
  3
C8
350
193
  3
C9
350
194
  3
D0
350
195
  3
D1
350
196
  3
D2
350
197
  0
DICTIONARY
  5
174
102
{ACAD_REACTORS
330
C
102
}
330
C
100
AcDbDictionary
281
     1
  3
Standard
350
198
  0
DICTIONARY
  5
2A
102
{ACAD_REACTORS
330
C
102
}
330
C
100
AcDbDictionary
281
     1
  3
2dWireframe
350
2F
  3
3D Hidden
350
31
  3
3dWireframe
350
30
  3
Basic
350
32
  3
Brighten
350
36
  3
ColorChange
350
3A
  3
Conceptual
350
34
  3
Dim
350
35
  3
Facepattern
350
39
  3
Flat
350
2B
  3
FlatWithEdges
350
2C
  3
Gouraud
350
2D
  3
GouraudWithEdges
350
2E
  3
Linepattern
350
38
  3
Realistic
350
33
  3
Thicken
350
37
  0
XRECORD
  5
19F
102
{ACAD_REACTORS
330
C
102
}
330
C
100
AcDbXrecord
280
     1
 90
        1
330
198
  0
DICTIONARY
  5
19B
102
{ACAD_REACTORS
330
C
102
}
330
C
100
AcDbDictionary
281
     1
  3
CANNOSCALE
350
19C
  3
CTABLESTYLE
350
1A0
  3
LIGHTSINBLOCKS
350
1A1
  3
XCLIPFRAME
350
1A2
  0
DICTIONARY
  5
199
102
{ACAD_REACTORS
330
C
102
}
330
C
100
AcDbDictionary
281
     1
  0
LAYOUT
  5
1E
102
{ACAD_REACTORS
330
1A
102
}
330
1A
100
AcDbPlotSettings
  1

  2
none_device
  4

  6

 40
0.0
 41
0.0
 42
0.0
 43
0.0
 44
0.0
 45
0.0
 46
0.0
 47
0.0
 48
0.0
 49
0.0
140
0.0
141
0.0
142
1.0
143
1.0
 70
   688
 72
     0
 73
     0
 74
     5
  7

 75
    16
 76
     0
 77
     2
 78
   300
147
1.0
148
0.0
149
0.0
100
AcDbLayout
  1
Layout1
 70
     1
 71
     1
 10
0.0
 20
0.0
 11
420.0
 21
297.0
 12
0.0
 22
0.0
 32
0.0
 14
1.000000000000000E+20
 24
1.000000000000000E+20
 34
1.000000000000000E+20
 15
-1.000000000000000E+20
 25
-1.000000000000000E+20
 35
-1.000000000000000E+20
146
0.0
 13
0.0
 23
0.0
 33
0.0
 16
1.0
 26
0.0
 36
0.0
 17
0.0
 27
1.0
 37
0.0
 76
     0
330
1B
  0
LAYOUT
  5
26
102
{ACAD_REACTORS
330
1A
102
}
330
1A
100
AcDbPlotSettings
  1

  2
none_device
  4

  6

 40
0.0
 41
0.0
 42
0.0
 43
0.0
 44
0.0
 45
0.0
 46
0.0
 47
0.0
 48
0.0
 49
0.0
140
0.0
141
0.0
142
1.0
143
1.0
 70
   688
 72
     0
 73
     0
 74
     5
  7

 75
    16
 76
     0
 77
     2
 78
   300
147
1.0
148
0.0
149
0.0
100
AcDbLayout
  1
Layout2
 70
     1
 71
     2
 10
0.0
 20
0.0
 11
0.0
 21
0.0
 12
0.0
 22
0.0
 32
0.0
 14
0.0
 24
0.0
 34
0.0
 15
0.0
 25
0.0
 35
0.0
146
0.0
 13
0.0
 23
0.0
 33
0.0
 16
1.0
 26
0.0
 36
0.0
 17
0.0
 27
1.0
 37
0.0
 76
     0
330
23
  0
LAYOUT
  5
22
102
{ACAD_REACTORS
330
1A
102
}
330
1A
100
AcDbPlotSettings
  1

  2
none_device
  4

  6

 40
0.0
 41
0.0
 42
0.0
 43
0.0
 44
0.0
 45
0.0
 46
0.0
 47
0.0
 48
0.0
 49
0.0
140
0.0
141
0.0
142
1.0
143
1.0
 70
  1712
 72
     0
 73
     0
 74
     0
  7

 75
     0
 76
     0
 77
     2
 78
   300
147
1.0
148
0.0
149
0.0
100
AcDbLayout
  1
Model
 70
     1
 71
     0
 10
0.0
 20
0.0
 11
297.0
 21
210.0
 12
0.0
 22
0.0
 32
0.0
 14
0.0
 24
0.0
 34
0.0
 15
297.0
 25
210.0
 35
0.0
146
0.0
 13
0.0
 23
0.0
 33
0.0
 16
1.0
 26
0.0
 36
0.0
 17
0.0
 27
1.0
 37
0.0
 76
     0
330
1F
331
29
  0
MATERIAL
  5
3D
102
{ACAD_REACTORS
330
3B
102
}
330
3B
100
AcDbMaterial
  1
ByBlock
 72
     1
 94
      127
  0
MATERIAL
  5
3C
102
{ACAD_REACTORS
330
3B
102
}
330
3B
100
AcDbMaterial
  1
ByLayer
 72
     1
 94
      127
  0
MATERIAL
  5
3E
102
{ACAD_REACTORS
330
3B
102
}
330
3B
100
AcDbMaterial
  1
Global
 72
     1
 94
      127
  0
MLINESTYLE
  5
18
102
{ACAD_REACTORS
330
17
102
}
330
17
100
AcDbMlineStyle
  2
Standard
 70
     0
  3

 62
   256
 51
90.0
 52
90.0
 71
     2
 49
0.5
 62
   256
  6
BYLAYER
 49
-0.5
 62
   256
  6
BYLAYER
  0
ACDBPLACEHOLDER
  5
F
102
{ACAD_REACTORS
330
E
102
}
330
E
  0
SCALE
  5
177
102
{ACAD_REACTORS
330
176
102
}
330
176
100
AcDbScale
 70
     0
300
1:1
140
1.0
141
1.0
290
     1
  0
SCALE
  5
178
102
{ACAD_REACTORS
330
176
102
}
330
176
100
AcDbScale
 70
     0
300
1:2
140
1.0
141
2.0
290
     0
  0
SCALE
  5
179
102
{ACAD_REACTORS
330
176
102
}
330
176
100
AcDbScale
 70
     0
300
1:4
140
1.0
141
4.0
290
     0
  0
SCALE
  5
17A
102
{ACAD_REACTORS
330
176
102
}
330
176
100
AcDbScale
 70
     0
300
1:5
140
1.0
141
5.0
290
     0
  0
SCALE
  5
17B
102
{ACAD_REACTORS
330
176
102
}
330
176
100
AcDbScale
 70
     0
300
1:8
140
1.0
141
8.0
290
     0
  0
SCALE
  5
17C
102
{ACAD_REACTORS
330
176
102
}
330
176
100
AcDbScale
 70
     0
300
1:10
140
1.0
141
10.0
290
     0
  0
SCALE
  5
17D
102
{ACAD_REACTORS
330
176
102
}
330
176
100
AcDbScale
 70
     0
300
1:16
140
1.0
141
16.0
290
     0
  0
SCALE
  5
17E
102
{ACAD_REACTORS
330
176
102
}
330
176
100
AcDbScale
 70
     0
300
1:20
140
1.0
141
20.0
290
     0
  0
SCALE
  5
17F
102
{ACAD_REACTORS
330
176
102
}
330
176
100
AcDbScale
 70
     0
300
1:30
140
1.0
141
30.0
290
     0
  0
SCALE
  5
180
102
{ACAD_REACTORS
330
176
102
}
330
176
100
AcDbScale
 70
     0
300
1:40
140
1.0
141
40.0
290
     0
  0
SCALE
  5
181
102
{ACAD_REACTORS
330
176
102
}
330
176
100
AcDbScale
 70
     0
300
1:50
140
1.0
141
50.0
290
     0
  0
SCALE
  5
182
102
{ACAD_REACTORS
330
176
102
}
330
176
100
AcDbScale
 70
     0
300
1:100
140
1.0
141
100.0
290
     0
  0
SCALE
  5
183
102
{ACAD_REACTORS
330
176
102
}
330
176
100
AcDbScale
 70
     0
300
2:1
140
2.0
141
1.0
290
     0
  0
SCALE
  5
184
102
{ACAD_REACTORS
330
176
102
}
330
176
100
AcDbScale
 70
     0
300
4:1
140
4.0
141
1.0
290
     0
  0
SCALE
  5
185
102
{ACAD_REACTORS
330
176
102
}
330
176
100
AcDbScale
 70
     0
300
8:1
140
8.0
141
1.0
290
     0
  0
SCALE
  5
186
102
{ACAD_REACTORS
330
176
102
}
330
176
100
AcDbScale
 70
     0
300
10:1
140
10.0
141
1.0
290
     0
  0
SCALE
  5
187
102
{ACAD_REACTORS
330
176
102
}
330
176
100
AcDbScale
 70
     0
300
100:1
140
100.0
141
1.0
290
     0
  0
SCALE
  5
188
102
{ACAD_REACTORS
330
176
102
}
330
176
100
AcDbScale
 70
     0
300
1/128" = 1'-0"
140
0.0078125
141
12.0
290
     0
  0
SCALE
  5
189
102
{ACAD_REACTORS
330
176
102
}
330
176
100
AcDbScale
 70
     0
300
1/64" = 1'-0"
140
0.015625
141
12.0
290
     0
  0
SCALE
  5
18A
102
{ACAD_REACTORS
330
176
102
}
330
176
100
AcDbScale
 70
     0
300
1/32" = 1'-0"
140
0.03125
141
12.0
290
     0
  0
SCALE
  5
18B
102
{ACAD_REACTORS
330
176
102
}
330
176
100
AcDbScale
 70
     0
300
1/16" = 1'-0"
140
0.0625
141
12.0
290
     0
  0
SCALE
  5
18C
102
{ACAD_REACTORS
330
176
102
}
330
176
100
AcDbScale
 70
     0
300
3/32" = 1'-0"
140
0.09375
141
12.0
290
     0
  0
SCALE
  5
18D
102
{ACAD_REACTORS
330
176
102
}
330
176
100
AcDbScale
 70
     0
300
1/8" = 1'-0"
140
0.125
141
12.0
290
     0
  0
SCALE
  5
18E
102
{ACAD_REACTORS
330
176
102
}
330
176
100
AcDbScale
 70
     0
300
3/16" = 1'-0"
140
0.1875
141
12.0
290
     0
  0
SCALE
  5
18F
102
{ACAD_REACTORS
330
176
102
}
330
176
100
AcDbScale
 70
     0
300
1/4" = 1'-0"
140
0.25
141
12.0
290
     0
  0
SCALE
  5
190
102
{ACAD_REACTORS
330
176
102
}
330
176
100
AcDbScale
 70
     0
300
3/8" = 1'-0"
140
0.375
141
12.0
290
     0
  0
SCALE
  5
191
102
{ACAD_REACTORS
330
176
102
}
330
176
100
AcDbScale
 70
     0
300
1/2" = 1'-0"
140
0.5
141
12.0
290
     0
  0
SCALE
  5
192
102
{ACAD_REACTORS
330
176
102
}
330
176
100
AcDbScale
 70
     0
300
3/4" = 1'-0"
140
0.75
141
12.0
290
     0
  0
SCALE
  5
193
102
{ACAD_REACTORS
330
176
102
}
330
176
100
AcDbScale
 70
     0
300
1" = 1'-0"
140
1.0
141
12.0
290
     0
  0
SCALE
  5
194
102
{ACAD_REACTORS
330
176
102
}
330
176
100
AcDbScale
 70
     0
300
1-1/2" = 1'-0"
140
1.5
141
12.0
290
     0
  0
SCALE
  5
195
102
{ACAD_REACTORS
330
176
102
}
330
176
100
AcDbScale
 70
     0
300
3" = 1'-0"
140
3.0
141
12.0
290
     0
  0
SCALE
  5
196
102
{ACAD_REACTORS
330
176
102
}
330
176
100
AcDbScale
 70
     0
300
6" = 1'-0"
140
6.0
141
12.0
290
     0
  0
SCALE
  5
197
102
{ACAD_REACTORS
330
176
102
}
330
176
100
AcDbScale
 70
     0
300
1'-0" = 1'-0"
140
12.0
141
12.0
290
     0
  0
TABLESTYLE
  5
198
102
{ACAD_REACTORS
330
174
102
}
102
{ACAD_XDICTIONARY
360
19D
102
}
330
174
100
AcDbTableStyle
  3
Standard
 70
     0
 71
     0
 40
1.5
 41
1.5
280
     0
281
     0
  7
Standard
140
4.5
170
     2
 62
     0
 63
   257
283
     0
 90
        4
 91
        0
  1

274
    -2
284
     1
 64
     0
275
    -2
285
     1
 65
     0
276
    -2
286
     1
 66
     0
277
    -2
287
     1
 67
     0
278
    -2
288
     1
 68
     0
279
    -2
289
     1
 69
     0
  7
Standard
140
6.0
170
     5
 62
     0
 63
   257
283
     0
 90
        4
 91
        0
  1

274
    -2
284
     1
 64
     0
275
    -2
285
     1
 65
     0
276
    -2
286
     1
 66
     0
277
    -2
287
     1
 67
     0
278
    -2
288
     1
 68
     0
279
    -2
289
     1
 69
     0
  7
Standard
140
4.5
170
     5
 62
     0
 63
   257
283
     0
 90
        4
 91
        0
  1

274
    -2
284
     1
 64
     0
275
    -2
285
     1
 65
     0
276
    -2
286
     1
 66
     0
277
    -2
287
     1
 67
     0
278
    -2
288
     1
 68
     0
279
    -2
289
     1
 69
     0
  0
VISUALSTYLE
  5
2F
102
{ACAD_REACTORS
330
2A
102
}
330
2A
100
AcDbVisualStyle
  2
2dWireframe
 70
     4
 71
     0
 72
     2
 73
     0
 90
        0
 40
-0.6
 41
-30.0
 62
     5
 63
     7
421
 16777215
 74
     1
 91
        4
 64
     7
 65
   257
 75
     1
175
     1
 42
1.0
 92
        0
 66
   257
 43
1.0
 76
     1
 77
     6
 78
     2
 67
     7
 79
     5
170
     0
171
     0
290
     0
174
     0
 93
        1
 44
0.0
173
     0
291
     0
 45
0.0
  0
VISUALSTYLE
  5
31
102
{ACAD_REACTORS
330
2A
102
}
330
2A
100
AcDbVisualStyle
  2
3D Hidden
 70
     6
 71
     1
 72
     2
 73
     2
 90
        0
 40
-0.6
 41
-30.0
 62
     5
 63
     7
421
 16777215
 74
     2
 91
        2
 64
     7
 65
   257
 75
     2
175
     1
 42
40.0
 92
        0
 66
   257
 43
1.0
 76
     1
 77
     6
 78
     2
 67
     7
 79
     3
170
     0
171
     0
290
     0
174
     0
 93
        1
 44
0.0
173
     0
291
     0
 45
0.0
  0
VISUALSTYLE
  5
30
102
{ACAD_REACTORS
330
2A
102
}
330
2A
100
AcDbVisualStyle
  2
3dWireframe
 70
     5
 71
     0
 72
     2
 73
     0
 90
        0
 40
-0.6
 41
-30.0
 62
     5
 63
     7
421
 16777215
 74
     1
 91
        4
 64
     7
 65
   257
 75
     1
175
     1
 42
1.0
 92
        0
 66
   257
 43
1.0
 76
     1
 77
     6
 78
     2
 67
     7
 79
     5
170
     0
171
     0
290
     0
174
     0
 93
        1
 44
0.0
173
     0
291
     0
 45
0.0
  0
VISUALSTYLE
  5
32
102
{ACAD_REACTORS
330
2A
102
}
330
2A
100
AcDbVisualStyle
  2
Basic
 70
     7
 71
     1
 72
     0
 73
     1
 90
        0
 40
-0.6
 41
-30.0
 62
     5
 63
     7
421
 16777215
 74
     0
 91
        4
 64
     7
 65
   257
 75
     1
175
     1
 42
1.0
 92
        8
 66
     7
 43
1.0
 76
     1
 77
     6
 78
     2
 67
     7
 79
     5
170
     0
171
     0
290
     0
174
     0
 93
        1
 44
0.0
173
     0
291
     1
 45
0.0
  0
VISUALSTYLE
  5
36
102
{ACAD_REACTORS
330
2A
102
}
330
2A
100
AcDbVisualStyle
  2
Brighten
 70
    12
 71
     2
 72
     2
 73
     0
 90
        0
 40
-0.6
 41
-30.0
 62
     5
 63
     7
421
 16777215
 74
     1
 91
        4
 64
     7
 65
   257
 75
     1
175
     1
 42
1.0
 92
        8
 66
     7
 43
1.0
 76
     1
 77
     6
 78
     2
 67
     7
 79
     5
170
     0
171
     0
290
     0
174
     0
 93
        1
 44
50.0
173
     0
291
     1
 45
0.0
  0
VISUALSTYLE
  5
3A
102
{ACAD_REACTORS
330
2A
102
}
330
2A
100
AcDbVisualStyle
  2
ColorChange
 70
    16
 71
     2
 72
     2
 73
     3
 90
        0
 40
-0.6
 41
-30.0
 62
     5
 63
     8
421
  8421504
 74
     1
 91
        4
 64
     7
 65
   257
 75
     1
175
     1
 42
1.0
 92
        8
 66
     8
424
  8421504
 43
1.0
 76
     1
 77
     6
 78
     2
 67
     7
 79
     5
170
     0
171
     0
290
     0
174
     0
 93
        1
 44
0.0
173
     0
291
     1
 45
0.0
  0
VISUALSTYLE
  5
34
102
{ACAD_REACTORS
330
2A
102
}
330
2A
100
AcDbVisualStyle
  2
Conceptual
 70
     9
 71
     3
 72
     2
 73
     0
 90
        0
 40
-0.6
 41
-30.0
 62
     5
 63
     7
421
 16777215
 74
     2
 91
        2
 64
     7
 65
   257
 75
     1
175
     1
 42
40.0
 92
        8
 66
     7
 43
1.0
 76
     1
 77
     6
 78
     2
 67
     7
 79
     3
170
     0
171
     0
290
     0
174
     0
 93
        1
 44
0.0
173
     0
291
     0
 45
0.0
  0
VISUALSTYLE
  5
35
102
{ACAD_REACTORS
330
2A
102
}
330
2A
100
AcDbVisualStyle
  2
Dim
 70
    11
 71
     2
 72
     2
 73
     0
 90
        0
 40
-0.6
 41
-30.0
 62
     5
 63
     7
421
 16777215
 74
     1
 91
        4
 64
     7
 65
   257
 75
     1
175
     1
 42
1.0
 92
        8
 66
     7
 43
1.0
 76
     1
 77
     6
 78
     2
 67
     7
 79
     5
170
     0
171
     0
290
     0
174
     0
 93
        1
 44
-50.0
173
     0
291
     1
 45
0.0
  0
VISUALSTYLE
  5
39
102
{ACAD_REACTORS
330
2A
102
}
330
2A
100
AcDbVisualStyle
  2
Facepattern
 70
    15
 71
     2
 72
     2
 73
     0
 90
        0
 40
-0.6
 41
-30.0
 62
     5
 63
     7
421
 16777215
 74
     1
 91
        4
 64
     7
 65
   257
 75
     1
175
     1
 42
1.0
 92
        8
 66
     7
 43
1.0
 76
     1
 77
     6
 78
     2
 67
     7
 79
     5
170
     0
171
     0
290
     0
174
     0
 93
        1
 44
0.0
173
     0
291
     1
 45
0.0
  0
VISUALSTYLE
  5
2B
102
{ACAD_REACTORS
330
2A
102
}
330
2A
100
AcDbVisualStyle
  2
Flat
 70
     0
 71
     2
 72
     1
 73
     1
 90
        2
 40
-0.6
 41
30.0
 62
     5
 63
     7
421
 16777215
 74
     0
 91
        4
 64
     7
 65
   257
 75
     1
175
     1
 42
1.0
 92
        8
 66
     7
 43
1.0
 76
     1
 77
     6
 78
     2
 67
     7
 79
     5
170
     0
171
     0
290
     0
174
     0
 93
       13
 44
0.0
173
     0
291
     1
 45
0.0
  0
VISUALSTYLE
  5
2C
102
{ACAD_REACTORS
330
2A
102
}
330
2A
100
AcDbVisualStyle
  2
FlatWithEdges
 70
     1
 71
     2
 72
     1
 73
     1
 90
        2
 40
-0.6
 41
30.0
 62
     5
 63
     7
421
 16777215
 74
     1
 91
        4
 64
     7
 65
   257
 75
     1
175
     1
 42
1.0
 92
        0
 66
   257
 43
1.0
 76
     1
 77
     6
 78
     2
 67
     7
 79
     5
170
     0
171
     0
290
     0
174
     0
 93
       13
 44
0.0
173
     0
291
     1
 45
0.0
  0
VISUALSTYLE
  5
2D
102
{ACAD_REACTORS
330
2A
102
}
330
2A
100
AcDbVisualStyle
  2
Gouraud
 70
     2
 71
     2
 72
     2
 73
     1
 90
        2
 40
-0.6
 41
30.0
 62
     5
 63
     7
421
 16777215
 74
     0
 91
        4
 64
     7
 65
   257
 75
     1
175
     1
 42
1.0
 92
        0
 66
     7
 43
1.0
 76
     1
 77
     6
 78
     2
 67
     7
 79
     5
170
     0
171
     0
290
     0
174
     0
 93
       13
 44
0.0
173
     0
291
     1
 45
0.0
  0
VISUALSTYLE
  5
2E
102
{ACAD_REACTORS
330
2A
102
}
330
2A
100
AcDbVisualStyle
  2
GouraudWithEdges
 70
     3
 71
     2
 72
     2
 73
     1
 90
        2
 40
-0.6
 41
30.0
 62
     5
 63
     7
421
 16777215
 74
     1
 91
        4
 64
     7
 65
   257
 75
     1
175
     1
 42
1.0
 92
        0
 66
   257
 43
1.0
 76
     1
 77
     6
 78
     2
 67
     7
 79
     5
170
     0
171
     0
290
     0
174
     0
 93
       13
 44
0.0
173
     0
291
     1
 45
0.0
  0
VISUALSTYLE
  5
38
102
{ACAD_REACTORS
330
2A
102
}
330
2A
100
AcDbVisualStyle
  2
Linepattern
 70
    14
 71
     2
 72
     2
 73
     0
 90
        0
 40
-0.6
 41
-30.0
 62
     5
 63
     7
421
 16777215
 74
     1
 91
        4
 64
     7
 65
   257
 75
     7
175
     7
 42
1.0
 92
        8
 66
     7
 43
1.0
 76
     1
 77
     6
 78
     2
 67
     7
 79
     5
170
     0
171
     0
290
     0
174
     0
 93
        1
 44
0.0
173
     0
291
     1
 45
0.0
  0
VISUALSTYLE
  5
33
102
{ACAD_REACTORS
330
2A
102
}
330
2A
100
AcDbVisualStyle
  2
Realistic
 70
     8
 71
     2
 72
     2
 73
     0
 90
        0
 40
-0.6
 41
-30.0
 62
     5
 63
     7
421
 16777215
 74
     1
 91
        0
 64
     7
 65
   257
 75
     1
175
     1
 42
1.0
 92
        8
 66
     8
424
  7895160
 43
1.0
 76
     1
 77
     6
 78
     2
 67
     7
 79
     5
170
     0
171
     0
290
     0
174
     0
 93
       13
 44
0.0
173
     0
291
     0
 45
0.0
  0
VISUALSTYLE
  5
37
102
{ACAD_REACTORS
330
2A
102
}
330
2A
100
AcDbVisualStyle
  2
Thicken
 70
    13
 71
     2
 72
     2
 73
     0
 90
        0
 40
-0.6
 41
-30.0
 62
     5
 63
     7
421
 16777215
 74
     1
 91
        4
 64
     7
 65
   257
 75
     1
175
     1
 42
1.0
 92
       12
 66
     7
 43
1.0
 76
     1
 77
     6
 78
     2
 67
     7
 79
     5
170
     0
171
     0
290
     0
174
     0
 93
        1
 44
0.0
173
     0
291
     1
 45
0.0
  0
DICTIONARYVAR
  5
19C
102
{ACAD_REACTORS
330
19B
102
}
330
19B
100
DictionaryVariables
280
     0
  1
1:1
  0
DICTIONARYVAR
  5
1A0
102
{ACAD_REACTORS
330
19B
102
}
330
19B
100
DictionaryVariables
280
     0
  1
Standard
  0
DICTIONARYVAR
  5
1A1
102
{ACAD_REACTORS
330
19B
102
}
330
19B
100
DictionaryVariables
280
     0
  1
0
  0
DICTIONARYVAR
  5
1A2
102
{ACAD_REACTORS
330
19B
102
}
330
19B
100
DictionaryVariables
280
     0
  1
0
  0
DICTIONARY
  5
19D
330
198
100
AcDbDictionary
280
     1
281
     1
  3
ACAD_ROUNDTRIP_2008_TABLESTYLE_CELLSTYLEMAP
360
19E
  0
CELLSTYLEMAP
  5
19E
102
{ACAD_REACTORS
330
19D
102
}
330
19D
100
AcDbCellStyleMap
 90
        3
300
CELLSTYLE
  1
TABLEFORMAT_BEGIN
 90
        5
170
     1
 91
        0
 92
        0
 62
   257
 93
        1
300
CONTENTFORMAT
  1
CONTENTFORMAT_BEGIN
 90
        0
 91
        0
 92
        4
 93
        0
300

 40
0.0
140
1.0
 94
        5
 62
     0
340
11
144
6.0
309
CONTENTFORMAT_END
171
     1
301
MARGIN
  1
CELLMARGIN_BEGIN
 40
1.5
 40
1.5
 40
1.5
 40
1.5
 40
1.5
 40
1.5
309
CELLMARGIN_END
 94
        6
 95
        1
302
GRIDFORMAT
  1
GRIDFORMAT_BEGIN
 90
        0
 91
        1
 62
     0
 92
       -2
340
14
 93
        0
 40
0.045
309
GRIDFORMAT_END
 95
        2
302
GRIDFORMAT
  1
GRIDFORMAT_BEGIN
 90
        0
 91
        1
 62
     0
 92
       -2
340
14
 93
        0
 40
0.045
309
GRIDFORMAT_END
 95
        4
302
GRIDFORMAT
  1
GRIDFORMAT_BEGIN
 90
        0
 91
        1
 62
     0
 92
       -2
340
14
 93
        0
 40
0.045
309
GRIDFORMAT_END
 95
        8
302
GRIDFORMAT
  1
GRIDFORMAT_BEGIN
 90
        0
 91
        1
 62
     0
 92
       -2
340
14
 93
        0
 40
0.045
309
GRIDFORMAT_END
 95
       16
302
GRIDFORMAT
  1
GRIDFORMAT_BEGIN
 90
        0
 91
        1
 62
     0
 92
       -2
340
14
 93
        0
 40
0.045
309
GRIDFORMAT_END
 95
       32
302
GRIDFORMAT
  1
GRIDFORMAT_BEGIN
 90
        0
 91
        1
 62
     0
 92
       -2
340
14
 93
        0
 40
0.045
309
GRIDFORMAT_END
309
TABLEFORMAT_END
  1
CELLSTYLE_BEGIN
 90
        1
 91
        1
300
_TITLE
309
CELLSTYLE_END
300
CELLSTYLE
  1
TABLEFORMAT_BEGIN
 90
        5
170
     1
 91
        0
 92
        0
 62
   257
 93
        1
300
CONTENTFORMAT
  1
CONTENTFORMAT_BEGIN
 90
        0
 91
        0
 92
        4
 93
        0
300

 40
0.0
140
1.0
 94
        5
 62
     0
340
11
144
4.5
309
CONTENTFORMAT_END
171
     1
301
MARGIN
  1
CELLMARGIN_BEGIN
 40
1.5
 40
1.5
 40
1.5
 40
1.5
 40
1.5
 40
1.5
309
CELLMARGIN_END
 94
        6
 95
        1
302
GRIDFORMAT
  1
GRIDFORMAT_BEGIN
 90
        0
 91
        1
 62
     0
 92
       -2
340
14
 93
        0
 40
0.045
309
GRIDFORMAT_END
 95
        2
302
GRIDFORMAT
  1
GRIDFORMAT_BEGIN
 90
        0
 91
        1
 62
     0
 92
       -2
340
14
 93
        0
 40
0.045
309
GRIDFORMAT_END
 95
        4
302
GRIDFORMAT
  1
GRIDFORMAT_BEGIN
 90
        0
 91
        1
 62
     0
 92
       -2
340
14
 93
        0
 40
0.045
309
GRIDFORMAT_END
 95
        8
302
GRIDFORMAT
  1
GRIDFORMAT_BEGIN
 90
        0
 91
        1
 62
     0
 92
       -2
340
14
 93
        0
 40
0.045
309
GRIDFORMAT_END
 95
       16
302
GRIDFORMAT
  1
GRIDFORMAT_BEGIN
 90
        0
 91
        1
 62
     0
 92
       -2
340
14
 93
        0
 40
0.045
309
GRIDFORMAT_END
 95
       32
302
GRIDFORMAT
  1
GRIDFORMAT_BEGIN
 90
        0
 91
        1
 62
     0
 92
       -2
340
14
 93
        0
 40
0.045
309
GRIDFORMAT_END
309
TABLEFORMAT_END
  1
CELLSTYLE_BEGIN
 90
        2
 91
        1
300
_HEADER
309
CELLSTYLE_END
300
CELLSTYLE
  1
TABLEFORMAT_BEGIN
 90
        5
170
     1
 91
        0
 92
        0
 62
   257
 93
        1
300
CONTENTFORMAT
  1
CONTENTFORMAT_BEGIN
 90
        0
 91
        0
 92
        4
 93
        0
300

 40
0.0
140
1.0
 94
        2
 62
     0
340
11
144
4.5
309
CONTENTFORMAT_END
171
     1
301
MARGIN
  1
CELLMARGIN_BEGIN
 40
1.5
 40
1.5
 40
1.5
 40
1.5
 40
1.5
 40
1.5
309
CELLMARGIN_END
 94
        6
 95
        1
302
GRIDFORMAT
  1
GRIDFORMAT_BEGIN
 90
        0
 91
        1
 62
     0
 92
       -2
340
14
 93
        0
 40
0.045
309
GRIDFORMAT_END
 95
        2
302
GRIDFORMAT
  1
GRIDFORMAT_BEGIN
 90
        0
 91
        1
 62
     0
 92
       -2
340
14
 93
        0
 40
0.045
309
GRIDFORMAT_END
 95
        4
302
GRIDFORMAT
  1
GRIDFORMAT_BEGIN
 90
        0
 91
        1
 62
     0
 92
       -2
340
14
 93
        0
 40
0.045
309
GRIDFORMAT_END
 95
        8
302
GRIDFORMAT
  1
GRIDFORMAT_BEGIN
 90
        0
 91
        1
 62
     0
 92
       -2
340
14
 93
        0
 40
0.045
309
GRIDFORMAT_END
 95
       16
302
GRIDFORMAT
  1
GRIDFORMAT_BEGIN
 90
        0
 91
        1
 62
     0
 92
       -2
340
14
 93
        0
 40
0.045
309
GRIDFORMAT_END
 95
       32
302
GRIDFORMAT
  1
GRIDFORMAT_BEGIN
 90
        0
 91
        1
 62
     0
 92
       -2
340
14
 93
        0
 40
0.045
309
GRIDFORMAT_END
309
TABLEFORMAT_END
  1
CELLSTYLE_BEGIN
 90
        3
 91
        2
300
_DATA
309
CELLSTYLE_END
  0
ENDSEC
  0
EOF
