  0
SECTION
  2
HEADER
  9
$ACADVER
  1
AC1021
  9
$ACADMAINTVER
 70
    25
  9
$DWGCODEPAGE
  3
ANSI_1252
  9
$INSBASE
 10
0.0
 20
0.0
 30
0.0
  9
$EXTMIN
 10
0.0
 20
0.0
 30
0.0
  9
$EXTMAX
 10
297.0
 20
210.0
 30
0.0
  9
$LIMMIN
 10
0.0
 20
0.0
  9
$LIMMAX
 10
297.0
 20
210.0
  9
$ORTHOMODE
 70
     0
  9
$REGENMODE
 70
     1
  9
$FILLMODE
 70
     1
  9
$QTEXTMODE
 70
     0
  9
$MIRRTEXT
 70
     1
  9
$LTSCALE
 40
1.0
  9
$ATTMODE
 70
     1
  9
$TEXTSIZE
 40
3.5
  9
$TRACEWID
 40
1.0
  9
$TEXTSTYLE
  7
Standard
  9
$CLAYER
  8
0
  9
$CELTYPE
  6
ByLayer
  9
$CECOLOR
 62
   256
  9
$CELTSCALE
 40
1.0
  9
$DISPSILH
 70
     0
  9
$DIMSCALE
 40
1.0
  9
$DIMASZ
 40
3.302
  9
$DIMEXO
 40
1.0
  9
$DIMDLI
 40
3.75
  9
$DIMRND
 40
0.0
  9
$DIMDLE
 40
0.0
  9
$DIMEXE
 40
1.0
  9
$DIMTP
 40
0.0
  9
$DIMTM
 40
0.0
  9
$DIMTXT
 40
3.5
  9
$DIMCEN
 40
2.5
  9
$DIMTSZ
 40
0.0
  9
$DIMTOL
 70
     0
  9
$DIMLIM
 70
     0
  9
$DIMTIH
 70
     1
  9
$DIMTOH
 70
     1
  9
$DIMSE1
 70
     0
  9
$DIMSE2
 70
     0
  9
$DIMTAD
 70
     1
  9
$DIMZIN
 70
     0
  9
$DIMBLK
  1

  9
$DIMASO
 70
     1
  9
$DIMSHO
 70
     1
  9
$DIMPOST
  1

  9
$DIMAPOST
  1

  9
$DIMALT
 70
     0
  9
$DIMALTD
 70
     3
  9
$DIMALTF
 40
0.0393700787
  9
$DIMLFAC
 40
1.0
  9
$DIMTOFL
 70
     1
  9
$DIMTVP
 40
0.0
  9
$DIMTIX
 70
     0
  9
$DIMSOXD
 70
     0
  9
$DIMSAH
 70
     0
  9
$DIMBLK1
  1

  9
$DIMBLK2
  1

  9
$DIMSTYLE
  2
ISO-25
  9
$DIMCLRD
 70
     0
  9
$DIMCLRE
 70
     0
  9
$DIMCLRT
 70
     0
  9
$DIMTFAC
 40
1.0
  9
$DIMGAP
 40
1.524
  9
$DIMJUST
 70
     0
  9
$DIMSD1
 70
     0
  9
$DIMSD2
 70
     0
  9
$DIMTOLJ
 70
     0
  9
$DIMTZIN
 70
     0
  9
$DIMALTZ
 70
     0
  9
$DIMALTTZ
 70
     0
  9
$DIMUPT
 70
     0
  9
$DIMDEC
 70
     2
  9
$DIMTDEC
 70
     2
  9
$DIMALTU
 70
     2
  9
$DIMALTTD
 70
     3
  9
$DIMTXSTY
  7
Standard
  9
$DIMAUNIT
 70
     0
  9
$DIMADEC
 70
     2
  9
$DIMALTRND
 40
0.0
  9
$DIMAZIN
 70
     0
  9
$DIMDSEP
 70
    44
  9
$DIMATFIT
 70
     3
  9
$DIMFRAC
 70
     0
  9
$DIMLDRBLK
  1

  9
$DIMLUNIT
 70
     2
  9
$DIMLWD
 70
    -2
  9
$DIMLWE
 70
    -2
  9
$DIMTMOVE
 70
     0
  9
$DIMFXL
 40
1.0
  9
$DIMFXLON
 70
     0
  9
$DIMJOGANG
 40
0.7853981634
  9
$DIMTFILL
 70
     0
  9
$DIMTFILLCLR
 70
     0
  9
$DIMARCSYM
 70
     0
  9
$DIMLTYPE
  6

  9
$DIMLTEX1
  6

  9
$DIMLTEX2
  6

  9
$LUNITS
 70
     2
  9
$LUPREC
 70
     2
  9
$SKETCHINC
 40
1.0
  9
$FILLETRAD
 40
10.0
  9
$AUNITS
 70
     0
  9
$AUPREC
 70
     2
  9
$MENU
  1
.
  9
$ELEVATION
 40
0.0
  9
$PELEVATION
 40
0.0
  9
$THICKNESS
 40
0.0
  9
$LIMCHECK
 70
     0
  9
$CHAMFERA
 40
10.0
  9
$CHAMFERB
 40
10.0
  9
$CHAMFERC
 40
20.0
  9
$CHAMFERD
 40
0.0
  9
$SKPOLY
 70
     0
  9
$TDCREATE
 40
2456387.662456401
  9
$TDUCREATE
 40
2456387.579123067
  9
$TDUPDATE
 40
2456387.662457095
  9
$TDUUPDATE
 40
2456387.579123762
  9
$TDINDWG
 40
0.0000000116
  9
$TDUSRTIMER
 40
2456401.294952257
  9
$USRTIMER
 70
     1
  9
$ANGBASE
 50
0.0
  9
$ANGDIR
 70
     0
  9
$PDMODE
 70
     0
  9
$PDSIZE
 40
-1.0
  9
$PLINEWID
 40
0.0
  9
$SPLFRAME
 70
     0
  9
$SPLINETYPE
 70
     6
  9
$SPLINESEGS
 70
     8
  9
$HANDSEED
  5
1B2
  9
$SURFTAB1
 70
     6
  9
$SURFTAB2
 70
     6
  9
$SURFTYPE
 70
     6
  9
$SURFU
 70
     6
  9
$SURFV
 70
     6
  9
$UCSBASE
  2

  9
$UCSNAME
  2

  9
$UCSORG
 10
0.0
 20
0.0
 30
0.0
  9
$UCSXDIR
 10
1.0
 20
0.0
 30
0.0
  9
$UCSYDIR
 10
0.0
 20
1.0
 30
0.0
  9
$UCSORTHOREF
  2

  9
$UCSORTHOVIEW
 70
     0
  9
$UCSORGTOP
 10
0.0
 20
0.0
 30
0.0
  9
$UCSORGBOTTOM
 10
0.0
 20
0.0
 30
0.0
  9
$UCSORGLEFT
 10
0.0
 20
0.0
 30
0.0
  9
$UCSORGRIGHT
 10
0.0
 20
0.0
 30
0.0
  9
$UCSORGFRONT
 10
0.0
 20
0.0
 30
0.0
  9
$UCSORGBACK
 10
0.0
 20
0.0
 30
0.0
  9
$PUCSBASE
  2

  9
$PUCSNAME
  2

  9
$PUCSORG
 10
0.0
 20
0.0
 30
0.0
  9
$PUCSXDIR
 10
1.0
 20
0.0
 30
0.0
  9
$PUCSYDIR
 10
0.0
 20
1.0
 30
0.0
  9
$PUCSORTHOREF
  2

  9
$PUCSORTHOVIEW
 70
     0
  9
$PUCSORGTOP
 10
0.0
 20
0.0
 30
0.0
  9
$PUCSORGBOTTOM
 10
0.0
 20
0.0
 30
0.0
  9
$PUCSORGLEFT
 10
0.0
 20
0.0
 30
0.0
  9
$PUCSORGRIGHT
 10
0.0
 20
0.0
 30
0.0
  9
$PUCSORGFRONT
 10
0.0
 20
0.0
 30
0.0
  9
$PUCSORGBACK
 10
0.0
 20
0.0
 30
0.0
  9
$USERI1
 70
     0
  9
$USERI2
 70
     0
  9
$USERI3
 70
     0
  9
$USERI4
 70
     0
  9
$USERI5
 70
     0
  9
$USERR1
 40
0.0
  9
$USERR2
 40
0.0
  9
$USERR3
 40
0.0
  9
$USERR4
 40
0.0
  9
$USERR5
 40
0.0
  9
$WORLDVIEW
 70
     1
  9
$SHADEDGE
 70
     3
  9
$SHADEDIF
 70
    70
  9
$TILEMODE
 70
     1
  9
$MAXACTVP
 70
    64
  9
$PINSBASE
 10
0.0
 20
0.0
 30
0.0
  9
$PLIMCHECK
 70
     0
  9
$PEXTMIN
 10
1.000000000000000E+20
 20
1.000000000000000E+20
 30
1.000000000000000E+20
  9
$PEXTMAX
 10
-1.000000000000000E+20
 20
-1.000000000000000E+20
 30
-1.000000000000000E+20
  9
$PLIMMIN
 10
0.0
 20
0.0
  9
$PLIMMAX
 10
420.0
 20
297.0
  9
$UNITMODE
 70
     0
  9
$VISRETAIN
 70
     1
  9
$PLINEGEN
 70
     0
  9
$PSLTSCALE
 70
     1
  9
$TREEDEPTH
 70
  3020
  9
$CMLSTYLE
  2
Standard
  9
$CMLJUST
 70
     0
  9
$CMLSCALE
 40
20.0
  9
$PROXYGRAPHICS
 70
     1
  9
$MEASUREMENT
 70
     1
  9
$CELWEIGHT
370
    -1
  9
$ENDCAPS
280
     0
  9
$JOINSTYLE
280
     0
  9
$LWDISPLAY
290
     1
  9
$INSUNITS
 70
     4
  9
$HYPERLINKBASE
  1

  9
$STYLESHEET
  1

  9
$XEDIT
290
     1
  9
$CEPSNTYPE
380
     0
  9
$PSTYLEMODE
290
     1
  9
$FINGERPRINTGUID
  2
{344FB7F9-B406-45E6-8377-736E9F78B1E8}
  9
$VERSIONGUID
  2
{FAEB1C32-E019-11D5-929B-00C0DF256EC4}
  9
$EXTNAMES
290
     1
  9
$PSVPSCALE
 40
0.0
  9
$OLESTARTUP
290
     0
  9
$SORTENTS
280
   127
  9
$INDEXCTL
280
     0
  9
$HIDETEXT
280
     1
  9
$XCLIPFRAME
290
     0
  9
$HALOGAP
280
     0
  9
$OBSCOLOR
 70
   257
  9
$OBSLTYPE
280
     0
  9
$INTERSECTIONDISPLAY
280
     0
  9
$INTERSECTIONCOLOR
 70
   257
  9
$DIMASSOC
280
     2
  9
$PROJECTNAME
  1

  9
$CAMERADISPLAY
290
     0
  9
$LENSLENGTH
 40
50.0
  9
$CAMERAHEIGHT
 40
0.0
  9
$STEPSPERSEC
 40
2.0
  9
$STEPSIZE
 40
6.0
  9
$3DDWFPREC
 40
2.0
  9
$PSOLWIDTH
 40
5.0
  9
$PSOLHEIGHT
 40
80.0
  9
$LOFTANG1
 40
1.5707963268
  9
$LOFTANG2
 40
1.5707963268
  9
$LOFTMAG1
 40
0.0
  9
$LOFTMAG2
 40
0.0
  9
$LOFTPARAM
 70
     7
  9
$LOFTNORMALS
280
     1
  9
$LATITUDE
 40
37.795
  9
$LONGITUDE
 40
-122.394
  9
$NORTHDIRECTION
 40
0.0
  9
$TIMEZONE
 70
 -8000
  9
$LIGHTGLYPHDISPLAY
280
     1
  9
$TILEMODELIGHTSYNCH
280
     1
  9
$SOLIDHIST
280
     1
  9
$SHOWHIST
280
     1
  9
$DWFFRAME
280
     2
  9
$DGNFRAME
280
     2
  9
$REALWORLDSCALE
290
     1
  9
$INTERFERECOLOR
 62
   256
  9
$CSHADOW
280
     0
  9
$SHADOWPLANELOCATION
 40
0.0
  0
ENDSEC
  0
SECTION
  2
CLASSES
  0
CLASS
  1
ACDBDICTIONARYWDFLT
  2
AcDbDictionaryWithDefault
  3
ObjectDBX Classes
 90
        0
 91
       12
280
     0
281
     0
  0
CLASS
  1
VISUALSTYLE
  2
AcDbVisualStyle
  3
ObjectDBX Classes
 90
     4095
 91
       12
280
     0
281
     0
  0
CLASS
  1
MATERIAL
  2
AcDbMaterial
  3
ObjectDBX Classes
 90
     1153
 91
       12
280
     0
281
     0
  0
CLASS
  1
SCALE
  2
AcDbScale
  3
ObjectDBX Classes
 90
     1153
 91
       12
280
     0
281
     0
  0
CLASS
  1
TABLESTYLE
  2
AcDbTableStyle
  3
ObjectDBX Classes
 90
     4095
 91
       12
280
     0
281
     0
  0
CLASS
  1
RASTERVARIABLES
  2
AcDbRasterVariables
  3
ISM
 90
        0
 91
       12
280
     0
281
     0
  0
CLASS
  1
DICTIONARYVAR
  2
AcDbDictionaryVar
  3
ObjectDBX Classes
 90
        0
 91
        4
280
     0
281
     0
  0
CLASS
  1
CELLSTYLEMAP
  2
AcDbCellStyleMap
  3
ObjectDBX Classes
 90
     1152
 91
        4
280
     0
281
     0
  0
ENDSEC
  0
SECTION
  2
TABLES
  0
TABLE
  2
VPORT
  5
8
330
0
100
AcDbSymbolTable
 70
     1
  0
VPORT
  5
29
330
8
100
AcDbSymbolTableRecord
100
AcDbViewportTableRecord
  2
*Active
 70
     0
 10
0.0
 20
0.0
 11
1.0
 21
1.0
 12
81.34712482468444
 22
8.983169705469848
 13
0.0
 23
0.0
 14
10.0
 24
10.0
 15
10.0
 25
10.0
 16
0.0
 26
0.0
 36
1.0
 17
0.0
 27
0.0
 37
0.0
 40
210.0
 41
1.485273492286115
 42
50.0
 43
0.0
 44
0.0
 50
0.0
 51
0.0
 71
    16
 72
  2000
 73
     1
 74
     3
 75
     0
 76
     0
 77
     0
 78
     0
281
     0
 65
     1
110
0.0
120
0.0
130
0.0
111
1.0
121
0.0
131
0.0
112
0.0
122
1.0
132
0.0
 79
     0
146
0.0
 60
     3
 61
     5
292
     1
282
     1
141
0.0
142
0.0
 63
   250
  0
ENDTAB
  0
TABLE
  2
LTYPE
  5
5
330
0
100
AcDbSymbolTable
 70
     8
  0
LTYPE
  5
14
330
5
100
AcDbSymbolTableRecord
100
AcDbLinetypeTableRecord
  2
ByBlock
 70
     0
  3

 72
    65
 73
     0
 40
0.0
  0
LTYPE
  5
15
330
5
100
AcDbSymbolTableRecord
100
AcDbLinetypeTableRecord
  2
ByLayer
 70
     0
  3

 72
    65
 73
     0
 40
0.0
  0
LTYPE
  5
16
330
5
100
AcDbSymbolTableRecord
100
AcDbLinetypeTableRecord
  2
Continuous
 70
     0
  3
Solid line
 72
    65
 73
     0
 40
0.0
  0
LTYPE
  5
3F
330
5
100
AcDbSymbolTableRecord
100
AcDbLinetypeTableRecord
  2
SLD-Durchgehend
 70
     0
  3
SolidWorks Line Style
 72
    65
 73
     0
 40
0.0
  0
LTYPE
  5
40
330
5
100
AcDbSymbolTableRecord
100
AcDbLinetypeTableRecord
  2
SLD-Gestrichelt
 70
     0
  3
SolidWorks Line Style
 72
    65
 73
     2
 40
1.905
 49
1.27
 74
     0
 49
-0.635
 74
     0
  0
LTYPE
  5
41
330
5
100
AcDbSymbolTableRecord
100
AcDbLinetypeTableRecord
  2
SLD-Phantom
 70
     0
  3
SolidWorks Line Style
 72
    65
 73
     6
 40
12.7
 49
6.35
 74
     0
 49
-1.27
 74
     0
 49
1.27
 74
     0
 49
-1.27
 74
     0
 49
1.27
 74
     0
 49
-1.27
 74
     0
  0
LTYPE
  5
42
330
5
100
AcDbSymbolTableRecord
100
AcDbLinetypeTableRecord
  2
SLD-Kette
 70
     0
  3
SolidWorks Line Style
 72
    65
 73
     4
 40
10.16
 49
6.35
 74
     0
 49
-1.27
 74
     0
 49
1.27
 74
     0
 49
-1.27
 74
     0
  0
LTYPE
  5
43
330
5
100
AcDbSymbolTableRecord
100
AcDbLinetypeTableRecord
  2
SLD-Punktstrich
 70
     0
  3
SolidWorks Line Style
 72
    65
 73
     4
 40
19.05
 49
15.24
 74
     0
 49
-1.27
 74
     0
 49
1.27
 74
     0
 49
-1.27
 74
     0
  0
LTYPE
  5
44
330
5
100
AcDbSymbolTableRecord
100
AcDbLinetypeTableRecord
  2
SLD-Naht
 70
     0
  3
SolidWorks Line Style
 72
    65
 73
     2
 40
0.635
 49
0.0
 74
     0
 49
-0.635
 74
     0
  0
LTYPE
  5
45
330
5
100
AcDbSymbolTableRecord
100
AcDbLinetypeTableRecord
  2
SLD-Dicke-Dünne-Kette
 70
     0
  3
SolidWorks Line Style
 72
    65
 73
     4
 40
10.16
 49
6.35
 74
     0
 49
-1.27
 74
     0
 49
1.27
 74
     0
 49
-1.27
 74
     0
  0
ENDTAB
  0
TABLE
  2
LAYER
  5
2
330
0
100
AcDbSymbolTable
 70
     1
  0
LAYER
  5
10
330
2
100
AcDbSymbolTableRecord
100
AcDbLayerTableRecord
  2
0
 70
     0
 62
     7
  6
Continuous
370
    -3
390
F
347
3E
  0
ENDTAB
  0
TABLE
  2
STYLE
  5
3
330
0
100
AcDbSymbolTable
 70
     2
  0
STYLE
  5
11
330
3
100
AcDbSymbolTableRecord
100
AcDbTextStyleTableRecord
  2
Standard
 70
     0
 40
0.0
 41
1.0
 50
0.0
 71
     0
 42
3.5
  3
txt
  4

  0
STYLE
  5
135
330
3
100
AcDbSymbolTableRecord
100
AcDbTextStyleTableRecord
  2
SLDTEXTSTYLE0
 70
     0
 40
0.0
 41
0.75
 50
0.0
 71
     0
 42
0.2
  3
TXT
  4

  0
ENDTAB
  0
TABLE
  2
VIEW
  5
6
330
0
100
AcDbSymbolTable
 70
     0
  0
ENDTAB
  0
TABLE
  2
UCS
  5
7
330
0
100
AcDbSymbolTable
 70
     0
  0
ENDTAB
  0
TABLE
  2
APPID
  5
9
330
0
100
AcDbSymbolTable
 70
     1
  0
APPID
  5
12
330
9
100
AcDbSymbolTableRecord
100
AcDbRegAppTableRecord
  2
ACAD
 70
     0
  0
ENDTAB
  0
TABLE
  2
DIMSTYLE
  5
A
330
0
100
AcDbSymbolTable
 70
     3
100
AcDbDimStyleTable
  0
DIMSTYLE
105
27
330
A
100
AcDbSymbolTableRecord
100
AcDbDimStyleTableRecord
  2
ISO-25
 70
     0
 41
2.5
 42
0.625
 43
3.75
 44
1.25
 73
     0
 74
     0
 77
     1
 78
     8
140
2.5
141
2.5
143
0.0393700787
147
0.625
171
     3
172
     1
271
     2
272
     2
274
     3
278
    44
283
     0
284
     8
340
11
  0
DIMSTYLE
105
136
102
{ACAD_REACTORS
330
134
330
14C
330
156
330
160
102
}
330
A
100
AcDbSymbolTableRecord
100
AcDbDimStyleTableRecord
  2
SLDDIMSTYLE0
 70
     0
 41
3.302
 44
0.0
 45
0.000000001
 73
     0
 74
     0
 77
     1
 78
    12
 79
     3
140
3.5
147
0.875
173
     1
271
     2
272
     2
276
     2
284
    12
340
135
  0
DIMSTYLE
105
142
102
{ACAD_REACTORS
330
141
102
}
330
A
100
AcDbSymbolTableRecord
100
AcDbDimStyleTableRecord
  2
SLDDIMSTYLE1
 70
     0
 41
3.302
 44
0.0
 73
     0
 74
     0
 77
     1
 78
    12
 79
     3
140
3.5
147
0.875
173
     1
179
     2
272
     2
276
     2
284
    12
340
135
  0
ENDTAB
  0
TABLE
  2
BLOCK_RECORD
  5
1
330
0
100
AcDbSymbolTable
 70
     8
  0
BLOCK_RECORD
  5
1F
330
1
100
AcDbSymbolTableRecord
100
AcDbBlockTableRecord
  2
*Model_Space
340
22
 70
     0
280
     1
281
     0
  0
BLOCK_RECORD
  5
1B
330
1
100
AcDbSymbolTableRecord
100
AcDbBlockTableRecord
  2
*Paper_Space
340
1E
 70
     0
280
     1
281
     0
  0
BLOCK_RECORD
  5
23
330
1
100
AcDbSymbolTableRecord
100
AcDbBlockTableRecord
  2
*Paper_Space0
340
26
 70
     0
280
     1
281
     0
  0
BLOCK_RECORD
  5
137
330
1
100
AcDbSymbolTableRecord
100
AcDbBlockTableRecord
  2
_D
340
0
 70
     0
280
     1
281
     0
  0
BLOCK_RECORD
  5
143
330
1
100
AcDbSymbolTableRecord
100
AcDbBlockTableRecord
  2
_D_1
340
0
 70
     0
280
     1
281
     0
  0
BLOCK_RECORD
  5
14D
330
1
100
AcDbSymbolTableRecord
100
AcDbBlockTableRecord
  2
_D_2
340
0
 70
     0
280
     1
281
     0
  0
BLOCK_RECORD
  5
157
330
1
100
AcDbSymbolTableRecord
100
AcDbBlockTableRecord
  2
_D_3
340
0
 70
     0
280
     1
281
     0
  0
BLOCK_RECORD
  5
161
330
1
100
AcDbSymbolTableRecord
100
AcDbBlockTableRecord
  2
_D_4
340
0
 70
     0
280
     1
281
     0
  0
BLOCK_RECORD
  5
16B
330
1
100
AcDbSymbolTableRecord
100
AcDbBlockTableRecord
  2
SW_CENTERMARKSYMBOL_0
340
0
102
{BLKREFS
331
0
102
}
 70
     0
280
     1
281
     0
  0
BLOCK_RECORD
  5
177
330
1
100
AcDbSymbolTableRecord
100
AcDbBlockTableRecord
  2
SW_CENTERMARKSYMBOL_1
340
0
102
{BLKREFS
331
0
102
}
 70
     0
280
     1
281
     0
  0
ENDTAB
  0
ENDSEC
  0
SECTION
  2
BLOCKS
  0
BLOCK
  5
20
330
1F
100
AcDbEntity
  8
0
100
AcDbBlockBegin
  2
*Model_Space
 70
     0
 10
0.0
 20
0.0
 30
0.0
  3
*Model_Space
  1

  0
ENDBLK
  5
21
330
1F
100
AcDbEntity
  8
0
100
AcDbBlockEnd
  0
BLOCK
  5
1C
330
1B
100
AcDbEntity
 67
     1
  8
0
100
AcDbBlockBegin
  2
*Paper_Space
 70
     0
 10
0.0
 20
0.0
 30
0.0
  3
*Paper_Space
  1

  0
ENDBLK
  5
1D
330
1B
100
AcDbEntity
 67
     1
  8
0
100
AcDbBlockEnd
  0
BLOCK
  5
24
330
23
100
AcDbEntity
  8
0
100
AcDbBlockBegin
  2
*Paper_Space0
 70
     0
 10
0.0
 20
0.0
 30
0.0
  3
*Paper_Space0
  1

  0
ENDBLK
  5
25
330
23
100
AcDbEntity
  8
0
100
AcDbBlockEnd
  0
BLOCK
  5
138
330
137
100
AcDbEntity
  8
0
100
AcDbBlockBegin
  2
_D
 70
     0
 10
0.0
 20
0.0
 30
0.0
  3
_D
  1

  0
SOLID
  5
13A
330
137
100
AcDbEntity
  8
0
 62
     7
420
 16777215
100
AcDbTrace
 10
-56.271887212
 20
50.0001496033
 30
0.0
 11
-56.779887212
 21
46.6981496033
 31
0.0
 12
-55.763887212
 22
46.6981496033
 32
0.0
 13
-55.763887212
 23
46.6981496033
 33
0.0
  0
SOLID
  5
13B
330
137
100
AcDbEntity
  8
0
 62
     7
420
 16777215
100
AcDbTrace
 10
-56.271887212
 20
-49.9998503967
 30
0.0
 11
-55.763887212
 21
-46.6978503967
 31
0.0
 12
-56.779887212
 22
-46.6978503967
 32
0.0
 13
-56.779887212
 23
-46.6978503967
 33
0.0
  0
LINE
  5
13C
330
137
100
AcDbEntity
  8
0
 62
     7
420
 16777215
100
AcDbLine
 10
-1.009662451
 20
50.0001496033
 30
0.0
 11
-57.271887212
 21
50.0001496033
 31
0.0
  0
LINE
  5
13D
330
137
100
AcDbEntity
  8
0
 62
     7
420
 16777215
100
AcDbLine
 10
-1.009662451
 20
-49.9998503967
 30
0.0
 11
-57.271887212
 21
-49.9998503967
 31
0.0
  0
LINE
  5
13E
330
137
100
AcDbEntity
  8
0
 62
     7
420
 16777215
100
AcDbLine
 10
-56.271887212
 20
50.0001496033
 30
0.0
 11
-56.271887212
 21
-49.9998503967
 31
0.0
  0
MTEXT
  5
13F
330
137
100
AcDbEntity
  8
0
 62
     7
420
 16777215
100
AcDbMText
 10
-60.7836243012
 20
-7.9401110901
 30
0.0
 40
3.5
 41
0.0
 46
0.0
 71
     1
 72
     1
  1
%%c
  7
SLDTEXTSTYLE0
 11
-7.044195017643634E-15
 21
1.0
 31
0.0
 73
     1
 44
1.0
  0
MTEXT
  5
140
330
137
100
AcDbEntity
  8
0
 62
     7
420
 16777215
100
AcDbMText
 10
-60.8370964779
 20
-2.6616736918
 30
0.0
 40
3.5
 41
0.0
 46
0.0
 71
     1
 72
     1
  1
100
  7
SLDTEXTSTYLE0
 11
-7.044195017643634E-15
 21
1.0
 31
0.0
 73
     1
 44
1.0
  0
ENDBLK
  5
139
330
137
100
AcDbEntity
  8
0
100
AcDbBlockEnd
  0
BLOCK
  5
144
330
143
100
AcDbEntity
  8
0
100
AcDbBlockBegin
  2
_D_1
 70
     0
 10
0.0
 20
0.0
 30
0.0
  3
_D_1
  1

  0
ARC
  5
146
330
143
100
AcDbEntity
  8
0
 62
     7
420
 16777215
100
AcDbCircle
 10
28.990337549
 20
-50.8409258078
 30
0.0
 40
32.15443929668871
100
AcDbArc
 50
270.0
 51
355.2510393539
  0
SOLID
  5
147
330
143
100
AcDbEntity
  8
0
 62
     7
420
 16777215
100
AcDbTrace
 10
28.990337549
 20
-82.9953651045
 30
0.0
 11
32.3139974268
 21
-83.3338219205
 31
0.0
 12
32.262034857
 22
-82.3191515843
 32
0.0
 13
32.262034857
 23
-82.3191515843
 33
0.0
  0
SOLID
  5
148
330
143
100
AcDbEntity
  8
0
 62
     7
420
 16777215
100
AcDbTrace
 10
61.0343907998
 20
-53.5029960061
 30
0.0
 11
60.0896344733
 21
-56.7074777869
 31
0.0
 12
61.0965194629
 22
-56.8432666582
 32
0.0
 13
61.0965194629
 23
-56.8432666582
 33
0.0
  0
LINE
  5
149
330
143
100
AcDbEntity
  8
0
 62
     7
420
 16777215
100
AcDbLine
 10
28.990337549
 20
-49.7748439897
 30
0.0
 11
28.990337549
 21
-83.9953651045
 31
0.0
  0
LINE
  5
14A
330
143
100
AcDbEntity
  8
0
 62
     7
420
 16777215
100
AcDbLine
 10
66.9602221767
 20
-53.9952863848
 30
0.0
 11
60.0378237954
 21
-53.4202058765
 31
0.0
  0
MTEXT
  5
14B
330
143
100
AcDbEntity
  8
0
 62
     7
420
 16777215
100
AcDbMText
 10
41.6957175243
 20
-76.7157380887
 30
0.0
 40
3.5
 41
0.0
 46
0.0
 71
     1
 72
     1
  1
85,25°
  7
SLDTEXTSTYLE0
 11
0.7357955319425111
 21
0.6772037619309547
 31
0.0
 73
     1
 44
1.0
  0
ENDBLK
  5
145
330
143
100
AcDbEntity
  8
0
100
AcDbBlockEnd
  0
BLOCK
  5
14E
330
14D
100
AcDbEntity
  8
0
100
AcDbBlockBegin
  2
_D_2
 70
     0
 10
0.0
 20
0.0
 30
0.0
  3
_D_2
  1

  0
SOLID
  5
150
330
14D
100
AcDbEntity
  8
0
 62
     7
420
 16777215
100
AcDbTrace
 10
-0.009662451
 20
-61.0091207209
 30
0.0
 11
3.292337549
 21
-61.5171207209
 31
0.0
 12
3.292337549
 22
-60.5011207209
 32
0.0
 13
3.292337549
 23
-60.5011207209
 33
0.0
  0
SOLID
  5
151
330
14D
100
AcDbEntity
  8
0
 62
     7
420
 16777215
100
AcDbTrace
 10
79.9978301594
 20
-61.0091207209
 30
0.0
 11
76.6958301594
 21
-60.5011207209
 31
0.0
 12
76.6958301594
 22
-61.5171207209
 32
0.0
 13
76.6958301594
 23
-61.5171207209
 33
0.0
  0
LINE
  5
152
330
14D
100
AcDbEntity
  8
0
 62
     7
420
 16777215
100
AcDbLine
 10
-0.009662451
 20
-0.9998503967
 30
0.0
 11
-0.009662451
 21
-62.0091207209
 31
0.0
  0
LINE
  5
153
330
14D
100
AcDbEntity
  8
0
 62
     7
420
 16777215
100
AcDbLine
 10
79.9978301594
 20
-55.1397043932
 30
0.0
 11
79.9978301594
 21
-62.0091207209
 31
0.0
  0
LINE
  5
154
330
14D
100
AcDbEntity
  8
0
 62
     7
420
 16777215
100
AcDbLine
 10
-0.009662451
 20
-61.0091207209
 30
0.0
 11
79.9978301594
 21
-61.0091207209
 31
0.0
  0
MTEXT
  5
155
330
14D
100
AcDbEntity
  8
0
 62
     7
420
 16777215
100
AcDbMText
 10
32.7534587558
 20
-56.4973838063
 30
0.0
 40
3.5
 41
0.0
 46
0.0
 71
     1
 72
     1
  1
80,01
  7
SLDTEXTSTYLE0
 73
     1
 44
1.0
  0
ENDBLK
  5
14F
330
14D
100
AcDbEntity
  8
0
100
AcDbBlockEnd
  0
BLOCK
  5
158
330
157
100
AcDbEntity
  8
0
100
AcDbBlockBegin
  2
_D_3
 70
     0
 10
0.0
 20
0.0
 30
0.0
  3
_D_3
  1

  0
SOLID
  5
15A
330
157
100
AcDbEntity
  8
0
 62
     7
420
 16777215
100
AcDbTrace
 10
86.0005609857
 20
-55.006390668
 30
0.0
 11
86.5085609857
 21
-51.704390668
 31
0.0
 12
85.4925609857
 22
-51.704390668
 32
0.0
 13
85.4925609857
 23
-51.704390668
 33
0.0
  0
SOLID
  5
15B
330
157
100
AcDbEntity
  8
0
 62
     7
420
 16777215
100
AcDbTrace
 10
86.0005609857
 20
0.0001496033
 30
0.0
 11
85.4925609857
 21
-3.3018503967
 31
0.0
 12
86.5085609857
 22
-3.3018503967
 32
0.0
 13
86.5085609857
 23
-3.3018503967
 33
0.0
  0
LINE
  5
15C
330
157
100
AcDbEntity
  8
0
 62
     7
420
 16777215
100
AcDbLine
 10
80.1311557291
 20
-55.006390668
 30
0.0
 11
87.0005609857
 21
-55.006390668
 31
0.0
  0
LINE
  5
15D
330
157
100
AcDbEntity
  8
0
 62
     7
420
 16777215
100
AcDbLine
 10
0.990337549
 20
0.0001496033
 30
0.0
 11
87.0005609857
 21
0.0001496033
 31
0.0
  0
LINE
  5
15E
330
157
100
AcDbEntity
  8
0
 62
     7
420
 16777215
100
AcDbLine
 10
86.0005609857
 20
-55.006390668
 30
0.0
 11
86.0005609857
 21
0.0001496033
 31
0.0
  0
MTEXT
  5
15F
330
157
100
AcDbEntity
  8
0
 62
     7
420
 16777215
100
AcDbMText
 10
81.4888240712
 20
-34.7437456307
 30
0.0
 40
3.5
 41
0.0
 46
0.0
 71
     1
 72
     1
  1
55,01
  7
SLDTEXTSTYLE0
 11
6.123233995736766E-17
 21
1.0
 31
0.0
 73
     1
 44
1.0
  0
ENDBLK
  5
159
330
157
100
AcDbEntity
  8
0
100
AcDbBlockEnd
  0
BLOCK
  5
162
330
161
100
AcDbEntity
  8
0
100
AcDbBlockBegin
  2
_D_4
 70
     0
 10
0.0
 20
0.0
 30
0.0
  3
_D_4
  1

  0
SOLID
  5
164
330
161
100
AcDbEntity
  8
0
 62
     7
420
 16777215
100
AcDbTrace
 10
98.0005609857
 20
43.8001496033
 30
0.0
 11
97.4925609857
 21
40.4981496033
 31
0.0
 12
98.5085609857
 22
40.4981496033
 32
0.0
 13
98.5085609857
 23
40.4981496033
 33
0.0
  0
SOLID
  5
165
330
161
100
AcDbEntity
  8
0
 62
     7
420
 16777215
100
AcDbTrace
 10
98.0005609857
 20
-43.7998503967
 30
0.0
 11
98.5085609857
 21
-40.4978503967
 31
0.0
 12
97.4925609857
 22
-40.4978503967
 32
0.0
 13
97.4925609857
 23
-40.4978503967
 33
0.0
  0
LINE
  5
166
330
161
100
AcDbEntity
  8
0
 62
     7
420
 16777215
100
AcDbLine
 10
36.8120682257
 20
43.8001496033
 30
0.0
 11
99.0005609857
 21
43.8001496033
 31
0.0
  0
LINE
  5
167
330
161
100
AcDbEntity
  8
0
 62
     7
420
 16777215
100
AcDbLine
 10
54.9963666537
 20
-43.7998503967
 30
0.0
 11
99.0005609857
 21
-43.7998503967
 31
0.0
  0
LINE
  5
168
330
161
100
AcDbEntity
  8
0
 62
     7
420
 16777215
100
AcDbLine
 10
98.0005609857
 20
43.8001496033
 30
0.0
 11
98.0005609857
 21
-43.7998503967
 31
0.0
  0
MTEXT
  5
169
330
161
100
AcDbEntity
  8
0
 62
     7
420
 16777215
100
AcDbMText
 10
93.4888238965
 20
-9.8796946599
 30
0.0
 40
3.5
 41
0.0
 46
0.0
 71
     1
 72
     1
  1
%%c
  7
SLDTEXTSTYLE0
 11
-7.044195017643634E-15
 21
1.0
 31
0.0
 73
     1
 44
1.0
  0
MTEXT
  5
16A
330
161
100
AcDbEntity
  8
0
 62
     7
420
 16777215
100
AcDbMText
 10
93.4353517199
 20
-4.6012572615
 30
0.0
 40
3.5
 41
0.0
 46
0.0
 71
     1
 72
     1
  1
87,60
  7
SLDTEXTSTYLE0
 11
-7.044195017643634E-15
 21
1.0
 31
0.0
 73
     1
 44
1.0
  0
ENDBLK
  5
163
330
161
100
AcDbEntity
  8
0
100
AcDbBlockEnd
  0
BLOCK
  5
16C
330
16B
100
AcDbEntity
  8
0
100
AcDbBlockBegin
  2
SW_CENTERMARKSYMBOL_0
 70
     0
 10
0.0
 20
0.0
 30
0.0
  3
SW_CENTERMARKSYMBOL_0
  1

  0
LINE
  5
16E
330
16B
100
AcDbEntity
  8
0
  6
SLD-Punktstrich
 62
     0
370
    15
100
AcDbLine
 10
0.0
 20
0.0
 30
0.0
 11
0.0
 21
2.5
 31
0.0
  0
LINE
  5
16F
330
16B
100
AcDbEntity
  8
0
  6
SLD-Punktstrich
 62
     0
370
    15
100
AcDbLine
 10
0.0
 20
0.0
 30
0.0
 11
-2.5
 21
0.0
 31
0.0
  0
LINE
  5
170
330
16B
100
AcDbEntity
  8
0
  6
SLD-Punktstrich
 62
     0
370
    15
100
AcDbLine
 10
0.0
 20
0.0
 30
0.0
 11
0.0
 21
-2.5
 31
0.0
  0
LINE
  5
171
330
16B
100
AcDbEntity
  8
0
  6
SLD-Punktstrich
 62
     0
370
    15
100
AcDbLine
 10
0.0
 20
0.0
 30
0.0
 11
2.5
 21
0.0
 31
0.0
  0
LINE
  5
172
330
16B
100
AcDbEntity
  8
0
  6
SLD-Punktstrich
 62
     0
370
    15
100
AcDbLine
 10
0.0
 20
2.5
 30
0.0
 11
0.0
 21
3.63
 31
0.0
  0
LINE
  5
173
330
16B
100
AcDbEntity
  8
0
  6
SLD-Punktstrich
 62
     0
370
    15
100
AcDbLine
 10
-2.5
 20
0.0
 30
0.0
 11
-3.63
 21
0.0
 31
0.0
  0
LINE
  5
174
330
16B
100
AcDbEntity
  8
0
  6
SLD-Punktstrich
 62
     0
370
    15
100
AcDbLine
 10
0.0
 20
-2.5
 30
0.0
 11
0.0
 21
-3.63
 31
0.0
  0
LINE
  5
175
330
16B
100
AcDbEntity
  8
0
  6
SLD-Punktstrich
 62
     0
370
    15
100
AcDbLine
 10
2.5
 20
0.0
 30
0.0
 11
3.63
 21
0.0
 31
0.0
  0
ENDBLK
  5
16D
330
16B
100
AcDbEntity
  8
0
100
AcDbBlockEnd
  0
BLOCK
  5
178
330
177
100
AcDbEntity
  8
0
100
AcDbBlockBegin
  2
SW_CENTERMARKSYMBOL_1
 70
     0
 10
0.0
 20
0.0
 30
0.0
  3
SW_CENTERMARKSYMBOL_1
  1

  0
LINE
  5
17A
330
177
100
AcDbEntity
  8
0
  6
SLD-Punktstrich
 62
     0
370
    15
100
AcDbLine
 10
0.0
 20
0.0
 30
0.0
 11
0.0
 21
2.5
 31
0.0
  0
LINE
  5
17B
330
177
100
AcDbEntity
  8
0
  6
SLD-Punktstrich
 62
     0
370
    15
100
AcDbLine
 10
0.0
 20
0.0
 30
0.0
 11
-2.5
 21
0.0
 31
0.0
  0
LINE
  5
17C
330
177
100
AcDbEntity
  8
0
  6
SLD-Punktstrich
 62
     0
370
    15
100
AcDbLine
 10
0.0
 20
0.0
 30
0.0
 11
0.0
 21
-2.5
 31
0.0
  0
LINE
  5
17D
330
177
100
AcDbEntity
  8
0
  6
SLD-Punktstrich
 62
     0
370
    15
100
AcDbLine
 10
0.0
 20
0.0
 30
0.0
 11
2.5
 21
0.0
 31
0.0
  0
LINE
  5
17E
330
177
100
AcDbEntity
  8
0
  6
SLD-Punktstrich
 62
     0
370
    15
100
AcDbLine
 10
0.0
 20
2.5
 30
0.0
 11
0.0
 21
3.63
 31
0.0
  0
LINE
  5
17F
330
177
100
AcDbEntity
  8
0
  6
SLD-Punktstrich
 62
     0
370
    15
100
AcDbLine
 10
-2.5
 20
0.0
 30
0.0
 11
-3.63
 21
0.0
 31
0.0
  0
LINE
  5
180
330
177
100
AcDbEntity
  8
0
  6
SLD-Punktstrich
 62
     0
370
    15
100
AcDbLine
 10
0.0
 20
-2.5
 30
0.0
 11
0.0
 21
-3.63
 31
0.0
  0
LINE
  5
181
330
177
100
AcDbEntity
  8
0
  6
SLD-Punktstrich
 62
     0
370
    15
100
AcDbLine
 10
2.5
 20
0.0
 30
0.0
 11
3.63
 21
0.0
 31
0.0
  0
ENDBLK
  5
179
330
177
100
AcDbEntity
  8
0
100
AcDbBlockEnd
  0
ENDSEC
  0
SECTION
  2
ENTITIES
  0
LINE
  5
46
330
1F
100
AcDbEntity
  8
0
  6
SLD-Durchgehend
 62
     7
100
AcDbLine
 10
-0.009662451
 20
0.0001496033
 30
0.0
 11
-0.009662451
 21
-0.0435739994
 31
0.0
  0
POINT
  5
47
330
1F
100
AcDbEntity
  8
0
  6
SLD-Durchgehend
 62
     7
100
AcDbPoint
 10
-0.009662451
 20
0.0001496033
 30
0.0
  0
LINE
  5
48
330
1F
100
AcDbEntity
  8
0
  6
SLD-Durchgehend
 62
   131
420
  8454143
370
    40
100
AcDbLine
 10
5.0244103815
 20
50.0001496033
 30
0.0
 11
-0.009662451
 21
50.0001496033
 31
0.0
  0
LINE
  5
49
330
1F
100
AcDbEntity
  8
0
  6
SLD-Durchgehend
 62
   131
420
  8454143
370
    40
100
AcDbLine
 10
-0.009662451
 20
-49.9998503967
 30
0.0
 11
4.990337549
 21
-49.9998503967
 31
0.0
  0
LINE
  5
4A
330
1F
100
AcDbEntity
  8
0
  6
SLD-Durchgehend
 62
   131
420
  8454143
370
    40
100
AcDbLine
 10
35.8120682257
 20
43.8001496033
 30
0.0
 11
28.990337549
 21
43.8001496033
 31
0.0
  0
LINE
  5
4B
330
1F
100
AcDbEntity
  8
0
  6
SLD-Durchgehend
 62
   131
420
  8454143
370
    40
100
AcDbLine
 10
28.990337549
 20
-43.7998503967
 30
0.0
 11
53.9963666537
 21
-43.7998503967
 31
0.0
  0
LINE
  5
4C
330
1F
100
AcDbEntity
  8
0
  6
SLD-Durchgehend
 62
   131
420
  8454143
370
    40
100
AcDbLine
 10
-21.4532967567
 20
36.9333276279
 30
0.0
 11
-40.009662451
 21
36.0036603595
 31
0.0
  0
LINE
  5
4D
330
1F
100
AcDbEntity
  8
0
  6
SLD-Durchgehend
 62
   131
420
  8454143
370
    40
100
AcDbLine
 10
-0.009662451
 20
38.0076460185
 30
0.0
 11
-8.6000814359
 21
37.5772691072
 31
0.0
  0
LINE
  5
4E
330
1F
100
AcDbEntity
  8
0
  6
SLD-Durchgehend
 62
   131
420
  8454143
370
    40
100
AcDbLine
 10
-8.5940406235
 20
-37.5772725431
 30
0.0
 11
-0.009662451
 21
-38.0073468119
 31
0.0
  0
LINE
  5
4F
330
1F
100
AcDbEntity
  8
0
  6
SLD-Durchgehend
 62
   131
420
  8454143
370
    40
100
AcDbLine
 10
-35.009662451
 20
-36.2538593603
 30
0.0
 11
-21.453909801
 21
-36.932997708
 31
0.0
  0
LINE
  5
50
330
1F
100
AcDbEntity
  8
0
  6
SLD-Durchgehend
 62
   131
420
  8454143
370
    40
100
AcDbLine
 10
-47.509662451
 20
-32.2498503967
 30
0.0
 11
-37.009662451
 21
-32.2498503967
 31
0.0
  0
ARC
  5
51
330
1F
100
AcDbEntity
  8
0
  6
SLD-Durchgehend
 62
   131
420
  8454143
370
    40
100
AcDbCircle
 10
-37.009662451
 20
-34.2498503967
 30
0.0
 40
2.0
100
AcDbArc
 50
37.1216198372
 51
90.0
  0
LINE
  5
52
330
1F
100
AcDbEntity
  8
0
  6
SLD-Durchgehend
 62
   131
420
  8454143
370
    40
100
AcDbLine
 10
-49.8998482966
 20
-30.8698759572
 30
0.0
 11
-47.509662451
 21
-32.2498503967
 31
0.0
  0
ARC
  5
53
330
1F
100
AcDbEntity
  8
0
  6
SLD-Durchgehend
 62
   131
420
  8454143
370
    40
100
AcDbCircle
 10
-42.009662451
 20
34.2501496033
 30
0.0
 40
2.000000000000007
100
AcDbArc
 50
270.0
 51
310.8654949741
  0
LINE
  5
54
330
1F
100
AcDbEntity
  8
0
  6
SLD-Durchgehend
 62
   131
420
  8454143
370
    40
100
AcDbLine
 10
-42.009662451
 20
32.2501496033
 30
0.0
 11
-48.509662451
 21
32.2501496033
 31
0.0
  0
LINE
  5
55
330
1F
100
AcDbEntity
  8
0
  6
SLD-Durchgehend
 62
   131
420
  8454143
370
    40
100
AcDbLine
 10
-48.509894084
 20
32.2499179677
 30
0.0
 11
-49.893072888
 21
30.8667391661
 31
0.0
  0
LINE
  5
56
330
1F
100
AcDbEntity
  8
0
  6
SLD-Durchgehend
 62
   131
420
  8454143
370
    40
100
AcDbLine
 10
53.9963666537
 20
-43.7998504267
 30
0.0
 11
56.2391066592
 21
-52.1698700251
 31
0.0
  0
LINE
  5
57
330
1F
100
AcDbEntity
  8
0
  6
SLD-Durchgehend
 62
   131
420
  8454143
370
    40
100
AcDbLine
 10
56.2391066592
 20
-52.1698700475
 30
0.0
 11
67.1053554542
 21
-53.216574276
 31
0.0
  0
LINE
  5
58
330
1F
100
AcDbEntity
  8
0
  6
SLD-Durchgehend
 62
   131
420
  8454143
370
    40
100
AcDbLine
 10
67.0174907193
 20
-53.4035702963
 30
0.0
 11
67.4641002647
 21
-53.8500816827
 31
0.0
  0
LINE
  5
59
330
1F
100
AcDbEntity
  8
0
  6
SLD-Durchgehend
 62
   131
420
  8454143
370
    40
100
AcDbLine
 10
78.841268795
 20
-42.472524437
 30
0.0
 11
78.7408984873
 21
-42.3721761894
 31
0.0
  0
SPLINE
  5
5A
330
1F
100
AcDbEntity
  8
0
  6
SLD-Durchgehend
 62
   131
420
  8454143
370
    40
100
AcDbSpline
210
0.0
220
0.0
230
1.0
 70
     8
 71
     3
 72
    28
 73
    24
 74
     0
 42
0.00000001
 43
0.00000001
 12
1.0
 22
0.0
 32
0.0
 13
1.0
 23
0.0
 33
0.0
 40
0.0
 40
0.0
 40
0.0
 40
0.0
 40
0.1249999999999998
 40
0.1249999999999998
 40
0.1874999999999995
 40
0.1874999999999995
 40
0.2499999999999993
 40
0.2499999999999993
 40
0.3124999999999991
 40
0.3124999999999991
 40
0.3749999999999988
 40
0.3749999999999988
 40
0.4999999999999987
 40
0.4999999999999987
 40
0.5624999999999982
 40
0.5624999999999982
 40
0.6249999999999978
 40
0.6249999999999978
 40
0.7499999999999984
 40
0.7499999999999984
 40
0.8749999999999992
 40
0.8749999999999992
 40
1.0
 40
1.0
 40
1.0
 40
1.0
 10
14.63033754898956
 20
38.82990623401174
 30
0.0
 10
13.9808544929921
 20
38.82990623401175
 30
0.0
 10
13.34581427521907
 20
38.77930853813055
 30
0.0
 10
12.41355280019536
 20
38.63104163809614
 30
0.0
 10
12.10503925879766
 20
38.56913205645429
 30
0.0
 10
11.50013810373963
 20
38.42131703839434
 30
0.0
 10
11.20720433785053
 20
38.33636848228045
 30
0.0
 10
10.63902735449978
 20
38.14532345643818
 30
0.0
 10
10.36379051535565
 20
38.03921999213769
 30
0.0
 10
9.830250567792044
 20
37.80604565947619
 30
0.0
 10
9.570766919874677
 20
37.6782905257034
 30
0.0
 10
8.826422772589831
 20
37.26821845765824
 30
0.0
 10
8.377846476249472
 20
36.96137807153758
 30
0.0
 10
7.76611571054006
 20
36.45367649396209
 30
0.0
 10
7.571783899590693
 20
36.27577163350534
 30
0.0
 10
7.206100456961622
 20
35.90763363966218
 30
0.0
 10
7.035231393511922
 20
35.71805872809765
 30
0.0
 10
6.554834936246122
 20
35.13351613222707
 30
0.0
 10
6.277343335451502
 20
34.72278041645831
 30
0.0
 10
5.79436585527541
 20
33.86118917517739
 30
0.0
 10
5.588313695101728
 20
33.40826030622553
 30
0.0
 10
5.243458497590205
 20
32.47430235776647
 30
0.0
 10
5.1043994412818
 20
31.99378466711296
 30
0.0
 10
4.993439689784488
 20
31.50014960330387
 30
0.0
  0
LINE
  5
5B
330
1F
100
AcDbEntity
  8
0
  6
SLD-Durchgehend
 62
   131
420
  8454143
370
    40
100
AcDbLine
 10
4.9934396898
 20
31.5001496033
 30
0.0
 11
16.7427422832
 21
31.5001496033
 31
0.0
  0
LINE
  5
5C
330
1F
100
AcDbEntity
  8
0
  6
SLD-Durchgehend
 62
   131
420
  8454143
370
    40
100
AcDbLine
 10
16.7427422832
 20
31.5001496033
 30
0.0
 11
16.7427422834
 21
-48.7748439889
 31
0.0
  0
LINE
  5
5D
330
1F
100
AcDbEntity
  8
0
  6
SLD-Durchgehend
 62
   131
420
  8454143
370
    40
100
AcDbLine
 10
16.7427422834
 20
-48.7748439889
 30
0.0
 11
14.990337549
 21
-48.7748439897
 31
0.0
  0
SPLINE
  5
5E
330
1F
100
AcDbEntity
  8
0
  6
SLD-Durchgehend
 62
   131
420
  8454143
370
    40
100
AcDbSpline
210
0.0
220
0.0
230
1.0
 70
     8
 71
     3
 72
    30
 73
    26
 74
     0
 42
0.00000001
 43
0.00000001
 12
1.0
 22
0.0
 32
0.0
 13
1.0
 23
0.0
 33
0.0
 40
0.0
 40
0.0
 40
0.0
 40
0.0
 40
0.1250000000000001
 40
0.1250000000000001
 40
0.1875000000000002
 40
0.1875000000000002
 40
0.2500000000000003
 40
0.2500000000000003
 40
0.3750000000000003
 40
0.3750000000000003
 40
0.4375000000000002
 40
0.4375000000000002
 40
0.5000000000000001
 40
0.5000000000000001
 40
0.625
 40
0.625
 40
0.6874999999999999
 40
0.6874999999999999
 40
0.75
 40
0.75
 40
0.8125
 40
0.8125
 40
0.8750000000000001
 40
0.8750000000000001
 40
1.0
 40
1.0
 40
1.0
 40
1.0
 10
14.99033754898956
 20
-48.7748439897249
 30
0.0
 10
14.32759285514454
 20
-48.77484398972491
 30
0.0
 10
13.67633699602882
 20
-48.78968406631372
 30
0.0
 10
12.71588645777056
 20
-48.83205363054334
 30
0.0
 10
12.39849501453758
 20
-48.84953173332253
 30
0.0
 10
11.76933151298272
 20
-48.89086001987482
 30
0.0
 10
11.457183326541
 20
-48.91478529333251
 30
0.0
 10
10.54987602469275
 20
-48.99359180979943
 30
0.0
 10
9.976451067051489
 20
-49.05589782977589
 30
0.0
 10
9.162574197476824
 20
-49.15902715001526
 30
0.0
 10
8.897768000906972
 20
-49.19521106906177
 30
0.0
 10
8.390860590092627
 20
-49.26900585326227
 30
0.0
 10
8.149466438739145
 20
-49.30647971203392
 30
0.0
 10
7.460324966606805
 20
-49.41919165537364
 30
0.0
 10
7.047270151742564
 20
-49.49472775284742
 30
0.0
 10
6.499115332367502
 20
-49.6031210098649
 30
0.0
 10
6.329652725021922
 20
-49.63819324152819
 30
0.0
 10
6.021635477006543
 20
-49.70442870212803
 30
0.0
 10
5.882255456398181
 20
-49.73575539888275
 30
0.0
 10
5.632469943771442
 20
-49.79416417046369
 30
0.0
 10
5.522063831117519
 20
-49.82124740564652
 30
0.0
 10
5.330805977479794
 20
-49.8705071602601
 30
0.0
 10
5.249686459195503
 20
-49.89276914006776
 30
0.0
 10
5.055539539087108
 20
-49.95033604723606
 30
0.0
 10
4.990337548989564
 20
-49.97659565202202
 30
0.0
 10
4.990337548989564
 20
-49.98984939649606
 30
0.0
  0
LINE
  5
5F
330
1F
100
AcDbEntity
  8
0
  6
SLD-Durchgehend
 62
   131
420
  8454143
370
    40
100
AcDbLine
 10
4.990337549
 20
-49.9898493965
 30
0.0
 11
4.990337549
 21
-49.9998503967
 31
0.0
  0
SPLINE
  5
60
330
1F
100
AcDbEntity
  8
0
  6
SLD-Durchgehend
 62
   131
420
  8454143
370
    40
100
AcDbSpline
210
0.0
220
0.0
230
1.0
 70
     8
 71
     3
 72
    17
 73
    13
 74
     0
 42
0.00000001
 43
0.00000001
 12
1.0
 22
0.0
 32
0.0
 13
1.0
 23
0.0
 33
0.0
 40
0.0
 40
0.0
 40
0.0
 40
0.0
 40
0.0675713835403145
 40
0.171257585940563
 40
0.2779172497219816
 40
0.3822981543720081
 40
0.4896051157883375
 40
0.5957700740380943
 40
0.7049969930016018
 40
0.8113234717900918
 40
0.9208377487614554
 40
1.0
 40
1.0
 40
1.0
 40
1.0
 10
5.024410381450132
 20
49.99334912240386
 30
0.0
 10
5.021877757510427
 20
49.99384627586974
 30
0.0
 10
5.015458900306617
 20
49.995106295984
 30
0.0
 10
5.319218452438045
 20
49.93478289517127
 30
0.0
 10
5.882771815449006
 20
49.82779149570635
 30
0.0
 10
6.71404064800144
 20
49.68124409947416
 30
0.0
 10
7.767671562535296
 20
49.51503077492522
 30
0.0
 10
9.04080324819836
 20
49.34375271800058
 30
0.0
 10
10.48019849534365
 20
49.18919910206333
 30
0.0
 10
12.06595116254987
 20
49.06875140639913
 30
0.0
 10
13.58526929840451
 20
49.0005358291489
 30
0.0
 10
14.57505651280368
 20
48.99307483728306
 30
0.0
 10
14.99033754898956
 20
48.98994445896747
 30
0.0
  0
LINE
  5
61
330
1F
100
AcDbEntity
  8
0
  6
SLD-Durchgehend
 62
   131
420
  8454143
370
    40
100
AcDbLine
 10
14.990337549
 20
48.989944459
 30
0.0
 11
16.7427422834
 21
48.9899444582
 31
0.0
  0
LINE
  5
62
330
1F
100
AcDbEntity
  8
0
  6
SLD-Durchgehend
 62
   131
420
  8454143
370
    40
100
AcDbLine
 10
16.7427422834
 20
48.9899444582
 30
0.0
 11
16.7427422832
 21
38.8299062333
 31
0.0
  0
LINE
  5
63
330
1F
100
AcDbEntity
  8
0
  6
SLD-Durchgehend
 62
   131
420
  8454143
370
    40
100
AcDbLine
 10
16.7427422832
 20
38.8299062333
 30
0.0
 11
14.630337549
 21
38.829906234
 31
0.0
  0
SPLINE
  5
64
330
1F
100
AcDbEntity
  8
0
  6
SLD-Durchgehend
 62
   131
420
  8454143
370
    40
100
AcDbSpline
210
0.0
220
0.0
230
1.0
 70
     8
 71
     3
 72
    22
 73
    18
 74
     0
 42
0.00000001
 43
0.00000001
 12
1.0
 22
0.0
 32
0.0
 13
1.0
 23
0.0
 33
0.0
 40
0.0
 40
0.0
 40
0.0
 40
0.0
 40
0.125
 40
0.125
 40
0.25
 40
0.25
 40
0.375
 40
0.375
 40
0.5
 40
0.5
 40
0.625
 40
0.625
 40
0.75
 40
0.75
 40
0.875
 40
0.875
 40
1.0
 40
1.0
 40
1.0
 40
1.0
 10
5.490337548989573
 20
17.66476740841959
 30
0.0
 10
5.240393958821977
 20
17.69859850015914
 30
0.0
 10
4.991138616202837
 20
17.70673688650785
 30
0.0
 10
4.493951076173101
 20
17.67365016672528
 30
0.0
 10
4.243321266549224
 20
17.63134773942364
 30
0.0
 10
3.764280458661558
 20
17.49928727556347
 30
0.0
 10
3.534162663516004
 20
17.40998871347881
 30
0.0
 10
3.093079475866534
 20
17.18369634036914
 30
0.0
 10
2.886316374779644
 20
17.04835436677403
 30
0.0
 10
2.510190308966301
 20
16.74116109233212
 30
0.0
 10
2.337288234525234
 20
16.56600959135348
 30
0.0
 10
2.037557520313593
 20
16.18698401070633
 30
0.0
 10
1.910632654321448
 20
15.98424162423585
 30
0.0
 10
1.70267547192678
 20
15.55195454332954
 30
0.0
 10
1.622783959318094
 20
15.32287445867902
 30
0.0
 10
1.517351364057849
 20
14.85999399703446
 30
0.0
 10
1.490337548989563
 20
14.62348487035129
 30
0.0
 10
1.490337548989564
 20
14.3816093497212
 30
0.0
  0
LINE
  5
65
330
1F
100
AcDbEntity
  8
0
  6
SLD-Durchgehend
 62
   131
420
  8454143
370
    40
100
AcDbLine
 10
1.490337549
 20
14.3816093497
 30
0.0
 11
1.490337549
 21
-14.3813101431
 31
0.0
  0
SPLINE
  5
66
330
1F
100
AcDbEntity
  8
0
  6
SLD-Durchgehend
 62
   131
420
  8454143
370
    40
100
AcDbSpline
210
0.0
220
0.0
230
1.0
 70
     8
 71
     3
 72
    22
 73
    18
 74
     0
 42
0.00000001
 43
0.00000001
 12
1.0
 22
0.0
 32
0.0
 13
1.0
 23
0.0
 33
0.0
 40
0.0
 40
0.0
 40
0.0
 40
0.0
 40
0.125
 40
0.125
 40
0.25
 40
0.25
 40
0.375
 40
0.375
 40
0.5
 40
0.5
 40
0.625
 40
0.625
 40
0.75
 40
0.75
 40
0.875
 40
0.875
 40
1.0
 40
1.0
 40
1.0
 40
1.0
 10
1.490337548989564
 20
-14.38131014311342
 30
0.0
 10
1.490337548989563
 20
-14.62318443692996
 30
0.0
 10
1.517353296463139
 20
-14.86008769632774
 30
0.0
 10
1.623291604001776
 20
-15.32441768615729
 30
0.0
 10
1.703734527317478
 20
-15.55421757005545
 30
0.0
 10
1.911408756713932
 20
-15.98519177987214
 30
0.0
 10
2.038395493854436
 20
-16.18804114997074
 30
0.0
 10
2.339578177164004
 20
-16.56830635799027
 30
0.0
 10
2.511468882537461
 20
-16.74206559138281
 30
0.0
 10
2.887747560329647
 20
-17.04906344213756
 30
0.0
 10
3.096106609055405
 20
-17.18514831187198
 30
0.0
 10
3.535682571056131
 20
-17.41026907207572
 30
0.0
 10
3.765672141002558
 20
-17.49952252877433
 30
0.0
 10
4.246078299859161
 20
-17.63165646978443
 30
0.0
 10
4.495907345291562
 20
-17.67355982496013
 30
0.0
 10
4.99154031244858
 20
-17.70638535716985
 30
0.0
 10
5.240394187571503
 20
-17.69829926258897
 30
0.0
 10
5.490337548989563
 20
-17.6644682018118
 30
0.0
  0
SPLINE
  5
67
330
1F
100
AcDbEntity
  8
0
  6
SLD-Durchgehend
 62
   131
420
  8454143
370
    40
100
AcDbSpline
210
0.0
220
0.0
230
1.0
 70
     8
 71
     3
 72
    22
 73
    18
 74
     0
 42
0.00000001
 43
0.00000001
 12
1.0
 22
0.0
 32
0.0
 13
1.0
 23
0.0
 33
0.0
 40
0.0
 40
0.0
 40
0.0
 40
0.0
 40
0.1250000000000002
 40
0.1250000000000002
 40
0.2500000000000005
 40
0.2500000000000005
 40
0.3750000000000008
 40
0.3750000000000008
 40
0.5000000000000006
 40
0.5000000000000006
 40
0.6250000000000004
 40
0.6250000000000004
 40
0.7500000000000003
 40
0.7500000000000003
 40
0.8750000000000002
 40
0.8750000000000002
 40
1.0
 40
1.0
 40
1.0
 40
1.0
 10
5.490337548989563
 20
-17.66446820181181
 30
0.0
 10
5.74028113915716
 20
-17.69829929355135
 30
0.0
 10
5.989536481776299
 20
-17.70643767990006
 30
0.0
 10
6.486724021806033
 20
-17.67335096011749
 30
0.0
 10
6.73735383142991
 20
-17.63104853281584
 30
0.0
 10
7.216394639317574
 20
-17.49898806895569
 30
0.0
 10
7.44651243446313
 20
-17.40968950687101
 30
0.0
 10
7.887595622112596
 20
-17.18339713376135
 30
0.0
 10
8.094358723199491
 20
-17.04805516016624
 30
0.0
 10
8.470484789012835
 20
-16.74086188572432
 30
0.0
 10
8.6433868634539
 20
-16.56571038474569
 30
0.0
 10
8.94311757766554
 20
-16.18668480409853
 30
0.0
 10
9.070042443657684
 20
-15.98394241762805
 30
0.0
 10
9.277999626052353
 20
-15.55165533672176
 30
0.0
 10
9.357891138661037
 20
-15.32257525207123
 30
0.0
 10
9.463323733921275
 20
-14.85969479042667
 30
0.0
 10
9.490337548989569
 20
-14.6231856637435
 30
0.0
 10
9.490337548989563
 20
-14.38131014311342
 30
0.0
  0
LINE
  5
68
330
1F
100
AcDbEntity
  8
0
  6
SLD-Durchgehend
 62
   131
420
  8454143
370
    40
100
AcDbLine
 10
9.490337549
 20
-14.3813101431
 30
0.0
 11
9.490337549
 21
14.3816093497
 31
0.0
  0
SPLINE
  5
69
330
1F
100
AcDbEntity
  8
0
  6
SLD-Durchgehend
 62
   131
420
  8454143
370
    40
100
AcDbSpline
210
0.0
220
0.0
230
1.0
 70
     8
 71
     3
 72
    22
 73
    18
 74
     0
 42
0.00000001
 43
0.00000001
 12
1.0
 22
0.0
 32
0.0
 13
1.0
 23
0.0
 33
0.0
 40
0.0
 40
0.0
 40
0.0
 40
0.0
 40
0.1249999999999998
 40
0.1249999999999998
 40
0.2499999999999997
 40
0.2499999999999997
 40
0.3749999999999995
 40
0.3749999999999995
 40
0.4999999999999993
 40
0.4999999999999993
 40
0.6249999999999991
 40
0.6249999999999991
 40
0.7499999999999994
 40
0.7499999999999994
 40
0.8749999999999997
 40
0.8749999999999997
 40
1.0
 40
1.0
 40
1.0
 40
1.0
 10
9.490337548989563
 20
14.3816093497212
 30
0.0
 10
9.490337548989565
 20
14.62348364353774
 30
0.0
 10
9.463321801515988
 20
14.86038690293553
 30
0.0
 10
9.35738349397735
 20
15.32471689276507
 30
0.0
 10
9.276940570661653
 20
15.55451677666323
 30
0.0
 10
9.069266341265196
 20
15.98549098647991
 30
0.0
 10
8.942279604124696
 20
16.18834035657853
 30
0.0
 10
8.64109692081513
 20
16.56860556459806
 30
0.0
 10
8.469206215441679
 20
16.74236479799059
 30
0.0
 10
8.092927537649487
 20
17.04936264874533
 30
0.0
 10
7.884568488923732
 20
17.18544751847977
 30
0.0
 10
7.444992526923007
 20
17.4105682786835
 30
0.0
 10
7.215002956976579
 20
17.49982173538211
 30
0.0
 10
6.734596798119977
 20
17.63195567639223
 30
0.0
 10
6.484767752687576
 20
17.67385903156791
 30
0.0
 10
5.989134785530556
 20
17.70668456377763
 30
0.0
 10
5.740280910407637
 20
17.69859846919676
 30
0.0
 10
5.490337548989573
 20
17.6647674084196
 30
0.0
  0
LINE
  5
6A
330
1F
100
AcDbEntity
  8
0
  6
SLD-Durchgehend
 62
   131
420
  8454143
370
    40
100
AcDbLine
 10
-0.009662451
 20
50.0001496033
 30
0.0
 11
-0.009662451
 21
-49.9998503967
 31
0.0
  0
LINE
  5
6B
330
1F
100
AcDbEntity
  8
0
  6
SLD-Durchgehend
 62
   131
420
  8454143
370
    40
100
AcDbLine
 10
18.115337549
 20
31.5001496033
 30
0.0
 11
18.115337549
 21
-46.3346276131
 31
0.0
  0
SPLINE
  5
6C
330
1F
100
AcDbEntity
  8
0
  6
SLD-Durchgehend
 62
   131
420
  8454143
370
    40
100
AcDbSpline
210
0.0
220
0.0
230
1.0
 70
     8
 71
     3
 72
     8
 73
     4
 74
     0
 42
0.00000001
 43
0.00000001
 12
1.0
 22
0.0
 32
0.0
 13
1.0
 23
0.0
 33
0.0
 40
0.0
 40
0.0
 40
0.0
 40
0.0
 40
0.002799763154957
 40
0.002799763154957
 40
0.002799763154957
 40
0.002799763154957
 10
18.11533754898959
 20
-46.33462761313482
 30
0.0
 10
17.65827049165707
 20
-47.14829428456534
 30
0.0
 10
17.20071622429728
 20
-47.96168741327002
 30
0.0
 10
16.7427422819175
 20
-48.7748439881045
 30
0.0
  0
SPLINE
  5
6D
330
1F
100
AcDbEntity
  8
0
  6
SLD-Durchgehend
 62
   131
420
  8454143
370
    40
100
AcDbSpline
210
0.0
220
0.0
230
1.0
 70
    24
 71
     3
 72
     8
 73
     4
 74
     0
 42
0.00000001
 43
0.00000001
 12
1.0
 22
0.0
 32
0.0
 13
1.0
 23
0.0
 33
0.0
 40
0.0
 40
0.0
 40
0.0
 40
0.0
 40
1.0
 40
1.0
 40
1.0
 40
1.0
 10
16.74274228163976
 20
31.5001496033039
 30
0.0
 10
17.2067672318401
 20
31.5001496033039
 30
0.0
 10
17.66466190814452
 20
31.5001496033039
 30
0.0
 10
18.11533754898959
 20
31.5001496033039
 30
0.0
  0
LINE
  5
6E
330
1F
100
AcDbEntity
  8
0
  6
SLD-Durchgehend
 62
   131
420
  8454143
370
    40
100
AcDbLine
 10
28.990337549
 20
-48.7748439897
 30
0.0
 11
23.2379328132
 21
-48.7748439897
 31
0.0
  0
LINE
  5
6F
330
1F
100
AcDbEntity
  8
0
  6
SLD-Durchgehend
 62
   131
420
  8454143
370
    40
100
AcDbLine
 10
23.2379328132
 20
31.5001496033
 30
0.0
 11
23.2379328132
 21
-48.7748439897
 31
0.0
  0
LINE
  5
70
330
1F
100
AcDbEntity
  8
0
  6
SLD-Durchgehend
 62
   131
420
  8454143
370
    40
100
AcDbLine
 10
23.2379328132
 20
31.5001496033
 30
0.0
 11
28.990337549
 21
31.5001496033
 31
0.0
  0
LINE
  5
71
330
1F
100
AcDbEntity
  8
0
  6
SLD-Durchgehend
 62
   131
420
  8454143
370
    40
100
AcDbLine
 10
28.990337549
 20
31.5001496033
 30
0.0
 11
28.990337549
 21
-48.7748439897
 31
0.0
  0
LINE
  5
72
330
1F
100
AcDbEntity
  8
0
  6
SLD-Durchgehend
 62
   131
420
  8454143
370
    40
100
AcDbLine
 10
21.865337549
 20
31.5001496033
 30
0.0
 11
21.865337549
 21
-46.3346276165
 31
0.0
  0
SPLINE
  5
73
330
1F
100
AcDbEntity
  8
0
  6
SLD-Durchgehend
 62
   131
420
  8454143
370
    40
100
AcDbSpline
210
0.0
220
0.0
230
1.0
 70
    24
 71
     3
 72
     8
 73
     4
 74
     0
 42
0.00000001
 43
0.00000001
 12
1.0
 22
0.0
 32
0.0
 13
1.0
 23
0.0
 33
0.0
 40
0.0
 40
0.0
 40
0.0
 40
0.0
 40
1.0
 40
1.0
 40
1.0
 40
1.0
 10
21.86533754579543
 20
31.5001496033039
 30
0.0
 10
22.31601318612041
 20
31.5001496033039
 30
0.0
 10
22.77390786351748
 20
31.5001496033039
 30
0.0
 10
23.23793281318128
 20
31.5001496033039
 30
0.0
  0
SPLINE
  5
74
330
1F
100
AcDbEntity
  8
0
  6
SLD-Durchgehend
 62
   131
420
  8454143
370
    40
100
AcDbSpline
210
0.0
220
0.0
230
1.0
 70
     8
 71
     3
 72
     8
 73
     4
 74
     0
 42
0.00000001
 43
0.00000001
 12
1.0
 22
0.0
 32
0.0
 13
1.0
 23
0.0
 33
0.0
 40
0.0
 40
0.0
 40
0.0
 40
0.0
 40
0.0027997631520153
 40
0.0027997631520153
 40
0.0027997631520153
 40
0.0027997631520153
 10
23.23793281318127
 20
-48.77484398972491
 30
0.0
 10
22.77995887080086
 20
-47.9616874148906
 30
0.0
 10
22.32240460344039
 20
-47.14829428618614
 30
0.0
 10
21.86533754610715
 20
-46.33462761475585
 30
0.0
  0
LINE
  5
75
330
1F
100
AcDbEntity
  8
0
  6
SLD-Durchgehend
 62
   131
420
  8454143
370
    40
100
AcDbLine
 10
1.490337549
 20
14.2953205912
 30
0.0
 11
9.490337549
 21
14.2953205912
 31
0.0
  0
LINE
  5
76
330
1F
100
AcDbEntity
  8
0
  6
SLD-Durchgehend
 62
   131
420
  8454143
370
    40
100
AcDbLine
 10
1.490337549
 20
-14.2950213846
 30
0.0
 11
9.490337549
 21
-14.2950213846
 31
0.0
  0
LINE
  5
77
330
1F
100
AcDbEntity
  8
0
  6
SLD-Durchgehend
 62
   131
420
  8454143
370
    40
100
AcDbLine
 10
5.490337549
 20
17.6130356716
 30
0.0
 11
5.490337549
 21
17.6647674084
 31
0.0
  0
ARC
  5
78
330
1F
100
AcDbEntity
  8
0
  6
SLD-Durchgehend
 62
   131
420
  8454143
370
    40
100
AcDbCircle
 10
4.9410133654
 20
14.2051722268
 30
0.0
 40
3.451853171465551
100
AcDbArc
 50
80.84308043040001
 51
178.5034971437
  0
LINE
  5
79
330
1F
100
AcDbEntity
  8
0
  6
SLD-Durchgehend
 62
   131
420
  8454143
370
    40
100
AcDbLine
 10
5.490337549
 20
-17.6644682018
 30
0.0
 11
5.490337549
 21
-17.612736465
 31
0.0
  0
ARC
  5
7A
330
1F
100
AcDbEntity
  8
0
  6
SLD-Durchgehend
 62
   131
420
  8454143
370
    40
100
AcDbCircle
 10
6.0396617326
 20
-14.2048730202
 30
0.0
 40
3.451853171465548
100
AcDbArc
 50
260.8430804304001
 51
358.5034971437
  0
ARC
  5
7B
330
1F
100
AcDbEntity
  8
0
  6
SLD-Durchgehend
 62
   131
420
  8454143
370
    40
100
AcDbCircle
 10
6.0396617326
 20
14.2051722268
 30
0.0
 40
3.451853171465711
100
AcDbArc
 50
1.4965028563
 51
99.15691956960002
  0
ARC
  5
7C
330
1F
100
AcDbEntity
  8
0
  6
SLD-Durchgehend
 62
   131
420
  8454143
370
    40
100
AcDbCircle
 10
4.9410133654
 20
-14.2048730202
 30
0.0
 40
3.451853171465713
100
AcDbArc
 50
181.4965028563
 51
279.1569195696001
  0
LINE
  5
7D
330
1F
100
AcDbEntity
  8
0
  6
SLD-Durchgehend
 62
   131
420
  8454143
370
    40
100
AcDbLine
 10
20.865337549
 20
31.5001496033
 30
0.0
 11
20.865337549
 21
-44.665273265
 31
0.0
  0
SPLINE
  5
7E
330
1F
100
AcDbEntity
  8
0
  6
SLD-Durchgehend
 62
   131
420
  8454143
370
    40
100
AcDbSpline
210
0.0
220
0.0
230
1.0
 70
    24
 71
     3
 72
    14
 73
    10
 74
     0
 42
0.00000001
 43
0.00000001
 12
1.0
 22
0.0
 32
0.0
 13
1.0
 23
0.0
 33
0.0
 40
0.0
 40
0.0
 40
0.0
 40
0.0
 40
0.25
 40
0.25
 40
0.5
 40
0.5
 40
0.75
 40
0.75
 40
1.0
 40
1.0
 40
1.0
 40
1.0
 10
20.86533754898966
 20
31.5001496033039
 30
0.0
 10
21.02261103409239
 20
31.5001496033039
 30
0.0
 10
21.17439698113407
 20
31.5001496033039
 30
0.0
 10
21.43296315255738
 20
31.50014960330387
 30
0.0
 10
21.53894531900578
 20
31.5001496033039
 30
0.0
 10
21.7059906483991
 20
31.5001496033039
 30
0.0
 10
21.76522053615927
 20
31.5001496033039
 30
0.0
 10
21.84567395380894
 20
31.5001496033039
 30
0.0
 10
21.86533754898956
 20
31.5001496033039
 30
0.0
 10
21.86533754898957
 20
31.5001496033039
 30
0.0
  0
SPLINE
  5
7F
330
1F
100
AcDbEntity
  8
0
  6
SLD-Durchgehend
 62
   131
420
  8454143
370
    40
100
AcDbSpline
210
0.0
220
0.0
230
1.0
 70
     8
 71
     3
 72
    12
 73
     8
 74
     0
 42
0.00000001
 43
0.00000001
 12
1.0
 22
0.0
 32
0.0
 13
1.0
 23
0.0
 33
0.0
 40
0.0
 40
0.0
 40
0.0
 40
0.0
 40
0.2499999999999989
 40
0.2499999999999989
 40
0.4999999999999978
 40
0.4999999999999978
 40
1.0
 40
1.0
 40
1.0
 40
1.0
 10
21.86533754898957
 20
-45.69448903187961
 30
0.0
 10
21.86533754898958
 20
-45.56052044283243
 30
0.0
 10
21.8402124595272
 20
-45.42922689919863
 30
0.0
 10
21.74197624011854
 20
-45.18172579282867
 30
0.0
 10
21.66933150212881
 20
-45.06806301895694
 30
0.0
 10
21.39444740417593
 20
-44.78081857640767
 30
0.0
 10
21.13350059212801
 20
-44.66527326495071
 30
0.0
 10
20.86533754898957
 20
-44.66527326495069
 30
0.0
  0
SPLINE
  5
80
330
1F
100
AcDbEntity
  8
0
  6
SLD-Durchgehend
 62
   131
420
  8454143
370
    40
100
AcDbSpline
210
0.0
220
0.0
230
1.0
 70
    24
 71
     3
 72
    14
 73
    10
 74
     0
 42
0.00000001
 43
0.00000001
 12
1.0
 22
0.0
 32
0.0
 13
1.0
 23
0.0
 33
0.0
 40
0.0
 40
0.0
 40
0.0
 40
0.0
 40
0.25
 40
0.25
 40
0.5
 40
0.5
 40
0.75
 40
0.75
 40
1.0
 40
1.0
 40
1.0
 40
1.0
 10
18.11533754898957
 20
31.5001496033039
 30
0.0
 10
18.11533754898957
 20
31.5001496033039
 30
0.0
 10
18.13483322388758
 20
31.5001496033039
 30
0.0
 10
18.21503485927648
 20
31.50014960330387
 30
0.0
 10
18.27476879710851
 20
31.5001496033039
 30
0.0
 10
18.44084468594886
 20
31.5001496033039
 30
0.0
 10
18.54718442705809
 20
31.5001496033039
 30
0.0
 10
18.8060899351906
 20
31.5001496033039
 30
0.0
 10
18.95809550805789
 20
31.5001496033039
 30
0.0
 10
19.11533754898957
 20
31.5001496033039
 30
0.0
  0
LINE
  5
81
330
1F
100
AcDbEntity
  8
0
  6
SLD-Durchgehend
 62
   131
420
  8454143
370
    40
100
AcDbLine
 10
19.115337549
 20
31.5001496033
 30
0.0
 11
19.115337549
 21
-44.665273265
 31
0.0
  0
SPLINE
  5
82
330
1F
100
AcDbEntity
  8
0
  6
SLD-Durchgehend
 62
   131
420
  8454143
370
    40
100
AcDbSpline
210
0.0
220
0.0
230
1.0
 70
     8
 71
     3
 72
    14
 73
    10
 74
     0
 42
0.00000001
 43
0.00000001
 12
1.0
 22
0.0
 32
0.0
 13
1.0
 23
0.0
 33
0.0
 40
0.0
 40
0.0
 40
0.0
 40
0.0
 40
0.25
 40
0.25
 40
0.5
 40
0.5
 40
0.75
 40
0.75
 40
1.0
 40
1.0
 40
1.0
 40
1.0
 10
19.11533754898957
 20
-44.66527326495069
 30
0.0
 10
18.9813286324455
 20
-44.66527326495071
 30
0.0
 10
18.84974329703979
 20
-44.69297653288537
 30
0.0
 10
18.60606059164244
 20
-44.79843555018508
 30
0.0
 10
18.49494266406713
 20
-44.87634332281315
 30
0.0
 10
18.31199066615262
 20
-45.06725255655363
 30
0.0
 10
18.23877259206713
 20
-45.1818467320515
 30
0.0
 10
18.14104858806334
 20
-45.42744598615533
 30
0.0
 10
18.11533754898957
 20
-45.56058451896676
 30
0.0
 10
18.11533754898957
 20
-45.69448903187951
 30
0.0
  0
LINE
  5
83
330
1F
100
AcDbEntity
  8
0
  6
SLD-Durchgehend
 62
   131
420
  8454143
370
    40
100
AcDbLine
 10
20.865337549
 20
31.5001496033
 30
0.0
 11
19.115337549
 21
31.5001496033
 31
0.0
  0
LINE
  5
84
330
1F
100
AcDbEntity
  8
0
  6
SLD-Durchgehend
 62
   131
420
  8454143
370
    40
100
AcDbLine
 10
19.115337549
 20
-44.665273265
 30
0.0
 11
20.865337549
 21
-44.665273265
 31
0.0
  0
LINE
  5
85
330
1F
100
AcDbEntity
  8
0
  6
SLD-Durchgehend
 62
   131
420
  8454143
370
    40
100
AcDbLine
 10
53.9963666537
 20
-43.7998503967
 30
0.0
 11
53.9963666537
 21
-43.6565188721
 31
0.0
  0
ELLIPSE
  5
86
330
1F
100
AcDbEntity
  8
0
  6
SLD-Durchgehend
 62
   131
420
  8454143
370
    40
100
AcDbEllipse
 10
78.2297767793
 20
0.0001496033
 30
0.0
 11
-42.51868882934591
 21
43.76665848544208
 31
0.0
210
0.0
220
0.0
230
1.0
 40
0.0401866854
 41
5.680719687066089
 42
6.244164328473243
  0
ELLIPSE
  5
87
330
1F
100
AcDbEntity
  8
0
  6
SLD-Durchgehend
 62
   131
420
  8454143
370
    40
100
AcDbEllipse
 10
242.4000695368
 20
0.0001496033
 30
0.0
 11
509.1600112106422
 21
7.185230958440833
 31
0.0
210
0.0
220
0.0
230
1.0
 40
0.0848586381
 41
1.969449762468984
 42
1.97981264960204
  0
ELLIPSE
  5
88
330
1F
100
AcDbEntity
  8
0
  6
SLD-Durchgehend
 62
   131
420
  8454143
370
    40
100
AcDbEllipse
 10
44.562148908
 20
0.0001496033
 30
0.0
 11
1.8565378108405
 21
43.79692716419144
 31
0.0
210
0.0
220
0.0
230
1.0
 40
0.27945399
 41
0.5856529402269989
 42
2.908058692362432
  0
ELLIPSE
  5
89
330
1F
100
AcDbEntity
  8
0
  6
SLD-Durchgehend
 62
   131
420
  8454143
370
    40
100
AcDbEllipse
 10
242.4000695368
 20
0.0001496033
 30
0.0
 11
509.1600112106422
 21
7.185230958440833
 31
0.0
210
0.0
220
0.0
230
1.0
 40
0.0848586381
 41
4.302218401737493
 42
4.309622485335625
  0
ELLIPSE
  5
8A
330
1F
100
AcDbEntity
  8
0
  6
SLD-Durchgehend
 62
   131
420
  8454143
370
    40
100
AcDbEllipse
 10
84.2230472452
 20
0.0001496033
 30
0.0
 11
49.34155845236165
 21
36.8417176097411
 31
0.0
210
0.0
220
0.0
230
0.9999999999999999
 40
0.4800849007
 41
3.475035041643108
 42
3.620223144706623
  0
ELLIPSE
  5
8B
330
1F
100
AcDbEntity
  8
0
  6
SLD-Durchgehend
 62
   131
420
  8454143
370
    40
100
AcDbEllipse
 10
135.0450140484
 20
0.0001496033
 30
0.0
 11
464.7643925648795
 21
4.163505380357201
 31
0.0
210
0.0
220
0.0
230
1.0
 40
0.0938145565
 41
4.524400854326361
 42
4.536265910434556
  0
LINE
  5
8C
330
1F
100
AcDbEntity
  8
0
  6
SLD-Durchgehend
 62
   131
420
  8454143
370
    40
100
AcDbLine
 10
39.9236425836
 20
-42.4878317275
 30
0.0
 11
39.3441429908
 21
36.7851509359
 31
0.0
  0
LINE
  5
8D
330
1F
100
AcDbEntity
  8
0
  6
SLD-Durchgehend
 62
   131
420
  8454143
370
    40
100
AcDbLine
 10
14.630337549
 20
31.5001496033
 30
0.0
 11
14.630337549
 21
38.829906234
 31
0.0
  0
SPLINE
  5
8E
330
1F
100
AcDbEntity
  8
0
  6
SLD-Durchgehend
 62
   131
420
  8454143
370
    40
100
AcDbSpline
210
0.0
220
0.0
230
1.0
 70
     8
 71
     3
 72
    27
 73
    23
 74
     0
 42
0.00000001
 43
0.00000001
 12
1.0
 22
0.0
 32
0.0
 13
1.0
 23
0.0
 33
0.0
 40
0.0
 40
0.0
 40
0.0
 40
0.0
 40
0.009055434758836
 40
0.0634715012334789
 40
0.1159740172900608
 40
0.1699780981373894
 40
0.2228743741211086
 40
0.2772652846179179
 40
0.330791992551624
 40
0.3858954223709176
 40
0.4389052721348957
 40
0.4935264444062742
 40
0.5452761420878955
 40
0.5985639440083752
 40
0.6497433927634463
 40
0.7023723425264233
 40
0.754183310232696
 40
0.8074315207017625
 40
0.8603935108316598
 40
0.9148659602741585
 40
0.9682534093836368
 40
1.0
 40
1.0
 40
1.0
 40
1.0
 10
-8.599972024046975
 20
37.57508522268234
 30
0.0
 10
-8.596010135890097
 20
37.57597654156743
 30
0.0
 10
-8.568240404702905
 20
37.5822239884567
 30
0.0
 10
-8.692203500069521
 20
37.55420667476403
 30
0.0
 10
-8.980183218676883
 20
37.49067284838561
 30
0.0
 10
-9.448264051130627
 20
37.39193824016932
 30
0.0
 10
-10.07342583049824
 20
37.26929011679575
 30
0.0
 10
-10.83718061017347
 20
37.13353350355666
 30
0.0
 10
-11.73236222367959
 20
36.99456184974398
 30
0.0
 10
-12.71811312983152
 20
36.86703258411418
 30
0.0
 10
-13.78050966046538
 20
36.7598263586716
 30
0.0
 10
-14.86046542612804
 20
36.6832927614105
 30
0.0
 10
-15.94824725788622
 20
36.63947233977176
 30
0.0
 10
-16.98822914286871
 20
36.62879625670466
 30
0.0
 10
-17.97863019874966
 20
36.64704058835551
 30
0.0
 10
-18.87884306644537
 20
36.68761654100796
 30
0.0
 10
-19.68402538234638
 20
36.74322638913005
 30
0.0
 10
-20.36197800969286
 20
36.80412699676473
 30
0.0
 10
-20.90347800797301
 20
36.86202949560288
 30
0.0
 10
-21.27107589168671
 20
36.90596169977375
 30
0.0
 10
-21.46402680892561
 20
36.93057436298362
 30
0.0
 10
-21.45606027170084
 20
36.92956713235706
 30
0.0
 10
-21.45308953993809
 20
36.92919153478809
 30
0.0
  0
SPLINE
  5
8F
330
1F
100
AcDbEntity
  8
0
  6
SLD-Durchgehend
 62
   131
420
  8454143
370
    40
100
AcDbSpline
210
0.0
220
0.0
230
1.0
 70
     8
 71
     3
 72
    27
 73
    23
 74
     0
 42
0.00000001
 43
0.00000001
 12
1.0
 22
0.0
 32
0.0
 13
1.0
 23
0.0
 33
0.0
 40
0.0
 40
0.0
 40
0.0
 40
0.0
 40
0.0335859656459676
 40
0.0869293402059978
 40
0.1418183203661135
 40
0.1951809938949359
 40
0.2500955343405509
 40
0.3034077234139927
 40
0.3583232347180072
 40
0.4106286817839611
 40
0.4645083275315469
 40
0.5158642349689633
 40
0.5687157973365223
 40
0.6200184414767037
 40
0.6727472063041606
 40
0.7251931655338101
 40
0.7791016666241446
 40
0.8325614189806699
 40
0.8875776836394418
 40
0.9408590476089991
 40
0.9957228816236824
 40
1.0
 40
1.0
 40
1.0
 40
1.0
 10
-21.45370809475763
 20
-36.92897160667301
 30
0.0
 10
-21.45574903997905
 20
-36.92922673121808
 30
0.0
 10
-21.4610315446825
 20
-36.92988706085122
 30
0.0
 10
-21.26097531147104
 20
-36.90440465082064
 30
0.0
 10
-20.88477701619193
 20
-36.85957825274944
 30
0.0
 10
-20.3277354710764
 20
-36.8003817965249
 30
0.0
 10
-19.6250667602073
 20
-36.73806370877122
 30
0.0
 10
-18.78020813689334
 20
-36.68148979654504
 30
0.0
 10
-17.83845279585255
 20
-36.64218551594557
 30
0.0
 10
-16.81129817575636
 20
-36.62799442369627
 30
0.0
 10
-15.75555221616556
 20
-36.64450019674294
 30
0.0
 10
-14.6773813955231
 20
-36.6939064203541
 30
0.0
 10
-13.62800366010638
 20
-36.77332644207491
 30
0.0
 10
-12.6110711921192
 20
-36.87964485845165
 30
0.0
 10
-11.66446302964515
 20
-37.00427746104882
 30
0.0
 10
-10.79705595868874
 20
-37.14005227860078
 30
0.0
 10
-10.04342328714696
 20
-37.27463077526386
 30
0.0
 10
-9.420406761895405
 20
-37.39730584287819
 30
0.0
 10
-8.954060912311267
 20
-37.49603367175704
 30
0.0
 10
-8.677223645860126
 20
-37.5572839894545
 30
0.0
 10
-8.562248319771689
 20
-37.58326852588187
 30
0.0
 10
-8.591843339249133
 20
-37.57661686115818
 30
0.0
 10
-8.59398367342599
 20
-37.57613580773796
 30
0.0
  0
LINE
  5
90
330
1F
100
AcDbEntity
  8
0
  6
SLD-Durchgehend
 62
   131
420
  8454143
370
    40
100
AcDbLine
 10
-35.009662451
 20
-33.9316051411
 30
0.0
 11
-35.009662451
 21
-36.2538593603
 31
0.0
  0
SPLINE
  5
91
330
1F
100
AcDbEntity
  8
0
  6
SLD-Durchgehend
 62
   131
420
  8454143
370
    40
100
AcDbSpline
210
0.0
220
0.0
230
1.0
 70
     8
 71
     3
 72
    14
 73
    10
 74
     0
 42
0.00000001
 43
0.00000001
 12
1.0
 22
0.0
 32
0.0
 13
1.0
 23
0.0
 33
0.0
 40
0.0
 40
0.0
 40
0.0
 40
0.0
 40
0.25
 40
0.25
 40
0.5
 40
0.5
 40
0.75
 40
0.75
 40
1.0
 40
1.0
 40
1.0
 40
1.0
 10
-36.16852425888558
 20
-31.88322521349993
 30
0.0
 10
-36.14625627216692
 20
-32.08331155542842
 30
0.0
 10
-36.01925057912124
 20
-32.26983864273224
 30
0.0
 10
-35.74615053568273
 20
-32.63084831220625
 30
0.0
 10
-35.59729905762118
 20
-32.80486441996629
 30
0.0
 10
-35.33683268182082
 20
-33.14328350791305
 30
0.0
 10
-35.22324047273064
 20
-33.30755942823333
 30
0.0
 10
-35.06018969604809
 20
-33.62673132867494
 30
0.0
 10
-35.00966245081747
 20
-33.78159252140146
 30
0.0
 10
-35.00966245101024
 20
-33.93160514288938
 30
0.0
  0
SPLINE
  5
92
330
1F
100
AcDbEntity
  8
0
  6
SLD-Durchgehend
 62
   131
420
  8454143
370
    40
100
AcDbSpline
210
0.0
220
0.0
230
1.0
 70
     8
 71
     3
 72
    18
 73
    14
 74
     0
 42
0.00000001
 43
0.00000001
 12
1.0
 22
0.0
 32
0.0
 13
1.0
 23
0.0
 33
0.0
 40
0.0
 40
0.0
 40
0.0
 40
0.0
 40
0.031249999999998
 40
0.031249999999998
 40
0.062499999999996
 40
0.062499999999996
 40
0.124999999999994
 40
0.124999999999994
 40
0.2499999999999938
 40
0.2499999999999938
 40
0.4999999999999952
 40
0.4999999999999952
 40
1.0
 40
1.0
 40
1.0
 40
1.0
 10
-37.00966246010197
 20
-30.57412678874417
 30
0.0
 10
-36.98284628554178
 20
-30.56746856676216
 30
0.0
 10
-36.95343391598581
 20
-30.56349190417302
 30
0.0
 10
-36.8932877732616
 20
-30.56370895775879
 30
0.0
 10
-36.86263655107075
 20
-30.56802180700164
 30
0.0
 10
-36.77859213371307
 20
-30.59011910676707
 30
0.0
 10
-36.73315316006934
 20
-30.61526185885842
 30
0.0
 10
-36.61937266430589
 20
-30.69449720936867
 30
0.0
 10
-36.56738859431979
 20
-30.75526808724144
 30
0.0
 10
-36.43480931323422
 20
-30.93502389992495
 30
0.0
 10
-36.3781340769098
 20
-31.05811453288222
 30
0.0
 10
-36.23956816937559
 20
-31.42106166159665
 30
0.0
 10
-36.19380324482103
 20
-31.65608389737237
 30
0.0
 10
-36.16852425888565
 20
-31.88322521349993
 30
0.0
  0
SPLINE
  5
93
330
1F
100
AcDbEntity
  8
0
  6
SLD-Durchgehend
 62
   131
420
  8454143
370
    40
100
AcDbSpline
210
0.0
220
0.0
230
1.0
 70
     8
 71
     3
 72
    12
 73
     8
 74
     0
 42
0.00000001
 43
0.00000001
 12
1.0
 22
0.0
 32
0.0
 13
1.0
 23
0.0
 33
0.0
 40
0.0
 40
0.0
 40
0.0
 40
0.0
 40
0.2499999999999996
 40
0.2499999999999996
 40
0.4999999999999983
 40
0.4999999999999983
 40
1.0
 40
1.0
 40
1.0
 40
1.0
 10
-39.86983419796164
 20
-31.71796222759436
 30
0.0
 10
-39.73741402417496
 20
-31.58108180452093
 30
0.0
 10
-39.55095230738698
 20
-31.46239160734489
 30
0.0
 10
-39.12397492803494
 20
-31.2432056210062
 30
0.0
 10
-38.88122975524733
 20
-31.14310670516929
 30
0.0
 10
-38.12577028927559
 20
-30.86884232698617
 30
0.0
 10
-37.57748721765067
 20
-30.71511270270677
 30
0.0
 10
-37.00966246010228
 20
-30.57412678874386
 30
0.0
  0
SPLINE
  5
94
330
1F
100
AcDbEntity
  8
0
  6
SLD-Durchgehend
 62
   131
420
  8454143
370
    40
100
AcDbSpline
210
0.0
220
0.0
230
1.0
 70
     8
 71
     3
 72
    20
 73
    16
 74
     0
 42
0.00000001
 43
0.00000001
 12
1.0
 22
0.0
 32
0.0
 13
1.0
 23
0.0
 33
0.0
 40
0.0
 40
0.0
 40
0.0
 40
0.0
 40
0.0312500000000009
 40
0.0312500000000009
 40
0.0625000000000018
 40
0.0625000000000018
 40
0.1250000000000025
 40
0.1250000000000025
 40
0.2500000000000021
 40
0.2500000000000021
 40
0.5000000000000012
 40
0.5000000000000012
 40
0.7500000000000007
 40
0.7500000000000007
 40
1.0
 40
1.0
 40
1.0
 40
1.0
 10
-39.86983419796118
 20
-31.71796222759447
 30
0.0
 10
-39.90431977103064
 20
-31.75360936819136
 30
0.0
 10
-39.96199115513943
 20
-31.78069273532834
 30
0.0
 10
-40.08835101513747
 20
-31.82714521942619
 30
0.0
 10
-40.15724734845255
 20
-31.84602649140166
 30
0.0
 10
-40.37176651911582
 20
-31.89671992895088
 30
0.0
 10
-40.52510460172131
 20
-31.92236215599036
 30
0.0
 10
-40.98709779918923
 20
-31.98860890082947
 30
0.0
 10
-41.3041453851327
 20
-32.01909791552622
 30
0.0
 10
-42.2643422911357
 20
-32.09691212334294
 30
0.0
 10
-42.91689713061988
 20
-32.12882670306757
 30
0.0
 10
-44.22251158309826
 20
-32.17932745807276
 30
0.0
 10
-44.87798728894592
 20
-32.19682758871088
 30
0.0
 10
-46.19182993845359
 20
-32.22348184581154
 30
0.0
 10
-46.85025318846259
 20
-32.23247127186225
 30
0.0
 10
-47.50966245197106
 20
-32.23863230054627
 30
0.0
  0
SPLINE
  5
95
330
1F
100
AcDbEntity
  8
0
  6
SLD-Durchgehend
 62
   131
420
  8454143
370
    40
100
AcDbSpline
210
0.0
220
0.0
230
1.0
 70
     8
 71
     3
 72
     8
 73
     4
 74
     0
 42
0.00000001
 43
0.00000001
 12
1.0
 22
0.0
 32
0.0
 13
1.0
 23
0.0
 33
0.0
 40
0.0
 40
0.0
 40
0.0
 40
0.0
 40
1.0
 40
1.0
 40
1.0
 40
1.0
 10
-47.50966244796981
 20
-32.23863230256524
 30
0.0
 10
-47.76364428922308
 20
-32.0692284887653
 30
0.0
 10
-47.977832840853
 20
-31.88817902604314
 30
0.0
 10
-48.10973621786059
 20
-31.68521828005273
 30
0.0
  0
LINE
  5
96
330
1F
100
AcDbEntity
  8
0
  6
SLD-Durchgehend
 62
   131
420
  8454143
370
    40
100
AcDbLine
 10
-48.1097362215
 20
32.246497194
 30
0.0
 11
-48.1097362201
 21
-31.6852182791
 31
0.0
  0
SPLINE
  5
97
330
1F
100
AcDbEntity
  8
0
  6
SLD-Durchgehend
 62
   131
420
  8454143
370
    40
100
AcDbSpline
210
0.0
220
0.0
230
1.0
 70
     8
 71
     3
 72
    12
 73
     8
 74
     0
 42
0.00000001
 43
0.00000001
 12
1.0
 22
0.0
 32
0.0
 13
1.0
 23
0.0
 33
0.0
 40
0.0
 40
0.0
 40
0.0
 40
0.0
 40
0.25
 40
0.25
 40
0.5
 40
0.5
 40
1.0
 40
1.0
 40
1.0
 40
1.0
 10
-42.00966245328962
 20
32.10441059118491
 30
0.0
 10
-42.5128014594639
 20
32.13253189326807
 30
0.0
 10
-43.01829460425915
 20
32.15325589925099
 30
0.0
 10
-44.03173079807374
 20
32.18703797829554
 30
0.0
 10
-44.53972969972281
 20
32.19991975918474
 30
0.0
 10
-46.06619608999996
 20
32.23087061686472
 30
0.0
 10
-47.08708666324219
 20
32.24139231794365
 30
0.0
 10
-48.1097362223521
 20
32.24649719377393
 30
0.0
  0
SPLINE
  5
98
330
1F
100
AcDbEntity
  8
0
  6
SLD-Durchgehend
 62
   131
420
  8454143
370
    40
100
AcDbSpline
210
0.0
220
0.0
230
1.0
 70
     8
 71
     3
 72
    18
 73
    14
 74
     0
 42
0.00000001
 43
0.00000001
 12
1.0
 22
0.0
 32
0.0
 13
1.0
 23
0.0
 33
0.0
 40
0.0
 40
0.0
 40
0.0
 40
0.0
 40
0.2499999999999988
 40
0.2499999999999988
 40
0.4999999999999977
 40
0.4999999999999977
 40
0.7499999999999964
 40
0.7499999999999964
 40
0.8749999999999976
 40
0.8749999999999976
 40
0.9374999999999988
 40
0.9374999999999988
 40
1.0
 40
1.0
 40
1.0
 40
1.0
 10
-40.00966245101024
 20
33.79255750350951
 30
0.0
 10
-40.00966245079641
 20
33.65409582352923
 30
0.0
 10
-40.0607476841323
 20
33.50997371210049
 30
0.0
 10
-40.23852568965848
 20
33.21141822204422
 30
0.0
 10
-40.36665849096956
 20
33.05627043103636
 30
0.0
 10
-40.68030045593566
 20
32.74716060778801
 30
0.0
 10
-40.86396533779097
 20
32.59110754926288
 30
0.0
 10
-41.20228478492844
 20
32.36186950922325
 30
0.0
 10
-41.32447120700447
 20
32.28597112774399
 30
0.0
 10
-41.5437042066668
 20
32.18629436188341
 30
0.0
 10
-41.62446906988328
 20
32.15489060935453
 30
0.0
 10
-41.80752376182727
 20
32.11004687482921
 30
0.0
 10
-41.91075822355404
 20
32.09888266390367
 30
0.0
 10
-42.00966245328962
 20
32.10441059118491
 30
0.0
  0
LINE
  5
99
330
1F
100
AcDbEntity
  8
0
  6
SLD-Durchgehend
 62
   131
420
  8454143
370
    40
100
AcDbLine
 10
-40.009662451
 20
36.0036603595
 30
0.0
 11
-40.009662451
 21
33.7925575025
 31
0.0
  0
SPLINE
  5
9A
330
1F
100
AcDbEntity
  8
0
  6
SLD-Durchgehend
 62
   131
420
  8454143
370
    40
100
AcDbSpline
210
0.0
220
0.0
230
1.0
 70
     8
 71
     3
 72
    12
 73
     8
 74
     0
 42
0.00000001
 43
0.00000001
 12
1.0
 22
0.0
 32
0.0
 13
1.0
 23
0.0
 33
0.0
 40
0.0
 40
0.0
 40
0.0
 40
0.0
 40
0.4999999999999982
 40
0.4999999999999982
 40
0.7499999999999982
 40
0.7499999999999982
 40
1.0
 40
1.0
 40
1.0
 40
1.0
 10
-50.00966245014689
 20
-30.6421247329338
 30
0.0
 10
-50.00966244997132
 20
-30.78637698949068
 30
0.0
 10
-49.93533346659627
 20
-30.87625366759703
 30
0.0
 10
-49.79351560669
 20
-30.89697720802721
 30
0.0
 10
-49.74186673897552
 20
-30.88473724803325
 30
0.0
 10
-49.65399637544359
 20
-30.80692668626011
 30
0.0
 10
-49.61914126862638
 20
-30.74030944228663
 30
0.0
 10
-49.61206181059976
 20
-30.63643995206023
 30
0.0
  0
LINE
  5
9B
330
1F
100
AcDbEntity
  8
0
  6
SLD-Durchgehend
 62
   131
420
  8454143
370
    40
100
AcDbLine
 10
-50.009662451
 20
30.5972549816
 30
0.0
 11
-50.009662451
 21
-30.6421247315
 31
0.0
  0
SPLINE
  5
9C
330
1F
100
AcDbEntity
  8
0
  6
SLD-Durchgehend
 62
   131
420
  8454143
370
    40
100
AcDbSpline
210
0.0
220
0.0
230
1.0
 70
     8
 71
     3
 72
    26
 73
    22
 74
     0
 42
0.00000001
 43
0.00000001
 12
1.0
 22
0.0
 32
0.0
 13
1.0
 23
0.0
 33
0.0
 40
0.0
 40
0.0
 40
0.0
 40
0.0
 40
0.1250000000000077
 40
0.1250000000000077
 40
0.2500000000000154
 40
0.2500000000000154
 40
0.3125000000000159
 40
0.3125000000000159
 40
0.3750000000000165
 40
0.3750000000000165
 40
0.437500000000017
 40
0.437500000000017
 40
0.5000000000000158
 40
0.5000000000000158
 40
0.5625000000000145
 40
0.5625000000000145
 40
0.6250000000000132
 40
0.6250000000000132
 40
0.750000000000009
 40
0.750000000000009
 40
1.0
 40
1.0
 40
1.0
 40
1.0
 10
-48.50966244883218
 20
32.25001240548404
 30
0.0
 10
-48.5872398742767
 20
32.17151867779956
 30
0.0
 10
-48.66490925086588
 20
32.08832788797967
 30
0.0
 10
-48.82240220636025
 20
31.9111602181707
 30
0.0
 10
-48.90223044403948
 20
31.81701038968279
 30
0.0
 10
-49.02748638183591
 20
31.66567297660726
 30
0.0
 10
-49.07031768280105
 20
31.61335933407491
 30
0.0
 10
-49.15987860077579
 20
31.50476447519906
 30
0.0
 10
-49.20611617206634
 20
31.44889994016451
 30
0.0
 10
-49.30846012812847
 20
31.33147254867681
 30
0.0
 10
-49.36739243400967
 20
31.26736306854599
 30
0.0
 10
-49.48392826325436
 20
31.1579194630529
 30
0.0
 10
-49.53845754376125
 20
31.11562690338636
 30
0.0
 10
-49.62629178793056
 20
31.05381154821149
 30
0.0
 10
-49.66306654536182
 20
31.03095442833125
 30
0.0
 10
-49.72792289281157
 20
30.99026803423391
 30
0.0
 10
-49.75622051520341
 20
30.97252214967765
 30
0.0
 10
-49.8333635358693
 20
30.92055739007274
 30
0.0
 10
-49.87461111611395
 20
30.88743294511497
 30
0.0
 10
-49.97468289040946
 20
30.77904196591783
 30
0.0
 10
-50.00966245101045
 20
30.69537077635421
 30
0.0
 10
-50.00966245101044
 20
30.59725498155507
 30
0.0
  0
SPLINE
  5
9D
330
1F
100
AcDbEntity
  8
0
  6
SLD-Durchgehend
 62
   131
420
  8454143
370
    40
100
AcDbSpline
210
0.0
220
0.0
230
1.0
 70
     8
 71
     3
 72
     8
 73
     4
 74
     0
 42
0.00000001
 43
0.00000001
 12
1.0
 22
0.0
 32
0.0
 13
1.0
 23
0.0
 33
0.0
 40
0.0
 40
0.0
 40
0.0
 40
0.0
 40
1.0
 40
1.0
 40
1.0
 40
1.0
 10
-48.50966245101047
 20
32.25001240466626
 30
0.0
 10
-48.38721041835627
 20
32.24943865856814
 30
0.0
 10
-48.25353919327903
 20
32.24721503161343
 30
0.0
 10
-48.10973622149719
 20
32.24649719403019
 30
0.0
  0
SPLINE
  5
9E
330
1F
100
AcDbEntity
  8
0
  6
SLD-Durchgehend
 62
   131
420
  8454143
370
    40
100
AcDbSpline
210
0.0
220
0.0
230
1.0
 70
     8
 71
     3
 72
     8
 73
     4
 74
     0
 42
0.00000001
 43
0.00000001
 12
1.0
 22
0.0
 32
0.0
 13
1.0
 23
0.0
 33
0.0
 40
0.0
 40
0.0
 40
0.0
 40
0.0
 40
1.0
 40
1.0
 40
1.0
 40
1.0
 10
-48.24448079670708
 20
-31.33995488282578
 30
0.0
 10
-48.23252174096429
 20
-31.45802435516784
 30
0.0
 10
-48.18155055331231
 20
-31.57471701216259
 30
0.0
 10
-48.10973622232085
 20
-31.68521827816628
 30
0.0
  0
SPLINE
  5
9F
330
1F
100
AcDbEntity
  8
0
  6
SLD-Durchgehend
 62
   131
420
  8454143
370
    40
100
AcDbSpline
210
0.0
220
0.0
230
1.0
 70
     8
 71
     3
 72
    28
 73
    24
 74
     0
 42
0.00000001
 43
0.00000001
 12
1.0
 22
0.0
 32
0.0
 13
1.0
 23
0.0
 33
0.0
 40
0.0
 40
0.0
 40
0.0
 40
0.0
 40
0.2500000000000003
 40
0.2500000000000003
 40
0.3750000000000016
 40
0.3750000000000016
 40
0.4375000000000033
 40
0.4375000000000033
 40
0.4687500000000046
 40
0.4687500000000046
 40
0.4843750000000049
 40
0.4843750000000049
 40
0.5000000000000052
 40
0.5000000000000052
 40
0.5312500000000049
 40
0.5312500000000049
 40
0.5625000000000047
 40
0.5625000000000047
 40
0.6250000000000041
 40
0.6250000000000041
 40
0.750000000000003
 40
0.750000000000003
 40
1.0
 40
1.0
 40
1.0
 40
1.0
 10
-49.61206181279194
 20
-30.63643994935999
 30
0.0
 10
-49.59639048149523
 20
-30.40651087856445
 30
0.0
 10
-49.5670438382827
 20
-30.18432403805121
 30
0.0
 10
-49.47091663539181
 20
-29.8805441089017
 30
0.0
 10
-49.43091050276004
 20
-29.78322896513991
 30
0.0
 10
-49.33398524121164
 20
-29.66140729237678
 30
0.0
 10
-49.29615861455117
 20
-29.62445866120492
 30
0.0
 10
-49.21405688079789
 20
-29.58891860417251
 30
0.0
 10
-49.18180627024523
 20
-29.57994768890333
 30
0.0
 10
-49.11803520046003
 20
-29.5819592606485
 30
0.0
 10
-49.09403270008995
 20
-29.58541762174775
 30
0.0
 10
-49.04026456358527
 20
-29.60173753873751
 30
0.0
 10
-49.01039921060322
 20
-29.61505421415288
 30
0.0
 10
-48.9246730541165
 20
-29.66578791363057
 30
0.0
 10
-48.87518696413519
 20
-29.71061894027613
 30
0.0
 10
-48.79512025968279
 20
-29.79492021799951
 30
0.0
 10
-48.76173113228094
 20
-29.83716614414706
 30
0.0
 10
-48.67337262312297
 20
-29.95955575172722
 30
0.0
 10
-48.62843014131828
 20
-30.03756663054827
 30
0.0
 10
-48.50935563035416
 20
-30.26755792359232
 30
0.0
 10
-48.45431326261344
 20
-30.41125262290503
 30
0.0
 10
-48.31864882546491
 20
-30.82873856315394
 30
0.0
 10
-48.26986647676502
 20
-31.0893269006124
 30
0.0
 10
-48.24448079543318
 20
-31.33995488292879
 30
0.0
  0
LINE
  5
A0
330
1F
100
AcDbEntity
  8
0
  6
SLD-Durchgehend
 62
   131
420
  8454143
370
    40
100
AcDbLine
 10
28.990337549
 20
38.829906234
 30
0.0
 11
23.2379328132
 21
38.829906234
 31
0.0
  0
LINE
  5
A1
330
1F
100
AcDbEntity
  8
0
  6
SLD-Durchgehend
 62
   131
420
  8454143
370
    40
100
AcDbLine
 10
23.2379328132
 20
48.989944459
 30
0.0
 11
23.2379328132
 21
38.829906234
 31
0.0
  0
LINE
  5
A2
330
1F
100
AcDbEntity
  8
0
  6
SLD-Durchgehend
 62
   131
420
  8454143
370
    40
100
AcDbLine
 10
23.2379328132
 20
48.989944459
 30
0.0
 11
28.990337549
 21
48.989944459
 31
0.0
  0
LINE
  5
A3
330
1F
100
AcDbEntity
  8
0
  6
SLD-Durchgehend
 62
   131
420
  8454143
370
    40
100
AcDbLine
 10
28.990337549
 20
48.989944459
 30
0.0
 11
28.990337549
 21
38.829906234
 31
0.0
  0
LINE
  5
A4
330
1F
100
AcDbEntity
  8
0
  6
SLD-Durchgehend
 62
   131
420
  8454143
370
    40
100
AcDbLine
 10
21.865337549
 20
46.56098701
 30
0.0
 11
21.865337549
 21
35.7165545177
 31
0.0
  0
SPLINE
  5
A5
330
1F
100
AcDbEntity
  8
0
  6
SLD-Durchgehend
 62
   131
420
  8454143
370
    40
100
AcDbSpline
210
0.0
220
0.0
230
1.0
 70
     8
 71
     3
 72
     8
 73
     4
 74
     0
 42
0.00000001
 43
0.00000001
 12
1.0
 22
0.0
 32
0.0
 13
1.0
 23
0.0
 33
0.0
 40
0.0000000000029266
 40
0.0000000000029266
 40
0.0000000000029266
 40
0.0000000000029266
 40
0.0027899555667893
 40
0.0027899555667893
 40
0.0027899555667893
 40
0.0027899555667893
 10
21.86533754611308
 20
46.56098700823261
 30
0.0
 10
22.32248967149892
 20
47.37085390216266
 30
0.0
 10
22.78003975824644
 20
48.1804962506977
 30
0.0
 10
23.23793281318128
 20
48.98994445896749
 30
0.0
  0
SPLINE
  5
A6
330
1F
100
AcDbEntity
  8
0
  6
SLD-Durchgehend
 62
   131
420
  8454143
370
    40
100
AcDbSpline
210
0.0
220
0.0
230
1.0
 70
     8
 71
     3
 72
     8
 73
     4
 74
     0
 42
0.00000001
 43
0.00000001
 12
1.0
 22
0.0
 32
0.0
 13
1.0
 23
0.0
 33
0.0
 40
0.0
 40
0.0
 40
0.0
 40
0.0
 40
1.0
 40
1.0
 40
1.0
 40
1.0
 10
23.23793281318128
 20
38.82990623401178
 30
0.0
 10
22.77390786351748
 20
37.79498500823633
 30
0.0
 10
22.31601318612041
 20
36.75736110150023
 30
0.0
 10
21.86533754579543
 20
35.71655451471408
 30
0.0
  0
LINE
  5
A7
330
1F
100
AcDbEntity
  8
0
  6
SLD-Durchgehend
 62
   131
420
  8454143
370
    40
100
AcDbLine
 10
18.115337549
 20
46.5609870066
 30
0.0
 11
18.115337549
 21
35.7165545133
 31
0.0
  0
SPLINE
  5
A8
330
1F
100
AcDbEntity
  8
0
  6
SLD-Durchgehend
 62
   131
420
  8454143
370
    40
100
AcDbSpline
210
0.0
220
0.0
230
1.0
 70
     8
 71
     3
 72
     8
 73
     4
 74
     0
 42
0.00000001
 43
0.00000001
 12
1.0
 22
0.0
 32
0.0
 13
1.0
 23
0.0
 33
0.0
 40
0.0
 40
0.0
 40
0.0
 40
0.0
 40
1.0
 40
1.0
 40
1.0
 40
1.0
 10
18.11533754898959
 20
35.71655451333101
 30
0.0
 10
17.66466190814166
 20
36.75736110134255
 30
0.0
 10
17.20676723184306
 20
37.79498500560211
 30
0.0
 10
16.74274228163976
 20
38.82990623259576
 30
0.0
  0
SPLINE
  5
A9
330
1F
100
AcDbEntity
  8
0
  6
SLD-Durchgehend
 62
   131
420
  8454143
370
    40
100
AcDbSpline
210
0.0
220
0.0
230
1.0
 70
     8
 71
     3
 72
     8
 73
     4
 74
     0
 42
0.00000001
 43
0.00000001
 12
1.0
 22
0.0
 32
0.0
 13
1.0
 23
0.0
 33
0.0
 40
0.0000000000000007
 40
0.0000000000000007
 40
0.0000000000000007
 40
0.0000000000000007
 40
0.0027899555667862
 40
0.0027899555667862
 40
0.0027899555667862
 40
0.0027899555667862
 10
16.74274228192441
 20
48.98994445734196
 30
0.0
 10
17.20063533685828
 20
48.18049624907281
 30
0.0
 10
17.6581854236048
 20
47.3708539005384
 30
0.0
 10
18.1153375489896
 20
46.56098700660892
 30
0.0
  0
LINE
  5
AA
330
1F
100
AcDbEntity
  8
0
  6
SLD-Durchgehend
 62
   131
420
  8454143
370
    40
100
AcDbLine
 10
19.115337549
 20
44.9000382446
 30
0.0
 11
19.115337549
 21
33.522530187
 31
0.0
  0
SPLINE
  5
AB
330
1F
100
AcDbEntity
  8
0
  6
SLD-Durchgehend
 62
   131
420
  8454143
370
    40
100
AcDbSpline
210
0.0
220
0.0
230
1.0
 70
     8
 71
     3
 72
    14
 73
    10
 74
     0
 42
0.00000001
 43
0.00000001
 12
1.0
 22
0.0
 32
0.0
 13
1.0
 23
0.0
 33
0.0
 40
0.0
 40
0.0
 40
0.0
 40
0.0
 40
0.25
 40
0.25
 40
0.5
 40
0.5
 40
0.75
 40
0.75
 40
1.0
 40
1.0
 40
1.0
 40
1.0
 10
19.11533754898957
 20
33.52253018702736
 30
0.0
 10
18.95806406388684
 20
33.52253018702736
 30
0.0
 10
18.80627811684517
 20
33.57490135817115
 30
0.0
 10
18.54771194542182
 20
33.74760526890628
 30
0.0
 10
18.4417297789734
 20
33.86479813182894
 30
0.0
 10
18.27468444958006
 20
34.12873493240269
 30
0.0
 10
18.21545456181989
 20
34.27103795330855
 30
0.0
 10
18.13500114417019
 20
34.57181264025817
 30
0.0
 10
18.11533754898957
 20
34.72608065580073
 30
0.0
 10
18.11533754898957
 20
34.88209335648369
 30
0.0
  0
SPLINE
  5
AC
330
1F
100
AcDbEntity
  8
0
  6
SLD-Durchgehend
 62
   131
420
  8454143
370
    40
100
AcDbSpline
210
0.0
220
0.0
230
1.0
 70
     8
 71
     3
 72
    12
 73
     8
 74
     0
 42
0.00000001
 43
0.00000001
 12
1.0
 22
0.0
 32
0.0
 13
1.0
 23
0.0
 33
0.0
 40
0.0
 40
0.0
 40
0.0
 40
0.0
 40
0.25
 40
0.25
 40
0.5
 40
0.5
 40
1.0
 40
1.0
 40
1.0
 40
1.0
 10
18.11533754898957
 20
45.92399961612399
 30
0.0
 10
18.11533754898957
 20
45.79037690850132
 30
0.0
 10
18.14061202727169
 20
45.6593888430212
 30
0.0
 10
18.23920541287003
 20
45.41285913009332
 30
0.0
 10
18.31213604653368
 20
45.29967914361612
 30
0.0
 10
18.58730329878434
 20
45.01434144098361
 30
0.0
 10
18.84790845798617
 20
44.9000382445912
 30
0.0
 10
19.11533754898957
 20
44.9000382445912
 30
0.0
  0
SPLINE
  5
AD
330
1F
100
AcDbEntity
  8
0
  6
SLD-Durchgehend
 62
   131
420
  8454143
370
    40
100
AcDbSpline
210
0.0
220
0.0
230
1.0
 70
     8
 71
     3
 72
    14
 73
    10
 74
     0
 42
0.00000001
 43
0.00000001
 12
1.0
 22
0.0
 32
0.0
 13
1.0
 23
0.0
 33
0.0
 40
0.0
 40
0.0
 40
0.0
 40
0.0
 40
0.25
 40
0.25
 40
0.5
 40
0.5
 40
0.75
 40
0.75
 40
1.0
 40
1.0
 40
1.0
 40
1.0
 10
21.86533754898957
 20
34.88209335648369
 30
0.0
 10
21.86533754898955
 20
34.72608621847002
 30
0.0
 10
21.84584187409155
 20
34.5728443708671
 30
0.0
 10
21.76564023870265
 20
34.27220599305446
 30
0.0
 10
21.70590630087062
 20
34.12876367073804
 30
0.0
 10
21.53983041203027
 20
33.86603537519687
 30
0.0
 10
21.43349067092104
 20
33.7480448492776
 30
0.0
 10
21.17458516278855
 20
33.57494005557297
 30
0.0
 10
21.02257958992124
 20
33.52253018702736
 30
0.0
 10
20.86533754898957
 20
33.52253018702736
 30
0.0
  0
LINE
  5
AE
330
1F
100
AcDbEntity
  8
0
  6
SLD-Durchgehend
 62
   131
420
  8454143
370
    40
100
AcDbLine
 10
20.865337549
 20
44.9000382446
 30
0.0
 11
20.865337549
 21
33.522530187
 31
0.0
  0
SPLINE
  5
AF
330
1F
100
AcDbEntity
  8
0
  6
SLD-Durchgehend
 62
   131
420
  8454143
370
    40
100
AcDbSpline
210
0.0
220
0.0
230
1.0
 70
     8
 71
     3
 72
    14
 73
    10
 74
     0
 42
0.00000001
 43
0.00000001
 12
1.0
 22
0.0
 32
0.0
 13
1.0
 23
0.0
 33
0.0
 40
0.0
 40
0.0
 40
0.0
 40
0.0
 40
0.25
 40
0.25
 40
0.5
 40
0.5
 40
0.75
 40
0.75
 40
1.0
 40
1.0
 40
1.0
 40
1.0
 10
20.86533754898957
 20
44.9000382445912
 30
0.0
 10
20.99899342509971
 20
44.90003824459119
 30
0.0
 10
21.13022028019013
 20
44.92742642053221
 30
0.0
 10
21.37361970293399
 20
45.03194342981435
 30
0.0
 10
21.48470939401343
 20
45.10918959531729
 30
0.0
 10
21.66792929615468
 20
45.29891294748037
 30
0.0
 10
21.74138671289584
 20
45.41295967875212
 30
0.0
 10
21.83947848175426
 20
45.65762116963706
 30
0.0
 10
21.86533754898956
 20
45.79042994839601
 30
0.0
 10
21.86533754898957
 20
45.92399961612399
 30
0.0
  0
LINE
  5
B0
330
1F
100
AcDbEntity
  8
0
  6
SLD-Durchgehend
 62
   131
420
  8454143
370
    40
100
AcDbLine
 10
19.115337549
 20
33.522530187
 30
0.0
 11
20.865337549
 21
33.522530187
 31
0.0
  0
LINE
  5
B1
330
1F
100
AcDbEntity
  8
0
  6
SLD-Durchgehend
 62
   131
420
  8454143
370
    40
100
AcDbLine
 10
20.865337549
 20
44.9000382446
 30
0.0
 11
19.115337549
 21
44.9000382446
 31
0.0
  0
LINE
  5
B2
330
1F
100
AcDbEntity
  8
0
  6
SLD-Durchgehend
 62
   131
420
  8454143
370
    40
100
AcDbLine
 10
21.865337549
 20
34.8820933565
 30
0.0
 11
21.865337549
 21
35.7165545177
 31
0.0
  0
LINE
  5
B3
330
1F
100
AcDbEntity
  8
0
  6
SLD-Durchgehend
 62
   131
420
  8454143
370
    40
100
AcDbLine
 10
18.115337549
 20
34.8820933565
 30
0.0
 11
18.115337549
 21
35.7165545133
 31
0.0
  0
LINE
  5
B4
330
1F
100
AcDbEntity
  8
0
  6
SLD-Durchgehend
 62
   131
420
  8454143
370
    40
100
AcDbLine
 10
28.990337549
 20
31.5001496033
 30
0.0
 11
28.990337549
 21
38.829906234
 31
0.0
  0
LINE
  5
B5
330
1F
100
AcDbEntity
  8
0
  6
SLD-Durchgehend
 62
   131
420
  8454143
370
    40
100
AcDbLine
 10
75.9973970998
 20
3.5205361044
 30
0.0
 11
78.8466150547
 21
-34.5033094487
 31
0.0
  0
LINE
  5
B6
330
1F
100
AcDbEntity
  8
0
  6
SLD-Durchgehend
 62
   131
420
  8454143
370
    40
100
AcDbLine
 10
72.0399331396
 20
-35.1538659762
 30
0.0
 11
78.8466150547
 21
-34.5033094487
 31
0.0
  0
LINE
  5
B7
330
1F
100
AcDbEntity
  8
0
  6
SLD-Durchgehend
 62
   131
420
  8454143
370
    40
100
AcDbLine
 10
65.8078497486
 20
-24.1769223155
 30
0.0
 11
72.0399331396
 21
-35.1538659762
 31
0.0
  0
ELLIPSE
  5
B8
330
1F
100
AcDbEntity
  8
0
  6
SLD-Durchgehend
 62
   131
420
  8454143
370
    40
100
AcDbEllipse
 10
70.7970129719
 20
-6.5851619747
 30
0.0
 11
28.87589317906378
 21
0.917363984927384
 31
0.0
210
0.0
220
0.0
230
0.9999999999999998
 40
0.6145483538
 41
4.159712721435875
 42
4.519250229856051
  0
LINE
  5
B9
330
1F
100
AcDbEntity
  8
0
  6
SLD-Durchgehend
 62
   131
420
  8454143
370
    40
100
AcDbLine
 10
43.3881248422
 20
-42.5654464983
 30
0.0
 11
56.1179567005
 21
-22.1704571342
 31
0.0
  0
LINE
  5
BA
330
1F
100
AcDbEntity
  8
0
  6
SLD-Durchgehend
 62
   131
420
  8454143
370
    40
100
AcDbLine
 10
44.1935796393
 20
37.0295605868
 30
0.0
 11
75.9973970998
 21
3.5205361044
 31
0.0
  0
LINE
  5
BB
330
1F
100
AcDbEntity
  8
0
  6
SLD-Durchgehend
 62
   131
420
  8454143
370
    40
100
AcDbLine
 10
-49.6120618128
 20
-30.6364399494
 30
0.0
 11
-48.2444807954
 21
-31.3399548829
 31
0.0
  0
ARC
  5
BC
330
1F
100
AcDbEntity
  8
0
  6
SLD-Durchgehend
 62
   131
420
  8454143
370
    40
100
AcDbCircle
 10
-37.0064297568
 20
-33.9247088105
 30
0.0
 40
2.206748943564584
100
AcDbArc
 50
67.6848167923
 51
90.08393333740001
  0
LINE
  5
BD
330
1F
100
AcDbEntity
  8
0
  6
SLD-Durchgehend
 62
   131
420
  8454143
370
    40
100
AcDbLine
 10
-37.009662451
 20
-31.7179622347
 30
0.0
 11
-37.0096624556
 21
-30.5741267925
 31
0.0
  0
LINE
  5
BE
330
1F
100
AcDbEntity
  8
0
  6
SLD-Durchgehend
 62
   131
420
  8454143
370
    40
100
AcDbLine
 10
-37.009662451
 20
-31.7179622347
 30
0.0
 11
-39.86983418
 21
-31.7179622312
 31
0.0
  0
LINE
  5
BF
330
1F
100
AcDbEntity
  8
0
  6
SLD-Durchgehend
 62
   131
420
  8454143
370
    40
100
AcDbLine
 10
-47.509662451
 20
-32.2498503967
 30
0.0
 11
-47.5096624515
 21
-32.2386323008
 31
0.0
  0
LINE
  5
C0
330
1F
100
AcDbEntity
  8
0
  6
SLD-Durchgehend
 62
   131
420
  8454143
370
    40
100
AcDbLine
 10
62.3954090715
 20
-23.9330214686
 30
0.0
 11
62.3558660461
 21
-23.7366673695
 31
0.0
  0
LINE
  5
C1
330
1F
100
AcDbEntity
  8
0
  6
SLD-Durchgehend
 62
   131
420
  8454143
370
    40
100
AcDbLine
 10
48.5722378897
 20
-43.6114384157
 30
0.0
 11
62.3954090715
 21
-23.9330214686
 31
0.0
  0
LINE
  5
C2
330
1F
100
AcDbEntity
  8
0
  6
SLD-Durchgehend
 62
   131
420
  8454143
370
    40
100
AcDbLine
 10
72.0399331396
 20
-35.1538659762
 30
0.0
 11
70.1996892531
 21
-36.9831540039
 31
0.0
  0
LINE
  5
C3
330
1F
100
AcDbEntity
  8
0
  6
SLD-Durchgehend
 62
   131
420
  8454143
370
    40
100
AcDbLine
 10
62.3954090715
 20
-23.9330214686
 30
0.0
 11
70.1996892531
 21
-36.9831540039
 31
0.0
  0
ARC
  5
C4
330
1F
100
AcDbEntity
  8
0
  6
SLD-Durchgehend
 62
   131
420
  8454143
370
    40
100
AcDbCircle
 10
53.4926836972
 20
-30.0167406681
 30
0.0
 40
8.585854589912405
100
AcDbArc
 50
322.3446139615
 51
338.8759029008
  0
ARC
  5
C5
330
1F
100
AcDbEntity
  8
0
  6
SLD-Durchgehend
 62
   131
420
  8454143
370
    40
100
AcDbCircle
 10
94.0718330962
 20
13.8581026739
 30
0.0
 40
59.61529374273675
100
AcDbArc
 50
232.9481073035
 51
235.4822034533
  0
ARC
  5
C6
330
1F
100
AcDbEntity
  8
0
  6
SLD-Durchgehend
 62
   131
420
  8454143
370
    40
100
AcDbCircle
 10
60.202257462
 20
-35.4819701063
 30
0.0
 40
2.703665050750789
100
AcDbArc
 50
61.27667120179999
 51
139.3379992351
  0
LINE
  5
C7
330
1F
100
AcDbEntity
  8
0
  6
SLD-Durchgehend
 62
   131
420
  8454143
370
    40
100
AcDbLine
 10
60.2901001828
 20
-35.2619316237
 30
0.0
 11
56.4122340448
 21
-40.7963328816
 31
0.0
  0
ARC
  5
C8
330
1F
100
AcDbEntity
  8
0
  6
SLD-Durchgehend
 62
   131
420
  8454143
370
    40
100
AcDbCircle
 10
90.1939669583
 20
8.3237014162
 30
0.0
 40
59.61529374292504
100
AcDbArc
 50
232.9481073035
 51
235.4822034533
  0
LINE
  5
C9
330
1F
100
AcDbEntity
  8
0
  6
SLD-Durchgehend
 62
   131
420
  8454143
370
    40
100
AcDbLine
 10
54.2734811871
 20
-39.2546755003
 30
0.0
 11
58.1513473251
 21
-33.7202742425
 31
0.0
  0
ELLIPSE
  5
CA
330
1F
100
AcDbEntity
  8
0
  6
SLD-Durchgehend
 62
   131
420
  8454143
370
    40
100
AcDbEllipse
 10
71.7634126604
 20
-43.177721445
 30
0.0
 11
-3.473624709611483
 21
5.425081590135246
 31
0.0
210
0.0
220
0.0
230
1.0
 40
0.0671473279
 41
0.4754828927470353
 42
0.7352264684117563
  0
SPLINE
  5
CB
330
1F
100
AcDbEntity
  8
0
  6
SLD-Durchgehend
 62
   131
420
  8454143
370
    40
100
AcDbSpline
210
0.0
220
0.0
230
1.0
 70
     8
 71
     3
 72
    10
 73
     6
 74
     0
 42
0.00000001
 43
0.00000001
 12
1.0
 22
0.0
 32
0.0
 13
1.0
 23
0.0
 33
0.0
 40
0.0
 40
0.0
 40
0.0
 40
0.0
 40
0.5
 40
0.5
 40
1.0
 40
1.0
 40
1.0
 40
1.0
 10
68.94275611658306
 20
-39.31050310067862
 30
0.0
 10
69.13176352002215
 20
-39.66028735529031
 30
0.0
 10
69.25714048427332
 20
-40.03036777719154
 30
0.0
 10
69.40952916341973
 20
-40.82179093485604
 30
0.0
 10
69.43372452350151
 20
-41.22705152126937
 30
0.0
 10
69.44418177467973
 20
-41.63443919512931
 30
0.0
  0
LINE
  5
CC
330
1F
100
AcDbEntity
  8
0
  6
SLD-Durchgehend
 62
   131
420
  8454143
370
    40
100
AcDbLine
 10
69.4441817747
 20
-41.6344391951
 30
0.0
 11
60.2901001828
 21
-35.2619316237
 31
0.0
  0
LINE
  5
CD
330
1F
100
AcDbEntity
  8
0
  6
SLD-Durchgehend
 62
   131
420
  8454143
370
    40
100
AcDbLine
 10
61.501586435
 20
-33.110989523
 30
0.0
 11
67.9459172871
 21
-37.5971355919
 31
0.0
  0
SPLINE
  5
CE
330
1F
100
AcDbEntity
  8
0
  6
SLD-Durchgehend
 62
   131
420
  8454143
370
    40
100
AcDbSpline
210
0.0
220
0.0
230
1.0
 70
     8
 71
     3
 72
    10
 73
     6
 74
     0
 42
0.00000001
 43
0.00000001
 12
1.0
 22
0.0
 32
0.0
 13
1.0
 23
0.0
 33
0.0
 40
0.0
 40
0.0
 40
0.0
 40
0.0
 40
0.5
 40
0.5
 40
1.0
 40
1.0
 40
1.0
 40
1.0
 10
68.50835544123353
 20
-38.46120642120012
 30
0.0
 10
68.43210142366364
 20
-38.29916464356484
 30
0.0
 10
68.3464203870603
 20
-38.14667838315733
 30
0.0
 10
68.15850030577123
 20
-37.85893200092215
 30
0.0
 10
68.05541078036207
 20
-37.72274147388949
 30
0.0
 10
67.94591728712318
 20
-37.59713559193283
 30
0.0
  0
ELLIPSE
  5
CF
330
1F
100
AcDbEntity
  8
0
  6
SLD-Durchgehend
 62
   131
420
  8454143
370
    40
100
AcDbEllipse
 10
65.7311944067
 20
-39.1829503031
 30
0.0
 11
-3.160851571396706
 21
3.941785843458456
 31
0.0
210
0.0
220
0.0
230
0.9999999999999998
 40
0.4947439790000001
 41
3.47025654033059
 42
3.718319570460028
  0
LINE
  5
D0
330
1F
100
AcDbEntity
  8
0
  6
SLD-Durchgehend
 62
   131
420
  8454143
370
    40
100
AcDbLine
 10
69.3523346113
 20
-42.4089845926
 30
0.0
 11
68.7063593322
 21
-44.5627437986
 31
0.0
  0
ELLIPSE
  5
D1
330
1F
100
AcDbEntity
  8
0
  6
SLD-Durchgehend
 62
   131
420
  8454143
370
    40
100
AcDbEllipse
 10
63.8316769595
 20
-41.8443255231
 30
0.0
 11
4.635627450482673
 21
-3.217965599133301
 31
0.0
210
0.0
220
0.0
230
0.9999999999999999
 40
0.5491941644
 41
6.101053694628194
 42
6.460511697168153
  0
LINE
  5
D2
330
1F
100
AcDbEntity
  8
0
  6
SLD-Durchgehend
 62
   131
420
  8454143
370
    40
100
AcDbLine
 10
68.0705279809
 20
-45.4701876622
 30
0.0
 11
66.264255756
 21
-46.8162196267
 31
0.0
  0
ELLIPSE
  5
D3
330
1F
100
AcDbEntity
  8
0
  6
SLD-Durchgehend
 62
   131
420
  8454143
370
    40
100
AcDbEllipse
 10
61.9788528505
 20
-44.5382057683
 30
0.0
 11
4.8037714655255
 21
-1.592914998290589
 31
0.0
210
0.0
220
0.0
230
1.0
 40
0.4931033017
 41
5.703107683882741
 42
5.951170714012058
  0
LINE
  5
D4
330
1F
100
AcDbEntity
  8
0
  6
SLD-Durchgehend
 62
   131
420
  8454143
370
    40
100
AcDbLine
 10
56.4122340448
 20
-40.7963328816
 30
0.0
 11
65.5663156367
 21
-47.168840453
 31
0.0
  0
ARC
  5
D5
330
1F
100
AcDbEntity
  8
0
  6
SLD-Durchgehend
 62
   131
420
  8454143
370
    40
100
AcDbCircle
 10
49.9114209425
 20
-36.7512569398
 30
0.0
 40
7.656579547438539
100
AcDbArc
 50
310.196279272
 51
328.1084103872
  0
ARC
  5
D6
330
1F
100
AcDbEntity
  8
0
  6
SLD-Durchgehend
 62
   131
420
  8454143
370
    40
100
AcDbCircle
 10
56.5776993343
 20
-40.5781320329
 30
0.0
 40
2.657246406269441
100
AcDbArc
 50
150.1285553353
 51
229.530715402
  0
ELLIPSE
  5
D7
330
1F
100
AcDbEntity
  8
0
  6
SLD-Durchgehend
 62
   131
420
  8454143
370
    40
100
AcDbEllipse
 10
67.8855465224
 20
-48.7121227029
 30
0.0
 11
6.314803629624691
 21
-1.371863405593224
 31
0.0
210
0.0
220
0.0
230
1.0
 40
0.0502669274
 41
2.412880268960795
 42
2.672623844625757
  0
SPLINE
  5
D8
330
1F
100
AcDbEntity
  8
0
  6
SLD-Durchgehend
 62
   131
420
  8454143
370
    40
100
AcDbSpline
210
0.0
220
0.0
230
1.0
 70
     8
 71
     3
 72
    12
 73
     8
 74
     0
 42
0.00000001
 43
0.00000001
 12
1.0
 22
0.0
 32
0.0
 13
1.0
 23
0.0
 33
0.0
 40
0.0
 40
0.0
 40
0.0
 40
0.0
 40
0.250000000000004
 40
0.250000000000004
 40
0.500000000000008
 40
0.500000000000008
 40
1.0
 40
1.0
 40
1.0
 40
1.0
 10
61.2973701475221
 20
-47.08578897585132
 30
0.0
 10
61.37342461273093
 20
-47.11802873793258
 30
0.0
 10
61.45293242255966
 20
-47.14841818567256
 30
0.0
 10
61.61236309780472
 20
-47.20283223304018
 30
0.0
 10
61.69331835555931
 20
-47.22729754147755
 30
0.0
 10
61.93988600940821
 20
-47.29236972848324
 30
0.0
 10
62.10916447970916
 20
-47.3247414951263
 30
0.0
 10
62.28368909444007
 20
-47.34490689817417
 30
0.0
  0
LINE
  5
D9
330
1F
100
AcDbEntity
  8
0
  6
SLD-Durchgehend
 62
   131
420
  8454143
370
    40
100
AcDbLine
 10
61.2973701475
 20
-47.0857889759
 30
0.0
 11
54.8530392954
 21
-42.5996429069
 31
0.0
  0
SPLINE
  5
DA
330
1F
100
AcDbEntity
  8
0
  6
SLD-Durchgehend
 62
   131
420
  8454143
370
    40
100
AcDbSpline
210
0.0
220
0.0
230
1.0
 70
     8
 71
     3
 72
    10
 73
     6
 74
     0
 42
0.00000001
 43
0.00000001
 12
1.0
 22
0.0
 32
0.0
 13
1.0
 23
0.0
 33
0.0
 40
0.0
 40
0.0
 40
0.0
 40
0.0
 40
0.5
 40
0.5
 40
1.0
 40
1.0
 40
1.0
 40
1.0
 10
63.22041875918846
 20
-47.47729121093437
 30
0.0
 10
63.61100376751308
 20
-47.53938854950913
 30
0.0
 10
63.99873950128966
 20
-47.53503657678544
 30
0.0
 10
64.79071162762179
 20
-47.4136609660862
 30
0.0
 10
65.17898739607365
 20
-47.29931437722325
 30
0.0
 10
65.56631563669535
 20
-47.16884045302311
 30
0.0
  0
ARC
  5
DB
330
1F
100
AcDbEntity
  8
0
  6
SLD-Durchgehend
 62
   131
420
  8454143
370
    40
100
AcDbCircle
 10
72.2164069024
 20
-46.4357837503
 30
0.0
 40
2.081999081762876
100
AcDbArc
 50
314.9850645125
 51
10.4012239058
  0
LINE
  5
DC
330
1F
100
AcDbEntity
  8
0
  6
SLD-Durchgehend
 62
   131
420
  8454143
370
    40
100
AcDbLine
 10
73.6882187592
 20
-47.9083631318
 30
0.0
 11
69.3523346113
 21
-42.4089845926
 31
0.0
  0
LINE
  5
DD
330
1F
100
AcDbEntity
  8
0
  6
SLD-Durchgehend
 62
   131
420
  8454143
370
    40
100
AcDbLine
 10
68.9427561166
 20
-39.3105031007
 30
0.0
 11
74.2641937726
 21
-46.0598993125
 31
0.0
  0
LINE
  5
DE
330
1F
100
AcDbEntity
  8
0
  6
SLD-Durchgehend
 62
   131
420
  8454143
370
    40
100
AcDbLine
 10
60.6876651079
 20
-30.7177956603
 30
0.0
 11
61.501586435
 21
-33.110989523
 31
0.0
  0
LINE
  5
DF
330
1F
100
AcDbEntity
  8
0
  6
SLD-Durchgehend
 62
   131
420
  8454143
370
    40
100
AcDbLine
 10
58.1513473251
 20
-33.7202742425
 30
0.0
 11
57.8118268905
 21
-32.7219735551
 31
0.0
  0
ELLIPSE
  5
E0
330
1F
100
AcDbEntity
  8
0
  6
SLD-Durchgehend
 62
   131
420
  8454143
370
    40
100
AcDbEllipse
 10
58.2908823194
 20
-29.83876161
 30
0.0
 11
1.334509843068034
 21
3.562721774919083
 31
0.0
210
0.0
220
0.0
230
1.0
 40
0.2251301509
 41
3.858462229887507
 42
4.668574454342036
  0
ELLIPSE
  5
E1
330
1F
100
AcDbEntity
  8
0
  6
SLD-Durchgehend
 62
   131
420
  8454143
370
    40
100
AcDbEllipse
 10
59.3439350072
 20
-32.9350795779
 30
0.0
 11
-0.2942011589857714
 21
2.641956135441635
 31
0.0
210
0.0
220
0.0
230
0.9999999999999999
 40
0.9374668759
 41
5.596000267351276
 42
6.289646871486711
  0
ARC
  5
E2
330
1F
100
AcDbEntity
  8
0
  6
SLD-Durchgehend
 62
   131
420
  8454143
370
    40
100
AcDbCircle
 10
71.3000034085
 20
-48.0256016523
 30
0.0
 40
1.922309591497565
100
AcDbArc
 50
277.5176953567
 51
335.7278814016
  0
LINE
  5
E3
330
1F
100
AcDbEntity
  8
0
  6
SLD-Durchgehend
 62
   131
420
  8454143
370
    40
100
AcDbLine
 10
71.551503759
 20
-49.9313880357
 30
0.0
 11
63.2204187592
 21
-47.4772912109
 31
0.0
  0
LINE
  5
E4
330
1F
100
AcDbEntity
  8
0
  6
SLD-Durchgehend
 62
   131
420
  8454143
370
    40
100
AcDbLine
 10
66.264255756
 20
-46.8162196267
 30
0.0
 11
73.0523874078
 21
-48.8158069954
 31
0.0
  0
LINE
  5
E5
330
1F
100
AcDbEntity
  8
0
  6
SLD-Durchgehend
 62
   131
420
  8454143
370
    40
100
AcDbLine
 10
53.273880306
 20
-39.1984264268
 30
0.0
 11
54.2734811871
 21
-39.2546755003
 31
0.0
  0
LINE
  5
E6
330
1F
100
AcDbEntity
  8
0
  6
SLD-Durchgehend
 62
   131
420
  8454143
370
    40
100
AcDbLine
 10
57.8118268905
 20
-32.7219735551
 30
0.0
 11
53.273880306
 21
-39.1984264268
 31
0.0
  0
LINE
  5
E7
330
1F
100
AcDbEntity
  8
0
  6
SLD-Durchgehend
 62
   131
420
  8454143
370
    40
100
AcDbLine
 10
68.7063593322
 20
-44.5627437986
 30
0.0
 11
73.6882187592
 21
-47.9083631318
 31
0.0
  0
ELLIPSE
  5
E8
330
1F
100
AcDbEntity
  8
0
  6
SLD-Durchgehend
 62
   131
420
  8454143
370
    40
100
AcDbEllipse
 10
50.9822547333
 20
-40.2694666078
 30
0.0
 11
2.661055291798647
 21
2.260911949260027
 31
0.0
210
0.0
220
0.0
230
1.0
 40
0.2672458377
 41
4.675908707683842
 42
5.486020932138349
  0
LINE
  5
E9
330
1F
100
AcDbEntity
  8
0
  6
SLD-Durchgehend
 62
   131
420
  8454143
370
    40
100
AcDbLine
 10
54.8530392954
 20
-42.5996429069
 30
0.0
 11
52.4567285204
 21
-42.4647988272
 31
0.0
  0
ELLIPSE
  5
EA
330
1F
100
AcDbEntity
  8
0
  6
SLD-Durchgehend
 62
   131
420
  8454143
370
    40
100
AcDbEllipse
 10
54.0826053671
 20
-40.4439280894
 30
0.0
 11
2.593084003001351
 21
0.6207905639961027
 31
0.0
210
0.0
220
0.0
230
1.0
 40
0.9317995843
 41
3.14071996455506
 42
3.834366568690484
  0
LINE
  5
EB
330
1F
100
AcDbEntity
  8
0
  6
SLD-Durchgehend
 62
   131
420
  8454143
370
    40
100
AcDbLine
 10
73.0523874078
 20
-48.8158069954
 30
0.0
 11
68.0705279809
 21
-45.4701876622
 31
0.0
  0
SPLINE
  5
EC
330
1F
100
AcDbEntity
  8
0
  6
SLD-Durchgehend
 62
   131
420
  8454143
370
    40
100
AcDbSpline
210
0.0
220
0.0
230
1.0
 70
     8
 71
     3
 72
    11
 73
     7
 74
     0
 42
0.00000001
 43
0.00000001
 12
1.0
 22
0.0
 32
0.0
 13
1.0
 23
0.0
 33
0.0
 40
0.0
 40
0.0
 40
0.0
 40
0.0
 40
0.2641153304031139
 40
0.5187991421521143
 40
0.7640824539357737
 40
1.0
 40
1.0
 40
1.0
 40
1.0
 10
73.67639013693108
 20
-48.56947454830951
 30
0.0
 10
73.67855295322697
 20
-48.51272008182081
 30
0.0
 10
73.6828013519747
 20
-48.40123784229047
 30
0.0
 10
73.68656482316779
 20
-48.23359390275253
 30
0.0
 10
73.68857334797035
 20
-48.07016525611109
 30
0.0
 10
73.68833541178711
 20
-47.96159277963315
 30
0.0
 10
73.68821875920939
 20
-47.90836313175731
 30
0.0
  0
SPLINE
  5
ED
330
1F
100
AcDbEntity
  8
0
  6
SLD-Durchgehend
 62
   131
420
  8454143
370
    40
100
AcDbSpline
210
0.0
220
0.0
230
1.0
 70
     8
 71
     3
 72
    11
 73
     7
 74
     0
 42
0.00000001
 43
0.00000001
 12
1.0
 22
0.0
 32
0.0
 13
1.0
 23
0.0
 33
0.0
 40
0.0
 40
0.0
 40
0.0
 40
0.0
 40
0.2359175460636155
 40
0.4812008578470874
 40
0.7358846695962756
 40
1.0
 40
1.0
 40
1.0
 40
1.0
 10
73.05238740784377
 20
-48.81580699537911
 30
0.0
 10
73.1028952770921
 20
-48.79711945916178
 30
0.0
 10
73.20591614355949
 20
-48.75900250428125
 30
0.0
 10
73.36040020783399
 20
-48.69908853128728
 30
0.0
 10
73.5184430009073
 20
-48.63580629631602
 30
0.0
 10
73.62310684548679
 20
-48.59185149005111
 30
0.0
 10
73.67639013693118
 20
-48.56947454830961
 30
0.0
  0
LINE
  5
EE
330
1F
100
AcDbEntity
  8
0
  6
SLD-Durchgehend
 62
   131
420
  8454143
370
    40
100
AcDbLine
 10
78.2318326328
 20
-36.2450087847
 30
0.0
 11
70.1996892531
 21
-36.9831540039
 31
0.0
  0
LINE
  5
EF
330
1F
100
AcDbEntity
  8
0
  6
SLD-Durchgehend
 62
   131
420
  8454143
370
    40
100
AcDbLine
 10
78.8466150547
 20
-34.5033094487
 30
0.0
 11
78.2318326328
 21
-36.2450087847
 31
0.0
  0
ELLIPSE
  5
F0
330
1F
100
AcDbEntity
  8
0
  6
SLD-Durchgehend
 62
   131
420
  8454143
370
    40
100
AcDbEllipse
 10
63.8308790101
 20
-32.6397463823
 30
0.0
 11
1.195514420401956
 21
-0.9076080906048606
 31
0.0
210
0.0
220
0.0
230
1.0
 40
0.2883763653
 41
3.807245758419325
 42
4.854443309615731
  0
LINE
  5
F1
330
1F
100
AcDbEntity
  8
0
  6
SLD-Durchgehend
 62
   131
420
  8454143
370
    40
100
AcDbLine
 10
67.8175535829
 20
-35.9473458314
 30
0.0
 11
63.7410400619
 21
-33.1095282943
 31
0.0
  0
LINE
  5
F2
330
1F
100
AcDbEntity
  8
0
  6
SLD-Durchgehend
 62
   131
420
  8454143
370
    40
100
AcDbLine
 10
67.9459172871
 20
-37.5971355919
 30
0.0
 11
67.8175535829
 21
-35.9473458314
 31
0.0
  0
LINE
  5
F3
330
1F
100
AcDbEntity
  8
0
  6
SLD-Durchgehend
 62
   131
420
  8454143
370
    40
100
AcDbLine
 10
60.6876651079
 20
-30.7177956603
 30
0.0
 11
62.728951597
 21
-32.1388135392
 31
0.0
  0
LINE
  5
F4
330
1F
100
AcDbEntity
  8
0
  6
SLD-Durchgehend
 62
   131
420
  8454143
370
    40
100
AcDbLine
 10
68.3569156669
 20
-36.5148323235
 30
0.0
 11
68.5083554412
 21
-38.4612064212
 31
0.0
  0
LINE
  5
F5
330
1F
100
AcDbEntity
  8
0
  6
SLD-Durchgehend
 62
   131
420
  8454143
370
    40
100
AcDbLine
 10
68.3569156669
 20
-36.5148323235
 30
0.0
 11
72.0729313035
 21
-42.4386347268
 31
0.0
  0
ELLIPSE
  5
F6
330
1F
100
AcDbEntity
  8
0
  6
SLD-Durchgehend
 62
   131
420
  8454143
370
    40
100
AcDbEllipse
 10
72.1230532694
 20
-42.0255359776
 30
0.0
 11
-0.8301177606031732
 21
1.422549069007872
 31
0.0
210
0.0
220
0.0
230
0.9999999999999999
 40
0.1558855184
 41
1.773470423810473
 42
2.397495955616978
  0
LINE
  5
F7
330
1F
100
AcDbEntity
  8
0
  6
SLD-Durchgehend
 62
   131
420
  8454143
370
    40
100
AcDbLine
 10
72.5835747241
 20
-43.1597512046
 30
0.0
 11
75.1355722031
 21
-47.1125353605
 31
0.0
  0
ELLIPSE
  5
F8
330
1F
100
AcDbEntity
  8
0
  6
SLD-Durchgehend
 62
   131
420
  8454143
370
    40
100
AcDbEllipse
 10
74.8509989619
 20
-46.5614373605
 30
0.0
 11
-1.329302342956439
 21
1.597128111895259
 31
0.0
210
0.0
220
0.0
230
1.0
 40
0.0673241767
 41
1.195908959176736
 42
1.866542698308601
  0
ELLIPSE
  5
F9
330
1F
100
AcDbEntity
  8
0
  6
SLD-Durchgehend
 62
   131
420
  8454143
370
    40
100
AcDbEllipse
 10
72.2613730809
 20
-50.2572917876
 30
0.0
 11
2.004577340365628
 21
-0.6335512590113126
 31
0.0
210
0.0
220
0.0
230
0.9999999999999998
 40
0.0495477307
 41
1.277751963583573
 42
1.948385702703027
  0
LINE
  5
FA
330
1F
100
AcDbEntity
  8
0
  6
SLD-Durchgehend
 62
   131
420
  8454143
370
    40
100
AcDbLine
 10
68.2592110987
 20
-49.3313833952
 30
0.0
 11
72.8704843974
 21
-50.3452165195
 31
0.0
  0
ELLIPSE
  5
FB
330
1F
100
AcDbEntity
  8
0
  6
SLD-Durchgehend
 62
   131
420
  8454143
370
    40
100
AcDbEllipse
 10
67.0649799883
 20
-49.2443016939
 30
0.0
 11
1.617252467283692
 21
-0.3021421930094093
 31
0.0
210
0.0
220
0.0
230
1.0
 40
0.1176893325
 41
0.7623023500067716
 42
1.3863278818038
  0
LINE
  5
FC
330
1F
100
AcDbEntity
  8
0
  6
SLD-Durchgehend
 62
   131
420
  8454143
370
    40
100
AcDbLine
 10
60.5374205067
 20
-47.6746357595
 30
0.0
 11
67.3965785584
 21
-49.112617684
 31
0.0
  0
LINE
  5
FD
330
1F
100
AcDbEntity
  8
0
  6
SLD-Durchgehend
 62
   131
420
  8454143
370
    40
100
AcDbLine
 10
62.2836890944
 20
-47.3449068982
 30
0.0
 11
60.5374205067
 21
-47.6746357595
 31
0.0
  0
LINE
  5
FE
330
1F
100
AcDbEntity
  8
0
  6
SLD-Durchgehend
 62
   131
420
  8454143
370
    40
100
AcDbLine
 10
59.8171942457
 20
-47.365274456
 30
0.0
 11
61.2973701475
 21
-47.0857889759
 31
0.0
  0
LINE
  5
FF
330
1F
100
AcDbEntity
  8
0
  6
SLD-Durchgehend
 62
   131
420
  8454143
370
    40
100
AcDbLine
 10
59.8171942457
 20
-47.365274456
 30
0.0
 11
55.7406807247
 21
-44.5274569188
 31
0.0
  0
ELLIPSE
  5
100
330
1F
100
AcDbEntity
  8
0
  6
SLD-Durchgehend
 62
   131
420
  8454143
370
    40
100
AcDbEllipse
 10
55.3693651722
 20
-44.7158240915
 30
0.0
 11
1.260409492739491
 21
-0.8150438799590205
 31
0.0
210
0.0
220
0.0
230
0.9999999999999998
 40
0.2420839586
 41
1.430750847038
 42
2.477948398234491
  0
LINE
  5
101
330
1F
100
AcDbEntity
  8
0
  6
SLD-Durchgehend
 62
   131
420
  8454143
370
    40
100
AcDbLine
 10
54.4980150095
 20
-43.8858167061
 30
0.0
 11
52.4567285204
 21
-42.4647988272
 31
0.0
  0
ELLIPSE
  5
102
330
1F
100
AcDbEntity
  8
0
  6
SLD-Durchgehend
 62
   131
420
  8454143
370
    40
100
AcDbEllipse
 10
66.675825002
 20
-37.6747095569
 30
0.0
 11
0.6374936151949839
 21
1.977359485184088
 31
0.0
210
0.0
220
0.0
230
1.0
 40
0.9562211931000001
 41
5.606472602687509
 42
5.999200151806711
  0
ELLIPSE
  5
103
330
1F
100
AcDbEntity
  8
0
  6
SLD-Durchgehend
 62
   131
420
  8454143
370
    40
100
AcDbEllipse
 10
61.0511512228
 20
-45.7021144572
 30
0.0
 11
1.704802499214601
 21
1.19413816082168
 31
0.0
210
0.0
220
0.0
230
0.9999999999999999
 40
0.9526965744
 41
3.477846814267065
 42
3.870574363386103
  0
LINE
  5
104
330
1F
100
AcDbEntity
  8
0
  6
SLD-Durchgehend
 62
   131
420
  8454143
370
    40
100
AcDbLine
 10
59.0337364453
 20
-30.2949607074
 30
0.0
 11
51.4890175426
 21
-41.0626097959
 31
0.0
  0
ARC
  5
105
330
1F
100
AcDbEntity
  8
0
  6
SLD-Durchgehend
 62
   131
420
  8454143
370
    40
100
AcDbCircle
 10
78.2836015485
 20
-43.0316460478
 30
0.0
 40
0.7897939462286526
100
AcDbArc
 50
54.4970633614
 51
85.280798317
  0
LINE
  5
106
330
1F
100
AcDbEntity
  8
0
  6
SLD-Durchgehend
 62
   131
420
  8454143
370
    40
100
AcDbLine
 10
71.5994488315
 20
-41.6838433374
 30
0.0
 11
78.3485798786
 21
-42.2445296053
 31
0.0
  0
LINE
  5
107
330
1F
100
AcDbEntity
  8
0
  6
SLD-Durchgehend
 62
   131
420
  8454143
370
    40
100
AcDbLine
 10
66.8742086697
 20
-49.0031059258
 30
0.0
 11
67.2237445737
 21
-53.2099762564
 31
0.0
  0
SPLINE
  5
108
330
1F
100
AcDbEntity
  8
0
  6
SLD-Durchgehend
 62
   131
420
  8454143
370
    40
100
AcDbSpline
210
0.0
220
0.0
230
1.0
 70
     8
 71
     3
 72
     8
 73
     4
 74
     0
 42
0.00000001
 43
0.00000001
 12
1.0
 22
0.0
 32
0.0
 13
1.0
 23
0.0
 33
0.0
 40
0.0
 40
0.0
 40
0.0
 40
0.0
 40
1.0
 40
1.0
 40
1.0
 40
1.0
 10
56.23910665917906
 20
-52.10856973161181
 30
0.0
 10
59.90016101226057
 20
-52.48016153235431
 30
0.0
 10
63.56172758934697
 20
-52.8471975812161
 30
0.0
 10
67.22374457369497
 20
-53.20997625636601
 30
0.0
  0
SPLINE
  5
109
330
1F
100
AcDbEntity
  8
0
  6
SLD-Durchgehend
 62
   131
420
  8454143
370
    40
100
AcDbSpline
210
0.0
220
0.0
230
1.0
 70
     8
 71
     3
 72
    10
 73
     6
 74
     0
 42
0.00000001
 43
0.00000001
 12
1.0
 22
0.0
 32
0.0
 13
1.0
 23
0.0
 33
0.0
 40
0.3055805174971753
 40
0.3055805174971753
 40
0.3055805174971753
 40
0.3055805174971753
 40
0.511817638020583
 40
0.511817638020583
 40
1.0
 40
1.0
 40
1.0
 40
1.0
 10
54.96297832821934
 20
-47.305591358192
 30
0.0
 10
55.08912491944479
 20
-47.78112486324197
 30
0.0
 10
55.21533270374786
 20
-48.2566416053391
 30
0.0
 10
55.64047309669596
 20
-49.85769910181691
 30
0.0
 10
55.93966207752827
 20
-50.9831694965773
 30
0.0
 10
56.23910665917706
 20
-52.1085697316296
 30
0.0
  0
SPLINE
  5
10A
330
1F
100
AcDbEntity
  8
0
  6
SLD-Durchgehend
 62
   131
420
  8454143
370
    40
100
AcDbSpline
210
0.0
220
0.0
230
1.0
 70
     8
 71
     3
 72
     8
 73
     4
 74
     0
 42
0.00000001
 43
0.00000001
 12
1.0
 22
0.0
 32
0.0
 13
1.0
 23
0.0
 33
0.0
 40
0.0
 40
0.0
 40
0.0
 40
0.0
 40
1.0
 40
1.0
 40
1.0
 40
1.0
 10
54.96297869150776
 20
-47.30559125759061
 30
0.0
 10
54.64033783773377
 20
-46.08933450429911
 30
0.0
 10
54.31809794855436
 20
-44.872985313389
 30
0.0
 10
53.99636665373676
 20
-43.65651887209771
 30
0.0
  0
LINE
  5
10B
330
1F
100
AcDbEntity
  8
0
  6
SLD-Durchgehend
 62
   131
420
  8454143
370
    40
100
AcDbLine
 10
78.2318326328
 20
-36.2450087847
 30
0.0
 11
78.7422701823
 21
-42.3886860477
 31
0.0
  0
SPLINE
  5
10C
330
1F
100
AcDbEntity
  8
0
  6
SLD-Durchgehend
 62
   131
420
  8454143
370
    40
100
AcDbSpline
210
0.0
220
0.0
230
1.0
 70
     8
 71
     3
 72
    15
 73
    11
 74
     0
 42
0.00000001
 43
0.00000001
 12
1.0
 22
0.0
 32
0.0
 13
1.0
 23
0.0
 33
0.0
 40
0.0
 40
0.0
 40
0.0
 40
0.0
 40
0.0139690861332163
 40
0.0472869939746909
 40
0.1246797477693736
 40
0.2495758668441059
 40
0.3717351338706204
 40
0.4997243539484046
 40
0.7383192961493912
 40
1.0
 40
1.0
 40
1.0
 40
1.0
 10
73.67610581771687
 20
-48.56885960901841
 30
0.0
 10
73.68192708901348
 20
-48.56843459490278
 30
0.0
 10
73.70163277470428
 20
-48.56699587230247
 30
0.0
 10
73.75344100145156
 20
-48.5620623153023
 30
0.0
 10
73.85010839923574
 20
-48.55225340092932
 30
0.0
 10
73.98009602703576
 20
-48.53651759879401
 30
0.0
 10
74.12574038049499
 20
-48.51539282280676
 30
0.0
 10
74.30885493849472
 20
-48.4838051178652
 30
0.0
 10
74.53300705148817
 20
-48.43681103810859
 30
0.0
 10
74.69144814658559
 20
-48.38929070957365
 30
0.0
 10
74.77432441212274
 20
-48.36443410678599
 30
0.0
  0
SPLINE
  5
10D
330
1F
100
AcDbEntity
  8
0
  6
SLD-Durchgehend
 62
   131
420
  8454143
370
    40
100
AcDbSpline
210
0.0
220
0.0
230
1.0
 70
     8
 71
     3
 72
     8
 73
     4
 74
     0
 42
0.00000001
 43
0.00000001
 12
1.0
 22
0.0
 32
0.0
 13
1.0
 23
0.0
 33
0.0
 40
0.0
 40
0.0
 40
0.0
 40
0.0
 40
1.0
 40
1.0
 40
1.0
 40
1.0
 10
75.13557220313908
 20
-47.1125353605379
 30
0.0
 10
75.14842817434057
 20
-47.13244795045671
 30
0.0
 10
75.16121155881027
 20
-47.152277256611
 30
0.0
 10
75.17391732907826
 20
-47.17201092218341
 30
0.0
  0
SPLINE
  5
10E
330
1F
100
AcDbEntity
  8
0
  6
SLD-Durchgehend
 62
   131
420
  8454143
370
    40
100
AcDbSpline
210
0.0
220
0.0
230
1.0
 70
     8
 71
     3
 72
     8
 73
     4
 74
     0
 42
0.00000001
 43
0.00000001
 12
1.0
 22
0.0
 32
0.0
 13
1.0
 23
0.0
 33
0.0
 40
0.0
 40
0.0
 40
0.0
 40
0.0
 40
1.0
 40
1.0
 40
1.0
 40
1.0
 10
75.17391655679162
 20
-47.17200999798277
 30
0.0
 10
75.24165759680997
 20
-47.27722031577427
 30
0.0
 10
75.30156614611433
 20
-47.38984648350378
 30
0.0
 10
75.3517767104523
 20
-47.50625060402325
 30
0.0
  0
SPLINE
  5
10F
330
1F
100
AcDbEntity
  8
0
  6
SLD-Durchgehend
 62
   131
420
  8454143
370
    40
100
AcDbSpline
210
0.0
220
0.0
230
1.0
 70
     8
 71
     3
 72
    12
 73
     8
 74
     0
 42
0.00000001
 43
0.00000001
 12
1.0
 22
0.0
 32
0.0
 13
1.0
 23
0.0
 33
0.0
 40
0.0
 40
0.0
 40
0.0
 40
0.0
 40
0.5
 40
0.5
 40
0.75
 40
0.75
 40
1.0
 40
1.0
 40
1.0
 40
1.0
 10
75.35177550205454
 20
-47.506244883582
 30
0.0
 10
75.31158329982749
 20
-47.55123365698877
 30
0.0
 10
75.25368290254957
 20
-47.59676855340704
 30
0.0
 10
75.133340696153
 20
-47.62717495386195
 30
0.0
 10
75.08796155187137
 20
-47.63002333918401
 30
0.0
 10
74.98651153444324
 20
-47.5963777591016
 30
0.0
 10
74.9326141369504
 20
-47.55800560314022
 30
0.0
 10
74.87898182221763
 20
-47.50221231121281
 30
0.0
  0
SPLINE
  5
110
330
1F
100
AcDbEntity
  8
0
  6
SLD-Durchgehend
 62
   131
420
  8454143
370
    40
100
AcDbSpline
210
0.0
220
0.0
230
1.0
 70
     8
 71
     3
 72
    23
 73
    19
 74
     0
 42
0.00000001
 43
0.00000001
 12
1.0
 22
0.0
 32
0.0
 13
1.0
 23
0.0
 33
0.0
 40
0.0
 40
0.0
 40
0.0
 40
0.0
 40
0.0735437079466574
 40
0.1166385833111933
 40
0.1746089786172745
 40
0.2495365576136575
 40
0.3376581036936782
 40
0.4003013853685264
 40
0.4548864691690127
 40
0.5018662563195497
 40
0.5242516802528694
 40
0.5490117020138164
 40
0.5790760262025144
 40
0.6161370831037437
 40
0.6805911108820488
 40
0.7509687919674227
 40
0.8684016850878666
 40
1.0
 40
1.0
 40
1.0
 40
1.0
 10
74.87872847847608
 20
-47.50338639394941
 30
0.0
 10
74.85858731170046
 20
-47.4824201738294
 30
0.0
 10
74.82664389703544
 20
-47.44916824405234
 30
0.0
 10
74.77854723397756
 20
-47.40055039760269
 30
0.0
 10
74.72873027025297
 20
-47.35884874244768
 30
0.0
 10
74.6656565705772
 20
-47.31048850414961
 30
0.0
 10
74.60061821943447
 20
-47.26597684744653
 30
0.0
 10
74.54036916274573
 20
-47.2364953294456
 30
0.0
 10
74.49172032765792
 20
-47.23775013861047
 30
0.0
 10
74.46107154738306
 20
-47.27316163285579
 30
0.0
 10
74.44933815098716
 20
-47.31902695065512
 30
0.0
 10
74.44971038557861
 20
-47.36358534824743
 30
0.0
 10
74.45753118871411
 20
-47.41565726112243
 30
0.0
 10
74.47530348977357
 20
-47.48689918018304
 30
0.0
 10
74.50466655584277
 20
-47.57474983455553
 30
0.0
 10
74.55630402961852
 20
-47.69229490843455
 30
0.0
 10
74.62941925071159
 20
-47.82752683744398
 30
0.0
 10
74.69136477241604
 20
-47.92062842599605
 30
0.0
 10
74.72409932941015
 20
-47.9698271279013
 30
0.0
  0
SPLINE
  5
111
330
1F
100
AcDbEntity
  8
0
  6
SLD-Durchgehend
 62
   131
420
  8454143
370
    40
100
AcDbSpline
210
0.0
220
0.0
230
1.0
 70
     8
 71
     3
 72
    12
 73
     8
 74
     0
 42
0.00000001
 43
0.00000001
 12
1.0
 22
0.0
 32
0.0
 13
1.0
 23
0.0
 33
0.0
 40
0.0
 40
0.0
 40
0.0
 40
0.0
 40
0.2499999999999999
 40
0.2499999999999999
 40
0.4999999999999998
 40
0.4999999999999998
 40
1.0
 40
1.0
 40
1.0
 40
1.0
 10
74.72356407750965
 20
-47.97134822104321
 30
0.0
 10
74.7394703488536
 20
-47.99462554179422
 30
0.0
 10
74.75327872343243
 20
-48.02084913003173
 30
0.0
 10
74.77478103581704
 20
-48.08158428445772
 30
0.0
 10
74.7820174359918
 20
-48.11559551065696
 30
0.0
 10
74.79259548856895
 20
-48.22008091558236
 30
0.0
 10
74.78599929091328
 20
-48.29333470930375
 30
0.0
 10
74.77260017736172
 20
-48.36390388920031
 30
0.0
  0
SPLINE
  5
112
330
1F
100
AcDbEntity
  8
0
  6
SLD-Durchgehend
 62
   131
420
  8454143
370
    40
100
AcDbSpline
210
0.0
220
0.0
230
1.0
 70
     8
 71
     3
 72
    23
 73
    19
 74
     0
 42
0.00000001
 43
0.00000001
 12
1.0
 22
0.0
 32
0.0
 13
1.0
 23
0.0
 33
0.0
 40
0.0
 40
0.0
 40
0.0
 40
0.0
 40
0.0659551500780056
 40
0.1149741747315738
 40
0.1787482002554583
 40
0.2496092846533794
 40
0.3355361447708669
 40
0.4000979245797862
 40
0.4548323709784475
 40
0.5022964446229631
 40
0.5274786686456285
 40
0.5563775939478826
 40
0.5930058951983781
 40
0.639476218244361
 40
0.7055185925113839
 40
0.780380074734828
 40
0.880631842129244
 40
1.0
 40
1.0
 40
1.0
 40
1.0
 10
73.11860731882068
 20
-50.01556483803407
 30
0.0
 10
73.09397650482778
 20
-50.00603982624488
 30
0.0
 10
73.05103963775295
 20
-49.98943565858742
 30
0.0
 10
72.9856654901557
 20
-49.96257755108461
 30
0.0
 10
72.92459971370819
 20
-49.93201808109482
 30
0.0
 10
72.85553738253526
 20
-49.89302436699882
 30
0.0
 10
72.78940008732778
 20
-49.8517652190698
 30
0.0
 10
72.73845225745086
 20
-49.8086543128657
 30
0.0
 10
72.71955907101872
 20
-49.76554423119067
 30
0.0
 10
72.74195331441895
 20
-49.72603994923146
 30
0.0
 10
72.78513180531108
 20
-49.69880741124918
 30
0.0
 10
72.83566041670318
 20
-49.68360788499668
 30
0.0
 10
72.8986753012259
 20
-49.67326637344155
 30
0.0
 10
72.9811126649502
 20
-49.66678630200135
 30
0.0
 10
73.08117682917863
 20
-49.66563501417025
 30
0.0
 10
73.20307827205205
 20
-49.67392180376229
 30
0.0
 10
73.34391295069867
 20
-49.69291122674921
 30
0.0
 10
73.44163865151502
 20
-49.71344150718797
 30
0.0
 10
73.49475467397515
 20
-49.72460015663012
 30
0.0
  0
SPLINE
  5
113
330
1F
100
AcDbEntity
  8
0
  6
SLD-Durchgehend
 62
   131
420
  8454143
370
    40
100
AcDbSpline
210
0.0
220
0.0
230
1.0
 70
     8
 71
     3
 72
    12
 73
     8
 74
     0
 42
0.00000001
 43
0.00000001
 12
1.0
 22
0.0
 32
0.0
 13
1.0
 23
0.0
 33
0.0
 40
0.0
 40
0.0
 40
0.0
 40
0.0
 40
0.4999999999999981
 40
0.4999999999999981
 40
0.749999999999999
 40
0.749999999999999
 40
1.0
 40
1.0
 40
1.0
 40
1.0
 10
73.3148783154003
 20
-50.4132576454597
 30
0.0
 10
73.33771709242929
 20
-50.36829005665039
 30
0.0
 10
73.35515452379465
 20
-50.30630453875374
 30
0.0
 10
73.33434575480237
 20
-50.19465910885892
 30
0.0
 10
73.31881613228448
 20
-50.15490694387061
 30
0.0
 10
73.24733278245583
 20
-50.07849362517684
 30
0.0
 10
73.19047998282966
 20
-50.04433935075875
 30
0.0
 10
73.11759110074347
 20
-50.01602858804824
 30
0.0
  0
SPLINE
  5
114
330
1F
100
AcDbEntity
  8
0
  6
SLD-Durchgehend
 62
   131
420
  8454143
370
    40
100
AcDbSpline
210
0.0
220
0.0
230
1.0
 70
     8
 71
     3
 72
     8
 73
     4
 74
     0
 42
0.00000001
 43
0.00000001
 12
1.0
 22
0.0
 32
0.0
 13
1.0
 23
0.0
 33
0.0
 40
0.0
 40
0.0
 40
0.0
 40
0.0
 40
1.0
 40
1.0
 40
1.0
 40
1.0
 10
73.31488396406843
 20
-50.41325702884865
 30
0.0
 10
73.18914815709186
 20
-50.405142704569
 30
0.0
 10
73.06206649437766
 20
-50.38681501383681
 30
0.0
 10
72.9398920204764
 20
-50.36035837412989
 30
0.0
  0
SPLINE
  5
115
330
1F
100
AcDbEntity
  8
0
  6
SLD-Durchgehend
 62
   131
420
  8454143
370
    40
100
AcDbSpline
210
0.0
220
0.0
230
1.0
 70
     8
 71
     3
 72
     8
 73
     4
 74
     0
 42
0.00000001
 43
0.00000001
 12
1.0
 22
0.0
 32
0.0
 13
1.0
 23
0.0
 33
0.0
 40
0.0
 40
0.0
 40
0.0
 40
0.0
 40
1.0
 40
1.0
 40
1.0
 40
1.0
 10
72.93989301625307
 20
-50.3603589793709
 30
0.0
 10
72.91685567242727
 20
-50.35537029767011
 30
0.0
 10
72.89371419962427
 20
-50.35032381666431
 30
0.0
 10
72.87048439738878
 20
-50.34521651951401
 30
0.0
  0
SPLINE
  5
116
330
1F
100
AcDbEntity
  8
0
  6
SLD-Durchgehend
 62
   131
420
  8454143
370
    40
100
AcDbSpline
210
0.0
220
0.0
230
1.0
 70
     8
 71
     3
 72
    17
 73
    13
 74
     0
 42
0.00000001
 43
0.00000001
 12
1.0
 22
0.0
 32
0.0
 13
1.0
 23
0.0
 33
0.0
 40
0.0
 40
0.0
 40
0.0
 40
0.0
 40
0.1336949978913487
 40
0.2616330473824464
 40
0.3838094300722706
 40
0.5003048493890954
 40
0.6281470300969321
 40
0.7504317436301126
 40
0.8753225616685205
 40
0.9532512306092622
 40
0.9862429741299353
 40
0.9999999999999999
 40
0.9999999999999999
 40
0.9999999999999999
 40
0.9999999999999999
 10
73.88513421526902
 20
-49.63249117688982
 30
0.0
 10
73.88174228424693
 20
-49.59084756858078
 30
0.0
 10
73.8751044798128
 20
-49.50935353875366
 30
0.0
 10
73.85903252005097
 20
-49.38314259829661
 30
0.0
 10
73.83949643147704
 20
-49.25854409006272
 30
0.0
 10
73.81569363123225
 20
-49.1298713451495
 30
0.0
 10
73.78778855834157
 20
-48.9972395333801
 30
0.0
 10
73.75483170739776
 20
-48.85775451646353
 30
0.0
 10
73.72261699884746
 20
-48.73372851982157
 30
0.0
 10
73.6970231676387
 20
-48.64207893024723
 30
0.0
 10
73.68305666662768
 20
-48.59305626359042
 30
0.0
 10
73.67740077367617
 20
-48.57476846937159
 30
0.0
 10
73.67573638193568
 20
-48.56938681630449
 30
0.0
  0
SPLINE
  5
117
330
1F
100
AcDbEntity
  8
0
  6
SLD-Durchgehend
 62
   131
420
  8454143
370
    40
100
AcDbSpline
210
0.0
220
0.0
230
1.0
 70
     8
 71
     3
 72
    12
 73
     8
 74
     0
 42
0.00000001
 43
0.00000001
 12
1.0
 22
0.0
 32
0.0
 13
1.0
 23
0.0
 33
0.0
 40
0.0
 40
0.0
 40
0.0
 40
0.0
 40
0.499999999999994
 40
0.499999999999994
 40
0.749999999999997
 40
0.749999999999997
 40
1.0
 40
1.0
 40
1.0
 40
1.0
 10
73.88404758203289
 20
-49.63202566520319
 30
0.0
 10
73.8225319827116
 20
-49.66840062598961
 30
0.0
 10
73.75589331624712
 20
-49.69949777378642
 30
0.0
 10
73.65404938516835
 20
-49.72586659081976
 30
0.0
 10
73.61904600800489
 20
-49.73114221714804
 30
0.0
 10
73.55415421011317
 20
-49.73287788795247
 30
0.0
 10
73.52382673397409
 20
-49.72958595567435
 30
0.0
 10
73.49590568782138
 20
-49.72343400592176
 30
0.0
  0
SPLINE
  5
118
330
1F
100
AcDbEntity
  8
0
  6
SLD-Durchgehend
 62
   131
420
  8454143
370
    40
100
AcDbSpline
210
0.0
220
0.0
230
1.0
 70
     8
 71
     3
 72
    12
 73
     8
 74
     0
 42
0.00000001
 43
0.00000001
 12
1.0
 22
0.0
 32
0.0
 13
1.0
 23
0.0
 33
0.0
 40
0.0
 40
0.0
 40
0.0
 40
0.0
 40
0.25
 40
0.25
 40
0.5
 40
0.5
 40
1.0
 40
1.0
 40
1.0
 40
1.0
 10
74.7738176838536
 20
-48.36433565840716
 30
0.0
 10
74.74879931448082
 20
-48.49594577574597
 30
0.0
 10
74.71095754391035
 20
-48.62304314399797
 30
0.0
 10
74.60895080595881
 20
-48.86791349920743
 30
0.0
 10
74.54368855743103
 20
-48.98694895566231
 30
0.0
 10
74.31500452915706
 20
-49.31355960403429
 30
0.0
 10
74.11456376469428
 20
-49.49708256573567
 30
0.0
 10
73.88492990323071
 20
-49.63293574349711
 30
0.0
  0
LINE
  5
119
330
1F
100
AcDbEntity
  8
0
  6
SLD-Durchgehend
 62
   131
420
  8454143
370
    40
100
AcDbLine
 10
56.2391066592
 20
-52.1085697316
 30
0.0
 11
56.2391066592
 21
-52.1698700251
 31
0.0
  0
LINE
  5
11A
330
1F
100
AcDbEntity
  8
0
  6
SLD-Durchgehend
 62
   131
420
  8454143
370
    40
100
AcDbLine
 10
74.8787284785
 20
-47.5033863939
 30
0.0
 11
74.9454041863
 21
-47.8882107393
 31
0.0
  0
LINE
  5
11B
330
1F
100
AcDbEntity
  8
0
  6
SLD-Durchgehend
 62
   131
420
  8454143
370
    40
100
AcDbLine
 10
74.7240993294
 20
-47.9698271279
 30
0.0
 11
74.9454041863
 21
-47.8882107393
 31
0.0
  0
LINE
  5
11C
330
1F
100
AcDbEntity
  8
0
  6
SLD-Durchgehend
 62
   131
420
  8454143
370
    40
100
AcDbLine
 10
73.4946911659
 20
-49.7244101497
 30
0.0
 11
73.5040211754
 21
-49.9453193823
 31
0.0
  0
LINE
  5
11D
330
1F
100
AcDbEntity
  8
0
  6
SLD-Durchgehend
 62
   131
420
  8454143
370
    40
100
AcDbLine
 10
73.1185903429
 20
-50.015415011
 30
0.0
 11
73.5040211754
 21
-49.9453193823
 31
0.0
  0
ARC
  5
11E
330
1F
100
AcDbEntity
  8
0
  6
SLD-Durchgehend
 62
   131
420
  8454143
370
    40
100
AcDbCircle
 10
73.1846053856
 20
-48.187978572
 30
0.0
 40
1.786133581298013
100
AcDbArc
 50
280.3016676410999
 51
9.6617082081
  0
ELLIPSE
  5
11F
330
1F
100
AcDbEntity
  8
0
  6
SLD-Durchgehend
 62
   131
420
  8454143
370
    40
100
AcDbEllipse
 10
62.2952645357
 20
-0.4668376597
 30
0.0
 11
-4.883780058693971
 21
52.7499349269499
 31
0.0
210
0.0
220
0.0
230
1.0
 40
0.0852392129
 41
3.125346662034977
 42
3.151588445726893
  0
SPLINE
  5
120
330
1F
100
AcDbEntity
  8
0
  6
SLD-Durchgehend
 62
   131
420
  8454143
370
    40
100
AcDbSpline
210
0.0
220
0.0
230
1.0
 70
     8
 71
     3
 72
     8
 73
     4
 74
     0
 42
0.00000001
 43
0.00000001
 12
1.0
 22
0.0
 32
0.0
 13
1.0
 23
0.0
 33
0.0
 40
0.0
 40
0.0
 40
0.0
 40
0.0
 40
1.0
 40
1.0
 40
1.0
 40
1.0
 10
75.35177674001358
 20
-47.50625149206361
 30
0.0
 10
75.36982372735797
 20
-47.55517655345681
 30
0.0
 10
75.38703417976147
 20
-47.60782066754251
 30
0.0
 10
75.40322891966677
 20
-47.66536094435941
 30
0.0
  0
ARC
  5
121
330
1F
100
AcDbEntity
  8
0
  6
SLD-Durchgehend
 62
   131
420
  8454143
370
    40
100
AcDbCircle
 10
74.4215346225
 20
-46.2302635007
 30
0.0
 40
1.738743329469647
100
AcDbArc
 50
287.5352239216999
 51
304.3745117537
  0
SPLINE
  5
122
330
1F
100
AcDbEntity
  8
0
  6
SLD-Durchgehend
 62
   131
420
  8454143
370
    40
100
AcDbSpline
210
0.0
220
0.0
230
1.0
 70
     8
 71
     3
 72
     8
 73
     4
 74
     0
 42
0.00000001
 43
0.00000001
 12
1.0
 22
0.0
 32
0.0
 13
1.0
 23
0.0
 33
0.0
 40
0.0
 40
0.0
 40
0.0
 40
0.0
 40
1.0
 40
1.0
 40
1.0
 40
1.0
 10
73.55170753999228
 20
-50.39466412287771
 30
0.0
 10
73.52968922007068
 20
-50.3975841694939
 30
0.0
 10
73.50762272467085
 20
-50.40011841788301
 30
0.0
 10
73.48552501716067
 20
-50.4022637957333
 30
0.0
  0
ARC
  5
123
330
1F
100
AcDbEntity
  8
0
  6
SLD-Durchgehend
 62
   131
420
  8454143
370
    40
100
AcDbCircle
 10
71.7331822106
 20
-50.1024860585
 30
0.0
 40
1.777799764716239
100
AcDbArc
 50
350.2922392769
 51
5.0718638613
  0
SPLINE
  5
124
330
1F
100
AcDbEntity
  8
0
  6
SLD-Durchgehend
 62
   131
420
  8454143
370
    40
100
AcDbSpline
210
0.0
220
0.0
230
1.0
 70
     8
 71
     3
 72
     8
 73
     4
 74
     0
 42
0.00000001
 43
0.00000001
 12
1.0
 22
0.0
 32
0.0
 13
1.0
 23
0.0
 33
0.0
 40
0.0
 40
0.0
 40
0.0
 40
0.0
 40
1.0
 40
1.0
 40
1.0
 40
1.0
 10
75.40322891966667
 20
-47.66536094435941
 30
0.0
 10
75.40913068345577
 20
-47.68633004445751
 30
0.0
 10
75.41465633868637
 20
-47.70740250228511
 30
0.0
 10
75.41980283221005
 20
-47.72856153781001
 30
0.0
  0
ARC
  5
125
330
1F
100
AcDbEntity
  8
0
  6
SLD-Durchgehend
 62
   131
420
  8454143
370
    40
100
AcDbCircle
 10
73.0568472341
 20
-48.0603999614
 30
0.0
 40
2.386142472300805
100
AcDbArc
 50
281.9693995471
 51
7.993976301600001
  0
SPLINE
  5
126
330
1F
100
AcDbEntity
  8
0
  6
SLD-Durchgehend
 62
   131
420
  8454143
370
    40
100
AcDbSpline
210
0.0
220
0.0
230
1.0
 70
     8
 71
     3
 72
     8
 73
     4
 74
     0
 42
0.00000001
 43
0.00000001
 12
1.0
 22
0.0
 32
0.0
 13
1.0
 23
0.0
 33
0.0
 40
0.0
 40
0.0
 40
0.0
 40
0.0
 40
1.0
 40
1.0
 40
1.0
 40
1.0
 10
73.31488497734047
 20
-50.41325651295951
 30
0.0
 10
73.36831867615197
 20
-50.4116784745887
 30
0.0
 10
73.42488778420348
 20
-50.40815082163561
 30
0.0
 10
73.48552501716037
 20
-50.40226379573311
 30
0.0
  0
ARC
  5
127
330
1F
100
AcDbEntity
  8
0
  6
SLD-Durchgehend
 62
   131
420
  8454143
370
    40
100
AcDbCircle
 10
78.2842372517
 20
-43.0296786381
 30
0.0
 40
0.7877810465765636
100
AcDbArc
 50
4.6854672002
 51
85.3151042011
  0
LINE
  5
128
330
1F
100
AcDbEntity
  8
0
  6
SLD-Durchgehend
 62
   131
420
  8454143
370
    40
100
AcDbLine
 10
79.9978301594
 20
-54.1397043932
 30
0.0
 11
79.0693856428
 21
-42.9653281811
 31
0.0
  0
ARC
  5
129
330
1F
100
AcDbEntity
  8
0
  6
SLD-Durchgehend
 62
   131
420
  8454143
370
    40
100
AcDbCircle
 10
79.1961510928
 20
-54.2047107131
 30
0.0
 40
0.8043103551518699
100
AcDbArc
 50
265.3649422611999
 51
4.6358407736
  0
LINE
  5
12A
330
1F
100
AcDbEntity
  8
0
  6
SLD-Durchgehend
 62
   131
420
  8454143
370
    40
100
AcDbLine
 10
67.9567891812
 20
-54.0780765144
 30
0.0
 11
79.1311557291
 21
-55.006390668
 31
0.0
  0
ARC
  5
12B
330
1F
100
AcDbEntity
  8
0
  6
SLD-Durchgehend
 62
   131
420
  8454143
370
    40
100
AcDbCircle
 10
68.0211318081
 20
-53.2929274816
 30
0.0
 40
0.7877810465763162
100
AcDbArc
 50
184.6854672001
 51
265.3151042011
  0
LINE
  5
12C
330
1F
100
AcDbEntity
  8
0
  6
SLD-Durchgehend
 62
   131
420
  8454143
370
    40
100
AcDbLine
 10
66.8742086697
 20
-49.0031059258
 30
0.0
 11
67.235983417
 21
-53.3572779386
 31
0.0
  0
ARC
  5
12D
330
1F
100
AcDbEntity
  8
0
  6
SLD-Durchgehend
 62
   131
420
  8454143
370
    40
100
AcDbCircle
 10
73.1420973598
 20
-48.1549182872
 30
0.0
 40
2.577057720378269
100
AcDbArc
 50
225.2731233082
 51
62.4736998041
  0
LWPOLYLINE
  5
12E
330
1F
100
AcDbEntity
  8
0
  6
SLD-Durchgehend
 62
   131
420
  8454143
370
    40
100
AcDbPolyline
 90
        3
 70
   128
 43
0.0
 10
71.7043247206
 20
-50.0888250129
 10
72.2375951973
 20
-50.2443922493
 10
72.5799282532
 20
-50.2813349353
  0
ARC
  5
12F
330
1F
100
AcDbEntity
  8
0
  6
SLD-Durchgehend
 62
   131
420
  8454143
370
    40
100
AcDbCircle
 10
72.7305517347
 20
-47.6877922359
 30
0.0
 40
2.54375357474352
100
AcDbArc
 50
8.4255301175
 51
37.83515453610001
  0
LWPOLYLINE
  5
130
330
1F
100
AcDbEntity
  8
0
  6
SLD-Durchgehend
 62
   131
420
  8454143
370
    40
100
AcDbPolyline
 90
        4
 70
   128
 43
0.0
 10
66.8674165965
 20
-53.1936545349
 10
66.9286640466
 20
-53.2975565359
 10
67.0174324094
 20
-53.4035119931
 10
67.0174907193
 20
-53.4035702963
  0
LINE
  5
131
330
1F
100
AcDbEntity
  8
0
  6
SLD-Durchgehend
 62
   131
420
  8454143
370
    40
100
AcDbLine
 10
-37.009662451
 20
-32.2498503967
 30
0.0
 11
-37.009662451
 21
-31.7179622347
 31
0.0
  0
LINE
  5
132
330
1F
100
AcDbEntity
  8
0
  6
SLD-Durchgehend
 62
   131
420
  8454143
370
    40
100
AcDbLine
 10
-42.0096624521
 20
32.1044105924
 30
0.0
 11
-42.009662451
 21
32.2501496033
 31
0.0
  0
LINE
  5
133
330
1F
100
AcDbEntity
  8
0
  6
SLD-Durchgehend
 62
   131
420
  8454143
370
    40
100
AcDbLine
 10
67.235983417
 20
-53.3572779386
 30
0.0
 11
67.0941712546
 21
-53.2154969448
 31
0.0
  0
DIMENSION
  5
134
330
1F
100
AcDbEntity
  8
0
 62
     7
420
 16777215
100
AcDbDimension
  2
_D
 10
-56.271887212
 20
-49.9998503967
 30
0.0
 11
-56.271887212
 21
0.0001496033
 31
0.0
 70
   160
  1
%%c<>
 71
     2
 42
-1.0
 73
     0
 74
     0
 75
     0
  3
SLDDIMSTYLE0
100
AcDbAlignedDimension
 13
-0.009662451
 23
50.0001496033
 33
0.0
 14
-0.009662451
 24
-49.9998503967
 34
0.0
 50
90.0
100
AcDbRotatedDimension
  0
DIMENSION
  5
141
330
1F
100
AcDbEntity
  8
0
 62
     7
420
 16777215
100
AcDbDimension
  2
_D_1
 10
28.990337549
 20
48.989944459
 30
0.0
 11
50.7654448035
 21
-74.5000185744
 31
0.0
 70
   162
  1
<>
 71
     1
 42
-1.0
 73
     0
 74
     0
 75
     0
  3
SLDDIMSTYLE1
100
AcDb2LineAngularDimension
 13
67.9567891812
 23
-54.0780765144
 33
0.0
 14
79.1311557291
 24
-55.006390668
 34
0.0
 15
28.990337549
 25
-48.7748439897
 35
0.0
 16
50.7654448035
 26
-74.5000185744
 36
0.0
  0
DIMENSION
  5
14C
330
1F
100
AcDbEntity
  8
0
 62
     7
420
 16777215
100
AcDbDimension
  2
_D_2
 10
79.9978301594
 20
-61.0091207209
 30
0.0
 11
39.9940838542
 21
-61.0091207209
 31
0.0
 70
   160
  1
<>
 71
     2
 42
-1.0
 73
     0
 74
     0
 75
     0
  3
SLDDIMSTYLE0
100
AcDbAlignedDimension
 13
-0.009662451
 23
0.0001496033
 33
0.0
 14
79.9978301594
 24
-54.1397043932
 34
0.0
100
AcDbRotatedDimension
  0
DIMENSION
  5
156
330
1F
100
AcDbEntity
  8
0
 62
     7
420
 16777215
100
AcDbDimension
  2
_D_3
 10
86.0005609857
 20
0.0001496033
 30
0.0
 11
86.0005609857
 21
-27.5031205324
 31
0.0
 70
   160
  1
<>
 71
     2
 42
-1.0
 73
     0
 74
     0
 75
     0
  3
SLDDIMSTYLE0
100
AcDbAlignedDimension
 13
79.1311557291
 23
-55.006390668
 33
0.0
 14
-0.009662451
 24
0.0001496033
 34
0.0
 50
90.0
100
AcDbRotatedDimension
  0
DIMENSION
  5
160
330
1F
100
AcDbEntity
  8
0
 62
     7
420
 16777215
100
AcDbDimension
  2
_D_4
 10
98.0005609857
 20
-43.7998503967
 30
0.0
 11
98.0005609857
 21
0.0001496033
 31
0.0
 70
   160
  1
%%c<>
 71
     2
 42
-1.0
 73
     0
 74
     0
 75
     0
  3
SLDDIMSTYLE0
100
AcDbAlignedDimension
 13
35.8120682257
 23
43.8001496033
 33
0.0
 14
53.9963666537
 24
-43.7998503967
 34
0.0
 50
90.0
100
AcDbRotatedDimension
  0
ENDSEC
  0
SECTION
  2
OBJECTS
  0
DICTIONARY
  5
C
330
0
100
AcDbDictionary
281
     1
  3
ACAD_GROUP
350
D
  3
ACAD_IMAGE_VARS
350
1A9
  3
ACAD_LAYOUT
350
1A
  3
ACAD_MATERIAL
350
3B
  3
ACAD_MLEADERSTYLE
350
184
  3
ACAD_MLINESTYLE
350
17
  3
ACAD_PLOTSETTINGS
350
19
  3
ACAD_PLOTSTYLENAME
350
E
  3
ACAD_SCALELIST
350
185
  3
ACAD_TABLESTYLE
350
183
  3
ACAD_VISUALSTYLE
350
2A
  3
ACDB_RECOMPOSE_DATA
350
1AE
  3
AcDbVariableDictionary
350
1AA
  3
APPDATA
350
1A8
  0
DICTIONARY
  5
D
102
{ACAD_REACTORS
330
C
102
}
330
C
100
AcDbDictionary
281
     1
  0
RASTERVARIABLES
  5
1A9
102
{ACAD_REACTORS
330
C
102
}
330
C
100
AcDbRasterVariables
 90
        0
 70
     1
 71
     1
 72
     1
  0
DICTIONARY
  5
1A
102
{ACAD_REACTORS
330
C
102
}
330
C
100
AcDbDictionary
281
     1
  3
Layout1
350
1E
  3
Layout2
350
26
  3
Model
350
22
  0
DICTIONARY
  5
3B
102
{ACAD_REACTORS
330
C
102
}
330
C
100
AcDbDictionary
281
     1
  3
ByBlock
350
3D
  3
ByLayer
350
3C
  3
Global
350
3E
  0
DICTIONARY
  5
184
102
{ACAD_REACTORS
330
C
102
}
330
C
100
AcDbDictionary
281
     1
  0
DICTIONARY
  5
17
102
{ACAD_REACTORS
330
C
102
}
330
C
100
AcDbDictionary
281
     1
  3
Standard
350
18
  0
DICTIONARY
  5
19
102
{ACAD_REACTORS
330
C
102
}
330
C
100
AcDbDictionary
281
     1
  0
ACDBDICTIONARYWDFLT
  5
E
102
{ACAD_REACTORS
330
C
102
}
330
C
100
AcDbDictionary
281
     1
  3
Normal
350
F
100
AcDbDictionaryWithDefault
340
F
  0
DICTIONARY
  5
185
102
{ACAD_REACTORS
330
C
102
}
330
C
100
AcDbDictionary
281
     1
  3
A0
350
186
  3
A1
350
187
  3
A2
350
188
  3
A3
350
189
  3
A4
350
18A
  3
A5
350
18B
  3
A6
350
18C
  3
A7
350
18D
  3
A8
350
18E
  3
A9
350
18F
  3
B0
350
190
  3
B1
350
191
  3
B2
350
192
  3
B3
350
193
  3
B4
350
194
  3
B5
350
195
  3
B6
350
196
  3
B7
350
197
  3
B8
350
198
  3
B9
350
199
  3
C0
350
19A
  3
C1
350
19B
  3
C2
350
19C
  3
C3
350
19D
  3
C4
350
19E
  3
C5
350
19F
  3
C6
350
1A0
  3
C7
350
1A1
  3
C8
350
1A2
  3
C9
350
1A3
  3
D0
350
1A4
  3
D1
350
1A5
  3
D2
350
1A6
  0
DICTIONARY
  5
183
102
{ACAD_REACTORS
330
C
102
}
330
C
100
AcDbDictionary
281
     1
  3
Standard
350
1A7
  0
DICTIONARY
  5
2A
102
{ACAD_REACTORS
330
C
102
}
330
C
100
AcDbDictionary
281
     1
  3
2dWireframe
350
2F
  3
3D Hidden
350
31
  3
3dWireframe
350
30
  3
Basic
350
32
  3
Brighten
350
36
  3
ColorChange
350
3A
  3
Conceptual
350
34
  3
Dim
350
35
  3
Facepattern
350
39
  3
Flat
350
2B
  3
FlatWithEdges
350
2C
  3
Gouraud
350
2D
  3
GouraudWithEdges
350
2E
  3
Linepattern
350
38
  3
Realistic
350
33
  3
Thicken
350
37
  0
XRECORD
  5
1AE
102
{ACAD_REACTORS
330
C
102
}
330
C
100
AcDbXrecord
280
     1
 90
        1
330
1A7
  0
DICTIONARY
  5
1AA
102
{ACAD_REACTORS
330
C
102
}
330
C
100
AcDbDictionary
281
     1
  3
CANNOSCALE
350
1AB
  3
CTABLESTYLE
350
1AF
  3
LIGHTSINBLOCKS
350
1B0
  3
XCLIPFRAME
350
1B1
  0
DICTIONARY
  5
1A8
102
{ACAD_REACTORS
330
C
102
}
330
C
100
AcDbDictionary
281
     1
  0
LAYOUT
  5
1E
102
{ACAD_REACTORS
330
1A
102
}
330
1A
100
AcDbPlotSettings
  1

  2
none_device
  4

  6

 40
0.0
 41
0.0
 42
0.0
 43
0.0
 44
0.0
 45
0.0
 46
0.0
 47
0.0
 48
0.0
 49
0.0
140
0.0
141
0.0
142
1.0
143
1.0
 70
   688
 72
     0
 73
     0
 74
     5
  7

 75
    16
 76
     0
 77
     2
 78
   300
147
1.0
148
0.0
149
0.0
100
AcDbLayout
  1
Layout1
 70
     1
 71
     1
 10
0.0
 20
0.0
 11
420.0
 21
297.0
 12
0.0
 22
0.0
 32
0.0
 14
1.000000000000000E+20
 24
1.000000000000000E+20
 34
1.000000000000000E+20
 15
-1.000000000000000E+20
 25
-1.000000000000000E+20
 35
-1.000000000000000E+20
146
0.0
 13
0.0
 23
0.0
 33
0.0
 16
1.0
 26
0.0
 36
0.0
 17
0.0
 27
1.0
 37
0.0
 76
     0
330
1B
  0
LAYOUT
  5
26
102
{ACAD_REACTORS
330
1A
102
}
330
1A
100
AcDbPlotSettings
  1

  2
none_device
  4

  6

 40
0.0
 41
0.0
 42
0.0
 43
0.0
 44
0.0
 45
0.0
 46
0.0
 47
0.0
 48
0.0
 49
0.0
140
0.0
141
0.0
142
1.0
143
1.0
 70
   688
 72
     0
 73
     0
 74
     5
  7

 75
    16
 76
     0
 77
     2
 78
   300
147
1.0
148
0.0
149
0.0
100
AcDbLayout
  1
Layout2
 70
     1
 71
     2
 10
0.0
 20
0.0
 11
0.0
 21
0.0
 12
0.0
 22
0.0
 32
0.0
 14
0.0
 24
0.0
 34
0.0
 15
0.0
 25
0.0
 35
0.0
146
0.0
 13
0.0
 23
0.0
 33
0.0
 16
1.0
 26
0.0
 36
0.0
 17
0.0
 27
1.0
 37
0.0
 76
     0
330
23
  0
LAYOUT
  5
22
102
{ACAD_REACTORS
330
1A
102
}
330
1A
100
AcDbPlotSettings
  1

  2
none_device
  4

  6

 40
0.0
 41
0.0
 42
0.0
 43
0.0
 44
0.0
 45
0.0
 46
0.0
 47
0.0
 48
0.0
 49
0.0
140
0.0
141
0.0
142
1.0
143
1.0
 70
  1712
 72
     0
 73
     0
 74
     0
  7

 75
     0
 76
     0
 77
     2
 78
   300
147
1.0
148
0.0
149
0.0
100
AcDbLayout
  1
Model
 70
     1
 71
     0
 10
0.0
 20
0.0
 11
297.0
 21
210.0
 12
0.0
 22
0.0
 32
0.0
 14
0.0
 24
0.0
 34
0.0
 15
297.0
 25
210.0
 35
0.0
146
0.0
 13
0.0
 23
0.0
 33
0.0
 16
1.0
 26
0.0
 36
0.0
 17
0.0
 27
1.0
 37
0.0
 76
     0
330
1F
331
29
  0
MATERIAL
  5
3D
102
{ACAD_REACTORS
330
3B
102
}
330
3B
100
AcDbMaterial
  1
ByBlock
 72
     1
 94
      127
  0
MATERIAL
  5
3C
102
{ACAD_REACTORS
330
3B
102
}
330
3B
100
AcDbMaterial
  1
ByLayer
 72
     1
 94
      127
  0
MATERIAL
  5
3E
102
{ACAD_REACTORS
330
3B
102
}
330
3B
100
AcDbMaterial
  1
Global
 72
     1
 94
      127
  0
MLINESTYLE
  5
18
102
{ACAD_REACTORS
330
17
102
}
330
17
100
AcDbMlineStyle
  2
Standard
 70
     0
  3

 62
   256
 51
90.0
 52
90.0
 71
     2
 49
0.5
 62
   256
  6
BYLAYER
 49
-0.5
 62
   256
  6
BYLAYER
  0
ACDBPLACEHOLDER
  5
F
102
{ACAD_REACTORS
330
E
102
}
330
E
  0
SCALE
  5
186
102
{ACAD_REACTORS
330
185
102
}
330
185
100
AcDbScale
 70
     0
300
1:1
140
1.0
141
1.0
290
     1
  0
SCALE
  5
187
102
{ACAD_REACTORS
330
185
102
}
330
185
100
AcDbScale
 70
     0
300
1:2
140
1.0
141
2.0
290
     0
  0
SCALE
  5
188
102
{ACAD_REACTORS
330
185
102
}
330
185
100
AcDbScale
 70
     0
300
1:4
140
1.0
141
4.0
290
     0
  0
SCALE
  5
189
102
{ACAD_REACTORS
330
185
102
}
330
185
100
AcDbScale
 70
     0
300
1:5
140
1.0
141
5.0
290
     0
  0
SCALE
  5
18A
102
{ACAD_REACTORS
330
185
102
}
330
185
100
AcDbScale
 70
     0
300
1:8
140
1.0
141
8.0
290
     0
  0
SCALE
  5
18B
102
{ACAD_REACTORS
330
185
102
}
330
185
100
AcDbScale
 70
     0
300
1:10
140
1.0
141
10.0
290
     0
  0
SCALE
  5
18C
102
{ACAD_REACTORS
330
185
102
}
330
185
100
AcDbScale
 70
     0
300
1:16
140
1.0
141
16.0
290
     0
  0
SCALE
  5
18D
102
{ACAD_REACTORS
330
185
102
}
330
185
100
AcDbScale
 70
     0
300
1:20
140
1.0
141
20.0
290
     0
  0
SCALE
  5
18E
102
{ACAD_REACTORS
330
185
102
}
330
185
100
AcDbScale
 70
     0
300
1:30
140
1.0
141
30.0
290
     0
  0
SCALE
  5
18F
102
{ACAD_REACTORS
330
185
102
}
330
185
100
AcDbScale
 70
     0
300
1:40
140
1.0
141
40.0
290
     0
  0
SCALE
  5
190
102
{ACAD_REACTORS
330
185
102
}
330
185
100
AcDbScale
 70
     0
300
1:50
140
1.0
141
50.0
290
     0
  0
SCALE
  5
191
102
{ACAD_REACTORS
330
185
102
}
330
185
100
AcDbScale
 70
     0
300
1:100
140
1.0
141
100.0
290
     0
  0
SCALE
  5
192
102
{ACAD_REACTORS
330
185
102
}
330
185
100
AcDbScale
 70
     0
300
2:1
140
2.0
141
1.0
290
     0
  0
SCALE
  5
193
102
{ACAD_REACTORS
330
185
102
}
330
185
100
AcDbScale
 70
     0
300
4:1
140
4.0
141
1.0
290
     0
  0
SCALE
  5
194
102
{ACAD_REACTORS
330
185
102
}
330
185
100
AcDbScale
 70
     0
300
8:1
140
8.0
141
1.0
290
     0
  0
SCALE
  5
195
102
{ACAD_REACTORS
330
185
102
}
330
185
100
AcDbScale
 70
     0
300
10:1
140
10.0
141
1.0
290
     0
  0
SCALE
  5
196
102
{ACAD_REACTORS
330
185
102
}
330
185
100
AcDbScale
 70
     0
300
100:1
140
100.0
141
1.0
290
     0
  0
SCALE
  5
197
102
{ACAD_REACTORS
330
185
102
}
330
185
100
AcDbScale
 70
     0
300
1/128" = 1'-0"
140
0.0078125
141
12.0
290
     0
  0
SCALE
  5
198
102
{ACAD_REACTORS
330
185
102
}
330
185
100
AcDbScale
 70
     0
300
1/64" = 1'-0"
140
0.015625
141
12.0
290
     0
  0
SCALE
  5
199
102
{ACAD_REACTORS
330
185
102
}
330
185
100
AcDbScale
 70
     0
300
1/32" = 1'-0"
140
0.03125
141
12.0
290
     0
  0
SCALE
  5
19A
102
{ACAD_REACTORS
330
185
102
}
330
185
100
AcDbScale
 70
     0
300
1/16" = 1'-0"
140
0.0625
141
12.0
290
     0
  0
SCALE
  5
19B
102
{ACAD_REACTORS
330
185
102
}
330
185
100
AcDbScale
 70
     0
300
3/32" = 1'-0"
140
0.09375
141
12.0
290
     0
  0
SCALE
  5
19C
102
{ACAD_REACTORS
330
185
102
}
330
185
100
AcDbScale
 70
     0
300
1/8" = 1'-0"
140
0.125
141
12.0
290
     0
  0
SCALE
  5
19D
102
{ACAD_REACTORS
330
185
102
}
330
185
100
AcDbScale
 70
     0
300
3/16" = 1'-0"
140
0.1875
141
12.0
290
     0
  0
SCALE
  5
19E
102
{ACAD_REACTORS
330
185
102
}
330
185
100
AcDbScale
 70
     0
300
1/4" = 1'-0"
140
0.25
141
12.0
290
     0
  0
SCALE
  5
19F
102
{ACAD_REACTORS
330
185
102
}
330
185
100
AcDbScale
 70
     0
300
3/8" = 1'-0"
140
0.375
141
12.0
290
     0
  0
SCALE
  5
1A0
102
{ACAD_REACTORS
330
185
102
}
330
185
100
AcDbScale
 70
     0
300
1/2" = 1'-0"
140
0.5
141
12.0
290
     0
  0
SCALE
  5
1A1
102
{ACAD_REACTORS
330
185
102
}
330
185
100
AcDbScale
 70
     0
300
3/4" = 1'-0"
140
0.75
141
12.0
290
     0
  0
SCALE
  5
1A2
102
{ACAD_REACTORS
330
185
102
}
330
185
100
AcDbScale
 70
     0
300
1" = 1'-0"
140
1.0
141
12.0
290
     0
  0
SCALE
  5
1A3
102
{ACAD_REACTORS
330
185
102
}
330
185
100
AcDbScale
 70
     0
300
1-1/2" = 1'-0"
140
1.5
141
12.0
290
     0
  0
SCALE
  5
1A4
102
{ACAD_REACTORS
330
185
102
}
330
185
100
AcDbScale
 70
     0
300
3" = 1'-0"
140
3.0
141
12.0
290
     0
  0
SCALE
  5
1A5
102
{ACAD_REACTORS
330
185
102
}
330
185
100
AcDbScale
 70
     0
300
6" = 1'-0"
140
6.0
141
12.0
290
     0
  0
SCALE
  5
1A6
102
{ACAD_REACTORS
330
185
102
}
330
185
100
AcDbScale
 70
     0
300
1'-0" = 1'-0"
140
12.0
141
12.0
290
     0
  0
TABLESTYLE
  5
1A7
102
{ACAD_REACTORS
330
183
102
}
102
{ACAD_XDICTIONARY
360
1AC
102
}
330
183
100
AcDbTableStyle
  3
Standard
 70
     0
 71
     0
 40
1.5
 41
1.5
280
     0
281
     0
  7
Standard
140
4.5
170
     2
 62
     0
 63
   257
283
     0
 90
        4
 91
        0
  1

274
    -2
284
     1
 64
     0
275
    -2
285
     1
 65
     0
276
    -2
286
     1
 66
     0
277
    -2
287
     1
 67
     0
278
    -2
288
     1
 68
     0
279
    -2
289
     1
 69
     0
  7
Standard
140
6.0
170
     5
 62
     0
 63
   257
283
     0
 90
        4
 91
        0
  1

274
    -2
284
     1
 64
     0
275
    -2
285
     1
 65
     0
276
    -2
286
     1
 66
     0
277
    -2
287
     1
 67
     0
278
    -2
288
     1
 68
     0
279
    -2
289
     1
 69
     0
  7
Standard
140
4.5
170
     5
 62
     0
 63
   257
283
     0
 90
        4
 91
        0
  1

274
    -2
284
     1
 64
     0
275
    -2
285
     1
 65
     0
276
    -2
286
     1
 66
     0
277
    -2
287
     1
 67
     0
278
    -2
288
     1
 68
     0
279
    -2
289
     1
 69
     0
  0
VISUALSTYLE
  5
2F
102
{ACAD_REACTORS
330
2A
102
}
330
2A
100
AcDbVisualStyle
  2
2dWireframe
 70
     4
 71
     0
 72
     2
 73
     0
 90
        0
 40
-0.6
 41
-30.0
 62
     5
 63
     7
421
 16777215
 74
     1
 91
        4
 64
     7
 65
   257
 75
     1
175
     1
 42
1.0
 92
        0
 66
   257
 43
1.0
 76
     1
 77
     6
 78
     2
 67
     7
 79
     5
170
     0
171
     0
290
     0
174
     0
 93
        1
 44
0.0
173
     0
291
     0
 45
0.0
  0
VISUALSTYLE
  5
31
102
{ACAD_REACTORS
330
2A
102
}
330
2A
100
AcDbVisualStyle
  2
3D Hidden
 70
     6
 71
     1
 72
     2
 73
     2
 90
        0
 40
-0.6
 41
-30.0
 62
     5
 63
     7
421
 16777215
 74
     2
 91
        2
 64
     7
 65
   257
 75
     2
175
     1
 42
40.0
 92
        0
 66
   257
 43
1.0
 76
     1
 77
     6
 78
     2
 67
     7
 79
     3
170
     0
171
     0
290
     0
174
     0
 93
        1
 44
0.0
173
     0
291
     0
 45
0.0
  0
VISUALSTYLE
  5
30
102
{ACAD_REACTORS
330
2A
102
}
330
2A
100
AcDbVisualStyle
  2
3dWireframe
 70
     5
 71
     0
 72
     2
 73
     0
 90
        0
 40
-0.6
 41
-30.0
 62
     5
 63
     7
421
 16777215
 74
     1
 91
        4
 64
     7
 65
   257
 75
     1
175
     1
 42
1.0
 92
        0
 66
   257
 43
1.0
 76
     1
 77
     6
 78
     2
 67
     7
 79
     5
170
     0
171
     0
290
     0
174
     0
 93
        1
 44
0.0
173
     0
291
     0
 45
0.0
  0
VISUALSTYLE
  5
32
102
{ACAD_REACTORS
330
2A
102
}
330
2A
100
AcDbVisualStyle
  2
Basic
 70
     7
 71
     1
 72
     0
 73
     1
 90
        0
 40
-0.6
 41
-30.0
 62
     5
 63
     7
421
 16777215
 74
     0
 91
        4
 64
     7
 65
   257
 75
     1
175
     1
 42
1.0
 92
        8
 66
     7
 43
1.0
 76
     1
 77
     6
 78
     2
 67
     7
 79
     5
170
     0
171
     0
290
     0
174
     0
 93
        1
 44
0.0
173
     0
291
     1
 45
0.0
  0
VISUALSTYLE
  5
36
102
{ACAD_REACTORS
330
2A
102
}
330
2A
100
AcDbVisualStyle
  2
Brighten
 70
    12
 71
     2
 72
     2
 73
     0
 90
        0
 40
-0.6
 41
-30.0
 62
     5
 63
     7
421
 16777215
 74
     1
 91
        4
 64
     7
 65
   257
 75
     1
175
     1
 42
1.0
 92
        8
 66
     7
 43
1.0
 76
     1
 77
     6
 78
     2
 67
     7
 79
     5
170
     0
171
     0
290
     0
174
     0
 93
        1
 44
50.0
173
     0
291
     1
 45
0.0
  0
VISUALSTYLE
  5
3A
102
{ACAD_REACTORS
330
2A
102
}
330
2A
100
AcDbVisualStyle
  2
ColorChange
 70
    16
 71
     2
 72
     2
 73
     3
 90
        0
 40
-0.6
 41
-30.0
 62
     5
 63
     8
421
  8421504
 74
     1
 91
        4
 64
     7
 65
   257
 75
     1
175
     1
 42
1.0
 92
        8
 66
     8
424
  8421504
 43
1.0
 76
     1
 77
     6
 78
     2
 67
     7
 79
     5
170
     0
171
     0
290
     0
174
     0
 93
        1
 44
0.0
173
     0
291
     1
 45
0.0
  0
VISUALSTYLE
  5
34
102
{ACAD_REACTORS
330
2A
102
}
330
2A
100
AcDbVisualStyle
  2
Conceptual
 70
     9
 71
     3
 72
     2
 73
     0
 90
        0
 40
-0.6
 41
-30.0
 62
     5
 63
     7
421
 16777215
 74
     2
 91
        2
 64
     7
 65
   257
 75
     1
175
     1
 42
40.0
 92
        8
 66
     7
 43
1.0
 76
     1
 77
     6
 78
     2
 67
     7
 79
     3
170
     0
171
     0
290
     0
174
     0
 93
        1
 44
0.0
173
     0
291
     0
 45
0.0
  0
VISUALSTYLE
  5
35
102
{ACAD_REACTORS
330
2A
102
}
330
2A
100
AcDbVisualStyle
  2
Dim
 70
    11
 71
     2
 72
     2
 73
     0
 90
        0
 40
-0.6
 41
-30.0
 62
     5
 63
     7
421
 16777215
 74
     1
 91
        4
 64
     7
 65
   257
 75
     1
175
     1
 42
1.0
 92
        8
 66
     7
 43
1.0
 76
     1
 77
     6
 78
     2
 67
     7
 79
     5
170
     0
171
     0
290
     0
174
     0
 93
        1
 44
-50.0
173
     0
291
     1
 45
0.0
  0
VISUALSTYLE
  5
39
102
{ACAD_REACTORS
330
2A
102
}
330
2A
100
AcDbVisualStyle
  2
Facepattern
 70
    15
 71
     2
 72
     2
 73
     0
 90
        0
 40
-0.6
 41
-30.0
 62
     5
 63
     7
421
 16777215
 74
     1
 91
        4
 64
     7
 65
   257
 75
     1
175
     1
 42
1.0
 92
        8
 66
     7
 43
1.0
 76
     1
 77
     6
 78
     2
 67
     7
 79
     5
170
     0
171
     0
290
     0
174
     0
 93
        1
 44
0.0
173
     0
291
     1
 45
0.0
  0
VISUALSTYLE
  5
2B
102
{ACAD_REACTORS
330
2A
102
}
330
2A
100
AcDbVisualStyle
  2
Flat
 70
     0
 71
     2
 72
     1
 73
     1
 90
        2
 40
-0.6
 41
30.0
 62
     5
 63
     7
421
 16777215
 74
     0
 91
        4
 64
     7
 65
   257
 75
     1
175
     1
 42
1.0
 92
        8
 66
     7
 43
1.0
 76
     1
 77
     6
 78
     2
 67
     7
 79
     5
170
     0
171
     0
290
     0
174
     0
 93
       13
 44
0.0
173
     0
291
     1
 45
0.0
  0
VISUALSTYLE
  5
2C
102
{ACAD_REACTORS
330
2A
102
}
330
2A
100
AcDbVisualStyle
  2
FlatWithEdges
 70
     1
 71
     2
 72
     1
 73
     1
 90
        2
 40
-0.6
 41
30.0
 62
     5
 63
     7
421
 16777215
 74
     1
 91
        4
 64
     7
 65
   257
 75
     1
175
     1
 42
1.0
 92
        0
 66
   257
 43
1.0
 76
     1
 77
     6
 78
     2
 67
     7
 79
     5
170
     0
171
     0
290
     0
174
     0
 93
       13
 44
0.0
173
     0
291
     1
 45
0.0
  0
VISUALSTYLE
  5
2D
102
{ACAD_REACTORS
330
2A
102
}
330
2A
100
AcDbVisualStyle
  2
Gouraud
 70
     2
 71
     2
 72
     2
 73
     1
 90
        2
 40
-0.6
 41
30.0
 62
     5
 63
     7
421
 16777215
 74
     0
 91
        4
 64
     7
 65
   257
 75
     1
175
     1
 42
1.0
 92
        0
 66
     7
 43
1.0
 76
     1
 77
     6
 78
     2
 67
     7
 79
     5
170
     0
171
     0
290
     0
174
     0
 93
       13
 44
0.0
173
     0
291
     1
 45
0.0
  0
VISUALSTYLE
  5
2E
102
{ACAD_REACTORS
330
2A
102
}
330
2A
100
AcDbVisualStyle
  2
GouraudWithEdges
 70
     3
 71
     2
 72
     2
 73
     1
 90
        2
 40
-0.6
 41
30.0
 62
     5
 63
     7
421
 16777215
 74
     1
 91
        4
 64
     7
 65
   257
 75
     1
175
     1
 42
1.0
 92
        0
 66
   257
 43
1.0
 76
     1
 77
     6
 78
     2
 67
     7
 79
     5
170
     0
171
     0
290
     0
174
     0
 93
       13
 44
0.0
173
     0
291
     1
 45
0.0
  0
VISUALSTYLE
  5
38
102
{ACAD_REACTORS
330
2A
102
}
330
2A
100
AcDbVisualStyle
  2
Linepattern
 70
    14
 71
     2
 72
     2
 73
     0
 90
        0
 40
-0.6
 41
-30.0
 62
     5
 63
     7
421
 16777215
 74
     1
 91
        4
 64
     7
 65
   257
 75
     7
175
     7
 42
1.0
 92
        8
 66
     7
 43
1.0
 76
     1
 77
     6
 78
     2
 67
     7
 79
     5
170
     0
171
     0
290
     0
174
     0
 93
        1
 44
0.0
173
     0
291
     1
 45
0.0
  0
VISUALSTYLE
  5
33
102
{ACAD_REACTORS
330
2A
102
}
330
2A
100
AcDbVisualStyle
  2
Realistic
 70
     8
 71
     2
 72
     2
 73
     0
 90
        0
 40
-0.6
 41
-30.0
 62
     5
 63
     7
421
 16777215
 74
     1
 91
        0
 64
     7
 65
   257
 75
     1
175
     1
 42
1.0
 92
        8
 66
     8
424
  7895160
 43
1.0
 76
     1
 77
     6
 78
     2
 67
     7
 79
     5
170
     0
171
     0
290
     0
174
     0
 93
       13
 44
0.0
173
     0
291
     0
 45
0.0
  0
VISUALSTYLE
  5
37
102
{ACAD_REACTORS
330
2A
102
}
330
2A
100
AcDbVisualStyle
  2
Thicken
 70
    13
 71
     2
 72
     2
 73
     0
 90
        0
 40
-0.6
 41
-30.0
 62
     5
 63
     7
421
 16777215
 74
     1
 91
        4
 64
     7
 65
   257
 75
     1
175
     1
 42
1.0
 92
       12
 66
     7
 43
1.0
 76
     1
 77
     6
 78
     2
 67
     7
 79
     5
170
     0
171
     0
290
     0
174
     0
 93
        1
 44
0.0
173
     0
291
     1
 45
0.0
  0
DICTIONARYVAR
  5
1AB
102
{ACAD_REACTORS
330
1AA
102
}
330
1AA
100
DictionaryVariables
280
     0
  1
1:1
  0
DICTIONARYVAR
  5
1AF
102
{ACAD_REACTORS
330
1AA
102
}
330
1AA
100
DictionaryVariables
280
     0
  1
Standard
  0
DICTIONARYVAR
  5
1B0
102
{ACAD_REACTORS
330
1AA
102
}
330
1AA
100
DictionaryVariables
280
     0
  1
0
  0
DICTIONARYVAR
  5
1B1
102
{ACAD_REACTORS
330
1AA
102
}
330
1AA
100
DictionaryVariables
280
     0
  1
0
  0
DICTIONARY
  5
1AC
330
1A7
100
AcDbDictionary
280
     1
281
     1
  3
ACAD_ROUNDTRIP_2008_TABLESTYLE_CELLSTYLEMAP
360
1AD
  0
CELLSTYLEMAP
  5
1AD
102
{ACAD_REACTORS
330
1AC
102
}
330
1AC
100
AcDbCellStyleMap
 90
        3
300
CELLSTYLE
  1
TABLEFORMAT_BEGIN
 90
        5
170
     1
 91
        0
 92
        0
 62
   257
 93
        1
300
CONTENTFORMAT
  1
CONTENTFORMAT_BEGIN
 90
        0
 91
        0
 92
        4
 93
        0
300

 40
0.0
140
1.0
 94
        5
 62
     0
340
11
144
6.0
309
CONTENTFORMAT_END
171
     1
301
MARGIN
  1
CELLMARGIN_BEGIN
 40
1.5
 40
1.5
 40
1.5
 40
1.5
 40
1.5
 40
1.5
309
CELLMARGIN_END
 94
        6
 95
        1
302
GRIDFORMAT
  1
GRIDFORMAT_BEGIN
 90
        0
 91
        1
 62
     0
 92
       -2
340
14
 93
        0
 40
0.045
309
GRIDFORMAT_END
 95
        2
302
GRIDFORMAT
  1
GRIDFORMAT_BEGIN
 90
        0
 91
        1
 62
     0
 92
       -2
340
14
 93
        0
 40
0.045
309
GRIDFORMAT_END
 95
        4
302
GRIDFORMAT
  1
GRIDFORMAT_BEGIN
 90
        0
 91
        1
 62
     0
 92
       -2
340
14
 93
        0
 40
0.045
309
GRIDFORMAT_END
 95
        8
302
GRIDFORMAT
  1
GRIDFORMAT_BEGIN
 90
        0
 91
        1
 62
     0
 92
       -2
340
14
 93
        0
 40
0.045
309
GRIDFORMAT_END
 95
       16
302
GRIDFORMAT
  1
GRIDFORMAT_BEGIN
 90
        0
 91
        1
 62
     0
 92
       -2
340
14
 93
        0
 40
0.045
309
GRIDFORMAT_END
 95
       32
302
GRIDFORMAT
  1
GRIDFORMAT_BEGIN
 90
        0
 91
        1
 62
     0
 92
       -2
340
14
 93
        0
 40
0.045
309
GRIDFORMAT_END
309
TABLEFORMAT_END
  1
CELLSTYLE_BEGIN
 90
        1
 91
        1
300
_TITLE
309
CELLSTYLE_END
300
CELLSTYLE
  1
TABLEFORMAT_BEGIN
 90
        5
170
     1
 91
        0
 92
        0
 62
   257
 93
        1
300
CONTENTFORMAT
  1
CONTENTFORMAT_BEGIN
 90
        0
 91
        0
 92
        4
 93
        0
300

 40
0.0
140
1.0
 94
        5
 62
     0
340
11
144
4.5
309
CONTENTFORMAT_END
171
     1
301
MARGIN
  1
CELLMARGIN_BEGIN
 40
1.5
 40
1.5
 40
1.5
 40
1.5
 40
1.5
 40
1.5
309
CELLMARGIN_END
 94
        6
 95
        1
302
GRIDFORMAT
  1
GRIDFORMAT_BEGIN
 90
        0
 91
        1
 62
     0
 92
       -2
340
14
 93
        0
 40
0.045
309
GRIDFORMAT_END
 95
        2
302
GRIDFORMAT
  1
GRIDFORMAT_BEGIN
 90
        0
 91
        1
 62
     0
 92
       -2
340
14
 93
        0
 40
0.045
309
GRIDFORMAT_END
 95
        4
302
GRIDFORMAT
  1
GRIDFORMAT_BEGIN
 90
        0
 91
        1
 62
     0
 92
       -2
340
14
 93
        0
 40
0.045
309
GRIDFORMAT_END
 95
        8
302
GRIDFORMAT
  1
GRIDFORMAT_BEGIN
 90
        0
 91
        1
 62
     0
 92
       -2
340
14
 93
        0
 40
0.045
309
GRIDFORMAT_END
 95
       16
302
GRIDFORMAT
  1
GRIDFORMAT_BEGIN
 90
        0
 91
        1
 62
     0
 92
       -2
340
14
 93
        0
 40
0.045
309
GRIDFORMAT_END
 95
       32
302
GRIDFORMAT
  1
GRIDFORMAT_BEGIN
 90
        0
 91
        1
 62
     0
 92
       -2
340
14
 93
        0
 40
0.045
309
GRIDFORMAT_END
309
TABLEFORMAT_END
  1
CELLSTYLE_BEGIN
 90
        2
 91
        1
300
_HEADER
309
CELLSTYLE_END
300
CELLSTYLE
  1
TABLEFORMAT_BEGIN
 90
        5
170
     1
 91
        0
 92
        0
 62
   257
 93
        1
300
CONTENTFORMAT
  1
CONTENTFORMAT_BEGIN
 90
        0
 91
        0
 92
        4
 93
        0
300

 40
0.0
140
1.0
 94
        2
 62
     0
340
11
144
4.5
309
CONTENTFORMAT_END
171
     1
301
MARGIN
  1
CELLMARGIN_BEGIN
 40
1.5
 40
1.5
 40
1.5
 40
1.5
 40
1.5
 40
1.5
309
CELLMARGIN_END
 94
        6
 95
        1
302
GRIDFORMAT
  1
GRIDFORMAT_BEGIN
 90
        0
 91
        1
 62
     0
 92
       -2
340
14
 93
        0
 40
0.045
309
GRIDFORMAT_END
 95
        2
302
GRIDFORMAT
  1
GRIDFORMAT_BEGIN
 90
        0
 91
        1
 62
     0
 92
       -2
340
14
 93
        0
 40
0.045
309
GRIDFORMAT_END
 95
        4
302
GRIDFORMAT
  1
GRIDFORMAT_BEGIN
 90
        0
 91
        1
 62
     0
 92
       -2
340
14
 93
        0
 40
0.045
309
GRIDFORMAT_END
 95
        8
302
GRIDFORMAT
  1
GRIDFORMAT_BEGIN
 90
        0
 91
        1
 62
     0
 92
       -2
340
14
 93
        0
 40
0.045
309
GRIDFORMAT_END
 95
       16
302
GRIDFORMAT
  1
GRIDFORMAT_BEGIN
 90
        0
 91
        1
 62
     0
 92
       -2
340
14
 93
        0
 40
0.045
309
GRIDFORMAT_END
 95
       32
302
GRIDFORMAT
  1
GRIDFORMAT_BEGIN
 90
        0
 91
        1
 62
     0
 92
       -2
340
14
 93
        0
 40
0.045
309
GRIDFORMAT_END
309
TABLEFORMAT_END
  1
CELLSTYLE_BEGIN
 90
        3
 91
        2
300
_DATA
309
CELLSTYLE_END
  0
ENDSEC
  0
EOF
