  0
SECTION
  2
HEADER
  9
$ACADVER
  1
AC1021
  9
$ACADMAINTVER
 70
    25
  9
$DWGCODEPAGE
  3
ANSI_1252
  9
$INSBASE
 10
0.0
 20
0.0
 30
0.0
  9
$EXTMIN
 10
0.0
 20
0.0
 30
0.0
  9
$EXTMAX
 10
297.0
 20
210.0
 30
0.0
  9
$LIMMIN
 10
0.0
 20
0.0
  9
$LIMMAX
 10
297.0
 20
210.0
  9
$ORTHOMODE
 70
     0
  9
$REGENMODE
 70
     1
  9
$FILLMODE
 70
     1
  9
$QTEXTMODE
 70
     0
  9
$MIRRTEXT
 70
     1
  9
$LTSCALE
 40
1.0
  9
$ATTMODE
 70
     1
  9
$TEXTSIZE
 40
3.5
  9
$TRACEWID
 40
1.0
  9
$TEXTSTYLE
  7
Standard
  9
$CLAYER
  8
0
  9
$CELTYPE
  6
ByLayer
  9
$CECOLOR
 62
   256
  9
$CELTSCALE
 40
1.0
  9
$DISPSILH
 70
     0
  9
$DIMSCALE
 40
1.0
  9
$DIMASZ
 40
3.302
  9
$DIMEXO
 40
1.0
  9
$DIMDLI
 40
3.75
  9
$DIMRND
 40
0.0
  9
$DIMDLE
 40
0.0
  9
$DIMEXE
 40
1.0
  9
$DIMTP
 40
0.0
  9
$DIMTM
 40
0.0
  9
$DIMTXT
 40
3.5
  9
$DIMCEN
 40
2.5
  9
$DIMTSZ
 40
0.0
  9
$DIMTOL
 70
     0
  9
$DIMLIM
 70
     0
  9
$DIMTIH
 70
     1
  9
$DIMTOH
 70
     1
  9
$DIMSE1
 70
     0
  9
$DIMSE2
 70
     0
  9
$DIMTAD
 70
     1
  9
$DIMZIN
 70
     0
  9
$DIMBLK
  1

  9
$DIMASO
 70
     1
  9
$DIMSHO
 70
     1
  9
$DIMPOST
  1

  9
$DIMAPOST
  1

  9
$DIMALT
 70
     0
  9
$DIMALTD
 70
     3
  9
$DIMALTF
 40
0.0393700787
  9
$DIMLFAC
 40
1.0
  9
$DIMTOFL
 70
     1
  9
$DIMTVP
 40
0.0
  9
$DIMTIX
 70
     0
  9
$DIMSOXD
 70
     0
  9
$DIMSAH
 70
     0
  9
$DIMBLK1
  1

  9
$DIMBLK2
  1

  9
$DIMSTYLE
  2
ISO-25
  9
$DIMCLRD
 70
     0
  9
$DIMCLRE
 70
     0
  9
$DIMCLRT
 70
     0
  9
$DIMTFAC
 40
1.0
  9
$DIMGAP
 40
1.524
  9
$DIMJUST
 70
     0
  9
$DIMSD1
 70
     0
  9
$DIMSD2
 70
     0
  9
$DIMTOLJ
 70
     0
  9
$DIMTZIN
 70
     0
  9
$DIMALTZ
 70
     0
  9
$DIMALTTZ
 70
     0
  9
$DIMUPT
 70
     0
  9
$DIMDEC
 70
     2
  9
$DIMTDEC
 70
     2
  9
$DIMALTU
 70
     2
  9
$DIMALTTD
 70
     3
  9
$DIMTXSTY
  7
Standard
  9
$DIMAUNIT
 70
     0
  9
$DIMADEC
 70
     2
  9
$DIMALTRND
 40
0.0
  9
$DIMAZIN
 70
     0
  9
$DIMDSEP
 70
    44
  9
$DIMATFIT
 70
     3
  9
$DIMFRAC
 70
     0
  9
$DIMLDRBLK
  1

  9
$DIMLUNIT
 70
     2
  9
$DIMLWD
 70
    -2
  9
$DIMLWE
 70
    -2
  9
$DIMTMOVE
 70
     0
  9
$DIMFXL
 40
1.0
  9
$DIMFXLON
 70
     0
  9
$DIMJOGANG
 40
0.7853981634
  9
$DIMTFILL
 70
     0
  9
$DIMTFILLCLR
 70
     0
  9
$DIMARCSYM
 70
     0
  9
$DIMLTYPE
  6

  9
$DIMLTEX1
  6

  9
$DIMLTEX2
  6

  9
$LUNITS
 70
     2
  9
$LUPREC
 70
     2
  9
$SKETCHINC
 40
1.0
  9
$FILLETRAD
 40
10.0
  9
$AUNITS
 70
     0
  9
$AUPREC
 70
     2
  9
$MENU
  1
.
  9
$ELEVATION
 40
0.0
  9
$PELEVATION
 40
0.0
  9
$THICKNESS
 40
0.0
  9
$LIMCHECK
 70
     0
  9
$CHAMFERA
 40
10.0
  9
$CHAMFERB
 40
10.0
  9
$CHAMFERC
 40
20.0
  9
$CHAMFERD
 40
0.0
  9
$SKPOLY
 70
     0
  9
$TDCREATE
 40
2456449.640666377
  9
$TDUCREATE
 40
2456449.557333044
  9
$TDUPDATE
 40
2456449.64066691
  9
$TDUUPDATE
 40
2456449.557333576
  9
$TDINDWG
 40
0.0000000116
  9
$TDUSRTIMER
 40
0.0000000116
  9
$USRTIMER
 70
     1
  9
$ANGBASE
 50
0.0
  9
$ANGDIR
 70
     0
  9
$PDMODE
 70
     0
  9
$PDSIZE
 40
-1.0
  9
$PLINEWID
 40
0.0
  9
$SPLFRAME
 70
     0
  9
$SPLINETYPE
 70
     6
  9
$SPLINESEGS
 70
     8
  9
$HANDSEED
  5
12B
  9
$SURFTAB1
 70
     6
  9
$SURFTAB2
 70
     6
  9
$SURFTYPE
 70
     6
  9
$SURFU
 70
     6
  9
$SURFV
 70
     6
  9
$UCSBASE
  2

  9
$UCSNAME
  2

  9
$UCSORG
 10
0.0
 20
0.0
 30
0.0
  9
$UCSXDIR
 10
1.0
 20
0.0
 30
0.0
  9
$UCSYDIR
 10
0.0
 20
1.0
 30
0.0
  9
$UCSORTHOREF
  2

  9
$UCSORTHOVIEW
 70
     0
  9
$UCSORGTOP
 10
0.0
 20
0.0
 30
0.0
  9
$UCSORGBOTTOM
 10
0.0
 20
0.0
 30
0.0
  9
$UCSORGLEFT
 10
0.0
 20
0.0
 30
0.0
  9
$UCSORGRIGHT
 10
0.0
 20
0.0
 30
0.0
  9
$UCSORGFRONT
 10
0.0
 20
0.0
 30
0.0
  9
$UCSORGBACK
 10
0.0
 20
0.0
 30
0.0
  9
$PUCSBASE
  2

  9
$PUCSNAME
  2

  9
$PUCSORG
 10
0.0
 20
0.0
 30
0.0
  9
$PUCSXDIR
 10
1.0
 20
0.0
 30
0.0
  9
$PUCSYDIR
 10
0.0
 20
1.0
 30
0.0
  9
$PUCSORTHOREF
  2

  9
$PUCSORTHOVIEW
 70
     0
  9
$PUCSORGTOP
 10
0.0
 20
0.0
 30
0.0
  9
$PUCSORGBOTTOM
 10
0.0
 20
0.0
 30
0.0
  9
$PUCSORGLEFT
 10
0.0
 20
0.0
 30
0.0
  9
$PUCSORGRIGHT
 10
0.0
 20
0.0
 30
0.0
  9
$PUCSORGFRONT
 10
0.0
 20
0.0
 30
0.0
  9
$PUCSORGBACK
 10
0.0
 20
0.0
 30
0.0
  9
$USERI1
 70
     0
  9
$USERI2
 70
     0
  9
$USERI3
 70
     0
  9
$USERI4
 70
     0
  9
$USERI5
 70
     0
  9
$USERR1
 40
0.0
  9
$USERR2
 40
0.0
  9
$USERR3
 40
0.0
  9
$USERR4
 40
0.0
  9
$USERR5
 40
0.0
  9
$WORLDVIEW
 70
     1
  9
$SHADEDGE
 70
     3
  9
$SHADEDIF
 70
    70
  9
$TILEMODE
 70
     1
  9
$MAXACTVP
 70
    64
  9
$PINSBASE
 10
0.0
 20
0.0
 30
0.0
  9
$PLIMCHECK
 70
     0
  9
$PEXTMIN
 10
1.0000000000E+20
 20
1.0000000000E+20
 30
1.0000000000E+20
  9
$PEXTMAX
 10
-1.0000000000E+20
 20
-1.0000000000E+20
 30
-1.0000000000E+20
  9
$PLIMMIN
 10
0.0
 20
0.0
  9
$PLIMMAX
 10
420.0
 20
297.0
  9
$UNITMODE
 70
     0
  9
$VISRETAIN
 70
     1
  9
$PLINEGEN
 70
     0
  9
$PSLTSCALE
 70
     1
  9
$TREEDEPTH
 70
  3020
  9
$CMLSTYLE
  2
Standard
  9
$CMLJUST
 70
     0
  9
$CMLSCALE
 40
20.0
  9
$PROXYGRAPHICS
 70
     1
  9
$MEASUREMENT
 70
     1
  9
$CELWEIGHT
370
    -1
  9
$ENDCAPS
280
     0
  9
$JOINSTYLE
280
     0
  9
$LWDISPLAY
290
     1
  9
$INSUNITS
 70
     4
  9
$HYPERLINKBASE
  1

  9
$STYLESHEET
  1

  9
$XEDIT
290
     1
  9
$CEPSNTYPE
380
     0
  9
$PSTYLEMODE
290
     1
  9
$FINGERPRINTGUID
  2
{4293639E-1845-4634-9348-D5E40EAD5EE3}
  9
$VERSIONGUID
  2
{FAEB1C32-E019-11D5-929B-00C0DF256EC4}
  9
$EXTNAMES
290
     1
  9
$PSVPSCALE
 40
0.0
  9
$OLESTARTUP
290
     0
  9
$SORTENTS
280
   127
  9
$INDEXCTL
280
     0
  9
$HIDETEXT
280
     1
  9
$XCLIPFRAME
290
     0
  9
$HALOGAP
280
     0
  9
$OBSCOLOR
 70
   257
  9
$OBSLTYPE
280
     0
  9
$INTERSECTIONDISPLAY
280
     0
  9
$INTERSECTIONCOLOR
 70
   257
  9
$DIMASSOC
280
     2
  9
$PROJECTNAME
  1

  9
$CAMERADISPLAY
290
     0
  9
$LENSLENGTH
 40
50.0
  9
$CAMERAHEIGHT
 40
0.0
  9
$STEPSPERSEC
 40
2.0
  9
$STEPSIZE
 40
6.0
  9
$3DDWFPREC
 40
2.0
  9
$PSOLWIDTH
 40
5.0
  9
$PSOLHEIGHT
 40
80.0
  9
$LOFTANG1
 40
1.5707963268
  9
$LOFTANG2
 40
1.5707963268
  9
$LOFTMAG1
 40
0.0
  9
$LOFTMAG2
 40
0.0
  9
$LOFTPARAM
 70
     7
  9
$LOFTNORMALS
280
     1
  9
$LATITUDE
 40
37.795
  9
$LONGITUDE
 40
-122.394
  9
$NORTHDIRECTION
 40
0.0
  9
$TIMEZONE
 70
 -8000
  9
$LIGHTGLYPHDISPLAY
280
     1
  9
$TILEMODELIGHTSYNCH
280
     1
  9
$SOLIDHIST
280
     1
  9
$SHOWHIST
280
     1
  9
$DWFFRAME
280
     2
  9
$DGNFRAME
280
     2
  9
$REALWORLDSCALE
290
     1
  9
$INTERFERECOLOR
 62
   256
  9
$CSHADOW
280
     0
  9
$SHADOWPLANELOCATION
 40
0.0
  0
ENDSEC
  0
SECTION
  2
CLASSES
  0
CLASS
  1
ACDBDICTIONARYWDFLT
  2
AcDbDictionaryWithDefault
  3
ObjectDBX Classes
 90
        0
 91
        4
280
     0
281
     0
  0
CLASS
  1
VISUALSTYLE
  2
AcDbVisualStyle
  3
ObjectDBX Classes
 90
     4095
 91
        4
280
     0
281
     0
  0
CLASS
  1
MATERIAL
  2
AcDbMaterial
  3
ObjectDBX Classes
 90
     1153
 91
        4
280
     0
281
     0
  0
ENDSEC
  0
SECTION
  2
TABLES
  0
TABLE
  2
VPORT
  5
8
330
0
100
AcDbSymbolTable
 70
     1
  0
VPORT
  5
29
330
8
100
AcDbSymbolTableRecord
100
AcDbViewportTableRecord
  2
*Active
 70
     0
 10
0.0
 20
0.0
 11
1.0
 21
1.0
 12
148.5
 22
105.0
 13
0.0
 23
0.0
 14
10.0
 24
10.0
 15
10.0
 25
10.0
 16
0.0
 26
0.0
 36
1.0
 17
0.0
 27
0.0
 37
0.0
 40
210.0
 41
1.4142857143
 42
50.0
 43
0.0
 44
0.0
 50
0.0
 51
0.0
 71
     0
 72
  2000
 73
     1
 74
     3
 75
     0
 76
     0
 77
     0
 78
     0
281
     0
 65
     1
110
0.0
120
0.0
130
0.0
111
1.0
121
0.0
131
0.0
112
0.0
122
1.0
132
0.0
 79
     0
146
0.0
 60
     3
 61
     5
292
     1
282
     1
141
0.0
142
0.0
 63
   250
  0
ENDTAB
  0
TABLE
  2
LTYPE
  5
5
330
0
100
AcDbSymbolTable
 70
     8
  0
LTYPE
  5
14
330
5
100
AcDbSymbolTableRecord
100
AcDbLinetypeTableRecord
  2
ByBlock
 70
     0
  3

 72
    65
 73
     0
 40
0.0
  0
LTYPE
  5
15
330
5
100
AcDbSymbolTableRecord
100
AcDbLinetypeTableRecord
  2
ByLayer
 70
     0
  3

 72
    65
 73
     0
 40
0.0
  0
LTYPE
  5
16
330
5
100
AcDbSymbolTableRecord
100
AcDbLinetypeTableRecord
  2
Continuous
 70
     0
  3
Solid line
 72
    65
 73
     0
 40
0.0
  0
LTYPE
  5
3F
330
5
100
AcDbSymbolTableRecord
100
AcDbLinetypeTableRecord
  2
SLD-Durchgehend
 70
     0
  3
SolidWorks Line Style
 72
    65
 73
     0
 40
0.0
  0
LTYPE
  5
40
330
5
100
AcDbSymbolTableRecord
100
AcDbLinetypeTableRecord
  2
SLD-Gestrichelt
 70
     0
  3
SolidWorks Line Style
 72
    65
 73
     2
 40
1.905
 49
1.27
 74
     0
 49
-0.635
 74
     0
  0
LTYPE
  5
41
330
5
100
AcDbSymbolTableRecord
100
AcDbLinetypeTableRecord
  2
SLD-Phantom
 70
     0
  3
SolidWorks Line Style
 72
    65
 73
     6
 40
12.7
 49
6.35
 74
     0
 49
-1.27
 74
     0
 49
1.27
 74
     0
 49
-1.27
 74
     0
 49
1.27
 74
     0
 49
-1.27
 74
     0
  0
LTYPE
  5
42
330
5
100
AcDbSymbolTableRecord
100
AcDbLinetypeTableRecord
  2
SLD-Kette
 70
     0
  3
SolidWorks Line Style
 72
    65
 73
     4
 40
10.16
 49
6.35
 74
     0
 49
-1.27
 74
     0
 49
1.27
 74
     0
 49
-1.27
 74
     0
  0
LTYPE
  5
43
330
5
100
AcDbSymbolTableRecord
100
AcDbLinetypeTableRecord
  2
SLD-Punktstrich
 70
     0
  3
SolidWorks Line Style
 72
    65
 73
     4
 40
19.05
 49
15.24
 74
     0
 49
-1.27
 74
     0
 49
1.27
 74
     0
 49
-1.27
 74
     0
  0
LTYPE
  5
44
330
5
100
AcDbSymbolTableRecord
100
AcDbLinetypeTableRecord
  2
SLD-Naht
 70
     0
  3
SolidWorks Line Style
 72
    65
 73
     2
 40
0.635
 49
0.0
 74
     0
 49
-0.635
 74
     0
  0
LTYPE
  5
45
330
5
100
AcDbSymbolTableRecord
100
AcDbLinetypeTableRecord
  2
SLD-Dicke-Dünne-Kette
 70
     0
  3
SolidWorks Line Style
 72
    65
 73
     4
 40
10.16
 49
6.35
 74
     0
 49
-1.27
 74
     0
 49
1.27
 74
     0
 49
-1.27
 74
     0
  0
ENDTAB
  0
TABLE
  2
LAYER
  5
2
330
0
100
AcDbSymbolTable
 70
     3
  0
LAYER
  5
10
330
2
100
AcDbSymbolTableRecord
100
AcDbLayerTableRecord
  2
0
 70
     0
 62
     7
  6
Continuous
370
    -3
390
F
347
3E
  0
LAYER
  5
46
330
2
100
AcDbSymbolTableRecord
100
AcDbLayerTableRecord
  2
1
 70
     0
 62
     4
  6
Continuous
370
    -1
390
F
347
3E
  0
LAYER
  5
47
330
2
100
AcDbSymbolTableRecord
100
AcDbLayerTableRecord
  2
2
 70
     0
 62
     7
  6
SLD-Durchgehend
370
    -3
390
F
347
3E
  0
ENDTAB
  0
TABLE
  2
STYLE
  5
3
330
0
100
AcDbSymbolTable
 70
     2
  0
STYLE
  5
11
330
3
100
AcDbSymbolTableRecord
100
AcDbTextStyleTableRecord
  2
Standard
 70
     0
 40
0.0
 41
1.0
 50
0.0
 71
     0
 42
3.5
  3
txt
  4

  0
STYLE
  5
103
330
3
100
AcDbSymbolTableRecord
100
AcDbTextStyleTableRecord
  2
SLDTEXTSTYLE0
 70
     0
 40
0.0
 41
0.75
 50
0.0
 71
     0
 42
0.2
  3
TXT
  4

  0
ENDTAB
  0
TABLE
  2
VIEW
  5
6
330
0
100
AcDbSymbolTable
 70
     0
  0
ENDTAB
  0
TABLE
  2
UCS
  5
7
330
0
100
AcDbSymbolTable
 70
     0
  0
ENDTAB
  0
TABLE
  2
APPID
  5
9
330
0
100
AcDbSymbolTable
 70
     1
  0
APPID
  5
12
330
9
100
AcDbSymbolTableRecord
100
AcDbRegAppTableRecord
  2
ACAD
 70
     0
  0
ENDTAB
  0
TABLE
  2
DIMSTYLE
  5
A
330
0
100
AcDbSymbolTable
 70
     3
100
AcDbDimStyleTable
  0
DIMSTYLE
105
27
330
A
100
AcDbSymbolTableRecord
100
AcDbDimStyleTableRecord
  2
ISO-25
 70
     0
 41
2.5
 42
0.625
 43
3.75
 44
1.25
 73
     0
 74
     0
 77
     1
 78
     8
140
2.5
141
2.5
143
0.0393700787
147
0.625
171
     3
172
     1
178
     0
271
     2
272
     2
274
     3
278
    44
283
     0
284
     8
340
11
  0
DIMSTYLE
105
104
102
{ACAD_REACTORS
330
102
102
}
330
A
100
AcDbSymbolTableRecord
100
AcDbDimStyleTableRecord
  2
SLDDIMSTYLE0
 70
     0
 41
3.302
 44
0.0
 45
0.000000001
 73
     0
 74
     0
 77
     1
 78
    12
 79
     3
140
3.5
147
0.875
173
     1
178
     0
271
     2
272
     2
276
     2
284
    12
340
103
  0
DIMSTYLE
105
10F
102
{ACAD_REACTORS
330
10E
330
11C
102
}
330
A
100
AcDbSymbolTableRecord
100
AcDbDimStyleTableRecord
  2
SLDDIMSTYLE1
 70
     0
 41
3.302
 44
0.0
 45
0.000000001
 73
     0
 74
     0
 77
     1
 78
    12
 79
     3
140
3.5
147
0.875
172
     1
173
     1
178
     0
271
     2
272
     2
276
     2
284
    12
289
     0
340
103
  0
ENDTAB
  0
TABLE
  2
BLOCK_RECORD
  5
1
330
0
100
AcDbSymbolTable
 70
     4
  0
BLOCK_RECORD
  5
1F
330
1
100
AcDbSymbolTableRecord
100
AcDbBlockTableRecord
  2
*Model_Space
340
22
 70
     0
280
     1
281
     0
  0
BLOCK_RECORD
  5
1B
330
1
100
AcDbSymbolTableRecord
100
AcDbBlockTableRecord
  2
*Paper_Space
340
1E
 70
     0
280
     1
281
     0
  0
BLOCK_RECORD
  5
23
330
1
100
AcDbSymbolTableRecord
100
AcDbBlockTableRecord
  2
*Paper_Space0
340
26
 70
     0
280
     1
281
     0
  0
BLOCK_RECORD
  5
105
330
1
100
AcDbSymbolTableRecord
100
AcDbBlockTableRecord
  2
_D
340
0
 70
     0
280
     1
281
     0
  0
BLOCK_RECORD
  5
110
330
1
100
AcDbSymbolTableRecord
100
AcDbBlockTableRecord
  2
_D_1
340
0
 70
     0
280
     1
281
     0
  0
BLOCK_RECORD
  5
11D
330
1
100
AcDbSymbolTableRecord
100
AcDbBlockTableRecord
  2
_D_2
340
0
 70
     0
280
     1
281
     0
  0
ENDTAB
  0
ENDSEC
  0
SECTION
  2
BLOCKS
  0
BLOCK
  5
20
330
1F
100
AcDbEntity
  8
0
100
AcDbBlockBegin
  2
*Model_Space
 70
     0
 10
0.0
 20
0.0
 30
0.0
  3
*Model_Space
  1

  0
ENDBLK
  5
21
330
1F
100
AcDbEntity
  8
0
100
AcDbBlockEnd
  0
BLOCK
  5
1C
330
1B
100
AcDbEntity
 67
     1
  8
0
100
AcDbBlockBegin
  2
*Paper_Space
 70
     0
 10
0.0
 20
0.0
 30
0.0
  3
*Paper_Space
  1

  0
ENDBLK
  5
1D
330
1B
100
AcDbEntity
 67
     1
  8
0
100
AcDbBlockEnd
  0
BLOCK
  5
24
330
23
100
AcDbEntity
  8
0
100
AcDbBlockBegin
  2
*Paper_Space0
 70
     0
 10
0.0
 20
0.0
 30
0.0
  3
*Paper_Space0
  1

  0
ENDBLK
  5
25
330
23
100
AcDbEntity
  8
0
100
AcDbBlockEnd
  0
BLOCK
  5
106
330
105
100
AcDbEntity
  8
0
100
AcDbBlockBegin
  2
_D
 70
     0
 10
0.0
 20
0.0
 30
0.0
  3
_D
  1

  0
SOLID
  5
108
330
105
100
AcDbEntity
  8
2
 62
     7
420
 16777215
100
AcDbTrace
 10
182.0000708915
 20
14.0002025718
 30
0.0
 11
178.6980708915
 21
14.5082025718
 31
0.0
 12
178.6980708915
 22
13.4922025718
 32
0.0
 13
178.6980708915
 23
13.4922025718
 33
0.0
  0
SOLID
  5
109
330
105
100
AcDbEntity
  8
2
 62
     7
420
 16777215
100
AcDbTrace
 10
0.0000708915
 20
14.0002025718
 30
0.0
 11
3.3020708915
 21
13.4922025718
 31
0.0
 12
3.3020708915
 22
14.5082025718
 32
0.0
 13
3.3020708915
 23
14.5082025718
 33
0.0
  0
LINE
  5
10A
330
105
100
AcDbEntity
  8
2
 62
     7
420
 16777215
100
AcDbLine
 10
182.0000708915
 20
1.0002015396
 30
0.0
 11
182.0000708915
 21
15.0002025718
 31
0.0
  0
LINE
  5
10B
330
105
100
AcDbEntity
  8
2
 62
     7
420
 16777215
100
AcDbLine
 10
0.0000708915
 20
1.0002015396
 30
0.0
 11
0.0000708915
 21
15.0002025718
 31
0.0
  0
LINE
  5
10C
330
105
100
AcDbEntity
  8
2
 62
     7
420
 16777215
100
AcDbLine
 10
182.0000708915
 20
14.0002025718
 30
0.0
 11
0.0000708915
 21
14.0002025718
 31
0.0
  0
MTEXT
  5
10D
330
105
100
AcDbEntity
  8
2
 62
     7
420
 16777215
100
AcDbMText
 10
85.6990293629
 20
18.5119394864
 30
0.0
 40
3.5
 41
0.0
 46
0.0
 71
     1
 72
     1
  1
182
  7
SLDTEXTSTYLE0
 73
     1
 44
1.0
  0
ENDBLK
  5
107
330
105
100
AcDbEntity
  8
0
100
AcDbBlockEnd
  0
BLOCK
  5
111
330
110
100
AcDbEntity
  8
0
100
AcDbBlockBegin
  2
_D_1
 70
     0
 10
0.0
 20
0.0
 30
0.0
  3
_D_1
  1

  0
SOLID
  5
113
330
110
100
AcDbEntity
  8
2
 62
     7
420
 16777215
100
AcDbTrace
 10
188.0000708915
 20
8.0002025718
 30
0.0
 11
188.5080708915
 21
11.3022025718
 31
0.0
 12
187.4920708915
 22
11.3022025718
 32
0.0
 13
187.4920708915
 23
11.3022025718
 33
0.0
  0
SOLID
  5
114
330
110
100
AcDbEntity
  8
2
 62
     7
420
 16777215
100
AcDbTrace
 10
188.0000708915
 20
-7.9997994926
 30
0.0
 11
187.4920708915
 21
-11.3017994926
 31
0.0
 12
188.5080708915
 22
-11.3017994926
 32
0.0
 13
188.5080708915
 23
-11.3017994926
 33
0.0
  0
LINE
  5
115
330
110
100
AcDbEntity
  8
2
 62
     7
420
 16777215
100
AcDbLine
 10
180.8928911875
 20
8.0002025718
 30
0.0
 11
189.0000708915
 21
8.0002025718
 31
0.0
  0
LINE
  5
116
330
110
100
AcDbEntity
  8
2
 62
     7
420
 16777215
100
AcDbLine
 10
180.8928911875
 20
-7.9997994926
 30
0.0
 11
189.0000708915
 21
-7.9997994926
 31
0.0
  0
LINE
  5
117
330
110
100
AcDbEntity
  8
2
 62
     7
420
 16777215
100
AcDbLine
 10
188.0000708915
 20
8.0002025718
 30
0.0
 11
188.0000708915
 21
13.0002025718
 31
0.0
  0
LINE
  5
118
330
110
100
AcDbEntity
  8
2
 62
     7
420
 16777215
100
AcDbLine
 10
188.0000708915
 20
8.0002025718
 30
0.0
 11
188.0000708915
 21
-7.9997994926
 31
0.0
  0
LINE
  5
119
330
110
100
AcDbEntity
  8
2
 62
     7
420
 16777215
100
AcDbLine
 10
188.0000708915
 20
-7.9997994926
 30
0.0
 11
188.0000708915
 21
-12.9997994926
 31
0.0
  0
MTEXT
  5
11A
330
110
100
AcDbEntity
  8
2
 62
     7
420
 16777215
100
AcDbMText
 10
183.4883338023
 20
-6.6470034406
 30
0.0
 40
3.5
 41
0.0
 46
0.0
 71
     1
 72
     1
  1
%%c
  7
SLDTEXTSTYLE0
 11
-7.044195017643634E-15
 21
1.0
 31
0.0
 73
     1
 44
1.0
  0
MTEXT
  5
11B
330
110
100
AcDbEntity
  8
2
 62
     7
420
 16777215
100
AcDbMText
 10
183.4348616256
 20
-1.3685660423
 30
0.0
 40
3.5
 41
0.0
 46
0.0
 71
     1
 72
     1
  1
16
  7
SLDTEXTSTYLE0
 11
-7.044195017643634E-15
 21
1.0
 31
0.0
 73
     1
 44
1.0
  0
ENDBLK
  5
112
330
110
100
AcDbEntity
  8
0
100
AcDbBlockEnd
  0
BLOCK
  5
11E
330
11D
100
AcDbEntity
  8
0
100
AcDbBlockBegin
  2
_D_2
 70
     0
 10
0.0
 20
0.0
 30
0.0
  3
_D_2
  1

  0
SOLID
  5
120
330
11D
100
AcDbEntity
  8
2
 62
     7
420
 16777215
100
AcDbTrace
 10
-5.9999291085
 20
8.0002015396
 30
0.0
 11
-5.4919291085
 21
11.3022015396
 31
0.0
 12
-6.5079291085
 22
11.3022015396
 32
0.0
 13
-6.5079291085
 23
11.3022015396
 33
0.0
  0
SOLID
  5
121
330
11D
100
AcDbEntity
  8
2
 62
     7
420
 16777215
100
AcDbTrace
 10
-5.9999291085
 20
-7.9997984604
 30
0.0
 11
-6.5079291085
 21
-11.3017984604
 31
0.0
 12
-5.4919291085
 22
-11.3017984604
 32
0.0
 13
-5.4919291085
 23
-11.3017984604
 33
0.0
  0
LINE
  5
122
330
11D
100
AcDbEntity
  8
2
 62
     7
420
 16777215
100
AcDbLine
 10
-0.9999291085
 20
8.0002015396
 30
0.0
 11
-6.9999291085
 21
8.0002015396
 31
0.0
  0
LINE
  5
123
330
11D
100
AcDbEntity
  8
2
 62
     7
420
 16777215
100
AcDbLine
 10
-0.9999291085
 20
-7.9997984604
 30
0.0
 11
-6.9999291085
 21
-7.9997984604
 31
0.0
  0
LINE
  5
124
330
11D
100
AcDbEntity
  8
2
 62
     7
420
 16777215
100
AcDbLine
 10
-5.9999291085
 20
8.0002015396
 30
0.0
 11
-5.9999291085
 21
13.0002015396
 31
0.0
  0
LINE
  5
125
330
11D
100
AcDbEntity
  8
2
 62
     7
420
 16777215
100
AcDbLine
 10
-5.9999291085
 20
8.0002015396
 30
0.0
 11
-5.9999291085
 21
-7.9997984604
 31
0.0
  0
LINE
  5
126
330
11D
100
AcDbEntity
  8
2
 62
     7
420
 16777215
100
AcDbLine
 10
-5.9999291085
 20
-7.9997984604
 30
0.0
 11
-5.9999291085
 21
-12.9997984604
 31
0.0
  0
MTEXT
  5
127
330
11D
100
AcDbEntity
  8
2
 62
     7
420
 16777215
100
AcDbMText
 10
-10.5116661977
 20
-6.6470034406
 30
0.0
 40
3.5
 41
0.0
 46
0.0
 71
     1
 72
     1
  1
%%c
  7
SLDTEXTSTYLE0
 11
-7.044195017643634E-15
 21
1.0
 31
0.0
 73
     1
 44
1.0
  0
MTEXT
  5
128
330
11D
100
AcDbEntity
  8
2
 62
     7
420
 16777215
100
AcDbMText
 10
-10.5651383744
 20
-1.3685660423
 30
0.0
 40
3.5
 41
0.0
 46
0.0
 71
     1
 72
     1
  1
16
  7
SLDTEXTSTYLE0
 11
-7.044195017643634E-15
 21
1.0
 31
0.0
 73
     1
 44
1.0
  0
ENDBLK
  5
11F
330
11D
100
AcDbEntity
  8
0
100
AcDbBlockEnd
  0
ENDSEC
  0
SECTION
  2
ENTITIES
  0
LINE
  5
48
330
1F
100
AcDbEntity
  8
0
  6
SLD-Punktstrich
 62
     7
100
AcDbLine
 10
0.0000708915
 20
0.0002015396
 30
0.0
 11
182.0000708915
 21
0.0002015396
 31
0.0
  0
POINT
  5
49
330
1F
100
AcDbEntity
  8
1
 62
     4
420
    65535
100
AcDbPoint
 10
0.0000708915
 20
0.0002015396
 30
0.0
  0
POINT
  5
4A
330
1F
100
AcDbEntity
  8
1
 62
     4
420
    65535
100
AcDbPoint
 10
182.0000708915
 20
0.0002015396
 30
0.0
  0
POINT
  5
4B
330
1F
100
AcDbEntity
  8
1
 62
     4
420
    65535
100
AcDbPoint
 10
0.0000708915
 20
0.0002015396
 30
0.0
  0
POINT
  5
4C
330
1F
100
AcDbEntity
  8
1
 62
     4
420
    65535
100
AcDbPoint
 10
182.0000708915
 20
0.0002015396
 30
0.0
  0
LINE
  5
4D
330
1F
100
AcDbEntity
  8
1
 62
     4
420
    65535
100
AcDbLine
 10
165.8000729325
 20
-7.7997982488
 30
0.0
 11
166.0000719405
 21
-7.9997994926
 31
0.0
  0
LINE
  5
4E
330
1F
100
AcDbEntity
  8
1
 62
     4
420
    65535
100
AcDbLine
 10
166.0000719405
 20
8.0002025718
 30
0.0
 11
165.8000729325
 21
7.800201328
 31
0.0
  0
LINE
  5
4F
330
1F
100
AcDbEntity
  8
1
 62
     4
420
    65535
100
AcDbLine
 10
181.800070882
 20
6.9609721394
 30
0.0
 11
181.7294178269
 21
7.0017636973
 31
0.0
  0
LINE
  5
50
330
1F
100
AcDbEntity
  8
1
 62
     4
420
    65535
100
AcDbLine
 10
181.7297362047
 20
-7.0011768025
 30
0.0
 11
181.800070882
 21
-6.9605690602
 31
0.0
  0
LINE
  5
51
330
1F
100
AcDbEntity
  8
1
 62
     4
420
    65535
100
AcDbLine
 10
170.3841623973
 20
8.0002025718
 30
0.0
 11
166.0000719405
 21
8.0002025718
 31
0.0
  0
LINE
  5
52
330
1F
100
AcDbEntity
  8
1
 62
     4
420
    65535
100
AcDbLine
 10
166.0000719405
 20
-7.9997994926
 30
0.0
 11
170.3841623973
 21
-7.9997994926
 31
0.0
  0
LINE
  5
53
330
1F
100
AcDbEntity
  8
1
 62
     4
420
    65535
100
AcDbLine
 10
169.8000722679
 20
7.0627025179
 30
0.0
 11
166.1000729325
 21
7.0627025179
 31
0.0
  0
LINE
  5
54
330
1F
100
AcDbEntity
  8
1
 62
     4
420
    65535
100
AcDbLine
 10
166.1000729325
 20
-7.0622994387
 30
0.0
 11
169.8000722679
 21
-7.0622994387
 31
0.0
  0
LINE
  5
55
330
1F
100
AcDbEntity
  8
1
 62
     4
420
    65535
100
AcDbLine
 10
170.0382300903
 20
6.650202528
 30
0.0
 11
169.8000722679
 21
7.0627025179
 31
0.0
  0
LINE
  5
56
330
1F
100
AcDbEntity
  8
1
 62
     4
420
    65535
100
AcDbLine
 10
169.8000722679
 20
-7.0622994387
 30
0.0
 11
170.0382300903
 21
-6.6497994488
 31
0.0
  0
LINE
  5
57
330
1F
100
AcDbEntity
  8
1
 62
     4
420
    65535
100
AcDbLine
 10
174.8000719308
 20
6.650202528
 30
0.0
 11
170.0382300903
 21
6.650202528
 31
0.0
  0
LINE
  5
58
330
1F
100
AcDbEntity
  8
1
 62
     4
420
    65535
100
AcDbLine
 10
170.0382300903
 20
-6.6497994488
 30
0.0
 11
174.8000719308
 21
-6.6497994488
 31
0.0
  0
ARC
  5
59
330
1F
100
AcDbEntity
  8
1
 62
     4
420
    65535
100
AcDbCircle
 10
166.1000729325
 20
7.3627025179
 30
0.0
 40
0.299999999999967
100
AcDbArc
 50
180.0
 51
270.0
  0
ARC
  5
5A
330
1F
100
AcDbEntity
  8
1
 62
     4
420
    65535
100
AcDbCircle
 10
166.1000729325
 20
-7.3622994387
 30
0.0
 40
0.299999999999967
100
AcDbArc
 50
90.0
 51
180.0
  0
LINE
  5
5B
330
1F
100
AcDbEntity
  8
1
 62
     4
420
    65535
100
AcDbLine
 10
177.4000708915
 20
6.5127025997
 30
0.0
 11
174.8000719308
 21
6.5127025997
 31
0.0
  0
LINE
  5
5C
330
1F
100
AcDbEntity
  8
1
 62
     4
420
    65535
100
AcDbLine
 10
174.8000719308
 20
-6.5122995205
 30
0.0
 11
177.4000708915
 21
-6.5122995205
 31
0.0
  0
ARC
  5
5D
330
1F
100
AcDbEntity
  8
1
 62
     4
420
    65535
100
AcDbCircle
 10
181.6000708915
 20
6.6145619724
 30
0.0
 40
0.4000000000000704
100
AcDbArc
 50
0.0
 51
60.0000015672
  0
ARC
  5
5E
330
1F
100
AcDbEntity
  8
1
 62
     4
420
    65535
100
AcDbCircle
 10
181.6000708915
 20
-6.6141588932
 30
0.0
 40
0.4000000000000711
100
AcDbArc
 50
299.9999984328
 51
0.0
  0
LINE
  5
5F
330
1F
100
AcDbEntity
  8
1
 62
     4
420
    65535
100
AcDbLine
 10
178.2800704895
 20
5.5002025997
 30
0.0
 11
178.1500708915
 21
5.5002025997
 31
0.0
  0
LINE
  5
60
330
1F
100
AcDbEntity
  8
1
 62
     4
420
    65535
100
AcDbLine
 10
178.1500708915
 20
-5.4997995205
 30
0.0
 11
178.2800704895
 21
-5.4997995205
 31
0.0
  0
LINE
  5
61
330
1F
100
AcDbEntity
  8
1
 62
     4
420
    65535
100
AcDbLine
 10
178.2800704895
 20
-5.4997995205
 30
0.0
 11
178.753146177
 21
-5.8967568478
 31
0.0
  0
LINE
  5
62
330
1F
100
AcDbEntity
  8
1
 62
     4
420
    65535
100
AcDbLine
 10
178.753146177
 20
5.897159927
 30
0.0
 11
178.2800704895
 21
5.5002025997
 31
0.0
  0
ARC
  5
63
330
1F
100
AcDbEntity
  8
1
 62
     4
420
    65535
100
AcDbCircle
 10
177.4000708915
 20
6.1127025997
 30
0.0
 40
0.3999999999999835
100
AcDbArc
 50
0.0
 51
90.0
  0
ARC
  5
64
330
1F
100
AcDbEntity
  8
1
 62
     4
420
    65535
100
AcDbCircle
 10
177.4000708915
 20
-6.1122995205
 30
0.0
 40
0.3999999999999835
100
AcDbArc
 50
270.0
 51
0.0
  0
LINE
  5
65
330
1F
100
AcDbEntity
  8
1
 62
     4
420
    65535
100
AcDbLine
 10
181.5672505684
 20
4.4623783193
 30
0.0
 11
179.0388430063
 21
5.9221551058
 31
0.0
  0
LINE
  5
66
330
1F
100
AcDbEntity
  8
1
 62
     4
420
    65535
100
AcDbLine
 10
179.0388430063
 20
-5.9217520266
 30
0.0
 11
181.5672505684
 21
-4.46197524
 31
0.0
  0
ARC
  5
67
330
1F
100
AcDbEntity
  8
1
 62
     4
420
    65535
100
AcDbCircle
 10
178.1500708915
 20
5.8502025997
 30
0.0
 40
0.3499999999999615
100
AcDbArc
 50
180.0
 51
270.0
  0
ARC
  5
68
330
1F
100
AcDbEntity
  8
1
 62
     4
420
    65535
100
AcDbCircle
 10
178.1500708915
 20
-5.8497995205
 30
0.0
 40
0.3499999999999615
100
AcDbArc
 50
90.0
 51
180.0
  0
ARC
  5
69
330
1F
100
AcDbEntity
  8
1
 62
     4
420
    65535
100
AcDbCircle
 10
178.9138430063
 20
5.7056487549
 30
0.0
 40
0.2500000000000061
100
AcDbArc
 50
60.0
 51
129.9999781407
  0
ARC
  5
6A
330
1F
100
AcDbEntity
  8
1
 62
     4
420
    65535
100
AcDbCircle
 10
178.9138430063
 20
-5.7052456757
 30
0.0
 40
0.2500000000000061
100
AcDbArc
 50
230.0000218593
 51
300.0
  0
LINE
  5
6B
330
1F
100
AcDbEntity
  8
1
 62
     4
420
    65535
100
AcDbLine
 10
181.8000708915
 20
4.4087884808
 30
0.0
 11
181.7672505684
 21
4.4087884808
 31
0.0
  0
LINE
  5
6C
330
1F
100
AcDbEntity
  8
1
 62
     4
420
    65535
100
AcDbLine
 10
181.7672505684
 20
-4.4083854016
 30
0.0
 11
181.8000708915
 21
-4.4083854016
 31
0.0
  0
ARC
  5
6D
330
1F
100
AcDbEntity
  8
1
 62
     4
420
    65535
100
AcDbCircle
 10
181.7672505684
 20
4.8087884808
 30
0.0
 40
0.4000000000000258
100
AcDbArc
 50
240.0
 51
270.0
  0
ARC
  5
6E
330
1F
100
AcDbEntity
  8
1
 62
     4
420
    65535
100
AcDbCircle
 10
181.7672505684
 20
-4.8083854016
 30
0.0
 40
0.4000000000000266
100
AcDbArc
 50
90.0
 51
120.0
  0
ARC
  5
6F
330
1F
100
AcDbEntity
  8
1
 62
     4
420
    65535
100
AcDbCircle
 10
181.8000708915
 20
4.6087884808
 30
0.0
 40
0.2000000000000455
100
AcDbArc
 50
270.0
 51
0.0
  0
ARC
  5
70
330
1F
100
AcDbEntity
  8
1
 62
     4
420
    65535
100
AcDbCircle
 10
181.8000708915
 20
-4.6083854016
 30
0.0
 40
0.2000000000000455
100
AcDbArc
 50
0.0
 51
90.0
  0
LINE
  5
71
330
1F
100
AcDbEntity
  8
1
 62
     4
420
    65535
100
AcDbLine
 10
162.547891735
 20
3.7502015396
 30
0.0
 11
0.0000708915
 21
3.7502015396
 31
0.0
  0
LINE
  5
72
330
1F
100
AcDbEntity
  8
1
 62
     4
420
    65535
100
AcDbLine
 10
0.0000708915
 20
-3.7497984604
 30
0.0
 11
162.547891735
 21
-3.7497984604
 31
0.0
  0
LINE
  5
73
330
1F
100
AcDbEntity
  8
1
 62
     4
420
    65535
100
AcDbLine
 10
165.0673409841
 20
4.0502013847
 30
0.0
 11
162.8076990983
 21
4.0502013847
 31
0.0
  0
LINE
  5
74
330
1F
100
AcDbEntity
  8
1
 62
     4
420
    65535
100
AcDbLine
 10
162.8076990983
 20
-4.0497983055
 30
0.0
 11
165.0673409841
 21
-4.0497983055
 31
0.0
  0
LINE
  5
75
330
1F
100
AcDbEntity
  8
1
 62
     4
420
    65535
100
AcDbLine
 10
162.547891735
 20
-3.7497984604
 30
0.0
 11
162.8076990983
 21
-4.0497983055
 31
0.0
  0
LINE
  5
76
330
1F
100
AcDbEntity
  8
1
 62
     4
420
    65535
100
AcDbLine
 10
162.8076990983
 20
4.0502013847
 30
0.0
 11
162.547891735
 21
3.7502015396
 31
0.0
  0
LINE
  5
77
330
1F
100
AcDbEntity
  8
1
 62
     4
420
    65535
100
AcDbLine
 10
165.0673409841
 20
-4.0497983055
 30
0.0
 11
176.2912034705
 21
-5.6272094025
 31
0.0
  0
LINE
  5
78
330
1F
100
AcDbEntity
  8
1
 62
     4
420
    65535
100
AcDbLine
 10
176.2912034705
 20
5.6276124818
 30
0.0
 11
165.0673409841
 21
4.0502013847
 31
0.0
  0
LINE
  5
79
330
1F
100
AcDbEntity
  8
1
 62
     4
420
    65535
100
AcDbLine
 10
176.807699605
 20
6.3269963696
 30
0.0
 11
176.5076953087
 21
6.5001963156
 31
0.0
  0
LINE
  5
7A
330
1F
100
AcDbEntity
  8
1
 62
     4
420
    65535
100
AcDbLine
 10
176.5076953087
 20
-6.4997932364
 30
0.0
 11
176.807699605
 21
-6.3265932904
 31
0.0
  0
LINE
  5
7B
330
1F
100
AcDbEntity
  8
1
 62
     4
420
    65535
100
AcDbLine
 10
176.5076953087
 20
6.5001963156
 30
0.0
 11
173.3076932941
 21
6.5001963156
 31
0.0
  0
LINE
  5
7C
330
1F
100
AcDbEntity
  8
1
 62
     4
420
    65535
100
AcDbLine
 10
173.3076932941
 20
-6.4997932364
 30
0.0
 11
176.5076953087
 21
-6.4997932364
 31
0.0
  0
LINE
  5
7D
330
1F
100
AcDbEntity
  8
1
 62
     4
420
    65535
100
AcDbLine
 10
173.3076932941
 20
6.5001963156
 30
0.0
 11
173.0190205488
 21
7.0001963976
 31
0.0
  0
LINE
  5
7E
330
1F
100
AcDbEntity
  8
1
 62
     4
420
    65535
100
AcDbLine
 10
173.0190205488
 20
-6.9997933184
 30
0.0
 11
173.3076932941
 21
-6.4997932364
 31
0.0
  0
LINE
  5
7F
330
1F
100
AcDbEntity
  8
1
 62
     4
420
    65535
100
AcDbLine
 10
173.0190205488
 20
7.0001963976
 30
0.0
 11
168.3076943371
 21
7.0001963976
 31
0.0
  0
LINE
  5
80
330
1F
100
AcDbEntity
  8
1
 62
     4
420
    65535
100
AcDbLine
 10
168.3076943371
 20
-6.9997933184
 30
0.0
 11
173.0190205488
 21
-6.9997933184
 31
0.0
  0
LINE
  5
81
330
1F
100
AcDbEntity
  8
1
 62
     4
420
    65535
100
AcDbLine
 10
168.3076943371
 20
7.0502009525
 30
0.0
 11
165.6177004174
 21
7.0502009525
 31
0.0
  0
LINE
  5
82
330
1F
100
AcDbEntity
  8
1
 62
     4
420
    65535
100
AcDbLine
 10
165.6177004174
 20
-7.0497978732
 30
0.0
 11
168.3076943371
 21
-7.0497978732
 31
0.0
  0
ARC
  5
83
330
1F
100
AcDbEntity
  8
1
 62
     4
420
    65535
100
AcDbCircle
 10
176.207699605
 20
6.2217733223
 30
0.0
 40
0.599999999999983
100
AcDbArc
 50
278.0000004737
 51
0.0
  0
ARC
  5
84
330
1F
100
AcDbEntity
  8
1
 62
     4
420
    65535
100
AcDbCircle
 10
176.207699605
 20
-6.2213702431
 30
0.0
 40
0.5999999999999839
100
AcDbArc
 50
0.0
 51
81.9999995263
  0
LINE
  5
85
330
1F
100
AcDbEntity
  8
1
 62
     4
420
    65535
100
AcDbLine
 10
165.311227017
 20
-6.967678806
 30
0.0
 11
165.6177004174
 21
-7.0497978732
 31
0.0
  0
LINE
  5
86
330
1F
100
AcDbEntity
  8
1
 62
     4
420
    65535
100
AcDbLine
 10
165.6177004174
 20
7.0502009525
 30
0.0
 11
165.311227017
 21
6.9680818852
 31
0.0
  0
LINE
  5
87
330
1F
100
AcDbEntity
  8
1
 62
     4
420
    65535
100
AcDbLine
 10
164.8076996729
 20
7.8002009347
 30
0.0
 11
164.6077000259
 21
8.0002015396
 31
0.0
  0
LINE
  5
88
330
1F
100
AcDbEntity
  8
1
 62
     4
420
    65535
100
AcDbLine
 10
164.6077000259
 20
-7.9997984604
 30
0.0
 11
164.8076996729
 21
-7.7997978555
 31
0.0
  0
LINE
  5
89
330
1F
100
AcDbEntity
  8
1
 62
     4
420
    65535
100
AcDbLine
 10
164.6077000259
 20
8.0002015396
 30
0.0
 11
158.0000708915
 21
8.0002015396
 31
0.0
  0
LINE
  5
8A
330
1F
100
AcDbEntity
  8
1
 62
     4
420
    65535
100
AcDbLine
 10
152.0000708915
 20
8.0002015396
 30
0.0
 11
0.0000708915
 21
8.0002015396
 31
0.0
  0
LINE
  5
8B
330
1F
100
AcDbEntity
  8
1
 62
     4
420
    65535
100
AcDbLine
 10
0.0000708915
 20
-7.9997984604
 30
0.0
 11
152.0000708915
 21
-7.9997984604
 31
0.0
  0
LINE
  5
8C
330
1F
100
AcDbEntity
  8
1
 62
     4
420
    65535
100
AcDbLine
 10
158.0000708915
 20
-7.9997984604
 30
0.0
 11
164.6077000259
 21
-7.9997984604
 31
0.0
  0
ARC
  5
8D
330
1F
100
AcDbEntity
  8
1
 62
     4
420
    65535
100
AcDbCircle
 10
165.2076996729
 20
7.3544522891
 30
0.0
 40
0.4000000000001357
100
AcDbArc
 50
180.0
 51
284.9999593761
  0
ARC
  5
8E
330
1F
100
AcDbEntity
  8
1
 62
     4
420
    65535
100
AcDbCircle
 10
165.2076996729
 20
-7.3540492099
 30
0.0
 40
0.4000000000001349
100
AcDbArc
 50
75.0000406239
 51
180.0
  0
SPLINE
  5
8F
330
1F
100
AcDbEntity
  8
1
 62
     4
420
    65535
100
AcDbSpline
210
0.0
220
0.0
230
1.0
 70
     8
 71
     3
 72
     8
 73
     4
 74
     0
 42
0.00000001
 43
0.00000001
 12
1.0
 22
0.0
 32
0.0
 13
1.0
 23
0.0
 33
0.0
 40
0.0
 40
0.0
 40
0.0
 40
0.0
 40
1.0
 40
1.0
 40
1.0
 40
1.0
 10
179.8928911875352
 20
2.630222370728755
 30
0.0
 10
179.9633210457045
 20
2.630222370728757
 30
0.0
 10
180.0321797941213
 20
2.620787010001116
 30
0.0
 10
180.0928911780626
 20
2.602940303087031
 30
0.0
  0
SPLINE
  5
90
330
1F
100
AcDbEntity
  8
1
 62
     4
420
    65535
100
AcDbSpline
210
0.0
220
0.0
230
1.0
 70
     8
 71
     3
 72
     8
 73
     4
 74
     0
 42
0.00000001
 43
0.00000001
 12
1.0
 22
0.0
 32
0.0
 13
1.0
 23
0.0
 33
0.0
 40
0.0
 40
0.0
 40
0.0
 40
0.0
 40
1.0
 40
1.0
 40
1.0
 40
1.0
 10
179.8928911875352
 20
-2.629819291509651
 30
0.0
 10
179.9633210457045
 20
-2.629819291509651
 30
0.0
 10
180.0321797941213
 20
-2.62038393078201
 30
0.0
 10
180.0928911780626
 20
-2.602537223867928
 30
0.0
  0
SPLINE
  5
91
330
1F
100
AcDbEntity
  8
1
 62
     4
420
    65535
100
AcDbSpline
210
0.0
220
0.0
230
1.0
 70
     8
 71
     3
 72
     8
 73
     4
 74
     0
 42
0.00000001
 43
0.00000001
 12
1.0
 22
0.0
 32
0.0
 13
1.0
 23
0.0
 33
0.0
 40
0.0
 40
0.0
 40
0.0
 40
0.0
 40
1.0
 40
1.0
 40
1.0
 40
1.0
 10
179.8928911875352
 20
-5.227895502862979
 30
0.0
 10
179.9633210457045
 20
-5.227895502862979
 30
0.0
 10
180.0321797941214
 20
-5.218460142135338
 30
0.0
 10
180.0928911780626
 20
-5.200613435221253
 30
0.0
  0
LINE
  5
92
330
1F
100
AcDbEntity
  8
1
 62
     4
420
    65535
100
AcDbLine
 10
179.8928911875
 20
-7.857916334
 30
0.0
 11
179.8928911875
 21
-5.2278955029
 31
0.0
  0
SPLINE
  5
93
330
1F
100
AcDbEntity
  8
1
 62
     4
420
    65535
100
AcDbSpline
210
0.0
220
0.0
230
1.0
 70
     8
 71
     3
 72
    10
 73
     6
 74
     0
 42
0.00000001
 43
0.00000001
 12
1.0
 22
0.0
 32
0.0
 13
1.0
 23
0.0
 33
0.0
 40
0.0
 40
0.0
 40
0.0
 40
0.0
 40
0.5
 40
0.5
 40
1.0
 40
1.0
 40
1.0
 40
1.0
 10
179.8928911875352
 20
-7.857916333982227
 30
0.0
 10
179.9279275744329
 20
-7.857916333982227
 30
0.0
 10
179.9631460475052
 20
-7.85316831977423
 30
0.0
 10
180.0307724138791
 20
-7.83461627645301
 30
0.0
 10
180.062739383574
 20
-7.821079030275737
 30
0.0
 10
180.0928911780601
 20
-7.803352198693383
 30
0.0
  0
LINE
  5
94
330
1F
100
AcDbEntity
  8
1
 62
     4
420
    65535
100
AcDbLine
 10
179.8928911875
 20
-2.6298192915
 30
0.0
 11
179.8928911875
 21
2.6302223707
 31
0.0
  0
LINE
  5
95
330
1F
100
AcDbEntity
  8
1
 62
     4
420
    65535
100
AcDbLine
 10
180.0928911781
 20
-7.8033521987
 30
0.0
 11
180.0928911781
 21
-5.2006134352
 31
0.0
  0
SPLINE
  5
96
330
1F
100
AcDbEntity
  8
1
 62
     4
420
    65535
100
AcDbSpline
210
0.0
220
0.0
230
1.0
 70
     8
 71
     3
 72
    10
 73
     6
 74
     0
 42
0.00000001
 43
0.00000001
 12
1.0
 22
0.0
 32
0.0
 13
1.0
 23
0.0
 33
0.0
 40
0.0
 40
0.0
 40
0.0
 40
0.0
 40
0.5
 40
0.5
 40
1.0
 40
1.0
 40
1.0
 40
1.0
 10
179.8928911875352
 20
-7.857916333982227
 30
0.0
 10
179.9279275744329
 20
-7.857916333982227
 30
0.0
 10
179.9631460475052
 20
-7.85316831977423
 30
0.0
 10
180.0307724138791
 20
-7.83461627645301
 30
0.0
 10
180.062739383574
 20
-7.821079030275737
 30
0.0
 10
180.0928911780601
 20
-7.803352198693383
 30
0.0
  0
LINE
  5
97
330
1F
100
AcDbEntity
  8
1
 62
     4
420
    65535
100
AcDbLine
 10
179.8928911875
 20
-5.2278955029
 30
0.0
 11
179.8928911875
 21
-7.857916334
 31
0.0
  0
SPLINE
  5
98
330
1F
100
AcDbEntity
  8
1
 62
     4
420
    65535
100
AcDbSpline
210
0.0
220
0.0
230
1.0
 70
     8
 71
     3
 72
     8
 73
     4
 74
     0
 42
0.00000001
 43
0.00000001
 12
1.0
 22
0.0
 32
0.0
 13
1.0
 23
0.0
 33
0.0
 40
0.0
 40
0.0
 40
0.0
 40
0.0
 40
1.0
 40
1.0
 40
1.0
 40
1.0
 10
179.8928911875352
 20
-5.227895502863063
 30
0.0
 10
179.9633210457044
 20
-5.227895502863066
 30
0.0
 10
180.0321797941213
 20
-5.218460142135459
 30
0.0
 10
180.0928911780626
 20
-5.200613435221339
 30
0.0
  0
SPLINE
  5
99
330
1F
100
AcDbEntity
  8
1
 62
     4
420
    65535
100
AcDbSpline
210
0.0
220
0.0
230
1.0
 70
     8
 71
     3
 72
     8
 73
     4
 74
     0
 42
0.00000001
 43
0.00000001
 12
1.0
 22
0.0
 32
0.0
 13
1.0
 23
0.0
 33
0.0
 40
0.0
 40
0.0
 40
0.0
 40
0.0
 40
1.0
 40
1.0
 40
1.0
 40
1.0
 10
179.8928911875352
 20
-2.629819291509754
 30
0.0
 10
179.9633210457045
 20
-2.629819291509756
 30
0.0
 10
180.0321797941214
 20
-2.620383930782114
 30
0.0
 10
180.0928911780626
 20
-2.602537223868028
 30
0.0
  0
LINE
  5
9A
330
1F
100
AcDbEntity
  8
1
 62
     4
420
    65535
100
AcDbLine
 10
179.8928911875
 20
2.6302223707
 30
0.0
 11
179.8928911875
 21
-2.6298192915
 31
0.0
  0
LINE
  5
9B
330
1F
100
AcDbEntity
  8
1
 62
     4
420
    65535
100
AcDbLine
 10
180.0928911781
 20
-2.6025372239
 30
0.0
 11
180.0928911781
 21
2.6029403031
 31
0.0
  0
SPLINE
  5
9C
330
1F
100
AcDbEntity
  8
1
 62
     4
420
    65535
100
AcDbSpline
210
0.0
220
0.0
230
1.0
 70
     8
 71
     3
 72
     8
 73
     4
 74
     0
 42
0.00000001
 43
0.00000001
 12
1.0
 22
0.0
 32
0.0
 13
1.0
 23
0.0
 33
0.0
 40
0.0
 40
0.0
 40
0.0
 40
0.0
 40
1.0
 40
1.0
 40
1.0
 40
1.0
 10
179.8928911875352
 20
2.630222370728649
 30
0.0
 10
179.9633210457045
 20
2.630222370728649
 30
0.0
 10
180.0321797941214
 20
2.620787010001006
 30
0.0
 10
180.0928911780626
 20
2.602940303086922
 30
0.0
  0
LINE
  5
9D
330
1F
100
AcDbEntity
  8
1
 62
     4
420
    65535
100
AcDbLine
 10
180.0928911781
 20
2.6029403031
 30
0.0
 11
180.0928911781
 21
-2.6025372239
 31
0.0
  0
SPLINE
  5
9E
330
1F
100
AcDbEntity
  8
1
 62
     4
420
    65535
100
AcDbSpline
210
0.0
220
0.0
230
1.0
 70
     8
 71
     3
 72
     8
 73
     4
 74
     0
 42
0.00000001
 43
0.00000001
 12
1.0
 22
0.0
 32
0.0
 13
1.0
 23
0.0
 33
0.0
 40
0.0
 40
0.0
 40
0.0
 40
0.0
 40
1.0
 40
1.0
 40
1.0
 40
1.0
 10
179.8928911875352
 20
5.228298582081968
 30
0.0
 10
179.9633210457045
 20
5.228298582081968
 30
0.0
 10
180.0321797941213
 20
5.218863221354361
 30
0.0
 10
180.0928911780626
 20
5.201016514440244
 30
0.0
  0
SPLINE
  5
9F
330
1F
100
AcDbEntity
  8
1
 62
     4
420
    65535
100
AcDbSpline
210
0.0
220
0.0
230
1.0
 70
     8
 71
     3
 72
    10
 73
     6
 74
     0
 42
0.00000001
 43
0.00000001
 12
1.0
 22
0.0
 32
0.0
 13
1.0
 23
0.0
 33
0.0
 40
0.0
 40
0.0
 40
0.0
 40
0.0
 40
0.5
 40
0.5
 40
1.0
 40
1.0
 40
1.0
 40
1.0
 10
179.8928911875352
 20
7.858319413201182
 30
0.0
 10
179.927855698566
 20
7.858319413201181
 30
0.0
 10
179.9625350328445
 20
7.853700679977623
 30
0.0
 10
180.0305908336949
 20
7.835107064441146
 30
0.0
 10
180.0626815597643
 20
7.821516105246921
 30
0.0
 10
180.0928911780601
 20
7.803755277912328
 30
0.0
  0
LINE
  5
A0
330
1F
100
AcDbEntity
  8
1
 62
     4
420
    65535
100
AcDbLine
 10
180.0928911781
 20
-5.2006134352
 30
0.0
 11
180.0928911781
 21
-7.8033521987
 31
0.0
  0
LINE
  5
A1
330
1F
100
AcDbEntity
  8
1
 62
     4
420
    65535
100
AcDbLine
 10
181.800070882
 20
-6.9605690602
 30
0.0
 11
181.800070882
 21
6.9609721394
 31
0.0
  0
LINE
  5
A2
330
1F
100
AcDbEntity
  8
1
 62
     4
420
    65535
100
AcDbLine
 10
182.0000708915
 20
-6.6135627929
 30
0.0
 11
182.0000708915
 21
6.6139658721
 31
0.0
  0
LINE
  5
A3
330
1F
100
AcDbEntity
  8
1
 62
     4
420
    65535
100
AcDbLine
 10
180.0928911781
 20
5.2010165144
 30
0.0
 11
180.0928911781
 21
7.8037552779
 31
0.0
  0
LINE
  5
A4
330
1F
100
AcDbEntity
  8
1
 62
     4
420
    65535
100
AcDbLine
 10
179.8928911875
 20
7.8583194132
 30
0.0
 11
179.8928911875
 21
5.2282985821
 31
0.0
  0
LINE
  5
A5
330
1F
100
AcDbEntity
  8
1
 62
     4
420
    65535
100
AcDbLine
 10
180.0928911781
 20
7.8037552779
 30
0.0
 11
180.0928911781
 21
5.2010165144
 31
0.0
  0
SPLINE
  5
A6
330
1F
100
AcDbEntity
  8
1
 62
     4
420
    65535
100
AcDbSpline
210
0.0
220
0.0
230
1.0
 70
     8
 71
     3
 72
     8
 73
     4
 74
     0
 42
0.00000001
 43
0.00000001
 12
1.0
 22
0.0
 32
0.0
 13
1.0
 23
0.0
 33
0.0
 40
0.0000002320041573
 40
0.0000002320041573
 40
0.0000002320041573
 40
0.0000002320041573
 40
0.0015833209939355
 40
0.0015833209939355
 40
0.0015833209939355
 40
0.0015833209939355
 10
180.0928911780601
 20
5.201016514437631
 30
0.0
 10
180.5477934435197
 20
5.067293530720228
 30
0.0
 10
181.0024847044987
 20
4.933390793617875
 30
0.0
 10
181.4568824314105
 20
4.799239645286198
 30
0.0
  0
SPLINE
  5
A7
330
1F
100
AcDbEntity
  8
1
 62
     4
420
    65535
100
AcDbSpline
210
0.0
220
0.0
230
1.0
 70
     8
 71
     3
 72
     8
 73
     4
 74
     0
 42
0.00000001
 43
0.00000001
 12
1.0
 22
0.0
 32
0.0
 13
1.0
 23
0.0
 33
0.0
 40
0.0000002320041573
 40
0.0000002320041573
 40
0.0000002320041573
 40
0.0000002320041573
 40
0.0015833209939355
 40
0.0015833209939355
 40
0.0015833209939355
 40
0.0015833209939355
 10
180.0928911780601
 20
2.602940303084333
 30
0.0
 10
180.5477934435197
 20
2.46921731936693
 30
0.0
 10
181.0024847044987
 20
2.335314582264576
 30
0.0
 10
181.4568824314105
 20
2.2011634339329
 30
0.0
  0
SPLINE
  5
A8
330
1F
100
AcDbEntity
  8
1
 62
     4
420
    65535
100
AcDbSpline
210
0.0
220
0.0
230
1.0
 70
     8
 71
     3
 72
     8
 73
     4
 74
     0
 42
0.00000001
 43
0.00000001
 12
1.0
 22
0.0
 32
0.0
 13
1.0
 23
0.0
 33
0.0
 40
0.0000002320041573
 40
0.0000002320041573
 40
0.0000002320041573
 40
0.0000002320041573
 40
0.0015833209939355
 40
0.0015833209939355
 40
0.0015833209939355
 40
0.0015833209939355
 10
180.0928911780601
 20
-2.60253722386523
 30
0.0
 10
180.5477934435197
 20
-2.468814240147831
 30
0.0
 10
181.0024847044987
 20
-2.334911503045483
 30
0.0
 10
181.4568824314105
 20
-2.200760354713811
 30
0.0
  0
SPLINE
  5
A9
330
1F
100
AcDbEntity
  8
1
 62
     4
420
    65535
100
AcDbSpline
210
0.0
220
0.0
230
1.0
 70
     8
 71
     3
 72
    12
 73
     8
 74
     0
 42
0.00000001
 43
0.00000001
 12
1.0
 22
0.0
 32
0.0
 13
1.0
 23
0.0
 33
0.0
 40
0.0
 40
0.0
 40
0.0
 40
0.0
 40
0.25
 40
0.25
 40
0.5
 40
0.5
 40
1.0
 40
1.0
 40
1.0
 40
1.0
 10
181.4568824314105
 20
-2.200760354713804
 30
0.0
 10
181.5448436612
 20
-2.410662532893414
 30
0.0
 10
181.6137619388651
 20
-2.623745218175896
 30
0.0
 10
181.7075056956319
 20
-3.057274859684775
 30
0.0
 10
181.7322922923777
 20
-3.279087419355091
 30
0.0
 10
181.7317834759571
 20
-3.948136039093043
 30
0.0
 10
181.632703486351
 20
-4.379274191937468
 30
0.0
 10
181.4568824314105
 20
-4.798836566067137
 30
0.0
  0
SPLINE
  5
AA
330
1F
100
AcDbEntity
  8
1
 62
     4
420
    65535
100
AcDbSpline
210
0.0
220
0.0
230
1.0
 70
     8
 71
     3
 72
     8
 73
     4
 74
     0
 42
0.00000001
 43
0.00000001
 12
1.0
 22
0.0
 32
0.0
 13
1.0
 23
0.0
 33
0.0
 40
0.0
 40
0.0
 40
0.0
 40
0.0
 40
1.0
 40
1.0
 40
1.0
 40
1.0
 10
180.0928911780601
 20
-7.803352198693376
 30
0.0
 10
180.5477931702232
 20
-7.535906391934928
 30
0.0
 10
181.002484006469
 20
-7.268101169210345
 30
0.0
 10
181.4568824314105
 20
-6.999798460390531
 30
0.0
  0
SPLINE
  5
AB
330
1F
100
AcDbEntity
  8
1
 62
     4
420
    65535
100
AcDbSpline
210
0.0
220
0.0
230
1.0
 70
    27
 71
     3
 72
    14
 73
    10
 74
     0
 42
0.00000001
 43
0.00000001
 12
1.0
 22
0.0
 32
0.0
 13
1.0
 23
0.0
 33
0.0
 40
0.0
 40
0.0
 40
0.0
 40
0.0
 40
0.25
 40
0.25
 40
0.5
 40
0.5
 40
0.75
 40
0.75
 40
1.0
 40
1.0
 40
1.0
 40
1.0
 10
181.4568824314105
 20
-6.999798460390526
 30
0.0
 10
181.5437689290921
 20
-6.999798460390525
 30
0.0
 10
181.6139830660693
 20
-6.999798460390527
 30
0.0
 10
181.707656612173
 20
-6.999798460390526
 30
0.0
 10
181.7320521191438
 20
-6.999798460390526
 30
0.0
 10
181.7321946937442
 20
-6.999798460390526
 30
0.0
 10
181.7072611713401
 20
-6.999798460390526
 30
0.0
 10
181.6132348084656
 20
-6.999798460390526
 30
0.0
 10
181.5443381466822
 20
-6.999798460390526
 30
0.0
 10
181.4568824314105
 20
-6.999798460390526
 30
0.0
  0
SPLINE
  5
AC
330
1F
100
AcDbEntity
  8
1
 62
     4
420
    65535
100
AcDbSpline
210
0.0
220
0.0
230
1.0
 70
     8
 71
     3
 72
     8
 73
     4
 74
     0
 42
0.00000001
 43
0.00000001
 12
1.0
 22
0.0
 32
0.0
 13
1.0
 23
0.0
 33
0.0
 40
0.0
 40
0.0
 40
0.0
 40
0.0
 40
1.0
 40
1.0
 40
1.0
 40
1.0
 10
180.0928911780601
 20
-7.803352198693376
 30
0.0
 10
180.5477931702232
 20
-7.535906391934928
 30
0.0
 10
181.002484006469
 20
-7.268101169210345
 30
0.0
 10
181.4568824314105
 20
-6.999798460390531
 30
0.0
  0
SPLINE
  5
AD
330
1F
100
AcDbEntity
  8
1
 62
     4
420
    65535
100
AcDbSpline
210
0.0
220
0.0
230
1.0
 70
     8
 71
     3
 72
     8
 73
     4
 74
     0
 42
0.00000001
 43
0.00000001
 12
1.0
 22
0.0
 32
0.0
 13
1.0
 23
0.0
 33
0.0
 40
0.0000002320041573
 40
0.0000002320041573
 40
0.0000002320041573
 40
0.0000002320041573
 40
0.0015833209939355
 40
0.0015833209939355
 40
0.0015833209939355
 40
0.0015833209939355
 10
180.0928911780601
 20
-5.200613435218642
 30
0.0
 10
180.5477934435197
 20
-5.06689045150124
 30
0.0
 10
181.0024847044987
 20
-4.932987714398889
 30
0.0
 10
181.4568824314105
 20
-4.798836566067214
 30
0.0
  0
SPLINE
  5
AE
330
1F
100
AcDbEntity
  8
1
 62
     4
420
    65535
100
AcDbSpline
210
0.0
220
0.0
230
1.0
 70
     8
 71
     3
 72
    12
 73
     8
 74
     0
 42
0.00000001
 43
0.00000001
 12
1.0
 22
0.0
 32
0.0
 13
1.0
 23
0.0
 33
0.0
 40
0.0
 40
0.0
 40
0.0
 40
0.0
 40
0.25
 40
0.25
 40
0.5
 40
0.5
 40
1.0
 40
1.0
 40
1.0
 40
1.0
 10
181.4568824314105
 20
-4.79883656606721
 30
0.0
 10
181.5448436612
 20
-4.588934387887599
 30
0.0
 10
181.6137619388651
 20
-4.375851702605122
 30
0.0
 10
181.7075056956319
 20
-3.942322061096245
 30
0.0
 10
181.7322922923777
 20
-3.720509501425931
 30
0.0
 10
181.731783475957
 20
-3.051460881687987
 30
0.0
 10
181.632703486351
 20
-2.620322728843563
 30
0.0
 10
181.4568824314105
 20
-2.200760354713899
 30
0.0
  0
SPLINE
  5
AF
330
1F
100
AcDbEntity
  8
1
 62
     4
420
    65535
100
AcDbSpline
210
0.0
220
0.0
230
1.0
 70
     8
 71
     3
 72
     8
 73
     4
 74
     0
 42
0.00000001
 43
0.00000001
 12
1.0
 22
0.0
 32
0.0
 13
1.0
 23
0.0
 33
0.0
 40
0.0000002320041573
 40
0.0000002320041573
 40
0.0000002320041573
 40
0.0000002320041573
 40
0.0015833209939355
 40
0.0015833209939355
 40
0.0015833209939355
 40
0.0015833209939355
 10
180.0928911780601
 20
-2.602537223865333
 30
0.0
 10
180.5477934435197
 20
-2.468814240147931
 30
0.0
 10
181.0024847044987
 20
-2.334911503045579
 30
0.0
 10
181.4568824314105
 20
-2.200760354713904
 30
0.0
  0
SPLINE
  5
B0
330
1F
100
AcDbEntity
  8
1
 62
     4
420
    65535
100
AcDbSpline
210
0.0
220
0.0
230
1.0
 70
     8
 71
     3
 72
     8
 73
     4
 74
     0
 42
0.00000001
 43
0.00000001
 12
1.0
 22
0.0
 32
0.0
 13
1.0
 23
0.0
 33
0.0
 40
0.0000002320041573
 40
0.0000002320041573
 40
0.0000002320041573
 40
0.0000002320041573
 40
0.0015833209939355
 40
0.0015833209939355
 40
0.0015833209939355
 40
0.0015833209939355
 10
180.0928911780601
 20
2.602940303084228
 30
0.0
 10
180.5477934435197
 20
2.469217319366827
 30
0.0
 10
181.0024847044987
 20
2.335314582264478
 30
0.0
 10
181.4568824314105
 20
2.201163433932805
 30
0.0
  0
SPLINE
  5
B1
330
1F
100
AcDbEntity
  8
1
 62
     4
420
    65535
100
AcDbSpline
210
0.0
220
0.0
230
1.0
 70
     8
 71
     3
 72
    12
 73
     8
 74
     0
 42
0.00000001
 43
0.00000001
 12
1.0
 22
0.0
 32
0.0
 13
1.0
 23
0.0
 33
0.0
 40
0.0
 40
0.0
 40
0.0
 40
0.0
 40
0.2500000000000001
 40
0.2500000000000001
 40
0.5000000000000002
 40
0.5000000000000002
 40
1.0
 40
1.0
 40
1.0
 40
1.0
 10
181.4568824314105
 20
4.799239645286193
 30
0.0
 10
181.5448436612
 20
4.589337467106586
 30
0.0
 10
181.6137619388651
 20
4.376254781824108
 30
0.0
 10
181.7075056956319
 20
3.942725140315234
 30
0.0
 10
181.7322922923777
 20
3.720912580644919
 30
0.0
 10
181.7317834759571
 20
3.051863960906976
 30
0.0
 10
181.632703486351
 20
2.620725808062555
 30
0.0
 10
181.4568824314105
 20
2.201163433932893
 30
0.0
  0
SPLINE
  5
B2
330
1F
100
AcDbEntity
  8
1
 62
     4
420
    65535
100
AcDbSpline
210
0.0
220
0.0
230
1.0
 70
     8
 71
     3
 72
     8
 73
     4
 74
     0
 42
0.00000001
 43
0.00000001
 12
1.0
 22
0.0
 32
0.0
 13
1.0
 23
0.0
 33
0.0
 40
0.0000002320041573
 40
0.0000002320041573
 40
0.0000002320041573
 40
0.0000002320041573
 40
0.0015833209939355
 40
0.0015833209939355
 40
0.0015833209939355
 40
0.0015833209939355
 10
180.0928911780601
 20
5.201016514437548
 30
0.0
 10
180.5477934435197
 20
5.067293530720147
 30
0.0
 10
181.0024847044987
 20
4.933390793617797
 30
0.0
 10
181.4568824314105
 20
4.799239645286123
 30
0.0
  0
SPLINE
  5
B3
330
1F
100
AcDbEntity
  8
1
 62
     4
420
    65535
100
AcDbSpline
210
0.0
220
0.0
230
1.0
 70
     8
 71
     3
 72
     8
 73
     4
 74
     0
 42
0.00000001
 43
0.00000001
 12
1.0
 22
0.0
 32
0.0
 13
1.0
 23
0.0
 33
0.0
 40
0.0
 40
0.0
 40
0.0
 40
0.0
 40
1.0
 40
1.0
 40
1.0
 40
1.0
 10
180.0928911780601
 20
7.803755277912322
 30
0.0
 10
180.5477931702232
 20
7.536309471153873
 30
0.0
 10
181.002484006469
 20
7.268504248429292
 30
0.0
 10
181.4568824314105
 20
7.000201539609478
 30
0.0
  0
SPLINE
  5
B4
330
1F
100
AcDbEntity
  8
1
 62
     4
420
    65535
100
AcDbSpline
210
0.0
220
0.0
230
1.0
 70
    27
 71
     3
 72
    14
 73
    10
 74
     0
 42
0.00000001
 43
0.00000001
 12
1.0
 22
0.0
 32
0.0
 13
1.0
 23
0.0
 33
0.0
 40
0.0
 40
0.0
 40
0.0
 40
0.0
 40
0.25
 40
0.25
 40
0.5
 40
0.5
 40
0.75
 40
0.75
 40
1.0
 40
1.0
 40
1.0
 40
1.0
 10
181.4568824314105
 20
7.000201539609472
 30
0.0
 10
181.5437689290921
 20
7.000201539609471
 30
0.0
 10
181.6139830660693
 20
7.000201539609473
 30
0.0
 10
181.707656612173
 20
7.000201539609472
 30
0.0
 10
181.7320521191438
 20
7.000201539609472
 30
0.0
 10
181.7321946937442
 20
7.000201539609472
 30
0.0
 10
181.7072611713401
 20
7.000201539609472
 30
0.0
 10
181.6132348084656
 20
7.000201539609472
 30
0.0
 10
181.5443381466822
 20
7.000201539609472
 30
0.0
 10
181.4568824314105
 20
7.000201539609472
 30
0.0
  0
SPLINE
  5
B5
330
1F
100
AcDbEntity
  8
1
 62
     4
420
    65535
100
AcDbSpline
210
0.0
220
0.0
230
1.0
 70
     8
 71
     3
 72
     8
 73
     4
 74
     0
 42
0.00000001
 43
0.00000001
 12
1.0
 22
0.0
 32
0.0
 13
1.0
 23
0.0
 33
0.0
 40
0.0
 40
0.0
 40
0.0
 40
0.0
 40
1.0
 40
1.0
 40
1.0
 40
1.0
 10
180.0928911780601
 20
7.803755277912322
 30
0.0
 10
180.5477931702232
 20
7.536309471153873
 30
0.0
 10
181.002484006469
 20
7.268504248429292
 30
0.0
 10
181.4568824314105
 20
7.000201539609478
 30
0.0
  0
LINE
  5
B6
330
1F
100
AcDbEntity
  8
1
 62
     4
420
    65535
100
AcDbLine
 10
179.8928911875
 20
5.2282985821
 30
0.0
 11
179.8928911875
 21
7.8583194132
 31
0.0
  0
SPLINE
  5
B7
330
1F
100
AcDbEntity
  8
1
 62
     4
420
    65535
100
AcDbSpline
210
0.0
220
0.0
230
1.0
 70
     8
 71
     3
 72
     8
 73
     4
 74
     0
 42
0.00000001
 43
0.00000001
 12
1.0
 22
0.0
 32
0.0
 13
1.0
 23
0.0
 33
0.0
 40
0.0
 40
0.0
 40
0.0
 40
0.0
 40
1.0
 40
1.0
 40
1.0
 40
1.0
 10
179.8928911875352
 20
5.228298582082052
 30
0.0
 10
179.9633210457045
 20
5.228298582082052
 30
0.0
 10
180.0321797941213
 20
5.218863221354423
 30
0.0
 10
180.0928911780626
 20
5.201016514440333
 30
0.0
  0
SPLINE
  5
B8
330
1F
100
AcDbEntity
  8
1
 62
     4
420
    65535
100
AcDbSpline
210
0.0
220
0.0
230
1.0
 70
     8
 71
     3
 72
    10
 73
     6
 74
     0
 42
0.00000001
 43
0.00000001
 12
1.0
 22
0.0
 32
0.0
 13
1.0
 23
0.0
 33
0.0
 40
0.0
 40
0.0
 40
0.0
 40
0.0
 40
0.5
 40
0.5
 40
1.0
 40
1.0
 40
1.0
 40
1.0
 10
179.8928911875352
 20
7.858319413201182
 30
0.0
 10
179.927855698566
 20
7.858319413201181
 30
0.0
 10
179.9625350328445
 20
7.853700679977623
 30
0.0
 10
180.0305908336949
 20
7.835107064441146
 30
0.0
 10
180.0626815597643
 20
7.821516105246921
 30
0.0
 10
180.0928911780601
 20
7.803755277912328
 30
0.0
  0
SPLINE
  5
B9
330
1F
100
AcDbEntity
  8
1
 62
     4
420
    65535
100
AcDbSpline
210
0.0
220
0.0
230
1.0
 70
     8
 71
     3
 72
     8
 73
     4
 74
     0
 42
0.00000001
 43
0.00000001
 12
1.0
 22
0.0
 32
0.0
 13
1.0
 23
0.0
 33
0.0
 40
0.0000002320041573
 40
0.0000002320041573
 40
0.0000002320041573
 40
0.0000002320041573
 40
0.0015833209939355
 40
0.0015833209939355
 40
0.0015833209939355
 40
0.0015833209939355
 10
180.0928911780601
 20
-5.20061343521856
 30
0.0
 10
180.5477934435197
 20
-5.066890451501161
 30
0.0
 10
181.0024847044987
 20
-4.932987714398813
 30
0.0
 10
181.4568824314105
 20
-4.798836566067141
 30
0.0
  0
LINE
  5
BA
330
1F
100
AcDbEntity
  8
1
 62
     4
420
    65535
100
AcDbLine
 10
170.5817873426
 20
5.2282985821
 30
0.0
 11
179.8928911875
 21
5.2282985821
 31
0.0
  0
SPLINE
  5
BB
330
1F
100
AcDbEntity
  8
1
 62
     4
420
    65535
100
AcDbSpline
210
0.0
220
0.0
230
1.0
 70
     8
 71
     3
 72
    12
 73
     8
 74
     0
 42
0.00000001
 43
0.00000001
 12
1.0
 22
0.0
 32
0.0
 13
1.0
 23
0.0
 33
0.0
 40
0.0
 40
0.0
 40
0.0
 40
0.0
 40
0.2499999999999999
 40
0.2499999999999999
 40
0.4999999999999998
 40
0.4999999999999998
 40
1.0
 40
1.0
 40
1.0
 40
1.0
 10
181.4568824314105
 20
2.201163433932798
 30
0.0
 10
181.5448436612
 20
2.411065612112408
 30
0.0
 10
181.613761938865
 20
2.624148297394889
 30
0.0
 10
181.7075056956319
 20
3.057677938903766
 30
0.0
 10
181.7322922923777
 20
3.279490498574081
 30
0.0
 10
181.7317834759571
 20
3.94853911831203
 30
0.0
 10
181.632703486351
 20
4.379677271156455
 30
0.0
 10
181.4568824314105
 20
4.79923964528612
 30
0.0
  0
LINE
  5
BC
330
1F
100
AcDbEntity
  8
1
 62
     4
420
    65535
100
AcDbLine
 10
170.5817873426
 20
7.8583194132
 30
0.0
 11
179.8928911875
 21
7.8583194132
 31
0.0
  0
SPLINE
  5
BD
330
1F
100
AcDbEntity
  8
1
 62
     4
420
    65535
100
AcDbSpline
210
0.0
220
0.0
230
1.0
 70
    11
 71
     3
 72
    10
 73
     6
 74
     0
 42
0.00000001
 43
0.00000001
 12
1.0
 22
0.0
 32
0.0
 13
1.0
 23
0.0
 33
0.0
 40
0.0
 40
0.0
 40
0.0
 40
0.0
 40
0.5
 40
0.5
 40
1.0
 40
1.0
 40
1.0
 40
1.0
 10
170.5817873425851
 20
7.858319413201177
 30
0.0
 10
170.4445077320021
 20
7.951151814815193
 30
0.0
 10
170.3827553056379
 20
8.000119993069157
 30
0.0
 10
170.3825353721695
 20
8.000284943276815
 30
0.0
 10
170.4445237316284
 20
7.951140995410039
 30
0.0
 10
170.5817873425851
 20
7.858319413201177
 30
0.0
  0
LINE
  5
BE
330
1F
100
AcDbEntity
  8
1
 62
     4
420
    65535
100
AcDbLine
 10
170.5817873426
 20
2.6302223707
 30
0.0
 11
179.8928911875
 21
2.6302223707
 31
0.0
  0
LINE
  5
BF
330
1F
100
AcDbEntity
  8
1
 62
     4
420
    65535
100
AcDbLine
 10
166.0000719405
 20
-7.9997994926
 30
0.0
 11
166.0000719405
 21
8.0002025718
 31
0.0
  0
SPLINE
  5
C0
330
1F
100
AcDbEntity
  8
1
 62
     4
420
    65535
100
AcDbSpline
210
0.0
220
0.0
230
1.0
 70
     8
 71
     3
 72
    10
 73
     6
 74
     0
 42
0.00000001
 43
0.00000001
 12
1.0
 22
0.0
 32
0.0
 13
1.0
 23
0.0
 33
0.0
 40
0.0
 40
0.0
 40
0.0
 40
0.0
 40
0.5
 40
0.5
 40
1.0
 40
1.0
 40
1.0
 40
1.0
 10
170.5817873425851
 20
5.228298582081969
 30
0.0
 10
170.4445077320021
 20
4.853544716061982
 30
0.0
 10
170.3827553056379
 20
4.4450064698309
 30
0.0
 10
170.3825353721695
 20
3.557627948899766
 30
0.0
 10
170.4445237316284
 20
3.097754142247247
 30
0.0
 10
170.5817873425851
 20
2.630222370728649
 30
0.0
  0
SPLINE
  5
C1
330
1F
100
AcDbEntity
  8
1
 62
     4
420
    65535
100
AcDbSpline
210
0.0
220
0.0
230
1.0
 70
     8
 71
     3
 72
    10
 73
     6
 74
     0
 42
0.00000001
 43
0.00000001
 12
1.0
 22
0.0
 32
0.0
 13
1.0
 23
0.0
 33
0.0
 40
0.0
 40
0.0
 40
0.0
 40
0.0
 40
0.5
 40
0.5
 40
1.0
 40
1.0
 40
1.0
 40
1.0
 10
170.5817873425851
 20
2.630222370728755
 30
0.0
 10
170.4445077320021
 20
3.097808638362753
 30
0.0
 10
170.3827553056379
 20
3.555315062847795
 30
0.0
 10
170.3825353721695
 20
4.442858533986582
 30
0.0
 10
170.4445237316284
 20
4.853588392772328
 30
0.0
 10
170.5817873425851
 20
5.228298582082054
 30
0.0
  0
LINE
  5
C2
330
1F
100
AcDbEntity
  8
1
 62
     4
420
    65535
100
AcDbLine
 10
170.5817873426
 20
-5.2278955029
 30
0.0
 11
179.8928911875
 21
-5.2278955029
 31
0.0
  0
LINE
  5
C3
330
1F
100
AcDbEntity
  8
1
 62
     4
420
    65535
100
AcDbLine
 10
170.5817873426
 20
-2.6298192915
 30
0.0
 11
179.8928911875
 21
-2.6298192915
 31
0.0
  0
LINE
  5
C4
330
1F
100
AcDbEntity
  8
1
 62
     4
420
    65535
100
AcDbLine
 10
170.5817873426
 20
-7.857916334
 30
0.0
 11
179.8928911875
 21
-7.857916334
 31
0.0
  0
SPLINE
  5
C5
330
1F
100
AcDbEntity
  8
1
 62
     4
420
    65535
100
AcDbSpline
210
0.0
220
0.0
230
1.0
 70
     8
 71
     3
 72
    10
 73
     6
 74
     0
 42
0.00000001
 43
0.00000001
 12
1.0
 22
0.0
 32
0.0
 13
1.0
 23
0.0
 33
0.0
 40
0.0
 40
0.0
 40
0.0
 40
0.0
 40
0.5000000000000002
 40
0.5000000000000002
 40
1.0
 40
1.0
 40
1.0
 40
1.0
 10
170.5817873425851
 20
-2.629819291509755
 30
0.0
 10
170.4445077320021
 20
-3.097405559143756
 30
0.0
 10
170.3827553056379
 20
-3.554911983628799
 30
0.0
 10
170.3825353721695
 20
-4.442455454767591
 30
0.0
 10
170.4445237316283
 20
-4.853185313553335
 30
0.0
 10
170.5817873425851
 20
-5.227895502863065
 30
0.0
  0
SPLINE
  5
C6
330
1F
100
AcDbEntity
  8
1
 62
     4
420
    65535
100
AcDbSpline
210
0.0
220
0.0
230
1.0
 70
    11
 71
     3
 72
    10
 73
     6
 74
     0
 42
0.00000001
 43
0.00000001
 12
1.0
 22
0.0
 32
0.0
 13
1.0
 23
0.0
 33
0.0
 40
0.0
 40
0.0
 40
0.0
 40
0.0
 40
0.5
 40
0.5
 40
1.0
 40
1.0
 40
1.0
 40
1.0
 10
170.5817873425851
 20
-7.857916333982231
 30
0.0
 10
170.4445077320021
 20
-7.950748735596246
 30
0.0
 10
170.3827553056379
 20
-7.999716913850211
 30
0.0
 10
170.3825353721695
 20
-7.999881864057869
 30
0.0
 10
170.4445237316284
 20
-7.950737916191093
 30
0.0
 10
170.5817873425851
 20
-7.857916333982231
 30
0.0
  0
SPLINE
  5
C7
330
1F
100
AcDbEntity
  8
1
 62
     4
420
    65535
100
AcDbSpline
210
0.0
220
0.0
230
1.0
 70
     8
 71
     3
 72
    10
 73
     6
 74
     0
 42
0.00000001
 43
0.00000001
 12
1.0
 22
0.0
 32
0.0
 13
1.0
 23
0.0
 33
0.0
 40
0.0
 40
0.0
 40
0.0
 40
0.0
 40
0.4999999999999998
 40
0.4999999999999998
 40
1.0
 40
1.0
 40
1.0
 40
1.0
 10
170.5817873425851
 20
-5.227895502862978
 30
0.0
 10
170.4445077320021
 20
-4.85314163684299
 30
0.0
 10
170.3827553056378
 20
-4.444603390611909
 30
0.0
 10
170.3825353721695
 20
-3.557224869680772
 30
0.0
 10
170.4445237316284
 20
-3.097351063028247
 30
0.0
 10
170.5817873425851
 20
-2.62981929150965
 30
0.0
  0
LINE
  5
C8
330
1F
100
AcDbEntity
  8
1
 62
     4
420
    65535
100
AcDbLine
 10
165.8000729325
 20
-7.7992016376
 30
0.0
 11
165.8000729325
 21
7.7996047169
 31
0.0
  0
LINE
  5
C9
330
1F
100
AcDbEntity
  8
1
 62
     4
420
    65535
100
AcDbLine
 10
169.8000722679
 20
-7.0617043367
 30
0.0
 11
169.8000722679
 21
7.0621074159
 31
0.0
  0
LINE
  5
CA
330
1F
100
AcDbEntity
  8
1
 62
     4
420
    65535
100
AcDbLine
 10
170.0382300903
 20
-6.6492001365
 30
0.0
 11
170.0382300903
 21
6.6496032157
 31
0.0
  0
LINE
  5
CB
330
1F
100
AcDbEntity
  8
1
 62
     4
420
    65535
100
AcDbLine
 10
174.8000719308
 20
-6.6492001365
 30
0.0
 11
174.8000719308
 21
6.6496032157
 31
0.0
  0
LINE
  5
CC
330
1F
100
AcDbEntity
  8
1
 62
     4
420
    65535
100
AcDbLine
 10
174.8000719308
 20
-6.5122995205
 30
0.0
 11
174.8000719308
 21
6.5127025997
 31
0.0
  0
LINE
  5
CD
330
1F
100
AcDbEntity
  8
1
 62
     4
420
    65535
100
AcDbLine
 10
177.4000708915
 20
-6.5122995205
 30
0.0
 11
177.4000708915
 21
6.5127025997
 31
0.0
  0
LINE
  5
CE
330
1F
100
AcDbEntity
  8
1
 62
     4
420
    65535
100
AcDbLine
 10
177.8000708915
 20
-6.1122995205
 30
0.0
 11
177.8000708915
 21
6.1127025997
 31
0.0
  0
LINE
  5
CF
330
1F
100
AcDbEntity
  8
1
 62
     4
420
    65535
100
AcDbLine
 10
177.8000708915
 20
-5.8474138481
 30
0.0
 11
177.8000708915
 21
5.8478169273
 31
0.0
  0
LINE
  5
D0
330
1F
100
AcDbEntity
  8
1
 62
     4
420
    65535
100
AcDbLine
 10
178.1500708915
 20
-5.4973841208
 30
0.0
 11
178.1500708915
 21
5.4977872
 31
0.0
  0
LINE
  5
D1
330
1F
100
AcDbEntity
  8
1
 62
     4
420
    65535
100
AcDbLine
 10
178.2800704895
 20
-5.4973841208
 30
0.0
 11
178.2800704895
 21
5.4977872
 31
0.0
  0
LINE
  5
D2
330
1F
100
AcDbEntity
  8
1
 62
     4
420
    65535
100
AcDbLine
 10
178.753146177
 20
-5.8943520258
 30
0.0
 11
178.753146177
 21
5.8947551051
 31
0.0
  0
LINE
  5
D3
330
1F
100
AcDbEntity
  8
1
 62
     4
420
    65535
100
AcDbLine
 10
179.0388430063
 20
-5.9193370115
 30
0.0
 11
179.0388430063
 21
5.9197400907
 31
0.0
  0
LINE
  5
D4
330
1F
100
AcDbEntity
  8
1
 62
     4
420
    65535
100
AcDbLine
 10
166.1000729325
 20
-7.0617043367
 30
0.0
 11
166.1000729325
 21
7.0621074159
 31
0.0
  0
LINE
  5
D5
330
1F
100
AcDbEntity
  8
1
 62
     4
420
    65535
100
AcDbLine
 10
181.7672505684
 20
-4.4077827697
 30
0.0
 11
181.7672505684
 21
4.4081858489
 31
0.0
  0
LINE
  5
D6
330
1F
100
AcDbEntity
  8
1
 62
     4
420
    65535
100
AcDbLine
 10
181.8000708915
 20
-4.4077827697
 30
0.0
 11
181.8000708915
 21
4.4081858489
 31
0.0
  0
LINE
  5
D7
330
1F
100
AcDbEntity
  8
1
 62
     4
420
    65535
100
AcDbLine
 10
182.0000708915
 20
-4.6077811405
 30
0.0
 11
182.0000708915
 21
4.6081842197
 31
0.0
  0
LINE
  5
D8
330
1F
100
AcDbEntity
  8
1
 62
     4
420
    65535
100
AcDbLine
 10
173.382646577
 20
7.0002015396
 30
0.0
 11
181.4568824314
 21
7.0002015396
 31
0.0
  0
ARC
  5
D9
330
1F
100
AcDbEntity
  8
1
 62
     4
420
    65535
100
AcDbCircle
 10
173.382646577
 20
12.0002015396
 30
0.0
 40
5.00000000000002
100
AcDbArc
 50
235.9323170683
 51
270.0
  0
ARC
  5
DA
330
1F
100
AcDbEntity
  8
1
 62
     4
420
    65535
100
AcDbCircle
 10
173.382646577
 20
12.0002015396
 30
0.0
 40
5.00000000000002
100
AcDbArc
 50
235.9323170683
 51
270.0
  0
LINE
  5
DB
330
1F
100
AcDbEntity
  8
1
 62
     4
420
    65535
100
AcDbLine
 10
165.8000729325
 20
-7.3616990687
 30
0.0
 11
165.8000729325
 21
7.3621021479
 31
0.0
  0
LINE
  5
DC
330
1F
100
AcDbEntity
  8
1
 62
     4
420
    65535
100
AcDbLine
 10
173.382646577
 20
4.7992396453
 30
0.0
 11
181.4568824314
 21
4.7992396453
 31
0.0
  0
LINE
  5
DD
330
1F
100
AcDbEntity
  8
1
 62
     4
420
    65535
100
AcDbLine
 10
181.5672505684
 20
-4.46197524
 30
0.0
 11
181.5672505684
 21
4.4623783193
 31
0.0
  0
ARC
  5
DE
330
1F
100
AcDbEntity
  8
1
 62
     4
420
    65535
100
AcDbCircle
 10
173.3116527109
 20
13.6922094882
 30
0.0
 40
8.89325321551105
100
AcDbArc
 50
252.1239305777
 51
270.4573907885
  0
ARC
  5
DF
330
1F
100
AcDbEntity
  8
1
 62
     4
420
    65535
100
AcDbCircle
 10
173.3116527109
 20
11.0941332768
 30
0.0
 40
8.893253215511017
100
AcDbArc
 50
252.1239305777
 51
270.4573907885
  0
LINE
  5
E0
330
1F
100
AcDbEntity
  8
1
 62
     4
420
    65535
100
AcDbLine
 10
173.382646577
 20
-4.7988365661
 30
0.0
 11
181.4568824314
 21
-4.7988365661
 31
0.0
  0
LINE
  5
E1
330
1F
100
AcDbEntity
  8
1
 62
     4
420
    65535
100
AcDbLine
 10
173.382646577
 20
-4.7988365661
 30
0.0
 11
173.382646577
 21
-2.2007603547
 31
0.0
  0
LINE
  5
E2
330
1F
100
AcDbEntity
  8
1
 62
     4
420
    65535
100
AcDbLine
 10
173.382646577
 20
-2.2007603547
 30
0.0
 11
181.4568824314
 21
-2.2007603547
 31
0.0
  0
LINE
  5
E3
330
1F
100
AcDbEntity
  8
1
 62
     4
420
    65535
100
AcDbLine
 10
173.382646577
 20
2.2011634339
 30
0.0
 11
181.4568824314
 21
2.2011634339
 31
0.0
  0
ARC
  5
E4
330
1F
100
AcDbEntity
  8
1
 62
     4
420
    65535
100
AcDbCircle
 10
173.3116527109
 20
-13.6918064089
 30
0.0
 40
8.893253215510937
100
AcDbArc
 50
89.5426092115
 51
107.8760694223
  0
ARC
  5
E5
330
1F
100
AcDbEntity
  8
1
 62
     4
420
    65535
100
AcDbCircle
 10
173.3116527109
 20
-11.0937301976
 30
0.0
 40
8.893253215510981
100
AcDbArc
 50
89.5426092115
 51
107.8760694223
  0
LINE
  5
E6
330
1F
100
AcDbEntity
  8
1
 62
     4
420
    65535
100
AcDbLine
 10
173.382646577
 20
2.2011634339
 30
0.0
 11
173.382646577
 21
4.7992396453
 31
0.0
  0
LINE
  5
E7
330
1F
100
AcDbEntity
  8
1
 62
     4
420
    65535
100
AcDbLine
 10
173.382646577
 20
-6.9997984604
 30
0.0
 11
181.4568824314
 21
-6.9997984604
 31
0.0
  0
ARC
  5
E8
330
1F
100
AcDbEntity
  8
1
 62
     4
420
    65535
100
AcDbCircle
 10
173.382646577
 20
-11.9997984604
 30
0.0
 40
5.00000000000002
100
AcDbArc
 50
90.0
 51
124.0676829317
  0
ARC
  5
E9
330
1F
100
AcDbEntity
  8
1
 62
     4
420
    65535
100
AcDbCircle
 10
173.382646577
 20
-11.9997984604
 30
0.0
 40
5.00000000000002
100
AcDbArc
 50
90.0
 51
124.0676829317
  0
LINE
  5
EA
330
1F
100
AcDbEntity
  8
1
 62
     4
420
    65535
100
AcDbLine
 10
162.547891735
 20
-3.7338016215
 30
0.0
 11
162.547891735
 21
3.7342047007
 31
0.0
  0
LINE
  5
EB
330
1F
100
AcDbEntity
  8
1
 62
     4
420
    65535
100
AcDbLine
 10
0.0000708915
 20
-3.7338016215
 30
0.0
 11
0.0000708915
 21
3.7342047007
 31
0.0
  0
LINE
  5
EC
330
1F
100
AcDbEntity
  8
1
 62
     4
420
    65535
100
AcDbLine
 10
162.8076990983
 20
-4.0497983055
 30
0.0
 11
162.8076990983
 21
4.0502013847
 31
0.0
  0
LINE
  5
ED
330
1F
100
AcDbEntity
  8
1
 62
     4
420
    65535
100
AcDbLine
 10
165.0673409841
 20
-4.0497983055
 30
0.0
 11
165.0673409841
 21
4.0502013847
 31
0.0
  0
LINE
  5
EE
330
1F
100
AcDbEntity
  8
1
 62
     4
420
    65535
100
AcDbLine
 10
176.807699605
 20
-6.3227391779
 30
0.0
 11
176.807699605
 21
6.3231422572
 31
0.0
  0
LINE
  5
EF
330
1F
100
AcDbEntity
  8
1
 62
     4
420
    65535
100
AcDbLine
 10
176.5076953087
 20
-6.4958336152
 30
0.0
 11
176.5076953087
 21
6.4962366945
 31
0.0
  0
LINE
  5
F0
330
1F
100
AcDbEntity
  8
1
 62
     4
420
    65535
100
AcDbLine
 10
173.3076932941
 20
-6.4958336152
 30
0.0
 11
173.3076932941
 21
6.4962366945
 31
0.0
  0
LINE
  5
F1
330
1F
100
AcDbEntity
  8
1
 62
     4
420
    65535
100
AcDbLine
 10
173.0190205488
 20
-6.9958842674
 30
0.0
 11
173.0190205488
 21
6.9962873466
 31
0.0
  0
LINE
  5
F2
330
1F
100
AcDbEntity
  8
1
 62
     4
420
    65535
100
AcDbLine
 10
168.3076943371
 20
-6.9958842674
 30
0.0
 11
168.3076943371
 21
6.9962873466
 31
0.0
  0
LINE
  5
F3
330
1F
100
AcDbEntity
  8
1
 62
     4
420
    65535
100
AcDbLine
 10
168.3076943371
 20
-7.0458608979
 30
0.0
 11
168.3076943371
 21
7.0462639771
 31
0.0
  0
LINE
  5
F4
330
1F
100
AcDbEntity
  8
1
 62
     4
420
    65535
100
AcDbLine
 10
165.6177004174
 20
-7.0458608979
 30
0.0
 11
165.6177004174
 21
7.0462639771
 31
0.0
  0
LINE
  5
F5
330
1F
100
AcDbEntity
  8
1
 62
     4
420
    65535
100
AcDbLine
 10
165.311227017
 20
-6.9637876889
 30
0.0
 11
165.311227017
 21
6.9641907681
 31
0.0
  0
LINE
  5
F6
330
1F
100
AcDbEntity
  8
1
 62
     4
420
    65535
100
AcDbLine
 10
164.8076996729
 20
-7.3540492099
 30
0.0
 11
164.8076996729
 21
7.3544522891
 31
0.0
  0
LINE
  5
F7
330
1F
100
AcDbEntity
  8
1
 62
     4
420
    65535
100
AcDbLine
 10
164.8076996729
 20
-7.7844063384
 30
0.0
 11
164.8076996729
 21
7.7848094176
 31
0.0
  0
LINE
  5
F8
330
1F
100
AcDbEntity
  8
1
 62
     4
420
    65535
100
AcDbLine
 10
164.6077000259
 20
-7.9840122878
 30
0.0
 11
164.6077000259
 21
7.984415367
 31
0.0
  0
LINE
  5
F9
330
1F
100
AcDbEntity
  8
1
 62
     4
420
    65535
100
AcDbLine
 10
152.0000708915
 20
-6.9997984604
 30
0.0
 11
158.0000708915
 21
-6.9997984604
 31
0.0
  0
LINE
  5
FA
330
1F
100
AcDbEntity
  8
1
 62
     4
420
    65535
100
AcDbLine
 10
158.0000708915
 20
-6.9997984604
 30
0.0
 11
158.0000708915
 21
-7.9997984604
 31
0.0
  0
LINE
  5
FB
330
1F
100
AcDbEntity
  8
1
 62
     4
420
    65535
100
AcDbLine
 10
152.0000708915
 20
-6.9997984604
 30
0.0
 11
152.0000708915
 21
-7.9997984604
 31
0.0
  0
LINE
  5
FC
330
1F
100
AcDbEntity
  8
1
 62
     4
420
    65535
100
AcDbLine
 10
176.2912034705
 20
-5.6114740202
 30
0.0
 11
176.2912034705
 21
5.6118770994
 31
0.0
  0
LINE
  5
FD
330
1F
100
AcDbEntity
  8
1
 62
     4
420
    65535
100
AcDbLine
 10
158.0000708915
 20
7.0002015396
 30
0.0
 11
158.0000708915
 21
8.0002015396
 31
0.0
  0
LINE
  5
FE
330
1F
100
AcDbEntity
  8
1
 62
     4
420
    65535
100
AcDbLine
 10
158.0000708915
 20
7.0002015396
 30
0.0
 11
152.0000708915
 21
7.0002015396
 31
0.0
  0
LINE
  5
FF
330
1F
100
AcDbEntity
  8
1
 62
     4
420
    65535
100
AcDbLine
 10
152.0000708915
 20
7.0002015396
 30
0.0
 11
152.0000708915
 21
8.0002015396
 31
0.0
  0
LINE
  5
100
330
1F
100
AcDbEntity
  8
1
 62
     4
420
    65535
100
AcDbLine
 10
0.0000708915
 20
-7.9840122878
 30
0.0
 11
0.0000708915
 21
7.984415367
 31
0.0
  0
LINE
  5
101
330
1F
100
AcDbEntity
  8
1
 62
     4
420
    65535
100
AcDbLine
 10
176.807699605
 20
-6.2213702431
 30
0.0
 11
176.807699605
 21
6.2217733223
 31
0.0
  0
DIMENSION
  5
102
330
1F
100
AcDbEntity
  8
2
 62
     7
420
 16777215
100
AcDbDimension
  2
_D
 10
0.0000708915
 20
14.0002025718
 30
0.0
 11
91.0000708915
 21
14.0002025718
 31
0.0
 70
   160
  1
<>
 71
     2
 42
-1.0
 73
     0
 74
     0
 75
     0
  3
SLDDIMSTYLE0
100
AcDbAlignedDimension
 13
182.0000708915
 23
0.0002015396
 33
0.0
 14
0.0000708915
 24
0.0002015396
 34
0.0
 50
0.0
100
AcDbRotatedDimension
  0
DIMENSION
  5
10E
330
1F
100
AcDbEntity
  8
2
 62
     7
420
 16777215
100
AcDbDimension
  2
_D_1
 10
188.0000708915
 20
-7.9997994926
 30
0.0
 11
188.0000708915
 21
0.0002015396
 31
0.0
 70
   160
  1
%%c<>
 71
     2
 42
-1.0
 73
     0
 74
     0
 75
     0
  3
SLDDIMSTYLE1
100
AcDbAlignedDimension
 13
179.8928911875
 23
8.0002025718
 33
0.0
 14
179.8928911875
 24
-7.9997994926
 34
0.0
 50
90.0
100
AcDbRotatedDimension
  0
DIMENSION
  5
11C
330
1F
100
AcDbEntity
  8
2
 62
     7
420
 16777215
100
AcDbDimension
  2
_D_2
 10
-5.9999291085
 20
-7.9997984604
 30
0.0
 11
-5.9999291085
 21
0.0002015396
 31
0.0
 70
   160
  1
%%c<>
 71
     2
 42
-1.0
 73
     0
 74
     0
 75
     0
  3
SLDDIMSTYLE1
100
AcDbAlignedDimension
 13
0.0000708915
 23
8.0002015396
 33
0.0
 14
0.0000708915
 24
-7.9997984604
 34
0.0
 50
90.0
100
AcDbRotatedDimension
  0
ENDSEC
  0
SECTION
  2
OBJECTS
  0
DICTIONARY
  5
C
330
0
100
AcDbDictionary
281
     1
  3
ACAD_GROUP
350
D
  3
ACAD_LAYOUT
350
1A
  3
ACAD_MATERIAL
350
3B
  3
ACAD_MLEADERSTYLE
350
12A
  3
ACAD_MLINESTYLE
350
17
  3
ACAD_PLOTSETTINGS
350
19
  3
ACAD_PLOTSTYLENAME
350
E
  3
ACAD_TABLESTYLE
350
129
  3
ACAD_VISUALSTYLE
350
2A
  0
DICTIONARY
  5
D
102
{ACAD_REACTORS
330
C
102
}
330
C
100
AcDbDictionary
281
     1
  0
DICTIONARY
  5
1A
102
{ACAD_REACTORS
330
C
102
}
330
C
100
AcDbDictionary
281
     1
  3
Layout1
350
1E
  3
Layout2
350
26
  3
Model
350
22
  0
DICTIONARY
  5
3B
102
{ACAD_REACTORS
330
C
102
}
330
C
100
AcDbDictionary
281
     1
  3
ByBlock
350
3D
  3
ByLayer
350
3C
  3
Global
350
3E
  0
DICTIONARY
  5
12A
102
{ACAD_REACTORS
330
C
102
}
330
C
100
AcDbDictionary
281
     1
  0
DICTIONARY
  5
17
102
{ACAD_REACTORS
330
C
102
}
330
C
100
AcDbDictionary
281
     1
  3
Standard
350
18
  0
DICTIONARY
  5
19
102
{ACAD_REACTORS
330
C
102
}
330
C
100
AcDbDictionary
281
     1
  0
ACDBDICTIONARYWDFLT
  5
E
102
{ACAD_REACTORS
330
C
102
}
330
C
100
AcDbDictionary
281
     1
  3
Normal
350
F
100
AcDbDictionaryWithDefault
340
F
  0
DICTIONARY
  5
129
102
{ACAD_REACTORS
330
C
102
}
330
C
100
AcDbDictionary
281
     1
  0
DICTIONARY
  5
2A
102
{ACAD_REACTORS
330
C
102
}
330
C
100
AcDbDictionary
281
     1
  3
2dWireframe
350
2F
  3
3D Hidden
350
31
  3
3dWireframe
350
30
  3
Basic
350
32
  3
Brighten
350
36
  3
ColorChange
350
3A
  3
Conceptual
350
34
  3
Dim
350
35
  3
Facepattern
350
39
  3
Flat
350
2B
  3
FlatWithEdges
350
2C
  3
Gouraud
350
2D
  3
GouraudWithEdges
350
2E
  3
Linepattern
350
38
  3
Realistic
350
33
  3
Thicken
350
37
  0
LAYOUT
  5
1E
102
{ACAD_REACTORS
330
1A
102
}
330
1A
100
AcDbPlotSettings
  1

  2
none_device
  4

  6

 40
0.0
 41
0.0
 42
0.0
 43
0.0
 44
0.0
 45
0.0
 46
0.0
 47
0.0
 48
0.0
 49
0.0
140
0.0
141
0.0
142
1.0
143
1.0
 70
   688
 72
     0
 73
     0
 74
     5
  7

 75
    16
 76
     0
 77
     2
 78
   300
147
1.0
148
0.0
149
0.0
100
AcDbLayout
  1
Layout1
 70
     1
 71
     1
 10
0.0
 20
0.0
 11
420.0
 21
297.0
 12
0.0
 22
0.0
 32
0.0
 14
1.0000000000E+20
 24
1.0000000000E+20
 34
1.0000000000E+20
 15
-1.0000000000E+20
 25
-1.0000000000E+20
 35
-1.0000000000E+20
146
0.0
 13
0.0
 23
0.0
 33
0.0
 16
1.0
 26
0.0
 36
0.0
 17
0.0
 27
1.0
 37
0.0
 76
     0
330
1B
  0
LAYOUT
  5
26
102
{ACAD_REACTORS
330
1A
102
}
330
1A
100
AcDbPlotSettings
  1

  2
none_device
  4

  6

 40
0.0
 41
0.0
 42
0.0
 43
0.0
 44
0.0
 45
0.0
 46
0.0
 47
0.0
 48
0.0
 49
0.0
140
0.0
141
0.0
142
1.0
143
1.0
 70
   688
 72
     0
 73
     0
 74
     5
  7

 75
    16
 76
     0
 77
     2
 78
   300
147
1.0
148
0.0
149
0.0
100
AcDbLayout
  1
Layout2
 70
     1
 71
     2
 10
0.0
 20
0.0
 11
0.0
 21
0.0
 12
0.0
 22
0.0
 32
0.0
 14
0.0
 24
0.0
 34
0.0
 15
0.0
 25
0.0
 35
0.0
146
0.0
 13
0.0
 23
0.0
 33
0.0
 16
1.0
 26
0.0
 36
0.0
 17
0.0
 27
1.0
 37
0.0
 76
     0
330
23
  0
LAYOUT
  5
22
102
{ACAD_REACTORS
330
1A
102
}
330
1A
100
AcDbPlotSettings
  1

  2
none_device
  4

  6

 40
0.0
 41
0.0
 42
0.0
 43
0.0
 44
0.0
 45
0.0
 46
0.0
 47
0.0
 48
0.0
 49
0.0
140
0.0
141
0.0
142
1.0
143
1.0
 70
  1712
 72
     0
 73
     0
 74
     0
  7

 75
     0
 76
     0
 77
     2
 78
   300
147
1.0
148
0.0
149
0.0
100
AcDbLayout
  1
Model
 70
     1
 71
     0
 10
0.0
 20
0.0
 11
297.0
 21
210.0
 12
0.0
 22
0.0
 32
0.0
 14
0.0
 24
0.0
 34
0.0
 15
297.0
 25
210.0
 35
0.0
146
0.0
 13
0.0
 23
0.0
 33
0.0
 16
1.0
 26
0.0
 36
0.0
 17
0.0
 27
1.0
 37
0.0
 76
     0
330
1F
331
29
  0
MATERIAL
  5
3D
102
{ACAD_REACTORS
330
3B
102
}
330
3B
100
AcDbMaterial
  1
ByBlock
 72
     1
 94
      127
  0
MATERIAL
  5
3C
102
{ACAD_REACTORS
330
3B
102
}
330
3B
100
AcDbMaterial
  1
ByLayer
 72
     1
 94
      127
  0
MATERIAL
  5
3E
102
{ACAD_REACTORS
330
3B
102
}
330
3B
100
AcDbMaterial
  1
Global
 72
     1
 94
      127
  0
MLINESTYLE
  5
18
102
{ACAD_REACTORS
330
17
102
}
330
17
100
AcDbMlineStyle
  2
Standard
 70
     0
  3

 62
   256
 51
90.0
 52
90.0
 71
     2
 49
0.5
 62
   256
  6
BYLAYER
 49
-0.5
 62
   256
  6
BYLAYER
  0
ACDBPLACEHOLDER
  5
F
102
{ACAD_REACTORS
330
E
102
}
330
E
  0
VISUALSTYLE
  5
2F
102
{ACAD_REACTORS
330
2A
102
}
330
2A
100
AcDbVisualStyle
  2
2dWireframe
 70
     4
 71
     0
 72
     2
 73
     0
 90
        0
 40
-0.6
 41
-30.0
 62
     5
 63
     7
421
 16777215
 74
     1
 91
        4
 64
     7
 65
   257
 75
     1
175
     1
 42
1.0
 92
        0
 66
   257
 43
1.0
 76
     1
 77
     6
 78
     2
 67
     7
 79
     5
170
     0
171
     0
290
     0
174
     0
 93
        1
 44
0.0
173
     0
291
     0
 45
0.0
  0
VISUALSTYLE
  5
31
102
{ACAD_REACTORS
330
2A
102
}
330
2A
100
AcDbVisualStyle
  2
3D Hidden
 70
     6
 71
     1
 72
     2
 73
     2
 90
        0
 40
-0.6
 41
-30.0
 62
     5
 63
     7
421
 16777215
 74
     2
 91
        2
 64
     7
 65
   257
 75
     2
175
     1
 42
40.0
 92
        0
 66
   257
 43
1.0
 76
     1
 77
     6
 78
     2
 67
     7
 79
     3
170
     0
171
     0
290
     0
174
     0
 93
        1
 44
0.0
173
     0
291
     0
 45
0.0
  0
VISUALSTYLE
  5
30
102
{ACAD_REACTORS
330
2A
102
}
330
2A
100
AcDbVisualStyle
  2
3dWireframe
 70
     5
 71
     0
 72
     2
 73
     0
 90
        0
 40
-0.6
 41
-30.0
 62
     5
 63
     7
421
 16777215
 74
     1
 91
        4
 64
     7
 65
   257
 75
     1
175
     1
 42
1.0
 92
        0
 66
   257
 43
1.0
 76
     1
 77
     6
 78
     2
 67
     7
 79
     5
170
     0
171
     0
290
     0
174
     0
 93
        1
 44
0.0
173
     0
291
     0
 45
0.0
  0
VISUALSTYLE
  5
32
102
{ACAD_REACTORS
330
2A
102
}
330
2A
100
AcDbVisualStyle
  2
Basic
 70
     7
 71
     1
 72
     0
 73
     1
 90
        0
 40
-0.6
 41
-30.0
 62
     5
 63
     7
421
 16777215
 74
     0
 91
        4
 64
     7
 65
   257
 75
     1
175
     1
 42
1.0
 92
        8
 66
     7
 43
1.0
 76
     1
 77
     6
 78
     2
 67
     7
 79
     5
170
     0
171
     0
290
     0
174
     0
 93
        1
 44
0.0
173
     0
291
     1
 45
0.0
  0
VISUALSTYLE
  5
36
102
{ACAD_REACTORS
330
2A
102
}
330
2A
100
AcDbVisualStyle
  2
Brighten
 70
    12
 71
     2
 72
     2
 73
     0
 90
        0
 40
-0.6
 41
-30.0
 62
     5
 63
     7
421
 16777215
 74
     1
 91
        4
 64
     7
 65
   257
 75
     1
175
     1
 42
1.0
 92
        8
 66
     7
 43
1.0
 76
     1
 77
     6
 78
     2
 67
     7
 79
     5
170
     0
171
     0
290
     0
174
     0
 93
        1
 44
50.0
173
     0
291
     1
 45
0.0
  0
VISUALSTYLE
  5
3A
102
{ACAD_REACTORS
330
2A
102
}
330
2A
100
AcDbVisualStyle
  2
ColorChange
 70
    16
 71
     2
 72
     2
 73
     3
 90
        0
 40
-0.6
 41
-30.0
 62
     5
 63
     8
421
  8421504
 74
     1
 91
        4
 64
     7
 65
   257
 75
     1
175
     1
 42
1.0
 92
        8
 66
     8
424
  8421504
 43
1.0
 76
     1
 77
     6
 78
     2
 67
     7
 79
     5
170
     0
171
     0
290
     0
174
     0
 93
        1
 44
0.0
173
     0
291
     1
 45
0.0
  0
VISUALSTYLE
  5
34
102
{ACAD_REACTORS
330
2A
102
}
330
2A
100
AcDbVisualStyle
  2
Conceptual
 70
     9
 71
     3
 72
     2
 73
     0
 90
        0
 40
-0.6
 41
-30.0
 62
     5
 63
     7
421
 16777215
 74
     2
 91
        2
 64
     7
 65
   257
 75
     1
175
     1
 42
40.0
 92
        8
 66
     7
 43
1.0
 76
     1
 77
     6
 78
     2
 67
     7
 79
     3
170
     0
171
     0
290
     0
174
     0
 93
        1
 44
0.0
173
     0
291
     0
 45
0.0
  0
VISUALSTYLE
  5
35
102
{ACAD_REACTORS
330
2A
102
}
330
2A
100
AcDbVisualStyle
  2
Dim
 70
    11
 71
     2
 72
     2
 73
     0
 90
        0
 40
-0.6
 41
-30.0
 62
     5
 63
     7
421
 16777215
 74
     1
 91
        4
 64
     7
 65
   257
 75
     1
175
     1
 42
1.0
 92
        8
 66
     7
 43
1.0
 76
     1
 77
     6
 78
     2
 67
     7
 79
     5
170
     0
171
     0
290
     0
174
     0
 93
        1
 44
-50.0
173
     0
291
     1
 45
0.0
  0
VISUALSTYLE
  5
39
102
{ACAD_REACTORS
330
2A
102
}
330
2A
100
AcDbVisualStyle
  2
Facepattern
 70
    15
 71
     2
 72
     2
 73
     0
 90
        0
 40
-0.6
 41
-30.0
 62
     5
 63
     7
421
 16777215
 74
     1
 91
        4
 64
     7
 65
   257
 75
     1
175
     1
 42
1.0
 92
        8
 66
     7
 43
1.0
 76
     1
 77
     6
 78
     2
 67
     7
 79
     5
170
     0
171
     0
290
     0
174
     0
 93
        1
 44
0.0
173
     0
291
     1
 45
0.0
  0
VISUALSTYLE
  5
2B
102
{ACAD_REACTORS
330
2A
102
}
330
2A
100
AcDbVisualStyle
  2
Flat
 70
     0
 71
     2
 72
     1
 73
     1
 90
        2
 40
-0.6
 41
30.0
 62
     5
 63
     7
421
 16777215
 74
     0
 91
        4
 64
     7
 65
   257
 75
     1
175
     1
 42
1.0
 92
        8
 66
     7
 43
1.0
 76
     1
 77
     6
 78
     2
 67
     7
 79
     5
170
     0
171
     0
290
     0
174
     0
 93
       13
 44
0.0
173
     0
291
     1
 45
0.0
  0
VISUALSTYLE
  5
2C
102
{ACAD_REACTORS
330
2A
102
}
330
2A
100
AcDbVisualStyle
  2
FlatWithEdges
 70
     1
 71
     2
 72
     1
 73
     1
 90
        2
 40
-0.6
 41
30.0
 62
     5
 63
     7
421
 16777215
 74
     1
 91
        4
 64
     7
 65
   257
 75
     1
175
     1
 42
1.0
 92
        0
 66
   257
 43
1.0
 76
     1
 77
     6
 78
     2
 67
     7
 79
     5
170
     0
171
     0
290
     0
174
     0
 93
       13
 44
0.0
173
     0
291
     1
 45
0.0
  0
VISUALSTYLE
  5
2D
102
{ACAD_REACTORS
330
2A
102
}
330
2A
100
AcDbVisualStyle
  2
Gouraud
 70
     2
 71
     2
 72
     2
 73
     1
 90
        2
 40
-0.6
 41
30.0
 62
     5
 63
     7
421
 16777215
 74
     0
 91
        4
 64
     7
 65
   257
 75
     1
175
     1
 42
1.0
 92
        0
 66
     7
 43
1.0
 76
     1
 77
     6
 78
     2
 67
     7
 79
     5
170
     0
171
     0
290
     0
174
     0
 93
       13
 44
0.0
173
     0
291
     1
 45
0.0
  0
VISUALSTYLE
  5
2E
102
{ACAD_REACTORS
330
2A
102
}
330
2A
100
AcDbVisualStyle
  2
GouraudWithEdges
 70
     3
 71
     2
 72
     2
 73
     1
 90
        2
 40
-0.6
 41
30.0
 62
     5
 63
     7
421
 16777215
 74
     1
 91
        4
 64
     7
 65
   257
 75
     1
175
     1
 42
1.0
 92
        0
 66
   257
 43
1.0
 76
     1
 77
     6
 78
     2
 67
     7
 79
     5
170
     0
171
     0
290
     0
174
     0
 93
       13
 44
0.0
173
     0
291
     1
 45
0.0
  0
VISUALSTYLE
  5
38
102
{ACAD_REACTORS
330
2A
102
}
330
2A
100
AcDbVisualStyle
  2
Linepattern
 70
    14
 71
     2
 72
     2
 73
     0
 90
        0
 40
-0.6
 41
-30.0
 62
     5
 63
     7
421
 16777215
 74
     1
 91
        4
 64
     7
 65
   257
 75
     7
175
     7
 42
1.0
 92
        8
 66
     7
 43
1.0
 76
     1
 77
     6
 78
     2
 67
     7
 79
     5
170
     0
171
     0
290
     0
174
     0
 93
        1
 44
0.0
173
     0
291
     1
 45
0.0
  0
VISUALSTYLE
  5
33
102
{ACAD_REACTORS
330
2A
102
}
330
2A
100
AcDbVisualStyle
  2
Realistic
 70
     8
 71
     2
 72
     2
 73
     0
 90
        0
 40
-0.6
 41
-30.0
 62
     5
 63
     7
421
 16777215
 74
     1
 91
        0
 64
     7
 65
   257
 75
     1
175
     1
 42
1.0
 92
        8
 66
     8
424
  7895160
 43
1.0
 76
     1
 77
     6
 78
     2
 67
     7
 79
     5
170
     0
171
     0
290
     0
174
     0
 93
       13
 44
0.0
173
     0
291
     0
 45
0.0
  0
VISUALSTYLE
  5
37
102
{ACAD_REACTORS
330
2A
102
}
330
2A
100
AcDbVisualStyle
  2
Thicken
 70
    13
 71
     2
 72
     2
 73
     0
 90
        0
 40
-0.6
 41
-30.0
 62
     5
 63
     7
421
 16777215
 74
     1
 91
        4
 64
     7
 65
   257
 75
     1
175
     1
 42
1.0
 92
       12
 66
     7
 43
1.0
 76
     1
 77
     6
 78
     2
 67
     7
 79
     5
170
     0
171
     0
290
     0
174
     0
 93
        1
 44
0.0
173
     0
291
     1
 45
0.0
  0
ENDSEC
  0
EOF
