  0
SECTION
  2
HEADER
  9
$ACADVER
  1
AC1021
  9
$ACADMAINTVER
 70
    25
  9
$DWGCODEPAGE
  3
ANSI_1252
  9
$INSBASE
 10
0.0
 20
0.0
 30
0.0
  9
$EXTMIN
 10
0.0
 20
0.0
 30
0.0
  9
$EXTMAX
 10
297.0
 20
210.0
 30
0.0
  9
$LIMMIN
 10
0.0
 20
0.0
  9
$LIMMAX
 10
297.0
 20
210.0
  9
$ORTHOMODE
 70
     0
  9
$REGENMODE
 70
     1
  9
$FILLMODE
 70
     1
  9
$QTEXTMODE
 70
     0
  9
$MIRRTEXT
 70
     1
  9
$LTSCALE
 40
1.0
  9
$ATTMODE
 70
     1
  9
$TEXTSIZE
 40
3.5
  9
$TRACEWID
 40
1.0
  9
$TEXTSTYLE
  7
Standard
  9
$CLAYER
  8
0
  9
$CELTYPE
  6
ByLayer
  9
$CECOLOR
 62
   256
  9
$CELTSCALE
 40
1.0
  9
$DISPSILH
 70
     0
  9
$DIMSCALE
 40
1.0
  9
$DIMASZ
 40
3.302
  9
$DIMEXO
 40
1.0
  9
$DIMDLI
 40
3.75
  9
$DIMRND
 40
0.0
  9
$DIMDLE
 40
0.0
  9
$DIMEXE
 40
1.0
  9
$DIMTP
 40
0.0
  9
$DIMTM
 40
0.0
  9
$DIMTXT
 40
3.5
  9
$DIMCEN
 40
2.5
  9
$DIMTSZ
 40
0.0
  9
$DIMTOL
 70
     0
  9
$DIMLIM
 70
     0
  9
$DIMTIH
 70
     1
  9
$DIMTOH
 70
     1
  9
$DIMSE1
 70
     0
  9
$DIMSE2
 70
     0
  9
$DIMTAD
 70
     1
  9
$DIMZIN
 70
     0
  9
$DIMBLK
  1

  9
$DIMASO
 70
     1
  9
$DIMSHO
 70
     1
  9
$DIMPOST
  1

  9
$DIMAPOST
  1

  9
$DIMALT
 70
     0
  9
$DIMALTD
 70
     3
  9
$DIMALTF
 40
0.0393700787
  9
$DIMLFAC
 40
1.0
  9
$DIMTOFL
 70
     1
  9
$DIMTVP
 40
0.0
  9
$DIMTIX
 70
     0
  9
$DIMSOXD
 70
     0
  9
$DIMSAH
 70
     0
  9
$DIMBLK1
  1

  9
$DIMBLK2
  1

  9
$DIMSTYLE
  2
ISO-25
  9
$DIMCLRD
 70
     0
  9
$DIMCLRE
 70
     0
  9
$DIMCLRT
 70
     0
  9
$DIMTFAC
 40
1.0
  9
$DIMGAP
 40
1.524
  9
$DIMJUST
 70
     0
  9
$DIMSD1
 70
     0
  9
$DIMSD2
 70
     0
  9
$DIMTOLJ
 70
     0
  9
$DIMTZIN
 70
     0
  9
$DIMALTZ
 70
     0
  9
$DIMALTTZ
 70
     0
  9
$DIMUPT
 70
     0
  9
$DIMDEC
 70
     2
  9
$DIMTDEC
 70
     2
  9
$DIMALTU
 70
     2
  9
$DIMALTTD
 70
     3
  9
$DIMTXSTY
  7
Standard
  9
$DIMAUNIT
 70
     0
  9
$DIMADEC
 70
     2
  9
$DIMALTRND
 40
0.0
  9
$DIMAZIN
 70
     0
  9
$DIMDSEP
 70
    44
  9
$DIMATFIT
 70
     3
  9
$DIMFRAC
 70
     0
  9
$DIMLDRBLK
  1

  9
$DIMLUNIT
 70
     2
  9
$DIMLWD
 70
    -2
  9
$DIMLWE
 70
    -2
  9
$DIMTMOVE
 70
     0
  9
$DIMFXL
 40
1.0
  9
$DIMFXLON
 70
     0
  9
$DIMJOGANG
 40
0.7853981634
  9
$DIMTFILL
 70
     0
  9
$DIMTFILLCLR
 70
     0
  9
$DIMARCSYM
 70
     0
  9
$DIMLTYPE
  6

  9
$DIMLTEX1
  6

  9
$DIMLTEX2
  6

  9
$LUNITS
 70
     2
  9
$LUPREC
 70
     2
  9
$SKETCHINC
 40
1.0
  9
$FILLETRAD
 40
10.0
  9
$AUNITS
 70
     0
  9
$AUPREC
 70
     2
  9
$MENU
  1
.
  9
$ELEVATION
 40
0.0
  9
$PELEVATION
 40
0.0
  9
$THICKNESS
 40
0.0
  9
$LIMCHECK
 70
     0
  9
$CHAMFERA
 40
10.0
  9
$CHAMFERB
 40
10.0
  9
$CHAMFERC
 40
20.0
  9
$CHAMFERD
 40
0.0
  9
$SKPOLY
 70
     0
  9
$TDCREATE
 40
2456449.644155926
  9
$TDUCREATE
 40
2456449.560822593
  9
$TDUPDATE
 40
2456449.644156389
  9
$TDUUPDATE
 40
2456449.560823055
  9
$TDINDWG
 40
0.0000000116
  9
$TDUSRTIMER
 40
0.0000000116
  9
$USRTIMER
 70
     1
  9
$ANGBASE
 50
0.0
  9
$ANGDIR
 70
     0
  9
$PDMODE
 70
     0
  9
$PDSIZE
 40
-1.0
  9
$PLINEWID
 40
0.0
  9
$SPLFRAME
 70
     0
  9
$SPLINETYPE
 70
     6
  9
$SPLINESEGS
 70
     8
  9
$HANDSEED
  5
FB
  9
$SURFTAB1
 70
     6
  9
$SURFTAB2
 70
     6
  9
$SURFTYPE
 70
     6
  9
$SURFU
 70
     6
  9
$SURFV
 70
     6
  9
$UCSBASE
  2

  9
$UCSNAME
  2

  9
$UCSORG
 10
0.0
 20
0.0
 30
0.0
  9
$UCSXDIR
 10
1.0
 20
0.0
 30
0.0
  9
$UCSYDIR
 10
0.0
 20
1.0
 30
0.0
  9
$UCSORTHOREF
  2

  9
$UCSORTHOVIEW
 70
     0
  9
$UCSORGTOP
 10
0.0
 20
0.0
 30
0.0
  9
$UCSORGBOTTOM
 10
0.0
 20
0.0
 30
0.0
  9
$UCSORGLEFT
 10
0.0
 20
0.0
 30
0.0
  9
$UCSORGRIGHT
 10
0.0
 20
0.0
 30
0.0
  9
$UCSORGFRONT
 10
0.0
 20
0.0
 30
0.0
  9
$UCSORGBACK
 10
0.0
 20
0.0
 30
0.0
  9
$PUCSBASE
  2

  9
$PUCSNAME
  2

  9
$PUCSORG
 10
0.0
 20
0.0
 30
0.0
  9
$PUCSXDIR
 10
1.0
 20
0.0
 30
0.0
  9
$PUCSYDIR
 10
0.0
 20
1.0
 30
0.0
  9
$PUCSORTHOREF
  2

  9
$PUCSORTHOVIEW
 70
     0
  9
$PUCSORGTOP
 10
0.0
 20
0.0
 30
0.0
  9
$PUCSORGBOTTOM
 10
0.0
 20
0.0
 30
0.0
  9
$PUCSORGLEFT
 10
0.0
 20
0.0
 30
0.0
  9
$PUCSORGRIGHT
 10
0.0
 20
0.0
 30
0.0
  9
$PUCSORGFRONT
 10
0.0
 20
0.0
 30
0.0
  9
$PUCSORGBACK
 10
0.0
 20
0.0
 30
0.0
  9
$USERI1
 70
     0
  9
$USERI2
 70
     0
  9
$USERI3
 70
     0
  9
$USERI4
 70
     0
  9
$USERI5
 70
     0
  9
$USERR1
 40
0.0
  9
$USERR2
 40
0.0
  9
$USERR3
 40
0.0
  9
$USERR4
 40
0.0
  9
$USERR5
 40
0.0
  9
$WORLDVIEW
 70
     1
  9
$SHADEDGE
 70
     3
  9
$SHADEDIF
 70
    70
  9
$TILEMODE
 70
     1
  9
$MAXACTVP
 70
    64
  9
$PINSBASE
 10
0.0
 20
0.0
 30
0.0
  9
$PLIMCHECK
 70
     0
  9
$PEXTMIN
 10
1.0000000000E+20
 20
1.0000000000E+20
 30
1.0000000000E+20
  9
$PEXTMAX
 10
-1.0000000000E+20
 20
-1.0000000000E+20
 30
-1.0000000000E+20
  9
$PLIMMIN
 10
0.0
 20
0.0
  9
$PLIMMAX
 10
420.0
 20
297.0
  9
$UNITMODE
 70
     0
  9
$VISRETAIN
 70
     1
  9
$PLINEGEN
 70
     0
  9
$PSLTSCALE
 70
     1
  9
$TREEDEPTH
 70
  3020
  9
$CMLSTYLE
  2
Standard
  9
$CMLJUST
 70
     0
  9
$CMLSCALE
 40
20.0
  9
$PROXYGRAPHICS
 70
     1
  9
$MEASUREMENT
 70
     1
  9
$CELWEIGHT
370
    -1
  9
$ENDCAPS
280
     0
  9
$JOINSTYLE
280
     0
  9
$LWDISPLAY
290
     1
  9
$INSUNITS
 70
     4
  9
$HYPERLINKBASE
  1

  9
$STYLESHEET
  1

  9
$XEDIT
290
     1
  9
$CEPSNTYPE
380
     0
  9
$PSTYLEMODE
290
     1
  9
$FINGERPRINTGUID
  2
{C1993434-A1C0-410C-8275-7C4BE3592F72}
  9
$VERSIONGUID
  2
{FAEB1C32-E019-11D5-929B-00C0DF256EC4}
  9
$EXTNAMES
290
     1
  9
$PSVPSCALE
 40
0.0
  9
$OLESTARTUP
290
     0
  9
$SORTENTS
280
   127
  9
$INDEXCTL
280
     0
  9
$HIDETEXT
280
     1
  9
$XCLIPFRAME
290
     0
  9
$HALOGAP
280
     0
  9
$OBSCOLOR
 70
   257
  9
$OBSLTYPE
280
     0
  9
$INTERSECTIONDISPLAY
280
     0
  9
$INTERSECTIONCOLOR
 70
   257
  9
$DIMASSOC
280
     2
  9
$PROJECTNAME
  1

  9
$CAMERADISPLAY
290
     0
  9
$LENSLENGTH
 40
50.0
  9
$CAMERAHEIGHT
 40
0.0
  9
$STEPSPERSEC
 40
2.0
  9
$STEPSIZE
 40
6.0
  9
$3DDWFPREC
 40
2.0
  9
$PSOLWIDTH
 40
5.0
  9
$PSOLHEIGHT
 40
80.0
  9
$LOFTANG1
 40
1.5707963268
  9
$LOFTANG2
 40
1.5707963268
  9
$LOFTMAG1
 40
0.0
  9
$LOFTMAG2
 40
0.0
  9
$LOFTPARAM
 70
     7
  9
$LOFTNORMALS
280
     1
  9
$LATITUDE
 40
37.795
  9
$LONGITUDE
 40
-122.394
  9
$NORTHDIRECTION
 40
0.0
  9
$TIMEZONE
 70
 -8000
  9
$LIGHTGLYPHDISPLAY
280
     1
  9
$TILEMODELIGHTSYNCH
280
     1
  9
$SOLIDHIST
280
     1
  9
$SHOWHIST
280
     1
  9
$DWFFRAME
280
     2
  9
$DGNFRAME
280
     2
  9
$REALWORLDSCALE
290
     1
  9
$INTERFERECOLOR
 62
   256
  9
$CSHADOW
280
     0
  9
$SHADOWPLANELOCATION
 40
0.0
  0
ENDSEC
  0
SECTION
  2
CLASSES
  0
CLASS
  1
ACDBDICTIONARYWDFLT
  2
AcDbDictionaryWithDefault
  3
ObjectDBX Classes
 90
        0
 91
        4
280
     0
281
     0
  0
CLASS
  1
VISUALSTYLE
  2
AcDbVisualStyle
  3
ObjectDBX Classes
 90
     4095
 91
        4
280
     0
281
     0
  0
CLASS
  1
MATERIAL
  2
AcDbMaterial
  3
ObjectDBX Classes
 90
     1153
 91
        4
280
     0
281
     0
  0
ENDSEC
  0
SECTION
  2
TABLES
  0
TABLE
  2
VPORT
  5
8
330
0
100
AcDbSymbolTable
 70
     1
  0
VPORT
  5
29
330
8
100
AcDbSymbolTableRecord
100
AcDbViewportTableRecord
  2
*Active
 70
     0
 10
0.0
 20
0.0
 11
1.0
 21
1.0
 12
148.5
 22
105.0
 13
0.0
 23
0.0
 14
10.0
 24
10.0
 15
10.0
 25
10.0
 16
0.0
 26
0.0
 36
1.0
 17
0.0
 27
0.0
 37
0.0
 40
210.0
 41
1.4142857143
 42
50.0
 43
0.0
 44
0.0
 50
0.0
 51
0.0
 71
     0
 72
  2000
 73
     1
 74
     3
 75
     0
 76
     0
 77
     0
 78
     0
281
     0
 65
     1
110
0.0
120
0.0
130
0.0
111
1.0
121
0.0
131
0.0
112
0.0
122
1.0
132
0.0
 79
     0
146
0.0
 60
     3
 61
     5
292
     1
282
     1
141
0.0
142
0.0
 63
   250
  0
ENDTAB
  0
TABLE
  2
LTYPE
  5
5
330
0
100
AcDbSymbolTable
 70
     8
  0
LTYPE
  5
14
330
5
100
AcDbSymbolTableRecord
100
AcDbLinetypeTableRecord
  2
ByBlock
 70
     0
  3

 72
    65
 73
     0
 40
0.0
  0
LTYPE
  5
15
330
5
100
AcDbSymbolTableRecord
100
AcDbLinetypeTableRecord
  2
ByLayer
 70
     0
  3

 72
    65
 73
     0
 40
0.0
  0
LTYPE
  5
16
330
5
100
AcDbSymbolTableRecord
100
AcDbLinetypeTableRecord
  2
Continuous
 70
     0
  3
Solid line
 72
    65
 73
     0
 40
0.0
  0
LTYPE
  5
3F
330
5
100
AcDbSymbolTableRecord
100
AcDbLinetypeTableRecord
  2
SLD-Durchgehend
 70
     0
  3
SolidWorks Line Style
 72
    65
 73
     0
 40
0.0
  0
LTYPE
  5
40
330
5
100
AcDbSymbolTableRecord
100
AcDbLinetypeTableRecord
  2
SLD-Gestrichelt
 70
     0
  3
SolidWorks Line Style
 72
    65
 73
     2
 40
1.905
 49
1.27
 74
     0
 49
-0.635
 74
     0
  0
LTYPE
  5
41
330
5
100
AcDbSymbolTableRecord
100
AcDbLinetypeTableRecord
  2
SLD-Phantom
 70
     0
  3
SolidWorks Line Style
 72
    65
 73
     6
 40
12.7
 49
6.35
 74
     0
 49
-1.27
 74
     0
 49
1.27
 74
     0
 49
-1.27
 74
     0
 49
1.27
 74
     0
 49
-1.27
 74
     0
  0
LTYPE
  5
42
330
5
100
AcDbSymbolTableRecord
100
AcDbLinetypeTableRecord
  2
SLD-Kette
 70
     0
  3
SolidWorks Line Style
 72
    65
 73
     4
 40
10.16
 49
6.35
 74
     0
 49
-1.27
 74
     0
 49
1.27
 74
     0
 49
-1.27
 74
     0
  0
LTYPE
  5
43
330
5
100
AcDbSymbolTableRecord
100
AcDbLinetypeTableRecord
  2
SLD-Punktstrich
 70
     0
  3
SolidWorks Line Style
 72
    65
 73
     4
 40
19.05
 49
15.24
 74
     0
 49
-1.27
 74
     0
 49
1.27
 74
     0
 49
-1.27
 74
     0
  0
LTYPE
  5
44
330
5
100
AcDbSymbolTableRecord
100
AcDbLinetypeTableRecord
  2
SLD-Naht
 70
     0
  3
SolidWorks Line Style
 72
    65
 73
     2
 40
0.635
 49
0.0
 74
     0
 49
-0.635
 74
     0
  0
LTYPE
  5
45
330
5
100
AcDbSymbolTableRecord
100
AcDbLinetypeTableRecord
  2
SLD-Dicke-Dünne-Kette
 70
     0
  3
SolidWorks Line Style
 72
    65
 73
     4
 40
10.16
 49
6.35
 74
     0
 49
-1.27
 74
     0
 49
1.27
 74
     0
 49
-1.27
 74
     0
  0
ENDTAB
  0
TABLE
  2
LAYER
  5
2
330
0
100
AcDbSymbolTable
 70
     3
  0
LAYER
  5
10
330
2
100
AcDbSymbolTableRecord
100
AcDbLayerTableRecord
  2
0
 70
     0
 62
     7
  6
Continuous
370
    -3
390
F
347
3E
  0
LAYER
  5
46
330
2
100
AcDbSymbolTableRecord
100
AcDbLayerTableRecord
  2
1
 70
     0
 62
     4
  6
Continuous
370
    -1
390
F
347
3E
  0
LAYER
  5
47
330
2
100
AcDbSymbolTableRecord
100
AcDbLayerTableRecord
  2
2
 70
     0
 62
     7
  6
SLD-Durchgehend
370
    -3
390
F
347
3E
  0
ENDTAB
  0
TABLE
  2
STYLE
  5
3
330
0
100
AcDbSymbolTable
 70
     2
  0
STYLE
  5
11
330
3
100
AcDbSymbolTableRecord
100
AcDbTextStyleTableRecord
  2
Standard
 70
     0
 40
0.0
 41
1.0
 50
0.0
 71
     0
 42
3.5
  3
txt
  4

  0
STYLE
  5
D3
330
3
100
AcDbSymbolTableRecord
100
AcDbTextStyleTableRecord
  2
SLDTEXTSTYLE0
 70
     0
 40
0.0
 41
0.75
 50
0.0
 71
     0
 42
0.2
  3
TXT
  4

  0
ENDTAB
  0
TABLE
  2
VIEW
  5
6
330
0
100
AcDbSymbolTable
 70
     0
  0
ENDTAB
  0
TABLE
  2
UCS
  5
7
330
0
100
AcDbSymbolTable
 70
     0
  0
ENDTAB
  0
TABLE
  2
APPID
  5
9
330
0
100
AcDbSymbolTable
 70
     1
  0
APPID
  5
12
330
9
100
AcDbSymbolTableRecord
100
AcDbRegAppTableRecord
  2
ACAD
 70
     0
  0
ENDTAB
  0
TABLE
  2
DIMSTYLE
  5
A
330
0
100
AcDbSymbolTable
 70
     3
100
AcDbDimStyleTable
  0
DIMSTYLE
105
27
330
A
100
AcDbSymbolTableRecord
100
AcDbDimStyleTableRecord
  2
ISO-25
 70
     0
 41
2.5
 42
0.625
 43
3.75
 44
1.25
 73
     0
 74
     0
 77
     1
 78
     8
140
2.5
141
2.5
143
0.0393700787
147
0.625
171
     3
172
     1
178
     0
271
     2
272
     2
274
     3
278
    44
283
     0
284
     8
340
11
  0
DIMSTYLE
105
D4
102
{ACAD_REACTORS
330
D2
102
}
330
A
100
AcDbSymbolTableRecord
100
AcDbDimStyleTableRecord
  2
SLDDIMSTYLE0
 70
     0
 41
3.302
 44
0.0
 45
0.000000001
 73
     0
 74
     0
 77
     1
 78
    12
 79
     3
140
3.5
147
0.875
173
     1
178
     0
271
     2
272
     2
276
     2
284
    12
340
D3
  0
DIMSTYLE
105
DF
102
{ACAD_REACTORS
330
DE
330
EC
102
}
330
A
100
AcDbSymbolTableRecord
100
AcDbDimStyleTableRecord
  2
SLDDIMSTYLE1
 70
     0
 41
3.302
 44
0.0
 45
0.000000001
 73
     0
 74
     0
 77
     1
 78
    12
 79
     3
140
3.5
147
0.875
172
     1
173
     1
178
     0
271
     2
272
     2
276
     2
284
    12
289
     0
340
D3
  0
ENDTAB
  0
TABLE
  2
BLOCK_RECORD
  5
1
330
0
100
AcDbSymbolTable
 70
     4
  0
BLOCK_RECORD
  5
1F
330
1
100
AcDbSymbolTableRecord
100
AcDbBlockTableRecord
  2
*Model_Space
340
22
 70
     0
280
     1
281
     0
  0
BLOCK_RECORD
  5
1B
330
1
100
AcDbSymbolTableRecord
100
AcDbBlockTableRecord
  2
*Paper_Space
340
1E
 70
     0
280
     1
281
     0
  0
BLOCK_RECORD
  5
23
330
1
100
AcDbSymbolTableRecord
100
AcDbBlockTableRecord
  2
*Paper_Space0
340
26
 70
     0
280
     1
281
     0
  0
BLOCK_RECORD
  5
D5
330
1
100
AcDbSymbolTableRecord
100
AcDbBlockTableRecord
  2
_D
340
0
 70
     0
280
     1
281
     0
  0
BLOCK_RECORD
  5
E0
330
1
100
AcDbSymbolTableRecord
100
AcDbBlockTableRecord
  2
_D_1
340
0
 70
     0
280
     1
281
     0
  0
BLOCK_RECORD
  5
ED
330
1
100
AcDbSymbolTableRecord
100
AcDbBlockTableRecord
  2
_D_2
340
0
 70
     0
280
     1
281
     0
  0
ENDTAB
  0
ENDSEC
  0
SECTION
  2
BLOCKS
  0
BLOCK
  5
20
330
1F
100
AcDbEntity
  8
0
100
AcDbBlockBegin
  2
*Model_Space
 70
     0
 10
0.0
 20
0.0
 30
0.0
  3
*Model_Space
  1

  0
ENDBLK
  5
21
330
1F
100
AcDbEntity
  8
0
100
AcDbBlockEnd
  0
BLOCK
  5
1C
330
1B
100
AcDbEntity
 67
     1
  8
0
100
AcDbBlockBegin
  2
*Paper_Space
 70
     0
 10
0.0
 20
0.0
 30
0.0
  3
*Paper_Space
  1

  0
ENDBLK
  5
1D
330
1B
100
AcDbEntity
 67
     1
  8
0
100
AcDbBlockEnd
  0
BLOCK
  5
24
330
23
100
AcDbEntity
  8
0
100
AcDbBlockBegin
  2
*Paper_Space0
 70
     0
 10
0.0
 20
0.0
 30
0.0
  3
*Paper_Space0
  1

  0
ENDBLK
  5
25
330
23
100
AcDbEntity
  8
0
100
AcDbBlockEnd
  0
BLOCK
  5
D6
330
D5
100
AcDbEntity
  8
0
100
AcDbBlockBegin
  2
_D
 70
     0
 10
0.0
 20
0.0
 30
0.0
  3
_D
  1

  0
SOLID
  5
D8
330
D5
100
AcDbEntity
  8
2
 62
     7
420
 16777215
100
AcDbTrace
 10
166.0000708915
 20
17.0002015396
 30
0.0
 11
162.6980708915
 21
17.5082015396
 31
0.0
 12
162.6980708915
 22
16.4922015396
 32
0.0
 13
162.6980708915
 23
16.4922015396
 33
0.0
  0
SOLID
  5
D9
330
D5
100
AcDbEntity
  8
2
 62
     7
420
 16777215
100
AcDbTrace
 10
0.0000708915
 20
17.0002015396
 30
0.0
 11
3.3020708915
 21
16.4922015396
 31
0.0
 12
3.3020708915
 22
17.5082015396
 32
0.0
 13
3.3020708915
 23
17.5082015396
 33
0.0
  0
LINE
  5
DA
330
D5
100
AcDbEntity
  8
2
 62
     7
420
 16777215
100
AcDbLine
 10
166.0000708915
 20
1.0002015396
 30
0.0
 11
166.0000708915
 21
18.0002015396
 31
0.0
  0
LINE
  5
DB
330
D5
100
AcDbEntity
  8
2
 62
     7
420
 16777215
100
AcDbLine
 10
0.0000708915
 20
1.0002015396
 30
0.0
 11
0.0000708915
 21
18.0002015396
 31
0.0
  0
LINE
  5
DC
330
D5
100
AcDbEntity
  8
2
 62
     7
420
 16777215
100
AcDbLine
 10
166.0000708915
 20
17.0002015396
 30
0.0
 11
0.0000708915
 21
17.0002015396
 31
0.0
  0
MTEXT
  5
DD
330
D5
100
AcDbEntity
  8
2
 62
     7
420
 16777215
100
AcDbMText
 10
77.6990293629
 20
21.5119384542
 30
0.0
 40
3.5
 41
0.0
 46
0.0
 71
     1
 72
     1
  1
166
  7
SLDTEXTSTYLE0
 73
     1
 44
1.0
  0
ENDBLK
  5
D7
330
D5
100
AcDbEntity
  8
0
100
AcDbBlockEnd
  0
BLOCK
  5
E1
330
E0
100
AcDbEntity
  8
0
100
AcDbBlockBegin
  2
_D_1
 70
     0
 10
0.0
 20
0.0
 30
0.0
  3
_D_1
  1

  0
SOLID
  5
E3
330
E0
100
AcDbEntity
  8
2
 62
     7
420
 16777215
100
AcDbTrace
 10
172.0000708915
 20
11.0002015396
 30
0.0
 11
172.5080708915
 21
14.3022015396
 31
0.0
 12
171.4920708915
 22
14.3022015396
 32
0.0
 13
171.4920708915
 23
14.3022015396
 33
0.0
  0
SOLID
  5
E4
330
E0
100
AcDbEntity
  8
2
 62
     7
420
 16777215
100
AcDbTrace
 10
172.0000708915
 20
-10.9997984604
 30
0.0
 11
171.4920708915
 21
-14.3017984604
 31
0.0
 12
172.5080708915
 22
-14.3017984604
 32
0.0
 13
172.5080708915
 23
-14.3017984604
 33
0.0
  0
LINE
  5
E5
330
E0
100
AcDbEntity
  8
2
 62
     7
420
 16777215
100
AcDbLine
 10
150.0000708915
 20
11.0002015396
 30
0.0
 11
173.0000708915
 21
11.0002015396
 31
0.0
  0
LINE
  5
E6
330
E0
100
AcDbEntity
  8
2
 62
     7
420
 16777215
100
AcDbLine
 10
150.0000708915
 20
-10.9997984604
 30
0.0
 11
173.0000708915
 21
-10.9997984604
 31
0.0
  0
LINE
  5
E7
330
E0
100
AcDbEntity
  8
2
 62
     7
420
 16777215
100
AcDbLine
 10
172.0000708915
 20
11.0002015396
 30
0.0
 11
172.0000708915
 21
16.0002015396
 31
0.0
  0
LINE
  5
E8
330
E0
100
AcDbEntity
  8
2
 62
     7
420
 16777215
100
AcDbLine
 10
172.0000708915
 20
11.0002015396
 30
0.0
 11
172.0000708915
 21
-10.9997984604
 31
0.0
  0
LINE
  5
E9
330
E0
100
AcDbEntity
  8
2
 62
     7
420
 16777215
100
AcDbLine
 10
172.0000708915
 20
-10.9997984604
 30
0.0
 11
172.0000708915
 21
-15.9997984604
 31
0.0
  0
MTEXT
  5
EA
330
E0
100
AcDbEntity
  8
2
 62
     7
420
 16777215
100
AcDbMText
 10
167.4883338023
 20
-6.6470034406
 30
0.0
 40
3.5
 41
0.0
 46
0.0
 71
     1
 72
     1
  1
%%c
  7
SLDTEXTSTYLE0
 11
-7.044195017643634E-15
 21
1.0
 31
0.0
 73
     1
 44
1.0
  0
MTEXT
  5
EB
330
E0
100
AcDbEntity
  8
2
 62
     7
420
 16777215
100
AcDbMText
 10
167.4348616256
 20
-1.3685660423
 30
0.0
 40
3.5
 41
0.0
 46
0.0
 71
     1
 72
     1
  1
22
  7
SLDTEXTSTYLE0
 11
-7.044195017643634E-15
 21
1.0
 31
0.0
 73
     1
 44
1.0
  0
ENDBLK
  5
E2
330
E0
100
AcDbEntity
  8
0
100
AcDbBlockEnd
  0
BLOCK
  5
EE
330
ED
100
AcDbEntity
  8
0
100
AcDbBlockBegin
  2
_D_2
 70
     0
 10
0.0
 20
0.0
 30
0.0
  3
_D_2
  1

  0
SOLID
  5
F0
330
ED
100
AcDbEntity
  8
2
 62
     7
420
 16777215
100
AcDbTrace
 10
-5.9999291085
 20
10.0002015396
 30
0.0
 11
-5.4919291085
 21
13.3022015396
 31
0.0
 12
-6.5079291085
 22
13.3022015396
 32
0.0
 13
-6.5079291085
 23
13.3022015396
 33
0.0
  0
SOLID
  5
F1
330
ED
100
AcDbEntity
  8
2
 62
     7
420
 16777215
100
AcDbTrace
 10
-5.9999291085
 20
-9.9997984604
 30
0.0
 11
-6.5079291085
 21
-13.3017984604
 31
0.0
 12
-5.4919291085
 22
-13.3017984604
 32
0.0
 13
-5.4919291085
 23
-13.3017984604
 33
0.0
  0
LINE
  5
F2
330
ED
100
AcDbEntity
  8
2
 62
     7
420
 16777215
100
AcDbLine
 10
-0.9999291085
 20
10.0002015396
 30
0.0
 11
-6.9999291085
 21
10.0002015396
 31
0.0
  0
LINE
  5
F3
330
ED
100
AcDbEntity
  8
2
 62
     7
420
 16777215
100
AcDbLine
 10
-0.9999291085
 20
-9.9997984604
 30
0.0
 11
-6.9999291085
 21
-9.9997984604
 31
0.0
  0
LINE
  5
F4
330
ED
100
AcDbEntity
  8
2
 62
     7
420
 16777215
100
AcDbLine
 10
-5.9999291085
 20
10.0002015396
 30
0.0
 11
-5.9999291085
 21
15.0002015396
 31
0.0
  0
LINE
  5
F5
330
ED
100
AcDbEntity
  8
2
 62
     7
420
 16777215
100
AcDbLine
 10
-5.9999291085
 20
10.0002015396
 30
0.0
 11
-5.9999291085
 21
-9.9997984604
 31
0.0
  0
LINE
  5
F6
330
ED
100
AcDbEntity
  8
2
 62
     7
420
 16777215
100
AcDbLine
 10
-5.9999291085
 20
-9.9997984604
 30
0.0
 11
-5.9999291085
 21
-14.9997984604
 31
0.0
  0
MTEXT
  5
F7
330
ED
100
AcDbEntity
  8
2
 62
     7
420
 16777215
100
AcDbMText
 10
-10.5116661977
 20
-6.6470034406
 30
0.0
 40
3.5
 41
0.0
 46
0.0
 71
     1
 72
     1
  1
%%c
  7
SLDTEXTSTYLE0
 11
-7.044195017643634E-15
 21
1.0
 31
0.0
 73
     1
 44
1.0
  0
MTEXT
  5
F8
330
ED
100
AcDbEntity
  8
2
 62
     7
420
 16777215
100
AcDbMText
 10
-10.5651383744
 20
-1.3685660423
 30
0.0
 40
3.5
 41
0.0
 46
0.0
 71
     1
 72
     1
  1
20
  7
SLDTEXTSTYLE0
 11
-7.044195017643634E-15
 21
1.0
 31
0.0
 73
     1
 44
1.0
  0
ENDBLK
  5
EF
330
ED
100
AcDbEntity
  8
0
100
AcDbBlockEnd
  0
ENDSEC
  0
SECTION
  2
ENTITIES
  0
LINE
  5
48
330
1F
100
AcDbEntity
  8
0
  6
SLD-Punktstrich
 62
     7
100
AcDbLine
 10
0.0000708915
 20
0.0002015396
 30
0.0
 11
166.0000708915
 21
0.0002015396
 31
0.0
  0
POINT
  5
49
330
1F
100
AcDbEntity
  8
1
 62
     4
420
    65535
100
AcDbPoint
 10
0.0000708915
 20
0.0002015396
 30
0.0
  0
POINT
  5
4A
330
1F
100
AcDbEntity
  8
1
 62
     4
420
    65535
100
AcDbPoint
 10
166.0000708915
 20
0.0002015396
 30
0.0
  0
POINT
  5
4B
330
1F
100
AcDbEntity
  8
1
 62
     4
420
    65535
100
AcDbPoint
 10
0.0000708915
 20
0.0002015396
 30
0.0
  0
POINT
  5
4C
330
1F
100
AcDbEntity
  8
1
 62
     4
420
    65535
100
AcDbPoint
 10
166.0000708915
 20
0.0002015396
 30
0.0
  0
LINE
  5
4D
330
1F
100
AcDbEntity
  8
1
 62
     4
420
    65535
100
AcDbLine
 10
166.0000708915
 20
10.0002015396
 30
0.0
 11
165.4968580985
 21
10.5034143326
 31
0.0
  0
LINE
  5
4E
330
1F
100
AcDbEntity
  8
1
 62
     4
420
    65535
100
AcDbLine
 10
165.4965675107
 20
-10.5033018412
 30
0.0
 11
166.0000708915
 21
-9.9997984604
 31
0.0
  0
LINE
  5
4F
330
1F
100
AcDbEntity
  8
1
 62
     4
420
    65535
100
AcDbLine
 10
149.0000708915
 20
-10.9997984604
 30
0.0
 11
157.0000708915
 21
-10.9997984604
 31
0.0
  0
LINE
  5
50
330
1F
100
AcDbEntity
  8
1
 62
     4
420
    65535
100
AcDbLine
 10
157.0018019417
 20
11.0002015396
 30
0.0
 11
149.0000708915
 21
11.0002015396
 31
0.0
  0
LINE
  5
51
330
1F
100
AcDbEntity
  8
1
 62
     4
420
    65535
100
AcDbLine
 10
148.5000708915
 20
-9.2497984604
 30
0.0
 11
154.5000708915
 21
-9.2497984604
 31
0.0
  0
LINE
  5
52
330
1F
100
AcDbEntity
  8
1
 62
     4
420
    65535
100
AcDbLine
 10
154.5000708915
 20
9.2502015396
 30
0.0
 11
148.5000708915
 21
9.2502015396
 31
0.0
  0
ARC
  5
53
330
1F
100
AcDbEntity
  8
1
 62
     4
420
    65535
100
AcDbCircle
 10
165.8000708927
 20
-6.5998077245
 30
0.0
 40
0.199999998780287
100
AcDbArc
 50
0.0
 51
90.0
  0
ARC
  5
54
330
1F
100
AcDbEntity
  8
1
 62
     4
420
    65535
100
AcDbCircle
 10
165.8000708927
 20
6.6002108037
 30
0.0
 40
0.199999998780287
100
AcDbArc
 50
270.0
 51
0.0
  0
ARC
  5
55
330
1F
100
AcDbEntity
  8
1
 62
     4
420
    65535
100
AcDbCircle
 10
149.0000708915
 20
-9.9997984604
 30
0.0
 40
1.0
100
AcDbArc
 50
180.0
 51
270.0
  0
ARC
  5
56
330
1F
100
AcDbEntity
  8
1
 62
     4
420
    65535
100
AcDbCircle
 10
149.0000708915
 20
10.0002015396
 30
0.0
 40
1.0
100
AcDbArc
 50
90.0
 51
180.0
  0
LINE
  5
57
330
1F
100
AcDbEntity
  8
1
 62
     4
420
    65535
100
AcDbLine
 10
154.5000708915
 20
-9.2497984604
 30
0.0
 11
159.2000616226
 21
-9.7497984604
 31
0.0
  0
LINE
  5
58
330
1F
100
AcDbEntity
  8
1
 62
     4
420
    65535
100
AcDbLine
 10
159.2000616226
 20
9.7502015396
 30
0.0
 11
154.5000708915
 21
9.2502015396
 31
0.0
  0
LINE
  5
59
330
1F
100
AcDbEntity
  8
1
 62
     4
420
    65535
100
AcDbLine
 10
159.2000616226
 20
-9.7497984604
 30
0.0
 11
160.2000616226
 21
-9.7497984604
 31
0.0
  0
LINE
  5
5A
330
1F
100
AcDbEntity
  8
1
 62
     4
420
    65535
100
AcDbLine
 10
160.2000616226
 20
9.7502015396
 30
0.0
 11
159.2000616226
 21
9.7502015396
 31
0.0
  0
LINE
  5
5B
330
1F
100
AcDbEntity
  8
1
 62
     4
420
    65535
100
AcDbLine
 10
160.2000616226
 20
-7.2497984162
 30
0.0
 11
161.3000616158
 21
-7.2497984162
 31
0.0
  0
LINE
  5
5C
330
1F
100
AcDbEntity
  8
1
 62
     4
420
    65535
100
AcDbLine
 10
161.3000616158
 20
7.2502014954
 30
0.0
 11
160.2000616226
 21
7.2502014954
 31
0.0
  0
LINE
  5
5D
330
1F
100
AcDbEntity
  8
1
 62
     4
420
    65535
100
AcDbLine
 10
161.3000616158
 20
-8.5997984079
 30
0.0
 11
162.3000709141
 21
-8.5997984079
 31
0.0
  0
LINE
  5
5E
330
1F
100
AcDbEntity
  8
1
 62
     4
420
    65535
100
AcDbLine
 10
162.3000709141
 20
8.6002014871
 30
0.0
 11
161.3000616158
 21
8.6002014871
 31
0.0
  0
LINE
  5
5F
330
1F
100
AcDbEntity
  8
1
 62
     4
420
    65535
100
AcDbLine
 10
165.5909674283
 20
6.4002108049
 30
0.0
 11
162.3000709141
 21
8.3002107933
 31
0.0
  0
LINE
  5
60
330
1F
100
AcDbEntity
  8
1
 62
     4
420
    65535
100
AcDbLine
 10
162.3000709141
 20
-8.2998077141
 30
0.0
 11
165.5909674283
 21
-6.3998077257
 31
0.0
  0
LINE
  5
61
330
1F
100
AcDbEntity
  8
1
 62
     4
420
    65535
100
AcDbLine
 10
165.5909674283
 20
-6.3998077257
 30
0.0
 11
165.8000708927
 21
-6.3998077257
 31
0.0
  0
LINE
  5
62
330
1F
100
AcDbEntity
  8
1
 62
     4
420
    65535
100
AcDbLine
 10
165.8000708927
 20
6.4002108049
 30
0.0
 11
165.5909674283
 21
6.4002108049
 31
0.0
  0
ARC
  5
63
330
1F
100
AcDbEntity
  8
1
 62
     4
420
    65535
100
AcDbCircle
 10
148.5000708915
 20
-9.7497984604
 30
0.0
 40
0.5
100
AcDbArc
 50
90.0
 51
180.0
  0
ARC
  5
64
330
1F
100
AcDbEntity
  8
1
 62
     4
420
    65535
100
AcDbCircle
 10
148.5000708915
 20
9.7502015396
 30
0.0
 40
0.5000000000000018
100
AcDbArc
 50
180.0
 51
270.0
  0
LINE
  5
65
330
1F
100
AcDbEntity
  8
1
 62
     4
420
    65535
100
AcDbLine
 10
144.0000708915
 20
-10.1997984604
 30
0.0
 11
146.0000708915
 21
-10.1997984604
 31
0.0
  0
LINE
  5
66
330
1F
100
AcDbEntity
  8
1
 62
     4
420
    65535
100
AcDbLine
 10
146.0000708915
 20
10.2002015396
 30
0.0
 11
144.0000708915
 21
10.2002015396
 31
0.0
  0
LINE
  5
67
330
1F
100
AcDbEntity
  8
1
 62
     4
420
    65535
100
AcDbLine
 10
0.0000708915
 20
-3.9997984604
 30
0.0
 11
131.778383055
 21
-3.9997984604
 31
0.0
  0
LINE
  5
68
330
1F
100
AcDbEntity
  8
1
 62
     4
420
    65535
100
AcDbLine
 10
131.778383055
 20
4.0002015396
 30
0.0
 11
0.0000708915
 21
4.0002015396
 31
0.0
  0
LINE
  5
69
330
1F
100
AcDbEntity
  8
1
 62
     4
420
    65535
100
AcDbLine
 10
0.0000708915
 20
-9.9997984604
 30
0.0
 11
138.0000708915
 21
-9.9997984604
 31
0.0
  0
LINE
  5
6A
330
1F
100
AcDbEntity
  8
1
 62
     4
420
    65535
100
AcDbLine
 10
138.0000708915
 20
10.0002015396
 30
0.0
 11
0.0000708915
 21
10.0002015396
 31
0.0
  0
LINE
  5
6B
330
1F
100
AcDbEntity
  8
1
 62
     4
420
    65535
100
AcDbLine
 10
131.778383055
 20
-3.9997984604
 30
0.0
 11
132.5000708915
 21
-5.2497984604
 31
0.0
  0
LINE
  5
6C
330
1F
100
AcDbEntity
  8
1
 62
     4
420
    65535
100
AcDbLine
 10
132.5000708915
 20
5.2502015396
 30
0.0
 11
131.778383055
 21
4.0002015396
 31
0.0
  0
LINE
  5
6D
330
1F
100
AcDbEntity
  8
1
 62
     4
420
    65535
100
AcDbLine
 10
154.5000708915
 20
9.0002015396
 30
0.0
 11
154.0000708915
 21
9.5002015396
 31
0.0
  0
LINE
  5
6E
330
1F
100
AcDbEntity
  8
1
 62
     4
420
    65535
100
AcDbLine
 10
154.0000708915
 20
-9.4997984604
 30
0.0
 11
154.5000708915
 21
-8.9997984604
 31
0.0
  0
LINE
  5
6F
330
1F
100
AcDbEntity
  8
1
 62
     4
420
    65535
100
AcDbLine
 10
132.5000708915
 20
-5.2497984604
 30
0.0
 11
134.932804155
 21
-5.2497984604
 31
0.0
  0
LINE
  5
70
330
1F
100
AcDbEntity
  8
1
 62
     4
420
    65535
100
AcDbLine
 10
134.932804155
 20
5.2502015396
 30
0.0
 11
132.5000708915
 21
5.2502015396
 31
0.0
  0
ARC
  5
71
330
1F
100
AcDbEntity
  8
1
 62
     4
420
    65535
100
AcDbCircle
 10
154.0000708915
 20
-8.4344418293
 30
0.0
 40
0.5
100
AcDbArc
 50
0.0
 51
82.0
  0
ARC
  5
72
330
1F
100
AcDbEntity
  8
1
 62
     4
420
    65535
100
AcDbCircle
 10
154.0000708915
 20
8.4348449085
 30
0.0
 40
0.5
100
AcDbArc
 50
278.0
 51
0.0
  0
LINE
  5
73
330
1F
100
AcDbEntity
  8
1
 62
     4
420
    65535
100
AcDbLine
 10
134.932804155
 20
-5.2497984604
 30
0.0
 11
154.069657442
 21
-7.9393077949
 31
0.0
  0
LINE
  5
74
330
1F
100
AcDbEntity
  8
1
 62
     4
420
    65535
100
AcDbLine
 10
154.069657442
 20
7.9397108741
 30
0.0
 11
134.932804155
 21
5.2502015396
 31
0.0
  0
LINE
  5
75
330
1F
100
AcDbEntity
  8
1
 62
     4
420
    65535
100
AcDbLine
 10
146.0000708915
 20
-9.4997984604
 30
0.0
 11
154.0000708915
 21
-9.4997984604
 31
0.0
  0
LINE
  5
76
330
1F
100
AcDbEntity
  8
1
 62
     4
420
    65535
100
AcDbLine
 10
154.0000708915
 20
9.5002015396
 30
0.0
 11
146.0000708915
 21
9.5002015396
 31
0.0
  0
LINE
  5
77
330
1F
100
AcDbEntity
  8
1
 62
     4
420
    65535
100
AcDbLine
 10
166.0000708915
 20
10.0002015396
 30
0.0
 11
166.0000708915
 21
-9.9997984604
 31
0.0
  0
LINE
  5
78
330
1F
100
AcDbEntity
  8
1
 62
     4
420
    65535
100
AcDbLine
 10
165.0000708915
 20
-3.1908062723
 30
0.0
 11
165.0000708915
 21
3.1912093516
 31
0.0
  0
SPLINE
  5
79
330
1F
100
AcDbEntity
  8
1
 62
     4
420
    65535
100
AcDbSpline
210
0.0
220
0.0
230
1.0
 70
     8
 71
     3
 72
     8
 73
     4
 74
     0
 42
0.00000001
 43
0.00000001
 12
1.0
 22
0.0
 32
0.0
 13
1.0
 23
0.0
 33
0.0
 40
0.000000286668104
 40
0.000000286668104
 40
0.000000286668104
 40
0.000000286668104
 40
0.0002963270483705
 40
0.0002963270483705
 40
0.0002963270483705
 40
0.0002963270483705
 10
165.0000708915072
 20
3.191209351555656
 30
0.0
 10
165.0689171265279
 20
3.155861213910399
 30
0.0
 10
165.1377453026349
 20
3.12050428057545
 30
0.0
 10
165.2065543190458
 20
3.085138030148513
 30
0.0
  0
SPLINE
  5
7A
330
1F
100
AcDbEntity
  8
1
 62
     4
420
    65535
100
AcDbSpline
210
0.0
220
0.0
230
1.0
 70
     8
 71
     3
 72
    12
 73
     8
 74
     0
 42
0.00000001
 43
0.00000001
 12
1.0
 22
0.0
 32
0.0
 13
1.0
 23
0.0
 33
0.0
 40
0.0
 40
0.0
 40
0.0
 40
0.0
 40
0.5
 40
0.5
 40
0.75
 40
0.75
 40
1.0
 40
1.0
 40
1.0
 40
1.0
 10
165.2065543190467
 20
7.415265049070745
 30
0.0
 10
165.3971823941248
 20
6.702509760874633
 30
0.0
 10
165.4994931319054
 20
5.98323015063185
 30
0.0
 10
165.5003560707653
 20
4.893037385746419
 30
0.0
 10
165.4750592096809
 20
4.526323994327634
 30
0.0
 10
165.3757300347987
 20
3.801215858771809
 30
0.0
 10
165.3019393200189
 20
3.441781005377964
 30
0.0
 10
165.2065543190459
 20
3.085138030148496
 30
0.0
  0
SPLINE
  5
7B
330
1F
100
AcDbEntity
  8
1
 62
     4
420
    65535
100
AcDbSpline
210
0.0
220
0.0
230
1.0
 70
     8
 71
     3
 72
     8
 73
     4
 74
     0
 42
0.00000001
 43
0.00000001
 12
1.0
 22
0.0
 32
0.0
 13
1.0
 23
0.0
 33
0.0
 40
0.000000286668104
 40
0.000000286668104
 40
0.000000286668104
 40
0.000000286668104
 40
0.0002963270483705
 40
0.0002963270483705
 40
0.0002963270483705
 40
0.0002963270483705
 10
165.0000708915072
 20
7.521336370477819
 30
0.0
 10
165.0689171265279
 20
7.485988232832561
 30
0.0
 10
165.1377453026349
 20
7.450631299497614
 30
0.0
 10
165.2065543190458
 20
7.415265049070676
 30
0.0
  0
SPLINE
  5
7C
330
1F
100
AcDbEntity
  8
1
 62
     4
420
    65535
100
AcDbSpline
210
0.0
220
0.0
230
1.0
 70
     8
 71
     3
 72
    11
 73
     7
 74
     0
 42
0.00000001
 43
0.00000001
 12
1.0
 22
0.0
 32
0.0
 13
1.0
 23
0.0
 33
0.0
 40
0.0020707584042572
 40
0.0020707584042572
 40
0.0020707584042572
 40
0.0020707584042572
 40
0.0022203915487471
 40
0.0022203915487471
 40
0.0022203915487471
 40
0.0023667984237429
 40
0.0023667984237429
 40
0.0023667984237429
 40
0.0023667984237429
 10
165.0000708915072
 20
10.71234418242375
 30
0.0
 10
165.034869156726
 20
10.67661081607774
 30
0.0
 10
165.0696628066039
 20
10.64087295455327
 30
0.0
 10
165.1044517017525
 20
10.60513046573401
 30
0.0
 10
165.1384905041107
 20
10.57015863039642
 30
0.0
 10
165.1725247551465
 20
10.53518236455242
 30
0.0
 10
165.2065543190458
 20
10.50020153960948
 30
0.0
  0
LINE
  5
7D
330
1F
100
AcDbEntity
  8
1
 62
     4
420
    65535
100
AcDbLine
 10
165.0000708915
 20
7.5213363705
 30
0.0
 11
165.0000708915
 21
10.7123441824
 31
0.0
  0
SPLINE
  5
7E
330
1F
100
AcDbEntity
  8
1
 62
     4
420
    65535
100
AcDbSpline
210
0.0
220
0.0
230
1.0
 70
     8
 71
     3
 72
    11
 73
     7
 74
     0
 42
0.00000001
 43
0.00000001
 12
1.0
 22
0.0
 32
0.0
 13
1.0
 23
0.0
 33
0.0
 40
0.0020707584042572
 40
0.0020707584042572
 40
0.0020707584042572
 40
0.0020707584042572
 40
0.0022203915487471
 40
0.0022203915487471
 40
0.0022203915487471
 40
0.0023667984237429
 40
0.0023667984237429
 40
0.0023667984237429
 40
0.0023667984237429
 10
165.0000708915072
 20
10.71234418242375
 30
0.0
 10
165.034869156726
 20
10.67661081607774
 30
0.0
 10
165.0696628066039
 20
10.64087295455327
 30
0.0
 10
165.1044517017525
 20
10.60513046573401
 30
0.0
 10
165.1384905041107
 20
10.57015863039642
 30
0.0
 10
165.1725247551465
 20
10.53518236455242
 30
0.0
 10
165.2065543190458
 20
10.50020153960948
 30
0.0
  0
SPLINE
  5
7F
330
1F
100
AcDbEntity
  8
1
 62
     4
420
    65535
100
AcDbSpline
210
0.0
220
0.0
230
1.0
 70
     8
 71
     3
 72
     8
 73
     4
 74
     0
 42
0.00000001
 43
0.00000001
 12
1.0
 22
0.0
 32
0.0
 13
1.0
 23
0.0
 33
0.0
 40
0.000000286668104
 40
0.000000286668104
 40
0.000000286668104
 40
0.000000286668104
 40
0.0002963270483705
 40
0.0002963270483705
 40
0.0002963270483705
 40
0.0002963270483705
 10
165.0000708915072
 20
7.521336370477708
 30
0.0
 10
165.0689171265279
 20
7.485988232832451
 30
0.0
 10
165.1377453026349
 20
7.450631299497504
 30
0.0
 10
165.2065543190458
 20
7.415265049070567
 30
0.0
  0
SPLINE
  5
80
330
1F
100
AcDbEntity
  8
1
 62
     4
420
    65535
100
AcDbSpline
210
0.0
220
0.0
230
1.0
 70
    27
 71
     3
 72
    14
 73
    10
 74
     0
 42
0.00000001
 43
0.00000001
 12
1.0
 22
0.0
 32
0.0
 13
1.0
 23
0.0
 33
0.0
 40
0.0
 40
0.0
 40
0.0
 40
0.0
 40
0.2500000000000001
 40
0.2500000000000001
 40
0.5000000000000001
 40
0.5000000000000001
 40
0.7500000000000001
 40
0.7500000000000001
 40
1.0
 40
1.0
 40
1.0
 40
1.0
 10
165.2065543190458
 20
10.50020153960948
 30
0.0
 10
165.3013092566382
 20
10.50020153960948
 30
0.0
 10
165.3758022305289
 20
10.50020153960948
 30
0.0
 10
165.4749171734496
 20
10.50020153960948
 30
0.0
 10
165.500070956965
 20
10.50020153960948
 30
0.0
 10
165.5000708260491
 20
10.50020153960948
 30
0.0
 10
165.4749137267159
 20
10.50020153960948
 30
0.0
 10
165.3749025454048
 20
10.50020153960949
 30
0.0
 10
165.3008690171808
 20
10.50020153960948
 30
0.0
 10
165.2065543190458
 20
10.50020153960948
 30
0.0
  0
LINE
  5
81
330
1F
100
AcDbEntity
  8
1
 62
     4
420
    65535
100
AcDbLine
 10
165.0000708915
 20
3.1912093516
 30
0.0
 11
165.0000708915
 21
-3.1908062723
 31
0.0
  0
LINE
  5
82
330
1F
100
AcDbEntity
  8
1
 62
     4
420
    65535
100
AcDbLine
 10
165.0000708915
 20
10.7123441824
 30
0.0
 11
165.0000708915
 21
7.5213363705
 31
0.0
  0
SPLINE
  5
83
330
1F
100
AcDbEntity
  8
1
 62
     4
420
    65535
100
AcDbSpline
210
0.0
220
0.0
230
1.0
 70
     8
 71
     3
 72
     8
 73
     4
 74
     0
 42
0.00000001
 43
0.00000001
 12
1.0
 22
0.0
 32
0.0
 13
1.0
 23
0.0
 33
0.0
 40
0.000000286668104
 40
0.000000286668104
 40
0.000000286668104
 40
0.000000286668104
 40
0.0002963270483705
 40
0.0002963270483705
 40
0.0002963270483705
 40
0.0002963270483705
 10
165.0000708915072
 20
-3.190806272336603
 30
0.0
 10
165.0689171265279
 20
-3.155458134691343
 30
0.0
 10
165.1377453026349
 20
-3.120101201356398
 30
0.0
 10
165.2065543190458
 20
-3.084734950929458
 30
0.0
  0
SPLINE
  5
84
330
1F
100
AcDbEntity
  8
1
 62
     4
420
    65535
100
AcDbSpline
210
0.0
220
0.0
230
1.0
 70
     8
 71
     3
 72
    12
 73
     8
 74
     0
 42
0.00000001
 43
0.00000001
 12
1.0
 22
0.0
 32
0.0
 13
1.0
 23
0.0
 33
0.0
 40
0.0
 40
0.0
 40
0.0
 40
0.0
 40
0.5000000000000001
 40
0.5000000000000001
 40
0.7500000000000002
 40
0.7500000000000002
 40
1.0
 40
1.0
 40
1.0
 40
1.0
 10
165.2065543190467
 20
-7.414861969851705
 30
0.0
 10
165.3971823941249
 20
-6.702106681655592
 30
0.0
 10
165.4994931319054
 20
-5.982827071412805
 30
0.0
 10
165.5003560707653
 20
-4.892634306527373
 30
0.0
 10
165.4750592096809
 20
-4.525920915108584
 30
0.0
 10
165.3757300347987
 20
-3.800812779552759
 30
0.0
 10
165.3019393200189
 20
-3.441377926158913
 30
0.0
 10
165.2065543190459
 20
-3.084734950929444
 30
0.0
  0
SPLINE
  5
85
330
1F
100
AcDbEntity
  8
1
 62
     4
420
    65535
100
AcDbSpline
210
0.0
220
0.0
230
1.0
 70
     8
 71
     3
 72
    12
 73
     8
 74
     0
 42
0.00000001
 43
0.00000001
 12
1.0
 22
0.0
 32
0.0
 13
1.0
 23
0.0
 33
0.0
 40
0.0
 40
0.0
 40
0.0
 40
0.0
 40
0.5
 40
0.5
 40
0.75
 40
0.75
 40
1.0
 40
1.0
 40
1.0
 40
1.0
 10
165.2065543190467
 20
3.085138030148302
 30
0.0
 10
165.3971823941248
 20
3.797893318344419
 30
0.0
 10
165.4994931319054
 20
4.517172928587206
 30
0.0
 10
165.5003560707653
 20
5.607365693472646
 30
0.0
 10
165.4750592096809
 20
5.974079084891436
 30
0.0
 10
165.3757300347987
 20
6.699187220447264
 30
0.0
 10
165.3019393200189
 20
7.058622073841113
 30
0.0
 10
165.2065543190459
 20
7.415265049070585
 30
0.0
  0
LINE
  5
86
330
1F
100
AcDbEntity
  8
1
 62
     4
420
    65535
100
AcDbLine
 10
165.0000708915
 20
-7.5209332913
 30
0.0
 11
165.0000708915
 21
-10.7119411032
 31
0.0
  0
SPLINE
  5
87
330
1F
100
AcDbEntity
  8
1
 62
     4
420
    65535
100
AcDbSpline
210
0.0
220
0.0
230
1.0
 70
     8
 71
     3
 72
    11
 73
     7
 74
     0
 42
0.00000001
 43
0.00000001
 12
1.0
 22
0.0
 32
0.0
 13
1.0
 23
0.0
 33
0.0
 40
0.0020707584042572
 40
0.0020707584042572
 40
0.0020707584042572
 40
0.0020707584042572
 40
0.0022203915487471
 40
0.0022203915487471
 40
0.0022203915487471
 40
0.0023667984237429
 40
0.0023667984237429
 40
0.0023667984237429
 40
0.0023667984237429
 10
165.0000708915072
 20
-10.71194110320479
 30
0.0
 10
165.034869156726
 20
-10.67620773685878
 30
0.0
 10
165.0696628066039
 20
-10.6404698753343
 30
0.0
 10
165.1044517017525
 20
-10.60472738651502
 30
0.0
 10
165.1384905041108
 20
-10.56975555117744
 30
0.0
 10
165.1725247551465
 20
-10.53477928533343
 30
0.0
 10
165.2065543190458
 20
-10.49979846039049
 30
0.0
  0
SPLINE
  5
88
330
1F
100
AcDbEntity
  8
1
 62
     4
420
    65535
100
AcDbSpline
210
0.0
220
0.0
230
1.0
 70
    27
 71
     3
 72
    14
 73
    10
 74
     0
 42
0.00000001
 43
0.00000001
 12
1.0
 22
0.0
 32
0.0
 13
1.0
 23
0.0
 33
0.0
 40
0.0
 40
0.0
 40
0.0
 40
0.0
 40
0.25
 40
0.25
 40
0.5
 40
0.5
 40
0.75
 40
0.75
 40
1.0
 40
1.0
 40
1.0
 40
1.0
 10
165.2065543190458
 20
-10.4997984603905
 30
0.0
 10
165.3013092566382
 20
-10.4997984603905
 30
0.0
 10
165.3758022305289
 20
-10.4997984603905
 30
0.0
 10
165.4749171734496
 20
-10.4997984603905
 30
0.0
 10
165.5000709569651
 20
-10.4997984603905
 30
0.0
 10
165.5000708260491
 20
-10.4997984603905
 30
0.0
 10
165.4749137267159
 20
-10.4997984603905
 30
0.0
 10
165.3749025454049
 20
-10.4997984603905
 30
0.0
 10
165.3008690171808
 20
-10.4997984603905
 30
0.0
 10
165.2065543190458
 20
-10.4997984603905
 30
0.0
  0
LINE
  5
89
330
1F
100
AcDbEntity
  8
1
 62
     4
420
    65535
100
AcDbLine
 10
165.0000708915
 20
-10.7119411032
 30
0.0
 11
165.0000708915
 21
-7.5209332913
 31
0.0
  0
SPLINE
  5
8A
330
1F
100
AcDbEntity
  8
1
 62
     4
420
    65535
100
AcDbSpline
210
0.0
220
0.0
230
1.0
 70
     8
 71
     3
 72
     8
 73
     4
 74
     0
 42
0.00000001
 43
0.00000001
 12
1.0
 22
0.0
 32
0.0
 13
1.0
 23
0.0
 33
0.0
 40
0.000000286668104
 40
0.000000286668104
 40
0.000000286668104
 40
0.000000286668104
 40
0.0002963270483705
 40
0.0002963270483705
 40
0.0002963270483705
 40
0.0002963270483705
 10
165.0000708915072
 20
-7.520933291258674
 30
0.0
 10
165.0689171265279
 20
-7.485585153613416
 30
0.0
 10
165.1377453026349
 20
-7.450228220278472
 30
0.0
 10
165.2065543190458
 20
-7.414861969851533
 30
0.0
  0
SPLINE
  5
8B
330
1F
100
AcDbEntity
  8
1
 62
     4
420
    65535
100
AcDbSpline
210
0.0
220
0.0
230
1.0
 70
     8
 71
     3
 72
     8
 73
     4
 74
     0
 42
0.00000001
 43
0.00000001
 12
1.0
 22
0.0
 32
0.0
 13
1.0
 23
0.0
 33
0.0
 40
0.000000286668104
 40
0.000000286668104
 40
0.000000286668104
 40
0.000000286668104
 40
0.0002963270483705
 40
0.0002963270483705
 40
0.0002963270483705
 40
0.0002963270483705
 10
165.0000708915072
 20
-7.520933291258785
 30
0.0
 10
165.0689171265279
 20
-7.485585153613526
 30
0.0
 10
165.1377453026349
 20
-7.45022822027858
 30
0.0
 10
165.2065543190458
 20
-7.414861969851641
 30
0.0
  0
SPLINE
  5
8C
330
1F
100
AcDbEntity
  8
1
 62
     4
420
    65535
100
AcDbSpline
210
0.0
220
0.0
230
1.0
 70
     8
 71
     3
 72
     8
 73
     4
 74
     0
 42
0.00000001
 43
0.00000001
 12
1.0
 22
0.0
 32
0.0
 13
1.0
 23
0.0
 33
0.0
 40
0.000000286668104
 40
0.000000286668104
 40
0.000000286668104
 40
0.000000286668104
 40
0.0002963270483705
 40
0.0002963270483705
 40
0.0002963270483705
 40
0.0002963270483705
 10
165.0000708915072
 20
-3.190806272336457
 30
0.0
 10
165.0689171265279
 20
-3.155458134691198
 30
0.0
 10
165.1377453026349
 20
-3.120101201356254
 30
0.0
 10
165.2065543190458
 20
-3.084734950929315
 30
0.0
  0
SPLINE
  5
8D
330
1F
100
AcDbEntity
  8
1
 62
     4
420
    65535
100
AcDbSpline
210
0.0
220
0.0
230
1.0
 70
     8
 71
     3
 72
    11
 73
     7
 74
     0
 42
0.00000001
 43
0.00000001
 12
1.0
 22
0.0
 32
0.0
 13
1.0
 23
0.0
 33
0.0
 40
0.0020707584042572
 40
0.0020707584042572
 40
0.0020707584042572
 40
0.0020707584042572
 40
0.0022203915487471
 40
0.0022203915487471
 40
0.0022203915487471
 40
0.0023667984237429
 40
0.0023667984237429
 40
0.0023667984237429
 40
0.0023667984237429
 10
165.0000708915072
 20
-10.71194110320479
 30
0.0
 10
165.034869156726
 20
-10.67620773685878
 30
0.0
 10
165.0696628066039
 20
-10.6404698753343
 30
0.0
 10
165.1044517017525
 20
-10.60472738651502
 30
0.0
 10
165.1384905041108
 20
-10.56975555117744
 30
0.0
 10
165.1725247551465
 20
-10.53477928533343
 30
0.0
 10
165.2065543190458
 20
-10.49979846039049
 30
0.0
  0
LINE
  5
8E
330
1F
100
AcDbEntity
  8
1
 62
     4
420
    65535
100
AcDbLine
 10
149.0000708915
 20
11.0002015396
 30
0.0
 11
149.0000708915
 21
-10.9967298697
 31
0.0
  0
SPLINE
  5
8F
330
1F
100
AcDbEntity
  8
1
 62
     4
420
    65535
100
AcDbSpline
210
0.0
220
0.0
230
1.0
 70
     8
 71
     3
 72
    20
 73
    16
 74
     0
 42
0.00000001
 43
0.00000001
 12
1.0
 22
0.0
 32
0.0
 13
1.0
 23
0.0
 33
0.0
 40
0.0
 40
0.0
 40
0.0
 40
0.0
 40
0.1250000000000003
 40
0.1250000000000003
 40
0.2500000000000006
 40
0.2500000000000006
 40
0.3750000000000009
 40
0.3750000000000009
 40
0.5000000000000012
 40
0.5000000000000012
 40
0.7500000000000009
 40
0.7500000000000009
 40
0.8750000000000004
 40
0.8750000000000004
 40
1.0
 40
1.0
 40
1.0
 40
1.0
 10
157.426528078713
 20
3.191209351555647
 30
0.0
 10
157.3367057373419
 20
3.380847805502693
 30
0.0
 10
157.2699617589658
 20
3.574999599846282
 30
0.0
 10
157.1616914724098
 20
3.966072387211631
 30
0.0
 10
157.1206080684801
 20
4.163835033484405
 30
0.0
 10
157.0574159613235
 20
4.556665370967038
 30
0.0
 10
157.0354425366176
 20
4.750991703908627
 30
0.0
 10
157.0065977495684
 20
5.135095113738571
 30
0.0
 10
156.999774125255
 20
5.326359551488804
 30
0.0
 10
157.000694098617
 20
5.883864551665129
 30
0.0
 10
157.0279189635549
 20
6.238193656690594
 30
0.0
 10
157.1220634444738
 20
6.743694554475115
 30
0.0
 10
157.1625583825887
 20
6.907830737030066
 30
0.0
 10
157.2711442567747
 20
7.226695328482429
 30
0.0
 10
157.3385941913102
 20
7.379774338142737
 30
0.0
 10
157.426528078713
 20
7.521336370477823
 30
0.0
  0
LINE
  5
90
330
1F
100
AcDbEntity
  8
1
 62
     4
420
    65535
100
AcDbLine
 10
157.4265280787
 20
3.1912093516
 30
0.0
 11
165.0000708915
 21
3.1912093516
 31
0.0
  0
LINE
  5
91
330
1F
100
AcDbEntity
  8
1
 62
     4
420
    65535
100
AcDbLine
 10
157.4265280787
 20
-3.1908062723
 30
0.0
 11
165.0000708915
 21
-3.1908062723
 31
0.0
  0
LINE
  5
92
330
1F
100
AcDbEntity
  8
1
 62
     4
420
    65535
100
AcDbLine
 10
157.4265280787
 20
-7.5209332913
 30
0.0
 11
165.0000708915
 21
-7.5209332913
 31
0.0
  0
LINE
  5
93
330
1F
100
AcDbEntity
  8
1
 62
     4
420
    65535
100
AcDbLine
 10
157.4265280787
 20
-10.7119411032
 30
0.0
 11
165.0000708915
 21
-10.7119411032
 31
0.0
  0
SPLINE
  5
94
330
1F
100
AcDbEntity
  8
1
 62
     4
420
    65535
100
AcDbSpline
210
0.0
220
0.0
230
1.0
 70
     8
 71
     3
 72
    12
 73
     8
 74
     0
 42
0.00000001
 43
0.00000001
 12
1.0
 22
0.0
 32
0.0
 13
1.0
 23
0.0
 33
0.0
 40
0.0
 40
0.0
 40
0.0
 40
0.0
 40
0.5000000000000002
 40
0.5000000000000002
 40
0.7500000000000001
 40
0.7500000000000001
 40
1.0
 40
1.0
 40
1.0
 40
1.0
 10
165.2065543190467
 20
-3.084734950929245
 30
0.0
 10
165.3971823941248
 20
-3.797490239125366
 30
0.0
 10
165.4994931319054
 20
-4.516769849368156
 30
0.0
 10
165.5003560707652
 20
-5.606962614253596
 30
0.0
 10
165.4750592096809
 20
-5.973676005672389
 30
0.0
 10
165.3757300347987
 20
-6.69878414122822
 30
0.0
 10
165.3019393200188
 20
-7.058218994622067
 30
0.0
 10
165.2065543190459
 20
-7.414861969851543
 30
0.0
  0
SPLINE
  5
95
330
1F
100
AcDbEntity
  8
1
 62
     4
420
    65535
100
AcDbSpline
210
0.0
220
0.0
230
1.0
 70
     8
 71
     3
 72
    20
 73
    16
 74
     0
 42
0.00000001
 43
0.00000001
 12
1.0
 22
0.0
 32
0.0
 13
1.0
 23
0.0
 33
0.0
 40
0.0
 40
0.0
 40
0.0
 40
0.0
 40
0.1250000000000001
 40
0.1250000000000001
 40
0.2500000000000002
 40
0.2500000000000002
 40
0.3750000000000003
 40
0.3750000000000003
 40
0.5000000000000004
 40
0.5000000000000004
 40
0.7500000000000006
 40
0.7500000000000006
 40
0.8750000000000002
 40
0.8750000000000002
 40
1.0
 40
1.0
 40
1.0
 40
1.0
 10
157.426528078713
 20
-7.52093329125867
 30
0.0
 10
157.3367057373419
 20
-7.376331095573367
 30
0.0
 10
157.2699617589658
 20
-7.223398674665519
 30
0.0
 10
157.1616914724098
 20
-6.904292056062263
 30
0.0
 10
157.1206080684801
 20
-6.737417316758787
 30
0.0
 10
157.0574159613235
 20
-6.394127024725266
 30
0.0
 10
157.0354425366175
 20
-6.218422006801679
 30
0.0
 10
157.0065977495684
 20
-5.859054027374434
 30
0.0
 10
156.999774125255
 20
-5.673902168207357
 30
0.0
 10
157.0006940986171
 20
-5.11558583857316
 30
0.0
 10
157.0279189635549
 20
-4.735617235577704
 30
0.0
 10
157.1220634444739
 20
-4.156471959624116
 30
0.0
 10
157.1625583825886
 20
-3.961909804839319
 30
0.0
 10
157.2711442567747
 20
-3.570965535147953
 30
0.0
 10
157.3385941913101
 20
-3.376457706067455
 30
0.0
 10
157.4265280787129
 20
-3.19080627233645
 30
0.0
  0
SPLINE
  5
96
330
1F
100
AcDbEntity
  8
1
 62
     4
420
    65535
100
AcDbSpline
210
0.0
220
0.0
230
1.0
 70
    11
 71
     3
 72
    20
 73
    16
 74
     0
 42
0.00000001
 43
0.00000001
 12
1.0
 22
0.0
 32
0.0
 13
1.0
 23
0.0
 33
0.0
 40
0.0
 40
0.0
 40
0.0
 40
0.0
 40
0.1250000000000001
 40
0.1250000000000001
 40
0.2500000000000001
 40
0.2500000000000001
 40
0.375
 40
0.375
 40
0.5
 40
0.5
 40
0.7499999999999999
 40
0.7499999999999999
 40
0.8749999999999999
 40
0.8749999999999999
 40
1.0
 40
1.0
 40
1.0
 40
1.0
 10
157.426528078713
 20
-10.71194110320479
 30
0.0
 10
157.3367057373419
 20
-10.75697736146653
 30
0.0
 10
157.2699617589657
 20
-10.79819673490226
 30
0.0
 10
157.1616914724098
 20
-10.87016290366436
 30
0.0
 10
157.1206080684801
 20
-10.90105081063368
 30
0.0
 10
157.0574159613235
 20
-10.95059085608279
 30
0.0
 10
157.0354425366175
 20
-10.96921217110079
 30
0.0
 10
157.0065977495684
 20
-10.9939476015035
 30
0.0
 10
156.999774125255
 20
-11.00006018008666
 30
0.0
 10
157.000694098617
 20
-10.99924885062879
 30
0.0
 10
157.0279189635549
 20
-10.97360935265881
 30
0.0
 10
157.1220634444738
 20
-10.89996497448974
 30
0.0
 10
157.1625583825886
 20
-10.8695390022599
 30
0.0
 10
157.2711442567747
 20
-10.7974593240209
 30
0.0
 10
157.3385941913102
 20
-10.75603050460071
 30
0.0
 10
157.4265280787129
 20
-10.71194110320479
 30
0.0
  0
LINE
  5
97
330
1F
100
AcDbEntity
  8
1
 62
     4
420
    65535
100
AcDbLine
 10
157.4265280787
 20
7.5213363705
 30
0.0
 11
165.0000708915
 21
7.5213363705
 31
0.0
  0
LINE
  5
98
330
1F
100
AcDbEntity
  8
1
 62
     4
420
    65535
100
AcDbLine
 10
157.4265280787
 20
10.7123441824
 30
0.0
 11
165.0000708915
 21
10.7123441824
 31
0.0
  0
SPLINE
  5
99
330
1F
100
AcDbEntity
  8
1
 62
     4
420
    65535
100
AcDbSpline
210
0.0
220
0.0
230
1.0
 70
     8
 71
     3
 72
    20
 73
    16
 74
     0
 42
0.00000001
 43
0.00000001
 12
1.0
 22
0.0
 32
0.0
 13
1.0
 23
0.0
 33
0.0
 40
0.0
 40
0.0
 40
0.0
 40
0.0
 40
0.1249999999999998
 40
0.1249999999999998
 40
0.2499999999999998
 40
0.2499999999999998
 40
0.3749999999999998
 40
0.3749999999999998
 40
0.4999999999999999
 40
0.4999999999999999
 40
0.7499999999999994
 40
0.7499999999999994
 40
0.8749999999999998
 40
0.8749999999999998
 40
1.0
 40
1.0
 40
1.0
 40
1.0
 10
157.426528078713
 20
-3.190806272336605
 30
0.0
 10
157.3367057373419
 20
-3.380444726283651
 30
0.0
 10
157.2699617589658
 20
-3.574596520627231
 30
0.0
 10
157.1616914724098
 20
-3.96566930799258
 30
0.0
 10
157.1206080684801
 20
-4.163431954265366
 30
0.0
 10
157.0574159613236
 20
-4.556262291747998
 30
0.0
 10
157.0354425366176
 20
-4.75058862468959
 30
0.0
 10
157.0065977495684
 20
-5.134692034519535
 30
0.0
 10
156.999774125255
 20
-5.32595647226977
 30
0.0
 10
157.000694098617
 20
-5.883461472446093
 30
0.0
 10
157.0279189635549
 20
-6.237790577471556
 30
0.0
 10
157.1220634444738
 20
-6.743291475256078
 30
0.0
 10
157.1625583825886
 20
-6.907427657811027
 30
0.0
 10
157.2711442567747
 20
-7.226292249263392
 30
0.0
 10
157.3385941913102
 20
-7.379371258923704
 30
0.0
 10
157.4265280787129
 20
-7.520933291258791
 30
0.0
  0
SPLINE
  5
9A
330
1F
100
AcDbEntity
  8
1
 62
     4
420
    65535
100
AcDbSpline
210
0.0
220
0.0
230
1.0
 70
    11
 71
     3
 72
    20
 73
    16
 74
     0
 42
0.00000001
 43
0.00000001
 12
1.0
 22
0.0
 32
0.0
 13
1.0
 23
0.0
 33
0.0
 40
0.0
 40
0.0
 40
0.0
 40
0.0
 40
0.125000000000001
 40
0.125000000000001
 40
0.250000000000002
 40
0.250000000000002
 40
0.5000000000000013
 40
0.5000000000000013
 40
0.625000000000001
 40
0.625000000000001
 40
0.7500000000000007
 40
0.7500000000000007
 40
0.8750000000000003
 40
0.8750000000000003
 40
1.0
 40
1.0
 40
1.0
 40
1.0
 10
157.426528078713
 20
10.71234418242376
 30
0.0
 10
157.3366838047884
 20
10.75739143750577
 30
0.0
 10
157.2701183098103
 20
10.79851001703469
 30
0.0
 10
157.1621436192828
 20
10.87025126490119
 30
0.0
 10
157.1212996712013
 20
10.90093187669325
 30
0.0
 10
157.0262825541865
 20
10.97536149377423
 30
0.0
 10
157.000068397573
 20
11.00020373905113
 30
0.0
 10
157.0000721387208
 20
11.00020043966894
 30
0.0
 10
157.0069845179391
 20
10.99401158427344
 30
0.0
 10
157.0359674305186
 20
10.9691728013984
 30
0.0
 10
157.0581597788917
 20
10.95038556649516
 30
0.0
 10
157.1214404721033
 20
10.90082720215954
 30
0.0
 10
157.1622311275589
 20
10.87019121773755
 30
0.0
 10
157.270112433291
 20
10.79851582733578
 30
0.0
 10
157.3366279018275
 20
10.75741946683727
 30
0.0
 10
157.426528078713
 20
10.71234418242376
 30
0.0
  0
SPLINE
  5
9B
330
1F
100
AcDbEntity
  8
1
 62
     4
420
    65535
100
AcDbSpline
210
0.0
220
0.0
230
1.0
 70
     8
 71
     3
 72
    20
 73
    16
 74
     0
 42
0.00000001
 43
0.00000001
 12
1.0
 22
0.0
 32
0.0
 13
1.0
 23
0.0
 33
0.0
 40
0.0
 40
0.0
 40
0.0
 40
0.0
 40
0.1249999999999998
 40
0.1249999999999998
 40
0.2499999999999996
 40
0.2499999999999996
 40
0.3749999999999994
 40
0.3749999999999994
 40
0.4999999999999992
 40
0.4999999999999992
 40
0.7499999999999997
 40
0.7499999999999997
 40
0.8749999999999998
 40
0.8749999999999998
 40
1.0
 40
1.0
 40
1.0
 40
1.0
 10
157.426528078713
 20
7.521336370477704
 30
0.0
 10
157.3367057373419
 20
7.376734174792398
 30
0.0
 10
157.2699617589657
 20
7.223801753884552
 30
0.0
 10
157.1616914724098
 20
6.904695135281298
 30
0.0
 10
157.1206080684801
 20
6.737820395977828
 30
0.0
 10
157.0574159613236
 20
6.394530103944303
 30
0.0
 10
157.0354425366176
 20
6.218825086020719
 30
0.0
 10
157.0065977495684
 20
5.859457106593473
 30
0.0
 10
156.999774125255
 20
5.674305247426399
 30
0.0
 10
157.000694098617
 20
5.115988917792201
 30
0.0
 10
157.0279189635549
 20
4.736020314796749
 30
0.0
 10
157.1220634444738
 20
4.156875038843157
 30
0.0
 10
157.1625583825887
 20
3.96231288405836
 30
0.0
 10
157.2711442567747
 20
3.571368614366996
 30
0.0
 10
157.3385941913102
 20
3.37686078528649
 30
0.0
 10
157.426528078713
 20
3.191209351555484
 30
0.0
  0
LINE
  5
9C
330
1F
100
AcDbEntity
  8
1
 62
     4
420
    65535
100
AcDbLine
 10
165.8000708927
 20
6.4002108049
 30
0.0
 11
165.8000708927
 21
-6.3967119279
 31
0.0
  0
SPLINE
  5
9D
330
1F
100
AcDbEntity
  8
1
 62
     4
420
    65535
100
AcDbSpline
210
0.0
220
0.0
230
1.0
 70
     8
 71
     3
 72
     8
 73
     4
 74
     0
 42
0.00000001
 43
0.00000001
 12
1.0
 22
0.0
 32
0.0
 13
1.0
 23
0.0
 33
0.0
 40
0.000000286668104
 40
0.000000286668104
 40
0.000000286668104
 40
0.000000286668104
 40
0.0002963270483705
 40
0.0002963270483705
 40
0.0002963270483705
 40
0.0002963270483705
 10
165.0000708915072
 20
3.191209351555509
 30
0.0
 10
165.0689171265279
 20
3.155861213910251
 30
0.0
 10
165.1377453026349
 20
3.120504280575306
 30
0.0
 10
165.2065543190458
 20
3.085138030148367
 30
0.0
  0
LINE
  5
9E
330
1F
100
AcDbEntity
  8
1
 62
     4
420
    65535
100
AcDbLine
 10
148.0000708915
 20
9.7502015396
 30
0.0
 11
148.0000708915
 21
-9.7467193059
 31
0.0
  0
LINE
  5
9F
330
1F
100
AcDbEntity
  8
1
 62
     4
420
    65535
100
AcDbLine
 10
148.5000708915
 20
9.2502015396
 30
0.0
 11
148.5000708915
 21
-9.2466808894
 31
0.0
  0
LINE
  5
A0
330
1F
100
AcDbEntity
  8
1
 62
     4
420
    65535
100
AcDbLine
 10
154.5000708915
 20
9.2502015396
 30
0.0
 11
154.5000708915
 21
-9.2466808894
 31
0.0
  0
LINE
  5
A1
330
1F
100
AcDbEntity
  8
1
 62
     4
420
    65535
100
AcDbLine
 10
159.2000616226
 20
9.7502015396
 30
0.0
 11
159.2000616226
 21
-9.7467193059
 31
0.0
  0
LINE
  5
A2
330
1F
100
AcDbEntity
  8
1
 62
     4
420
    65535
100
AcDbLine
 10
160.2000616226
 20
9.7502015396
 30
0.0
 11
160.2000616226
 21
-9.7467193059
 31
0.0
  0
LINE
  5
A3
330
1F
100
AcDbEntity
  8
1
 62
     4
420
    65535
100
AcDbLine
 10
160.2000616226
 20
7.2502014954
 30
0.0
 11
160.2000616226
 21
-7.2466737113
 31
0.0
  0
LINE
  5
A4
330
1F
100
AcDbEntity
  8
1
 62
     4
420
    65535
100
AcDbLine
 10
161.3000616158
 20
7.2502014954
 30
0.0
 11
161.3000616158
 21
-7.2466737113
 31
0.0
  0
LINE
  5
A5
330
1F
100
AcDbEntity
  8
1
 62
     4
420
    65535
100
AcDbLine
 10
161.3000616158
 20
8.6002014871
 30
0.0
 11
161.3000616158
 21
-8.5966983459
 31
0.0
  0
LINE
  5
A6
330
1F
100
AcDbEntity
  8
1
 62
     4
420
    65535
100
AcDbLine
 10
162.3000709141
 20
8.6002014871
 30
0.0
 11
162.3000709141
 21
-8.5966983459
 31
0.0
  0
LINE
  5
A7
330
1F
100
AcDbEntity
  8
1
 62
     4
420
    65535
100
AcDbLine
 10
166.0000708915
 20
6.6002108037
 30
0.0
 11
166.0000708915
 21
-6.5967379521
 31
0.0
  0
ARC
  5
A8
330
1F
100
AcDbEntity
  8
1
 62
     4
420
    65535
100
AcDbCircle
 10
158.322946547
 20
12.5002015396
 30
0.0
 40
2.000000000000008
100
AcDbArc
 50
243.3711518031
 51
270.0
  0
LINE
  5
A9
330
1F
100
AcDbEntity
  8
1
 62
     4
420
    65535
100
AcDbLine
 10
148.0000708915
 20
10.0002015396
 30
0.0
 11
148.0000708915
 21
-9.9997984604
 31
0.0
  0
LINE
  5
AA
330
1F
100
AcDbEntity
  8
1
 62
     4
420
    65535
100
AcDbLine
 10
158.322946547
 20
10.5002015396
 30
0.0
 11
165.206554319
 21
10.5002015396
 31
0.0
  0
LINE
  5
AB
330
1F
100
AcDbEntity
  8
1
 62
     4
420
    65535
100
AcDbLine
 10
162.3000709141
 20
8.3002107933
 30
0.0
 11
162.3000709141
 21
-8.2967108251
 31
0.0
  0
LINE
  5
AC
330
1F
100
AcDbEntity
  8
1
 62
     4
420
    65535
100
AcDbLine
 10
165.5909674283
 20
6.4002108049
 30
0.0
 11
165.5909674283
 21
-6.3967119279
 31
0.0
  0
ARC
  5
AD
330
1F
100
AcDbEntity
  8
1
 62
     4
420
    65535
100
AcDbCircle
 10
158.3085743499
 20
6.8045702917
 30
0.0
 40
3.719460029148146
100
AcDbArc
 50
256.2819835228
 51
270.2213945787
  0
LINE
  5
AE
330
1F
100
AcDbEntity
  8
1
 62
     4
420
    65535
100
AcDbLine
 10
158.322946547
 20
7.4152650491
 30
0.0
 11
158.322946547
 21
3.0851380301
 31
0.0
  0
ARC
  5
AF
330
1F
100
AcDbEntity
  8
1
 62
     4
420
    65535
100
AcDbCircle
 10
158.3085743499
 20
11.1346973106
 30
0.0
 40
3.719460029148089
100
AcDbArc
 50
256.2819835228
 51
270.2213945787
  0
LINE
  5
B0
330
1F
100
AcDbEntity
  8
1
 62
     4
420
    65535
100
AcDbLine
 10
158.322946547
 20
7.4152650491
 30
0.0
 11
165.206554319
 21
7.4152650491
 31
0.0
  0
LINE
  5
B1
330
1F
100
AcDbEntity
  8
1
 62
     4
420
    65535
100
AcDbLine
 10
158.322946547
 20
3.0851380301
 30
0.0
 11
165.206554319
 21
3.0851380301
 31
0.0
  0
ARC
  5
B2
330
1F
100
AcDbEntity
  8
1
 62
     4
420
    65535
100
AcDbCircle
 10
158.3085743499
 20
-11.1342942314
 30
0.0
 40
3.719460029147328
100
AcDbArc
 50
89.7786054213
 51
103.7180164773
  0
LINE
  5
B3
330
1F
100
AcDbEntity
  8
1
 62
     4
420
    65535
100
AcDbLine
 10
158.322946547
 20
-3.0847349509
 30
0.0
 11
158.322946547
 21
-7.4148619699
 31
0.0
  0
ARC
  5
B4
330
1F
100
AcDbEntity
  8
1
 62
     4
420
    65535
100
AcDbCircle
 10
158.3085743499
 20
-6.8041672125
 30
0.0
 40
3.719460029147266
100
AcDbArc
 50
89.7786054213
 51
103.7180164773
  0
LINE
  5
B5
330
1F
100
AcDbEntity
  8
1
 62
     4
420
    65535
100
AcDbLine
 10
158.322946547
 20
-3.0847349509
 30
0.0
 11
165.206554319
 21
-3.0847349509
 31
0.0
  0
ARC
  5
B6
330
1F
100
AcDbEntity
  8
1
 62
     4
420
    65535
100
AcDbCircle
 10
158.322946547
 20
12.5002015396
 30
0.0
 40
2.000000000000008
100
AcDbArc
 50
243.3711518031
 51
270.0
  0
ARC
  5
B7
330
1F
100
AcDbEntity
  8
1
 62
     4
420
    65535
100
AcDbCircle
 10
158.322946547
 20
-12.4997984604
 30
0.0
 40
1.999999999999998
100
AcDbArc
 50
90.0
 51
116.6288481969
  0
LINE
  5
B8
330
1F
100
AcDbEntity
  8
1
 62
     4
420
    65535
100
AcDbLine
 10
158.322946547
 20
-7.4148619699
 30
0.0
 11
165.206554319
 21
-7.4148619699
 31
0.0
  0
LINE
  5
B9
330
1F
100
AcDbEntity
  8
1
 62
     4
420
    65535
100
AcDbLine
 10
158.322946547
 20
-10.4997984604
 30
0.0
 11
165.206554319
 21
-10.4997984604
 31
0.0
  0
ARC
  5
BA
330
1F
100
AcDbEntity
  8
1
 62
     4
420
    65535
100
AcDbCircle
 10
158.322946547
 20
-12.4997984604
 30
0.0
 40
1.999999999999998
100
AcDbArc
 50
90.0
 51
116.6288481969
  0
LINE
  5
BB
330
1F
100
AcDbEntity
  8
1
 62
     4
420
    65535
100
AcDbLine
 10
141.0000708915
 20
8.5002015396
 30
0.0
 11
141.0000708915
 21
-8.4997984604
 31
0.0
  0
LINE
  5
BC
330
1F
100
AcDbEntity
  8
1
 62
     4
420
    65535
100
AcDbLine
 10
141.0000708915
 20
8.5002015396
 30
0.0
 11
141.0000708915
 21
-8.4997984604
 31
0.0
  0
LINE
  5
BD
330
1F
100
AcDbEntity
  8
1
 62
     4
420
    65535
100
AcDbLine
 10
154.069657442
 20
-7.9393077949
 30
0.0
 11
154.069657442
 21
7.9397108741
 31
0.0
  0
LINE
  5
BE
330
1F
100
AcDbEntity
  8
1
 62
     4
420
    65535
100
AcDbLine
 10
144.0000708915
 20
-8.4997984604
 30
0.0
 11
141.0000708915
 21
-8.4997984604
 31
0.0
  0
LINE
  5
BF
330
1F
100
AcDbEntity
  8
1
 62
     4
420
    65535
100
AcDbLine
 10
144.0000708915
 20
-8.4997984604
 30
0.0
 11
144.0000708915
 21
-10.1853436895
 31
0.0
  0
LINE
  5
C0
330
1F
100
AcDbEntity
  8
1
 62
     4
420
    65535
100
AcDbLine
 10
144.0000708915
 20
8.5002015396
 30
0.0
 11
141.0000708915
 21
8.5002015396
 31
0.0
  0
LINE
  5
C1
330
1F
100
AcDbEntity
  8
1
 62
     4
420
    65535
100
AcDbLine
 10
141.0000708915
 20
-8.4997984604
 30
0.0
 11
141.0000708915
 21
8.5002015396
 31
0.0
  0
LINE
  5
C2
330
1F
100
AcDbEntity
  8
1
 62
     4
420
    65535
100
AcDbLine
 10
146.0000708915
 20
10.2002015396
 30
0.0
 11
146.0000708915
 21
-10.1862741772
 31
0.0
  0
LINE
  5
C3
330
1F
100
AcDbEntity
  8
1
 62
     4
420
    65535
100
AcDbLine
 10
141.0000708915
 20
-8.4997984604
 30
0.0
 11
141.0000708915
 21
8.5002015396
 31
0.0
  0
LINE
  5
C4
330
1F
100
AcDbEntity
  8
1
 62
     4
420
    65535
100
AcDbLine
 10
141.0000708915
 20
-8.4997984604
 30
0.0
 11
138.0000708915
 21
-8.4997984604
 31
0.0
  0
LINE
  5
C5
330
1F
100
AcDbEntity
  8
1
 62
     4
420
    65535
100
AcDbLine
 10
138.0000708915
 20
8.5002015396
 30
0.0
 11
141.0000708915
 21
8.5002015396
 31
0.0
  0
LINE
  5
C6
330
1F
100
AcDbEntity
  8
1
 62
     4
420
    65535
100
AcDbLine
 10
138.0000708915
 20
8.5002015396
 30
0.0
 11
138.0000708915
 21
10.0002015396
 31
0.0
  0
LINE
  5
C7
330
1F
100
AcDbEntity
  8
1
 62
     4
420
    65535
100
AcDbLine
 10
138.0000708915
 20
-8.4997984604
 30
0.0
 11
138.0000708915
 21
-9.9997984604
 31
0.0
  0
LINE
  5
C8
330
1F
100
AcDbEntity
  8
1
 62
     4
420
    65535
100
AcDbLine
 10
0.0000708915
 20
10.0002015396
 30
0.0
 11
0.0000708915
 21
-9.9997984604
 31
0.0
  0
LINE
  5
C9
330
1F
100
AcDbEntity
  8
1
 62
     4
420
    65535
100
AcDbLine
 10
0.0000708915
 20
4.0002015396
 30
0.0
 11
0.0000708915
 21
-3.9997984604
 31
0.0
  0
LINE
  5
CA
330
1F
100
AcDbEntity
  8
1
 62
     4
420
    65535
100
AcDbLine
 10
131.778383055
 20
4.0002015396
 30
0.0
 11
131.778383055
 21
-3.9997984604
 31
0.0
  0
LINE
  5
CB
330
1F
100
AcDbEntity
  8
1
 62
     4
420
    65535
100
AcDbLine
 10
132.5000708915
 20
5.2502015396
 30
0.0
 11
132.5000708915
 21
-5.2357929496
 31
0.0
  0
LINE
  5
CC
330
1F
100
AcDbEntity
  8
1
 62
     4
420
    65535
100
AcDbLine
 10
134.932804155
 20
5.2502015396
 30
0.0
 11
134.932804155
 21
-5.2357929496
 31
0.0
  0
LINE
  5
CD
330
1F
100
AcDbEntity
  8
1
 62
     4
420
    65535
100
AcDbLine
 10
154.5000708915
 20
9.0002015396
 30
0.0
 11
154.5000708915
 21
-8.9861321083
 31
0.0
  0
LINE
  5
CE
330
1F
100
AcDbEntity
  8
1
 62
     4
420
    65535
100
AcDbLine
 10
154.0000708915
 20
9.5002015396
 30
0.0
 11
154.0000708915
 21
-9.4863340693
 31
0.0
  0
LINE
  5
CF
330
1F
100
AcDbEntity
  8
1
 62
     4
420
    65535
100
AcDbLine
 10
146.0000708915
 20
9.5002015396
 30
0.0
 11
146.0000708915
 21
-9.4863340693
 31
0.0
  0
LINE
  5
D0
330
1F
100
AcDbEntity
  8
1
 62
     4
420
    65535
100
AcDbLine
 10
154.5000708915
 20
8.4348449085
 30
0.0
 11
154.5000708915
 21
-8.4206858025
 31
0.0
  0
LINE
  5
D1
330
1F
100
AcDbEntity
  8
1
 62
     4
420
    65535
100
AcDbLine
 10
144.0000708915
 20
8.5002015396
 30
0.0
 11
144.0000708915
 21
10.1857467687
 31
0.0
  0
DIMENSION
  5
D2
330
1F
100
AcDbEntity
  8
2
 62
     7
420
 16777215
100
AcDbDimension
  2
_D
 10
0.0000708915
 20
17.0002015396
 30
0.0
 11
83.0000708915
 21
17.0002015396
 31
0.0
 70
   160
  1
<>
 71
     2
 42
-1.0
 73
     0
 74
     0
 75
     0
  3
SLDDIMSTYLE0
100
AcDbAlignedDimension
 13
166.0000708915
 23
0.0002015396
 33
0.0
 14
0.0000708915
 24
0.0002015396
 34
0.0
 50
0.0
100
AcDbRotatedDimension
  0
DIMENSION
  5
DE
330
1F
100
AcDbEntity
  8
2
 62
     7
420
 16777215
100
AcDbDimension
  2
_D_1
 10
172.0000708915
 20
-10.9997984604
 30
0.0
 11
172.0000708915
 21
0.0002015396
 31
0.0
 70
   160
  1
%%c<>
 71
     2
 42
-1.0
 73
     0
 74
     0
 75
     0
  3
SLDDIMSTYLE1
100
AcDbAlignedDimension
 13
149.0000708915
 23
11.0002015396
 33
0.0
 14
149.0000708915
 24
-10.9997984604
 34
0.0
 50
90.0
100
AcDbRotatedDimension
  0
DIMENSION
  5
EC
330
1F
100
AcDbEntity
  8
2
 62
     7
420
 16777215
100
AcDbDimension
  2
_D_2
 10
-5.9999291085
 20
-9.9997984604
 30
0.0
 11
-5.9999291085
 21
0.0002015396
 31
0.0
 70
   160
  1
%%c<>
 71
     2
 42
-1.0
 73
     0
 74
     0
 75
     0
  3
SLDDIMSTYLE1
100
AcDbAlignedDimension
 13
0.0000708915
 23
10.0002015396
 33
0.0
 14
0.0000708915
 24
-9.9997984604
 34
0.0
 50
90.0
100
AcDbRotatedDimension
  0
ENDSEC
  0
SECTION
  2
OBJECTS
  0
DICTIONARY
  5
C
330
0
100
AcDbDictionary
281
     1
  3
ACAD_GROUP
350
D
  3
ACAD_LAYOUT
350
1A
  3
ACAD_MATERIAL
350
3B
  3
ACAD_MLEADERSTYLE
350
FA
  3
ACAD_MLINESTYLE
350
17
  3
ACAD_PLOTSETTINGS
350
19
  3
ACAD_PLOTSTYLENAME
350
E
  3
ACAD_TABLESTYLE
350
F9
  3
ACAD_VISUALSTYLE
350
2A
  0
DICTIONARY
  5
D
102
{ACAD_REACTORS
330
C
102
}
330
C
100
AcDbDictionary
281
     1
  0
DICTIONARY
  5
1A
102
{ACAD_REACTORS
330
C
102
}
330
C
100
AcDbDictionary
281
     1
  3
Layout1
350
1E
  3
Layout2
350
26
  3
Model
350
22
  0
DICTIONARY
  5
3B
102
{ACAD_REACTORS
330
C
102
}
330
C
100
AcDbDictionary
281
     1
  3
ByBlock
350
3D
  3
ByLayer
350
3C
  3
Global
350
3E
  0
DICTIONARY
  5
FA
102
{ACAD_REACTORS
330
C
102
}
330
C
100
AcDbDictionary
281
     1
  0
DICTIONARY
  5
17
102
{ACAD_REACTORS
330
C
102
}
330
C
100
AcDbDictionary
281
     1
  3
Standard
350
18
  0
DICTIONARY
  5
19
102
{ACAD_REACTORS
330
C
102
}
330
C
100
AcDbDictionary
281
     1
  0
ACDBDICTIONARYWDFLT
  5
E
102
{ACAD_REACTORS
330
C
102
}
330
C
100
AcDbDictionary
281
     1
  3
Normal
350
F
100
AcDbDictionaryWithDefault
340
F
  0
DICTIONARY
  5
F9
102
{ACAD_REACTORS
330
C
102
}
330
C
100
AcDbDictionary
281
     1
  0
DICTIONARY
  5
2A
102
{ACAD_REACTORS
330
C
102
}
330
C
100
AcDbDictionary
281
     1
  3
2dWireframe
350
2F
  3
3D Hidden
350
31
  3
3dWireframe
350
30
  3
Basic
350
32
  3
Brighten
350
36
  3
ColorChange
350
3A
  3
Conceptual
350
34
  3
Dim
350
35
  3
Facepattern
350
39
  3
Flat
350
2B
  3
FlatWithEdges
350
2C
  3
Gouraud
350
2D
  3
GouraudWithEdges
350
2E
  3
Linepattern
350
38
  3
Realistic
350
33
  3
Thicken
350
37
  0
LAYOUT
  5
1E
102
{ACAD_REACTORS
330
1A
102
}
330
1A
100
AcDbPlotSettings
  1

  2
none_device
  4

  6

 40
0.0
 41
0.0
 42
0.0
 43
0.0
 44
0.0
 45
0.0
 46
0.0
 47
0.0
 48
0.0
 49
0.0
140
0.0
141
0.0
142
1.0
143
1.0
 70
   688
 72
     0
 73
     0
 74
     5
  7

 75
    16
 76
     0
 77
     2
 78
   300
147
1.0
148
0.0
149
0.0
100
AcDbLayout
  1
Layout1
 70
     1
 71
     1
 10
0.0
 20
0.0
 11
420.0
 21
297.0
 12
0.0
 22
0.0
 32
0.0
 14
1.0000000000E+20
 24
1.0000000000E+20
 34
1.0000000000E+20
 15
-1.0000000000E+20
 25
-1.0000000000E+20
 35
-1.0000000000E+20
146
0.0
 13
0.0
 23
0.0
 33
0.0
 16
1.0
 26
0.0
 36
0.0
 17
0.0
 27
1.0
 37
0.0
 76
     0
330
1B
  0
LAYOUT
  5
26
102
{ACAD_REACTORS
330
1A
102
}
330
1A
100
AcDbPlotSettings
  1

  2
none_device
  4

  6

 40
0.0
 41
0.0
 42
0.0
 43
0.0
 44
0.0
 45
0.0
 46
0.0
 47
0.0
 48
0.0
 49
0.0
140
0.0
141
0.0
142
1.0
143
1.0
 70
   688
 72
     0
 73
     0
 74
     5
  7

 75
    16
 76
     0
 77
     2
 78
   300
147
1.0
148
0.0
149
0.0
100
AcDbLayout
  1
Layout2
 70
     1
 71
     2
 10
0.0
 20
0.0
 11
0.0
 21
0.0
 12
0.0
 22
0.0
 32
0.0
 14
0.0
 24
0.0
 34
0.0
 15
0.0
 25
0.0
 35
0.0
146
0.0
 13
0.0
 23
0.0
 33
0.0
 16
1.0
 26
0.0
 36
0.0
 17
0.0
 27
1.0
 37
0.0
 76
     0
330
23
  0
LAYOUT
  5
22
102
{ACAD_REACTORS
330
1A
102
}
330
1A
100
AcDbPlotSettings
  1

  2
none_device
  4

  6

 40
0.0
 41
0.0
 42
0.0
 43
0.0
 44
0.0
 45
0.0
 46
0.0
 47
0.0
 48
0.0
 49
0.0
140
0.0
141
0.0
142
1.0
143
1.0
 70
  1712
 72
     0
 73
     0
 74
     0
  7

 75
     0
 76
     0
 77
     2
 78
   300
147
1.0
148
0.0
149
0.0
100
AcDbLayout
  1
Model
 70
     1
 71
     0
 10
0.0
 20
0.0
 11
297.0
 21
210.0
 12
0.0
 22
0.0
 32
0.0
 14
0.0
 24
0.0
 34
0.0
 15
297.0
 25
210.0
 35
0.0
146
0.0
 13
0.0
 23
0.0
 33
0.0
 16
1.0
 26
0.0
 36
0.0
 17
0.0
 27
1.0
 37
0.0
 76
     0
330
1F
331
29
  0
MATERIAL
  5
3D
102
{ACAD_REACTORS
330
3B
102
}
330
3B
100
AcDbMaterial
  1
ByBlock
 72
     1
 94
      127
  0
MATERIAL
  5
3C
102
{ACAD_REACTORS
330
3B
102
}
330
3B
100
AcDbMaterial
  1
ByLayer
 72
     1
 94
      127
  0
MATERIAL
  5
3E
102
{ACAD_REACTORS
330
3B
102
}
330
3B
100
AcDbMaterial
  1
Global
 72
     1
 94
      127
  0
MLINESTYLE
  5
18
102
{ACAD_REACTORS
330
17
102
}
330
17
100
AcDbMlineStyle
  2
Standard
 70
     0
  3

 62
   256
 51
90.0
 52
90.0
 71
     2
 49
0.5
 62
   256
  6
BYLAYER
 49
-0.5
 62
   256
  6
BYLAYER
  0
ACDBPLACEHOLDER
  5
F
102
{ACAD_REACTORS
330
E
102
}
330
E
  0
VISUALSTYLE
  5
2F
102
{ACAD_REACTORS
330
2A
102
}
330
2A
100
AcDbVisualStyle
  2
2dWireframe
 70
     4
 71
     0
 72
     2
 73
     0
 90
        0
 40
-0.6
 41
-30.0
 62
     5
 63
     7
421
 16777215
 74
     1
 91
        4
 64
     7
 65
   257
 75
     1
175
     1
 42
1.0
 92
        0
 66
   257
 43
1.0
 76
     1
 77
     6
 78
     2
 67
     7
 79
     5
170
     0
171
     0
290
     0
174
     0
 93
        1
 44
0.0
173
     0
291
     0
 45
0.0
  0
VISUALSTYLE
  5
31
102
{ACAD_REACTORS
330
2A
102
}
330
2A
100
AcDbVisualStyle
  2
3D Hidden
 70
     6
 71
     1
 72
     2
 73
     2
 90
        0
 40
-0.6
 41
-30.0
 62
     5
 63
     7
421
 16777215
 74
     2
 91
        2
 64
     7
 65
   257
 75
     2
175
     1
 42
40.0
 92
        0
 66
   257
 43
1.0
 76
     1
 77
     6
 78
     2
 67
     7
 79
     3
170
     0
171
     0
290
     0
174
     0
 93
        1
 44
0.0
173
     0
291
     0
 45
0.0
  0
VISUALSTYLE
  5
30
102
{ACAD_REACTORS
330
2A
102
}
330
2A
100
AcDbVisualStyle
  2
3dWireframe
 70
     5
 71
     0
 72
     2
 73
     0
 90
        0
 40
-0.6
 41
-30.0
 62
     5
 63
     7
421
 16777215
 74
     1
 91
        4
 64
     7
 65
   257
 75
     1
175
     1
 42
1.0
 92
        0
 66
   257
 43
1.0
 76
     1
 77
     6
 78
     2
 67
     7
 79
     5
170
     0
171
     0
290
     0
174
     0
 93
        1
 44
0.0
173
     0
291
     0
 45
0.0
  0
VISUALSTYLE
  5
32
102
{ACAD_REACTORS
330
2A
102
}
330
2A
100
AcDbVisualStyle
  2
Basic
 70
     7
 71
     1
 72
     0
 73
     1
 90
        0
 40
-0.6
 41
-30.0
 62
     5
 63
     7
421
 16777215
 74
     0
 91
        4
 64
     7
 65
   257
 75
     1
175
     1
 42
1.0
 92
        8
 66
     7
 43
1.0
 76
     1
 77
     6
 78
     2
 67
     7
 79
     5
170
     0
171
     0
290
     0
174
     0
 93
        1
 44
0.0
173
     0
291
     1
 45
0.0
  0
VISUALSTYLE
  5
36
102
{ACAD_REACTORS
330
2A
102
}
330
2A
100
AcDbVisualStyle
  2
Brighten
 70
    12
 71
     2
 72
     2
 73
     0
 90
        0
 40
-0.6
 41
-30.0
 62
     5
 63
     7
421
 16777215
 74
     1
 91
        4
 64
     7
 65
   257
 75
     1
175
     1
 42
1.0
 92
        8
 66
     7
 43
1.0
 76
     1
 77
     6
 78
     2
 67
     7
 79
     5
170
     0
171
     0
290
     0
174
     0
 93
        1
 44
50.0
173
     0
291
     1
 45
0.0
  0
VISUALSTYLE
  5
3A
102
{ACAD_REACTORS
330
2A
102
}
330
2A
100
AcDbVisualStyle
  2
ColorChange
 70
    16
 71
     2
 72
     2
 73
     3
 90
        0
 40
-0.6
 41
-30.0
 62
     5
 63
     8
421
  8421504
 74
     1
 91
        4
 64
     7
 65
   257
 75
     1
175
     1
 42
1.0
 92
        8
 66
     8
424
  8421504
 43
1.0
 76
     1
 77
     6
 78
     2
 67
     7
 79
     5
170
     0
171
     0
290
     0
174
     0
 93
        1
 44
0.0
173
     0
291
     1
 45
0.0
  0
VISUALSTYLE
  5
34
102
{ACAD_REACTORS
330
2A
102
}
330
2A
100
AcDbVisualStyle
  2
Conceptual
 70
     9
 71
     3
 72
     2
 73
     0
 90
        0
 40
-0.6
 41
-30.0
 62
     5
 63
     7
421
 16777215
 74
     2
 91
        2
 64
     7
 65
   257
 75
     1
175
     1
 42
40.0
 92
        8
 66
     7
 43
1.0
 76
     1
 77
     6
 78
     2
 67
     7
 79
     3
170
     0
171
     0
290
     0
174
     0
 93
        1
 44
0.0
173
     0
291
     0
 45
0.0
  0
VISUALSTYLE
  5
35
102
{ACAD_REACTORS
330
2A
102
}
330
2A
100
AcDbVisualStyle
  2
Dim
 70
    11
 71
     2
 72
     2
 73
     0
 90
        0
 40
-0.6
 41
-30.0
 62
     5
 63
     7
421
 16777215
 74
     1
 91
        4
 64
     7
 65
   257
 75
     1
175
     1
 42
1.0
 92
        8
 66
     7
 43
1.0
 76
     1
 77
     6
 78
     2
 67
     7
 79
     5
170
     0
171
     0
290
     0
174
     0
 93
        1
 44
-50.0
173
     0
291
     1
 45
0.0
  0
VISUALSTYLE
  5
39
102
{ACAD_REACTORS
330
2A
102
}
330
2A
100
AcDbVisualStyle
  2
Facepattern
 70
    15
 71
     2
 72
     2
 73
     0
 90
        0
 40
-0.6
 41
-30.0
 62
     5
 63
     7
421
 16777215
 74
     1
 91
        4
 64
     7
 65
   257
 75
     1
175
     1
 42
1.0
 92
        8
 66
     7
 43
1.0
 76
     1
 77
     6
 78
     2
 67
     7
 79
     5
170
     0
171
     0
290
     0
174
     0
 93
        1
 44
0.0
173
     0
291
     1
 45
0.0
  0
VISUALSTYLE
  5
2B
102
{ACAD_REACTORS
330
2A
102
}
330
2A
100
AcDbVisualStyle
  2
Flat
 70
     0
 71
     2
 72
     1
 73
     1
 90
        2
 40
-0.6
 41
30.0
 62
     5
 63
     7
421
 16777215
 74
     0
 91
        4
 64
     7
 65
   257
 75
     1
175
     1
 42
1.0
 92
        8
 66
     7
 43
1.0
 76
     1
 77
     6
 78
     2
 67
     7
 79
     5
170
     0
171
     0
290
     0
174
     0
 93
       13
 44
0.0
173
     0
291
     1
 45
0.0
  0
VISUALSTYLE
  5
2C
102
{ACAD_REACTORS
330
2A
102
}
330
2A
100
AcDbVisualStyle
  2
FlatWithEdges
 70
     1
 71
     2
 72
     1
 73
     1
 90
        2
 40
-0.6
 41
30.0
 62
     5
 63
     7
421
 16777215
 74
     1
 91
        4
 64
     7
 65
   257
 75
     1
175
     1
 42
1.0
 92
        0
 66
   257
 43
1.0
 76
     1
 77
     6
 78
     2
 67
     7
 79
     5
170
     0
171
     0
290
     0
174
     0
 93
       13
 44
0.0
173
     0
291
     1
 45
0.0
  0
VISUALSTYLE
  5
2D
102
{ACAD_REACTORS
330
2A
102
}
330
2A
100
AcDbVisualStyle
  2
Gouraud
 70
     2
 71
     2
 72
     2
 73
     1
 90
        2
 40
-0.6
 41
30.0
 62
     5
 63
     7
421
 16777215
 74
     0
 91
        4
 64
     7
 65
   257
 75
     1
175
     1
 42
1.0
 92
        0
 66
     7
 43
1.0
 76
     1
 77
     6
 78
     2
 67
     7
 79
     5
170
     0
171
     0
290
     0
174
     0
 93
       13
 44
0.0
173
     0
291
     1
 45
0.0
  0
VISUALSTYLE
  5
2E
102
{ACAD_REACTORS
330
2A
102
}
330
2A
100
AcDbVisualStyle
  2
GouraudWithEdges
 70
     3
 71
     2
 72
     2
 73
     1
 90
        2
 40
-0.6
 41
30.0
 62
     5
 63
     7
421
 16777215
 74
     1
 91
        4
 64
     7
 65
   257
 75
     1
175
     1
 42
1.0
 92
        0
 66
   257
 43
1.0
 76
     1
 77
     6
 78
     2
 67
     7
 79
     5
170
     0
171
     0
290
     0
174
     0
 93
       13
 44
0.0
173
     0
291
     1
 45
0.0
  0
VISUALSTYLE
  5
38
102
{ACAD_REACTORS
330
2A
102
}
330
2A
100
AcDbVisualStyle
  2
Linepattern
 70
    14
 71
     2
 72
     2
 73
     0
 90
        0
 40
-0.6
 41
-30.0
 62
     5
 63
     7
421
 16777215
 74
     1
 91
        4
 64
     7
 65
   257
 75
     7
175
     7
 42
1.0
 92
        8
 66
     7
 43
1.0
 76
     1
 77
     6
 78
     2
 67
     7
 79
     5
170
     0
171
     0
290
     0
174
     0
 93
        1
 44
0.0
173
     0
291
     1
 45
0.0
  0
VISUALSTYLE
  5
33
102
{ACAD_REACTORS
330
2A
102
}
330
2A
100
AcDbVisualStyle
  2
Realistic
 70
     8
 71
     2
 72
     2
 73
     0
 90
        0
 40
-0.6
 41
-30.0
 62
     5
 63
     7
421
 16777215
 74
     1
 91
        0
 64
     7
 65
   257
 75
     1
175
     1
 42
1.0
 92
        8
 66
     8
424
  7895160
 43
1.0
 76
     1
 77
     6
 78
     2
 67
     7
 79
     5
170
     0
171
     0
290
     0
174
     0
 93
       13
 44
0.0
173
     0
291
     0
 45
0.0
  0
VISUALSTYLE
  5
37
102
{ACAD_REACTORS
330
2A
102
}
330
2A
100
AcDbVisualStyle
  2
Thicken
 70
    13
 71
     2
 72
     2
 73
     0
 90
        0
 40
-0.6
 41
-30.0
 62
     5
 63
     7
421
 16777215
 74
     1
 91
        4
 64
     7
 65
   257
 75
     1
175
     1
 42
1.0
 92
       12
 66
     7
 43
1.0
 76
     1
 77
     6
 78
     2
 67
     7
 79
     5
170
     0
171
     0
290
     0
174
     0
 93
        1
 44
0.0
173
     0
291
     1
 45
0.0
  0
ENDSEC
  0
EOF
