  0
SECTION
  2
HEADER
  9
$ACADVER
  1
AC1021
  9
$ACADMAINTVER
 70
    25
  9
$DWGCODEPAGE
  3
ANSI_1252
  9
$INSBASE
 10
0.0
 20
0.0
 30
0.0
  9
$EXTMIN
 10
0.0
 20
0.0
 30
0.0
  9
$EXTMAX
 10
297.0
 20
210.0
 30
0.0
  9
$LIMMIN
 10
0.0
 20
0.0
  9
$LIMMAX
 10
297.0
 20
210.0
  9
$ORTHOMODE
 70
     0
  9
$REGENMODE
 70
     1
  9
$FILLMODE
 70
     1
  9
$QTEXTMODE
 70
     0
  9
$MIRRTEXT
 70
     1
  9
$LTSCALE
 40
1.0
  9
$ATTMODE
 70
     1
  9
$TEXTSIZE
 40
3.5
  9
$TRACEWID
 40
1.0
  9
$TEXTSTYLE
  7
Standard
  9
$CLAYER
  8
0
  9
$CELTYPE
  6
ByLayer
  9
$CECOLOR
 62
   256
  9
$CELTSCALE
 40
1.0
  9
$DISPSILH
 70
     0
  9
$DIMSCALE
 40
1.0
  9
$DIMASZ
 40
3.302
  9
$DIMEXO
 40
1.0
  9
$DIMDLI
 40
3.75
  9
$DIMRND
 40
0.0
  9
$DIMDLE
 40
0.0
  9
$DIMEXE
 40
1.0
  9
$DIMTP
 40
0.0
  9
$DIMTM
 40
0.0
  9
$DIMTXT
 40
3.5
  9
$DIMCEN
 40
2.5
  9
$DIMTSZ
 40
0.0
  9
$DIMTOL
 70
     0
  9
$DIMLIM
 70
     0
  9
$DIMTIH
 70
     1
  9
$DIMTOH
 70
     1
  9
$DIMSE1
 70
     0
  9
$DIMSE2
 70
     0
  9
$DIMTAD
 70
     1
  9
$DIMZIN
 70
     0
  9
$DIMBLK
  1

  9
$DIMASO
 70
     1
  9
$DIMSHO
 70
     1
  9
$DIMPOST
  1

  9
$DIMAPOST
  1

  9
$DIMALT
 70
     0
  9
$DIMALTD
 70
     3
  9
$DIMALTF
 40
0.0393700787
  9
$DIMLFAC
 40
1.0
  9
$DIMTOFL
 70
     1
  9
$DIMTVP
 40
0.0
  9
$DIMTIX
 70
     0
  9
$DIMSOXD
 70
     0
  9
$DIMSAH
 70
     0
  9
$DIMBLK1
  1

  9
$DIMBLK2
  1

  9
$DIMSTYLE
  2
ISO-25
  9
$DIMCLRD
 70
     0
  9
$DIMCLRE
 70
     0
  9
$DIMCLRT
 70
     0
  9
$DIMTFAC
 40
1.0
  9
$DIMGAP
 40
1.524
  9
$DIMJUST
 70
     0
  9
$DIMSD1
 70
     0
  9
$DIMSD2
 70
     0
  9
$DIMTOLJ
 70
     0
  9
$DIMTZIN
 70
     0
  9
$DIMALTZ
 70
     0
  9
$DIMALTTZ
 70
     0
  9
$DIMUPT
 70
     0
  9
$DIMDEC
 70
     2
  9
$DIMTDEC
 70
     2
  9
$DIMALTU
 70
     2
  9
$DIMALTTD
 70
     3
  9
$DIMTXSTY
  7
Standard
  9
$DIMAUNIT
 70
     0
  9
$DIMADEC
 70
     2
  9
$DIMALTRND
 40
0.0
  9
$DIMAZIN
 70
     0
  9
$DIMDSEP
 70
    44
  9
$DIMATFIT
 70
     3
  9
$DIMFRAC
 70
     0
  9
$DIMLDRBLK
  1

  9
$DIMLUNIT
 70
     2
  9
$DIMLWD
 70
    -2
  9
$DIMLWE
 70
    -2
  9
$DIMTMOVE
 70
     0
  9
$DIMFXL
 40
1.0
  9
$DIMFXLON
 70
     0
  9
$DIMJOGANG
 40
0.7853981634
  9
$DIMTFILL
 70
     0
  9
$DIMTFILLCLR
 70
     0
  9
$DIMARCSYM
 70
     0
  9
$DIMLTYPE
  6

  9
$DIMLTEX1
  6

  9
$DIMLTEX2
  6

  9
$LUNITS
 70
     2
  9
$LUPREC
 70
     2
  9
$SKETCHINC
 40
1.0
  9
$FILLETRAD
 40
10.0
  9
$AUNITS
 70
     0
  9
$AUPREC
 70
     2
  9
$MENU
  1
.
  9
$ELEVATION
 40
0.0
  9
$PELEVATION
 40
0.0
  9
$THICKNESS
 40
0.0
  9
$LIMCHECK
 70
     0
  9
$CHAMFERA
 40
10.0
  9
$CHAMFERB
 40
10.0
  9
$CHAMFERC
 40
20.0
  9
$CHAMFERD
 40
0.0
  9
$SKPOLY
 70
     0
  9
$TDCREATE
 40
2456449.655970173
  9
$TDUCREATE
 40
2456449.57263684
  9
$TDUPDATE
 40
2456449.655970718
  9
$TDUUPDATE
 40
2456449.572637384
  9
$TDINDWG
 40
0.0000000116
  9
$TDUSRTIMER
 40
0.0000000116
  9
$USRTIMER
 70
     1
  9
$ANGBASE
 50
0.0
  9
$ANGDIR
 70
     0
  9
$PDMODE
 70
     0
  9
$PDSIZE
 40
-1.0
  9
$PLINEWID
 40
0.0
  9
$SPLFRAME
 70
     0
  9
$SPLINETYPE
 70
     6
  9
$SPLINESEGS
 70
     8
  9
$HANDSEED
  5
115
  9
$SURFTAB1
 70
     6
  9
$SURFTAB2
 70
     6
  9
$SURFTYPE
 70
     6
  9
$SURFU
 70
     6
  9
$SURFV
 70
     6
  9
$UCSBASE
  2

  9
$UCSNAME
  2

  9
$UCSORG
 10
0.0
 20
0.0
 30
0.0
  9
$UCSXDIR
 10
1.0
 20
0.0
 30
0.0
  9
$UCSYDIR
 10
0.0
 20
1.0
 30
0.0
  9
$UCSORTHOREF
  2

  9
$UCSORTHOVIEW
 70
     0
  9
$UCSORGTOP
 10
0.0
 20
0.0
 30
0.0
  9
$UCSORGBOTTOM
 10
0.0
 20
0.0
 30
0.0
  9
$UCSORGLEFT
 10
0.0
 20
0.0
 30
0.0
  9
$UCSORGRIGHT
 10
0.0
 20
0.0
 30
0.0
  9
$UCSORGFRONT
 10
0.0
 20
0.0
 30
0.0
  9
$UCSORGBACK
 10
0.0
 20
0.0
 30
0.0
  9
$PUCSBASE
  2

  9
$PUCSNAME
  2

  9
$PUCSORG
 10
0.0
 20
0.0
 30
0.0
  9
$PUCSXDIR
 10
1.0
 20
0.0
 30
0.0
  9
$PUCSYDIR
 10
0.0
 20
1.0
 30
0.0
  9
$PUCSORTHOREF
  2

  9
$PUCSORTHOVIEW
 70
     0
  9
$PUCSORGTOP
 10
0.0
 20
0.0
 30
0.0
  9
$PUCSORGBOTTOM
 10
0.0
 20
0.0
 30
0.0
  9
$PUCSORGLEFT
 10
0.0
 20
0.0
 30
0.0
  9
$PUCSORGRIGHT
 10
0.0
 20
0.0
 30
0.0
  9
$PUCSORGFRONT
 10
0.0
 20
0.0
 30
0.0
  9
$PUCSORGBACK
 10
0.0
 20
0.0
 30
0.0
  9
$USERI1
 70
     0
  9
$USERI2
 70
     0
  9
$USERI3
 70
     0
  9
$USERI4
 70
     0
  9
$USERI5
 70
     0
  9
$USERR1
 40
0.0
  9
$USERR2
 40
0.0
  9
$USERR3
 40
0.0
  9
$USERR4
 40
0.0
  9
$USERR5
 40
0.0
  9
$WORLDVIEW
 70
     1
  9
$SHADEDGE
 70
     3
  9
$SHADEDIF
 70
    70
  9
$TILEMODE
 70
     1
  9
$MAXACTVP
 70
    64
  9
$PINSBASE
 10
0.0
 20
0.0
 30
0.0
  9
$PLIMCHECK
 70
     0
  9
$PEXTMIN
 10
1.0000000000E+20
 20
1.0000000000E+20
 30
1.0000000000E+20
  9
$PEXTMAX
 10
-1.0000000000E+20
 20
-1.0000000000E+20
 30
-1.0000000000E+20
  9
$PLIMMIN
 10
0.0
 20
0.0
  9
$PLIMMAX
 10
420.0
 20
297.0
  9
$UNITMODE
 70
     0
  9
$VISRETAIN
 70
     1
  9
$PLINEGEN
 70
     0
  9
$PSLTSCALE
 70
     1
  9
$TREEDEPTH
 70
  3020
  9
$CMLSTYLE
  2
Standard
  9
$CMLJUST
 70
     0
  9
$CMLSCALE
 40
20.0
  9
$PROXYGRAPHICS
 70
     1
  9
$MEASUREMENT
 70
     1
  9
$CELWEIGHT
370
    -1
  9
$ENDCAPS
280
     0
  9
$JOINSTYLE
280
     0
  9
$LWDISPLAY
290
     1
  9
$INSUNITS
 70
     4
  9
$HYPERLINKBASE
  1

  9
$STYLESHEET
  1

  9
$XEDIT
290
     1
  9
$CEPSNTYPE
380
     0
  9
$PSTYLEMODE
290
     1
  9
$FINGERPRINTGUID
  2
{9A02C44C-B3A9-4E56-8154-763A6EB8ED07}
  9
$VERSIONGUID
  2
{FAEB1C32-E019-11D5-929B-00C0DF256EC4}
  9
$EXTNAMES
290
     1
  9
$PSVPSCALE
 40
0.0
  9
$OLESTARTUP
290
     0
  9
$SORTENTS
280
   127
  9
$INDEXCTL
280
     0
  9
$HIDETEXT
280
     1
  9
$XCLIPFRAME
290
     0
  9
$HALOGAP
280
     0
  9
$OBSCOLOR
 70
   257
  9
$OBSLTYPE
280
     0
  9
$INTERSECTIONDISPLAY
280
     0
  9
$INTERSECTIONCOLOR
 70
   257
  9
$DIMASSOC
280
     2
  9
$PROJECTNAME
  1

  9
$CAMERADISPLAY
290
     0
  9
$LENSLENGTH
 40
50.0
  9
$CAMERAHEIGHT
 40
0.0
  9
$STEPSPERSEC
 40
2.0
  9
$STEPSIZE
 40
6.0
  9
$3DDWFPREC
 40
2.0
  9
$PSOLWIDTH
 40
5.0
  9
$PSOLHEIGHT
 40
80.0
  9
$LOFTANG1
 40
1.5707963268
  9
$LOFTANG2
 40
1.5707963268
  9
$LOFTMAG1
 40
0.0
  9
$LOFTMAG2
 40
0.0
  9
$LOFTPARAM
 70
     7
  9
$LOFTNORMALS
280
     1
  9
$LATITUDE
 40
37.795
  9
$LONGITUDE
 40
-122.394
  9
$NORTHDIRECTION
 40
0.0
  9
$TIMEZONE
 70
 -8000
  9
$LIGHTGLYPHDISPLAY
280
     1
  9
$TILEMODELIGHTSYNCH
280
     1
  9
$SOLIDHIST
280
     1
  9
$SHOWHIST
280
     1
  9
$DWFFRAME
280
     2
  9
$DGNFRAME
280
     2
  9
$REALWORLDSCALE
290
     1
  9
$INTERFERECOLOR
 62
   256
  9
$CSHADOW
280
     0
  9
$SHADOWPLANELOCATION
 40
0.0
  0
ENDSEC
  0
SECTION
  2
CLASSES
  0
CLASS
  1
ACDBDICTIONARYWDFLT
  2
AcDbDictionaryWithDefault
  3
ObjectDBX Classes
 90
        0
 91
        4
280
     0
281
     0
  0
CLASS
  1
VISUALSTYLE
  2
AcDbVisualStyle
  3
ObjectDBX Classes
 90
     4095
 91
        4
280
     0
281
     0
  0
CLASS
  1
MATERIAL
  2
AcDbMaterial
  3
ObjectDBX Classes
 90
     1153
 91
        4
280
     0
281
     0
  0
ENDSEC
  0
SECTION
  2
TABLES
  0
TABLE
  2
VPORT
  5
8
330
0
100
AcDbSymbolTable
 70
     1
  0
VPORT
  5
29
330
8
100
AcDbSymbolTableRecord
100
AcDbViewportTableRecord
  2
*Active
 70
     0
 10
0.0
 20
0.0
 11
1.0
 21
1.0
 12
148.5
 22
105.0
 13
0.0
 23
0.0
 14
10.0
 24
10.0
 15
10.0
 25
10.0
 16
0.0
 26
0.0
 36
1.0
 17
0.0
 27
0.0
 37
0.0
 40
210.0
 41
1.4142857143
 42
50.0
 43
0.0
 44
0.0
 50
0.0
 51
0.0
 71
     0
 72
  2000
 73
     1
 74
     3
 75
     0
 76
     0
 77
     0
 78
     0
281
     0
 65
     1
110
0.0
120
0.0
130
0.0
111
1.0
121
0.0
131
0.0
112
0.0
122
1.0
132
0.0
 79
     0
146
0.0
 60
     3
 61
     5
292
     1
282
     1
141
0.0
142
0.0
 63
   250
  0
ENDTAB
  0
TABLE
  2
LTYPE
  5
5
330
0
100
AcDbSymbolTable
 70
     8
  0
LTYPE
  5
14
330
5
100
AcDbSymbolTableRecord
100
AcDbLinetypeTableRecord
  2
ByBlock
 70
     0
  3

 72
    65
 73
     0
 40
0.0
  0
LTYPE
  5
15
330
5
100
AcDbSymbolTableRecord
100
AcDbLinetypeTableRecord
  2
ByLayer
 70
     0
  3

 72
    65
 73
     0
 40
0.0
  0
LTYPE
  5
16
330
5
100
AcDbSymbolTableRecord
100
AcDbLinetypeTableRecord
  2
Continuous
 70
     0
  3
Solid line
 72
    65
 73
     0
 40
0.0
  0
LTYPE
  5
3F
330
5
100
AcDbSymbolTableRecord
100
AcDbLinetypeTableRecord
  2
SLD-Durchgehend
 70
     0
  3
SolidWorks Line Style
 72
    65
 73
     0
 40
0.0
  0
LTYPE
  5
40
330
5
100
AcDbSymbolTableRecord
100
AcDbLinetypeTableRecord
  2
SLD-Gestrichelt
 70
     0
  3
SolidWorks Line Style
 72
    65
 73
     2
 40
1.905
 49
1.27
 74
     0
 49
-0.635
 74
     0
  0
LTYPE
  5
41
330
5
100
AcDbSymbolTableRecord
100
AcDbLinetypeTableRecord
  2
SLD-Phantom
 70
     0
  3
SolidWorks Line Style
 72
    65
 73
     6
 40
12.7
 49
6.35
 74
     0
 49
-1.27
 74
     0
 49
1.27
 74
     0
 49
-1.27
 74
     0
 49
1.27
 74
     0
 49
-1.27
 74
     0
  0
LTYPE
  5
42
330
5
100
AcDbSymbolTableRecord
100
AcDbLinetypeTableRecord
  2
SLD-Kette
 70
     0
  3
SolidWorks Line Style
 72
    65
 73
     4
 40
10.16
 49
6.35
 74
     0
 49
-1.27
 74
     0
 49
1.27
 74
     0
 49
-1.27
 74
     0
  0
LTYPE
  5
43
330
5
100
AcDbSymbolTableRecord
100
AcDbLinetypeTableRecord
  2
SLD-Punktstrich
 70
     0
  3
SolidWorks Line Style
 72
    65
 73
     4
 40
19.05
 49
15.24
 74
     0
 49
-1.27
 74
     0
 49
1.27
 74
     0
 49
-1.27
 74
     0
  0
LTYPE
  5
44
330
5
100
AcDbSymbolTableRecord
100
AcDbLinetypeTableRecord
  2
SLD-Naht
 70
     0
  3
SolidWorks Line Style
 72
    65
 73
     2
 40
0.635
 49
0.0
 74
     0
 49
-0.635
 74
     0
  0
LTYPE
  5
45
330
5
100
AcDbSymbolTableRecord
100
AcDbLinetypeTableRecord
  2
SLD-Dicke-Dünne-Kette
 70
     0
  3
SolidWorks Line Style
 72
    65
 73
     4
 40
10.16
 49
6.35
 74
     0
 49
-1.27
 74
     0
 49
1.27
 74
     0
 49
-1.27
 74
     0
  0
ENDTAB
  0
TABLE
  2
LAYER
  5
2
330
0
100
AcDbSymbolTable
 70
     3
  0
LAYER
  5
10
330
2
100
AcDbSymbolTableRecord
100
AcDbLayerTableRecord
  2
0
 70
     0
 62
     7
  6
Continuous
370
    -3
390
F
347
3E
  0
LAYER
  5
46
330
2
100
AcDbSymbolTableRecord
100
AcDbLayerTableRecord
  2
1
 70
     0
 62
     4
  6
Continuous
370
    -1
390
F
347
3E
  0
LAYER
  5
47
330
2
100
AcDbSymbolTableRecord
100
AcDbLayerTableRecord
  2
2
 70
     0
 62
     7
  6
SLD-Durchgehend
370
    -3
390
F
347
3E
  0
ENDTAB
  0
TABLE
  2
STYLE
  5
3
330
0
100
AcDbSymbolTable
 70
     2
  0
STYLE
  5
11
330
3
100
AcDbSymbolTableRecord
100
AcDbTextStyleTableRecord
  2
Standard
 70
     0
 40
0.0
 41
1.0
 50
0.0
 71
     0
 42
3.5
  3
txt
  4

  0
STYLE
  5
F2
330
3
100
AcDbSymbolTableRecord
100
AcDbTextStyleTableRecord
  2
SLDTEXTSTYLE0
 70
     0
 40
0.0
 41
0.75
 50
0.0
 71
     0
 42
0.2
  3
TXT
  4

  0
ENDTAB
  0
TABLE
  2
VIEW
  5
6
330
0
100
AcDbSymbolTable
 70
     0
  0
ENDTAB
  0
TABLE
  2
UCS
  5
7
330
0
100
AcDbSymbolTable
 70
     0
  0
ENDTAB
  0
TABLE
  2
APPID
  5
9
330
0
100
AcDbSymbolTable
 70
     1
  0
APPID
  5
12
330
9
100
AcDbSymbolTableRecord
100
AcDbRegAppTableRecord
  2
ACAD
 70
     0
  0
ENDTAB
  0
TABLE
  2
DIMSTYLE
  5
A
330
0
100
AcDbSymbolTable
 70
     2
100
AcDbDimStyleTable
  0
DIMSTYLE
105
27
330
A
100
AcDbSymbolTableRecord
100
AcDbDimStyleTableRecord
  2
ISO-25
 70
     0
 41
2.5
 42
0.625
 43
3.75
 44
1.25
 73
     0
 74
     0
 77
     1
 78
     8
140
2.5
141
2.5
143
0.0393700787
147
0.625
171
     3
172
     1
178
     0
271
     2
272
     2
274
     3
278
    44
283
     0
284
     8
340
11
  0
DIMSTYLE
105
F3
102
{ACAD_REACTORS
330
F1
330
FD
330
108
102
}
330
A
100
AcDbSymbolTableRecord
100
AcDbDimStyleTableRecord
  2
SLDDIMSTYLE0
 70
     0
 41
3.302
 44
0.0
 45
0.000000001
 73
     0
 74
     0
 77
     1
 78
    12
 79
     3
140
3.5
147
0.875
173
     1
178
     0
271
     2
272
     2
276
     2
284
    12
340
F2
  0
ENDTAB
  0
TABLE
  2
BLOCK_RECORD
  5
1
330
0
100
AcDbSymbolTable
 70
     4
  0
BLOCK_RECORD
  5
1F
330
1
100
AcDbSymbolTableRecord
100
AcDbBlockTableRecord
  2
*Model_Space
340
22
 70
     0
280
     1
281
     0
  0
BLOCK_RECORD
  5
1B
330
1
100
AcDbSymbolTableRecord
100
AcDbBlockTableRecord
  2
*Paper_Space
340
1E
 70
     0
280
     1
281
     0
  0
BLOCK_RECORD
  5
23
330
1
100
AcDbSymbolTableRecord
100
AcDbBlockTableRecord
  2
*Paper_Space0
340
26
 70
     0
280
     1
281
     0
  0
BLOCK_RECORD
  5
F4
330
1
100
AcDbSymbolTableRecord
100
AcDbBlockTableRecord
  2
_D
340
0
 70
     0
280
     1
281
     0
  0
BLOCK_RECORD
  5
FE
330
1
100
AcDbSymbolTableRecord
100
AcDbBlockTableRecord
  2
_D_1
340
0
 70
     0
280
     1
281
     0
  0
BLOCK_RECORD
  5
109
330
1
100
AcDbSymbolTableRecord
100
AcDbBlockTableRecord
  2
_D_2
340
0
 70
     0
280
     1
281
     0
  0
ENDTAB
  0
ENDSEC
  0
SECTION
  2
BLOCKS
  0
BLOCK
  5
20
330
1F
100
AcDbEntity
  8
0
100
AcDbBlockBegin
  2
*Model_Space
 70
     0
 10
0.0
 20
0.0
 30
0.0
  3
*Model_Space
  1

  0
ENDBLK
  5
21
330
1F
100
AcDbEntity
  8
0
100
AcDbBlockEnd
  0
BLOCK
  5
1C
330
1B
100
AcDbEntity
 67
     1
  8
0
100
AcDbBlockBegin
  2
*Paper_Space
 70
     0
 10
0.0
 20
0.0
 30
0.0
  3
*Paper_Space
  1

  0
ENDBLK
  5
1D
330
1B
100
AcDbEntity
 67
     1
  8
0
100
AcDbBlockEnd
  0
BLOCK
  5
24
330
23
100
AcDbEntity
  8
0
100
AcDbBlockBegin
  2
*Paper_Space0
 70
     0
 10
0.0
 20
0.0
 30
0.0
  3
*Paper_Space0
  1

  0
ENDBLK
  5
25
330
23
100
AcDbEntity
  8
0
100
AcDbBlockEnd
  0
BLOCK
  5
F5
330
F4
100
AcDbEntity
  8
0
100
AcDbBlockBegin
  2
_D
 70
     0
 10
0.0
 20
0.0
 30
0.0
  3
_D
  1

  0
SOLID
  5
F7
330
F4
100
AcDbEntity
  8
2
 62
     7
420
 16777215
100
AcDbTrace
 10
100.0000708915
 20
31.0002015321
 30
0.0
 11
96.6980708915
 21
31.5082015321
 31
0.0
 12
96.6980708915
 22
30.4922015321
 32
0.0
 13
96.6980708915
 23
30.4922015321
 33
0.0
  0
SOLID
  5
F8
330
F4
100
AcDbEntity
  8
2
 62
     7
420
 16777215
100
AcDbTrace
 10
0.0000708915
 20
31.0002015321
 30
0.0
 11
3.3020708915
 21
30.4922015321
 31
0.0
 12
3.3020708915
 22
31.5082015321
 32
0.0
 13
3.3020708915
 23
31.5082015321
 33
0.0
  0
LINE
  5
F9
330
F4
100
AcDbEntity
  8
2
 62
     7
420
 16777215
100
AcDbLine
 10
100.0000708915
 20
1.0002015396
 30
0.0
 11
100.0000708915
 21
32.0002015321
 31
0.0
  0
LINE
  5
FA
330
F4
100
AcDbEntity
  8
2
 62
     7
420
 16777215
100
AcDbLine
 10
0.0000708915
 20
1.0002015396
 30
0.0
 11
0.0000708915
 21
32.0002015321
 31
0.0
  0
LINE
  5
FB
330
F4
100
AcDbEntity
  8
2
 62
     7
420
 16777215
100
AcDbLine
 10
100.0000708915
 20
31.0002015321
 30
0.0
 11
0.0000708915
 21
31.0002015321
 31
0.0
  0
MTEXT
  5
FC
330
F4
100
AcDbEntity
  8
2
 62
     7
420
 16777215
100
AcDbMText
 10
44.6990293629
 20
35.5119384467
 30
0.0
 40
3.5
 41
0.0
 46
0.0
 71
     1
 72
     1
  1
100
  7
SLDTEXTSTYLE0
 73
     1
 44
1.0
  0
ENDBLK
  5
F6
330
F4
100
AcDbEntity
  8
0
100
AcDbBlockEnd
  0
BLOCK
  5
FF
330
FE
100
AcDbEntity
  8
0
100
AcDbBlockBegin
  2
_D_1
 70
     0
 10
0.0
 20
0.0
 30
0.0
  3
_D_1
  1

  0
SOLID
  5
101
330
FE
100
AcDbEntity
  8
2
 62
     7
420
 16777215
100
AcDbTrace
 10
106.0000708915
 20
25.0002015321
 30
0.0
 11
105.4920708915
 21
21.6982015321
 31
0.0
 12
106.5080708915
 22
21.6982015321
 32
0.0
 13
106.5080708915
 23
21.6982015321
 33
0.0
  0
SOLID
  5
102
330
FE
100
AcDbEntity
  8
2
 62
     7
420
 16777215
100
AcDbTrace
 10
106.0000708915
 20
-24.9997984529
 30
0.0
 11
106.5080708915
 21
-21.6977984529
 31
0.0
 12
105.4920708915
 22
-21.6977984529
 32
0.0
 13
105.4920708915
 23
-21.6977984529
 33
0.0
  0
LINE
  5
103
330
FE
100
AcDbEntity
  8
2
 62
     7
420
 16777215
100
AcDbLine
 10
80.5000708909
 20
25.0002015321
 30
0.0
 11
107.0000708915
 21
25.0002015321
 31
0.0
  0
LINE
  5
104
330
FE
100
AcDbEntity
  8
2
 62
     7
420
 16777215
100
AcDbLine
 10
80.5000708909
 20
-24.9997984529
 30
0.0
 11
107.0000708915
 21
-24.9997984529
 31
0.0
  0
LINE
  5
105
330
FE
100
AcDbEntity
  8
2
 62
     7
420
 16777215
100
AcDbLine
 10
106.0000708915
 20
25.0002015321
 30
0.0
 11
106.0000708915
 21
-24.9997984529
 31
0.0
  0
MTEXT
  5
106
330
FE
100
AcDbEntity
  8
2
 62
     7
420
 16777215
100
AcDbMText
 10
101.4883338023
 20
-6.6470034406
 30
0.0
 40
3.5
 41
0.0
 46
0.0
 71
     1
 72
     1
  1
%%c
  7
SLDTEXTSTYLE0
 11
-7.044195017643634E-15
 21
1.0
 31
0.0
 73
     1
 44
1.0
  0
MTEXT
  5
107
330
FE
100
AcDbEntity
  8
2
 62
     7
420
 16777215
100
AcDbMText
 10
101.4348616256
 20
-1.3685660423
 30
0.0
 40
3.5
 41
0.0
 46
0.0
 71
     1
 72
     1
  1
50
  7
SLDTEXTSTYLE0
 11
-7.044195017643634E-15
 21
1.0
 31
0.0
 73
     1
 44
1.0
  0
ENDBLK
  5
100
330
FE
100
AcDbEntity
  8
0
100
AcDbBlockEnd
  0
BLOCK
  5
10A
330
109
100
AcDbEntity
  8
0
100
AcDbBlockBegin
  2
_D_2
 70
     0
 10
0.0
 20
0.0
 30
0.0
  3
_D_2
  1

  0
SOLID
  5
10C
330
109
100
AcDbEntity
  8
2
 62
     7
420
 16777215
100
AcDbTrace
 10
-5.9999291085
 20
20.0002015336
 30
0.0
 11
-6.5079291085
 21
16.6982015336
 31
0.0
 12
-5.4919291085
 22
16.6982015336
 32
0.0
 13
-5.4919291085
 23
16.6982015336
 33
0.0
  0
SOLID
  5
10D
330
109
100
AcDbEntity
  8
2
 62
     7
420
 16777215
100
AcDbTrace
 10
-5.9999291085
 20
-19.9997984544
 30
0.0
 11
-5.4919291085
 21
-16.6977984544
 31
0.0
 12
-6.5079291085
 22
-16.6977984544
 32
0.0
 13
-6.5079291085
 23
-16.6977984544
 33
0.0
  0
LINE
  5
10E
330
109
100
AcDbEntity
  8
2
 62
     7
420
 16777215
100
AcDbLine
 10
-0.9999291085
 20
20.0002015336
 30
0.0
 11
-6.9999291085
 21
20.0002015336
 31
0.0
  0
LINE
  5
10F
330
109
100
AcDbEntity
  8
2
 62
     7
420
 16777215
100
AcDbLine
 10
-0.9999291085
 20
-19.9997984544
 30
0.0
 11
-6.9999291085
 21
-19.9997984544
 31
0.0
  0
LINE
  5
110
330
109
100
AcDbEntity
  8
2
 62
     7
420
 16777215
100
AcDbLine
 10
-5.9999291085
 20
20.0002015336
 30
0.0
 11
-5.9999291085
 21
-19.9997984544
 31
0.0
  0
MTEXT
  5
111
330
109
100
AcDbEntity
  8
2
 62
     7
420
 16777215
100
AcDbMText
 10
-10.5116661977
 20
-6.6470034406
 30
0.0
 40
3.5
 41
0.0
 46
0.0
 71
     1
 72
     1
  1
%%c
  7
SLDTEXTSTYLE0
 11
-7.044195017643634E-15
 21
1.0
 31
0.0
 73
     1
 44
1.0
  0
MTEXT
  5
112
330
109
100
AcDbEntity
  8
2
 62
     7
420
 16777215
100
AcDbMText
 10
-10.5651383744
 20
-1.3685660423
 30
0.0
 40
3.5
 41
0.0
 46
0.0
 71
     1
 72
     1
  1
40
  7
SLDTEXTSTYLE0
 11
-7.044195017643634E-15
 21
1.0
 31
0.0
 73
     1
 44
1.0
  0
ENDBLK
  5
10B
330
109
100
AcDbEntity
  8
0
100
AcDbBlockEnd
  0
ENDSEC
  0
SECTION
  2
ENTITIES
  0
LINE
  5
48
330
1F
100
AcDbEntity
  8
0
  6
SLD-Punktstrich
 62
     7
100
AcDbLine
 10
0.0000708915
 20
0.0002015396
 30
0.0
 11
100.0000708915
 21
0.0002015396
 31
0.0
  0
POINT
  5
49
330
1F
100
AcDbEntity
  8
1
 62
     4
420
    65535
100
AcDbPoint
 10
0.0000708915
 20
0.0002015396
 30
0.0
  0
POINT
  5
4A
330
1F
100
AcDbEntity
  8
1
 62
     4
420
    65535
100
AcDbPoint
 10
100.0000708915
 20
0.0002015396
 30
0.0
  0
POINT
  5
4B
330
1F
100
AcDbEntity
  8
1
 62
     4
420
    65535
100
AcDbPoint
 10
0.0000708915
 20
0.0002015396
 30
0.0
  0
POINT
  5
4C
330
1F
100
AcDbEntity
  8
1
 62
     4
420
    65535
100
AcDbPoint
 10
100.0000708915
 20
0.0002015396
 30
0.0
  0
LINE
  5
4D
330
1F
100
AcDbEntity
  8
1
 62
     4
420
    65535
100
AcDbLine
 10
79.5000708909
 20
-24.9997984529
 30
0.0
 11
80.0000708915
 21
-24.9997984529
 31
0.0
  0
LINE
  5
4E
330
1F
100
AcDbEntity
  8
1
 62
     4
420
    65535
100
AcDbLine
 10
80.0099107876
 20
25.0002015321
 30
0.0
 11
79.5000708909
 21
25.0002015321
 31
0.0
  0
LINE
  5
4F
330
1F
100
AcDbEntity
  8
1
 62
     4
420
    65535
100
AcDbLine
 10
99.8928912146
 20
19.1858421799
 30
0.0
 11
98.265397152
 21
22.0047445853
 31
0.0
  0
LINE
  5
50
330
1F
100
AcDbEntity
  8
1
 62
     4
420
    65535
100
AcDbLine
 10
98.2653029192
 20
-22.004504722
 30
0.0
 11
99.8928912146
 21
-19.1854391007
 31
0.0
  0
LINE
  5
51
330
1F
100
AcDbEntity
  8
1
 62
     4
420
    65535
100
AcDbLine
 10
77.5000708915
 20
-19.2497984546
 30
0.0
 11
86.7500708955
 21
-19.2497984546
 31
0.0
  0
LINE
  5
52
330
1F
100
AcDbEntity
  8
1
 62
     4
420
    65535
100
AcDbLine
 10
86.7500708955
 20
19.2502015338
 30
0.0
 11
77.5000708915
 21
19.2502015338
 31
0.0
  0
LINE
  5
53
330
1F
100
AcDbEntity
  8
1
 62
     4
420
    65535
100
AcDbLine
 10
87.0000708954
 20
19.0002015339
 30
0.0
 11
86.7500708955
 21
19.2502015338
 31
0.0
  0
LINE
  5
54
330
1F
100
AcDbEntity
  8
1
 62
     4
420
    65535
100
AcDbLine
 10
86.7500708955
 20
-19.2497984546
 30
0.0
 11
87.0000708954
 21
-18.9997984547
 31
0.0
  0
LINE
  5
55
330
1F
100
AcDbEntity
  8
1
 62
     4
420
    65535
100
AcDbLine
 10
87.0000708954
 20
-18.9997984547
 30
0.0
 11
88.0000708951
 21
-18.9997984547
 31
0.0
  0
LINE
  5
56
330
1F
100
AcDbEntity
  8
1
 62
     4
420
    65535
100
AcDbLine
 10
88.0000708951
 20
19.0002015339
 30
0.0
 11
87.0000708954
 21
19.0002015339
 31
0.0
  0
LINE
  5
57
330
1F
100
AcDbEntity
  8
1
 62
     4
420
    65535
100
AcDbLine
 10
88.0000708951
 20
-18.9997984547
 30
0.0
 11
90.0259039194
 21
-20.1694136966
 31
0.0
  0
LINE
  5
58
330
1F
100
AcDbEntity
  8
1
 62
     4
420
    65535
100
AcDbLine
 10
90.0259039194
 20
20.1698167758
 30
0.0
 11
88.0000708951
 21
19.0002015339
 31
0.0
  0
LINE
  5
59
330
1F
100
AcDbEntity
  8
1
 62
     4
420
    65535
100
AcDbLine
 10
90.3259039193
 20
-20.2497984543
 30
0.0
 11
91.4000708941
 21
-20.2497984543
 31
0.0
  0
LINE
  5
5A
330
1F
100
AcDbEntity
  8
1
 62
     4
420
    65535
100
AcDbLine
 10
91.4000708941
 20
20.2502015335
 30
0.0
 11
90.3259039193
 21
20.2502015335
 31
0.0
  0
LINE
  5
5B
330
1F
100
AcDbEntity
  8
1
 62
     4
420
    65535
100
AcDbLine
 10
92.0000708939
 20
-14.9997984559
 30
0.0
 11
93.6000708934
 21
-14.9997984559
 31
0.0
  0
LINE
  5
5C
330
1F
100
AcDbEntity
  8
1
 62
     4
420
    65535
100
AcDbLine
 10
93.6000708934
 20
15.0002015351
 30
0.0
 11
92.0000708939
 21
15.0002015351
 31
0.0
  0
ARC
  5
5D
330
1F
100
AcDbEntity
  8
1
 62
     4
420
    65535
100
AcDbCircle
 10
90.3259039193
 20
-19.6497984545
 30
0.0
 40
0.5999999998200095
100
AcDbArc
 50
240.0
 51
270.0
  0
ARC
  5
5E
330
1F
100
AcDbEntity
  8
1
 62
     4
420
    65535
100
AcDbCircle
 10
90.3259039193
 20
19.6502015337
 30
0.0
 40
0.5999999998200103
100
AcDbArc
 50
90.0
 51
120.0
  0
LINE
  5
5F
330
1F
100
AcDbEntity
  8
1
 62
     4
420
    65535
100
AcDbLine
 10
93.6000708934
 20
-16.4997984554
 30
0.0
 11
94.8000708931
 21
-16.4997984554
 31
0.0
  0
LINE
  5
60
330
1F
100
AcDbEntity
  8
1
 62
     4
420
    65535
100
AcDbLine
 10
94.8000708931
 20
16.5002015347
 30
0.0
 11
93.6000708934
 21
16.5002015347
 31
0.0
  0
LINE
  5
61
330
1F
100
AcDbEntity
  8
1
 62
     4
420
    65535
100
AcDbLine
 10
99.6324926448
 20
13.5002015355
 30
0.0
 11
94.8000708931
 21
16.2902015347
 31
0.0
  0
LINE
  5
62
330
1F
100
AcDbEntity
  8
1
 62
     4
420
    65535
100
AcDbLine
 10
94.8000708931
 20
-16.2897984555
 30
0.0
 11
99.6324926448
 21
-13.4997984563
 31
0.0
  0
ARC
  5
63
330
1F
100
AcDbEntity
  8
1
 62
     4
420
    65535
100
AcDbCircle
 10
79.5000708909
 20
-22.9997984535
 30
0.0
 40
1.9999999993722
100
AcDbArc
 50
180.0
 51
270.0
  0
ARC
  5
64
330
1F
100
AcDbEntity
  8
1
 62
     4
420
    65535
100
AcDbCircle
 10
79.5000708909
 20
23.0002015327
 30
0.0
 40
1.9999999993722
100
AcDbArc
 50
90.0
 51
180.0
  0
LINE
  5
65
330
1F
100
AcDbEntity
  8
1
 62
     4
420
    65535
100
AcDbLine
 10
99.6324926448
 20
-13.4997984563
 30
0.0
 11
99.8000708916
 21
-13.4997984563
 31
0.0
  0
LINE
  5
66
330
1F
100
AcDbEntity
  8
1
 62
     4
420
    65535
100
AcDbLine
 10
99.8000708916
 20
13.5002015355
 30
0.0
 11
99.6324926448
 21
13.5002015355
 31
0.0
  0
LINE
  5
67
330
1F
100
AcDbEntity
  8
1
 62
     4
420
    65535
100
AcDbLine
 10
80.0000708915
 20
25.0002015321
 30
0.0
 11
80.0000708915
 21
22.0002015396
 31
0.0
  0
LINE
  5
68
330
1F
100
AcDbEntity
  8
1
 62
     4
420
    65535
100
AcDbLine
 10
80.0000708915
 20
12.4996129512
 30
0.0
 11
80.0000708915
 21
11.0002015396
 31
0.0
  0
ARC
  5
69
330
1F
100
AcDbEntity
  8
1
 62
     4
420
    65535
100
AcDbCircle
 10
91.4000708941
 20
-19.6497984545
 30
0.0
 40
0.599999999819989
100
AcDbArc
 50
270.0
 51
0.0
  0
ARC
  5
6A
330
1F
100
AcDbEntity
  8
1
 62
     4
420
    65535
100
AcDbCircle
 10
91.4000708941
 20
19.6502015337
 30
0.0
 40
0.599999999819989
100
AcDbArc
 50
0.0
 51
90.0
  0
LINE
  5
6B
330
1F
100
AcDbEntity
  8
1
 62
     4
420
    65535
100
AcDbLine
 10
80.0000708915
 20
-10.9997984604
 30
0.0
 11
80.0000708915
 21
-12.4992098719
 31
0.0
  0
LINE
  5
6C
330
1F
100
AcDbEntity
  8
1
 62
     4
420
    65535
100
AcDbLine
 10
80.0000708915
 20
-21.9997984604
 30
0.0
 11
80.0000708915
 21
-24.9997984529
 31
0.0
  0
LINE
  5
6D
330
1F
100
AcDbEntity
  8
1
 62
     4
420
    65535
100
AcDbLine
 10
80.0000708915
 20
-10.9997984604
 30
0.0
 11
80.0000708915
 21
-12.4992098719
 31
0.0
  0
LINE
  5
6E
330
1F
100
AcDbEntity
  8
1
 62
     4
420
    65535
100
AcDbLine
 10
80.0000708915
 20
12.4996129512
 30
0.0
 11
80.0000708915
 21
11.0002015396
 31
0.0
  0
ARC
  5
6F
330
1F
100
AcDbEntity
  8
1
 62
     4
420
    65535
100
AcDbCircle
 10
99.8000708916
 20
-13.6997984563
 30
0.0
 40
0.1999999999399762
100
AcDbArc
 50
0.0
 51
90.0
  0
ARC
  5
70
330
1F
100
AcDbEntity
  8
1
 62
     4
420
    65535
100
AcDbCircle
 10
99.8000708916
 20
13.7002015355
 30
0.0
 40
0.1999999999399762
100
AcDbArc
 50
270.0
 51
0.0
  0
ARC
  5
71
330
1F
100
AcDbEntity
  8
1
 62
     4
420
    65535
100
AcDbCircle
 10
99.2000708917
 20
-18.7854391008
 30
0.0
 40
0.7999999997598763
100
AcDbArc
 50
330.0
 51
0.0
  0
ARC
  5
72
330
1F
100
AcDbEntity
  8
1
 62
     4
420
    65535
100
AcDbCircle
 10
99.2000708917
 20
18.78584218
 30
0.0
 40
0.7999999997598763
100
AcDbArc
 50
360.0
 51
30.0
  0
LINE
  5
73
330
1F
100
AcDbEntity
  8
1
 62
     4
420
    65535
100
AcDbLine
 10
56.7597495753
 20
11.7502015396
 30
0.0
 11
53.0000708954
 21
11.7502015396
 31
0.0
  0
LINE
  5
74
330
1F
100
AcDbEntity
  8
1
 62
     4
420
    65535
100
AcDbLine
 10
53.0000708954
 20
-11.7497984604
 30
0.0
 11
56.7597495753
 21
-11.7497984604
 31
0.0
  0
LINE
  5
75
330
1F
100
AcDbEntity
  8
1
 62
     4
420
    65535
100
AcDbLine
 10
52.5670581935
 20
-10.9997984604
 30
0.0
 11
53.0000708954
 21
-11.7497984604
 31
0.0
  0
LINE
  5
76
330
1F
100
AcDbEntity
  8
1
 62
     4
420
    65535
100
AcDbLine
 10
53.0000708954
 20
11.7502015396
 30
0.0
 11
52.5670581935
 21
11.0002015396
 31
0.0
  0
LINE
  5
77
330
1F
100
AcDbEntity
  8
1
 62
     4
420
    65535
100
AcDbLine
 10
56.7597495753
 20
-11.7497984604
 30
0.0
 11
86.5696574459
 21
-15.9393077949
 31
0.0
  0
LINE
  5
78
330
1F
100
AcDbEntity
  8
1
 62
     4
420
    65535
100
AcDbLine
 10
86.5696574459
 20
15.9397108741
 30
0.0
 11
56.7597495753
 21
11.7502015396
 31
0.0
  0
LINE
  5
79
330
1F
100
AcDbEntity
  8
1
 62
     4
420
    65535
100
AcDbLine
 10
87.0000708954
 20
19.0002015339
 30
0.0
 11
86.0000708957
 21
20.0002015336
 31
0.0
  0
LINE
  5
7A
330
1F
100
AcDbEntity
  8
1
 62
     4
420
    65535
100
AcDbLine
 10
86.0000708957
 20
-19.9997984544
 30
0.0
 11
87.0000708954
 21
-18.9997984547
 31
0.0
  0
ARC
  5
7B
330
1F
100
AcDbEntity
  8
1
 62
     4
420
    65535
100
AcDbCircle
 10
86.5000708954
 20
16.4348449085
 30
0.0
 40
0.5
100
AcDbArc
 50
278.0
 51
0.0
  0
ARC
  5
7C
330
1F
100
AcDbEntity
  8
1
 62
     4
420
    65535
100
AcDbCircle
 10
86.5000708954
 20
-16.4344418293
 30
0.0
 40
0.5
100
AcDbArc
 50
0.0
 51
82.0
  0
LINE
  5
7D
330
1F
100
AcDbEntity
  8
1
 62
     4
420
    65535
100
AcDbLine
 10
52.5670581935
 20
11.0002015396
 30
0.0
 11
0.0000708915
 21
11.0002015396
 31
0.0
  0
LINE
  5
7E
330
1F
100
AcDbEntity
  8
1
 62
     4
420
    65535
100
AcDbLine
 10
0.0000708915
 20
-10.9997984604
 30
0.0
 11
52.5670581935
 21
-10.9997984604
 31
0.0
  0
LINE
  5
7F
330
1F
100
AcDbEntity
  8
1
 62
     4
420
    65535
100
AcDbLine
 10
86.0000708957
 20
20.0002015336
 30
0.0
 11
71.0000708915
 21
20.0002015336
 31
0.0
  0
LINE
  5
80
330
1F
100
AcDbEntity
  8
1
 62
     4
420
    65535
100
AcDbLine
 10
61.0000708915
 20
20.0002015336
 30
0.0
 11
52.0000708795
 21
20.0002015336
 31
0.0
  0
LINE
  5
81
330
1F
100
AcDbEntity
  8
1
 62
     4
420
    65535
100
AcDbLine
 10
6.0000709035
 20
20.0002015336
 30
0.0
 11
0.0000708915
 21
20.0002015336
 31
0.0
  0
LINE
  5
82
330
1F
100
AcDbEntity
  8
1
 62
     4
420
    65535
100
AcDbLine
 10
0.0000708915
 20
-19.9997984544
 30
0.0
 11
61.0000708915
 21
-19.9997984544
 31
0.0
  0
LINE
  5
83
330
1F
100
AcDbEntity
  8
1
 62
     4
420
    65535
100
AcDbLine
 10
71.0000708915
 20
-19.9997984544
 30
0.0
 11
86.0000708957
 21
-19.9997984544
 31
0.0
  0
LINE
  5
84
330
1F
100
AcDbEntity
  8
1
 62
     4
420
    65535
100
AcDbLine
 10
96.7669093851
 20
14.8064717168
 30
0.0
 11
96.7669093851
 21
24.4165894713
 31
0.0
  0
SPLINE
  5
85
330
1F
100
AcDbEntity
  8
1
 62
     4
420
    65535
100
AcDbSpline
210
0.0
220
0.0
230
1.0
 70
     8
 71
     3
 72
    12
 73
     8
 74
     0
 42
0.00000001
 43
0.00000001
 12
1.0
 22
0.0
 32
0.0
 13
1.0
 23
0.0
 33
0.0
 40
0.0
 40
0.0
 40
0.0
 40
0.0
 40
0.4999999999999777
 40
0.4999999999999777
 40
0.7499999999999888
 40
0.7499999999999888
 40
1.0
 40
1.0
 40
1.0
 40
1.0
 10
96.76690938510728
 20
14.80647171679421
 30
0.0
 10
96.69662298611253
 20
14.8677992668665
 30
0.0
 10
96.594879264622
 20
14.91880551145771
 30
0.0
 10
96.4141957802965
 20
14.97140592457106
 30
0.0
 10
96.3482376764375
 20
14.98517569127563
 30
0.0
 10
96.21372430036863
 20
15.00331318373278
 30
0.0
 10
96.14478658979357
 20
15.00795139316049
 30
0.0
 10
96.07408906207972
 20
15.0079513931605
 30
0.0
  0
SPLINE
  5
86
330
1F
100
AcDbEntity
  8
1
 62
     4
420
    65535
100
AcDbSpline
210
0.0
220
0.0
230
1.0
 70
     8
 71
     3
 72
    10
 73
     6
 74
     0
 42
0.00000001
 43
0.00000001
 12
1.0
 22
0.0
 32
0.0
 13
1.0
 23
0.0
 33
0.0
 40
0.0
 40
0.0
 40
0.0
 40
0.0
 40
0.5
 40
0.5
 40
1.0
 40
1.0
 40
1.0
 40
1.0
 10
96.07408906207972
 20
24.8195488240044
 30
0.0
 10
96.21341260182999
 20
24.8195488240044
 30
0.0
 10
96.35257981673233
 20
24.78238025602483
 30
0.0
 10
96.59666625650738
 20
24.64016932683862
 30
0.0
 10
96.69763833772821
 20
24.53747270579398
 30
0.0
 10
96.76690938510728
 20
24.41658947127184
 30
0.0
  0
SPLINE
  5
87
330
1F
100
AcDbEntity
  8
1
 62
     4
420
    65535
100
AcDbSpline
210
0.0
220
0.0
230
1.0
 70
     8
 71
     3
 72
    10
 73
     6
 74
     0
 42
0.00000001
 43
0.00000001
 12
1.0
 22
0.0
 32
0.0
 13
1.0
 23
0.0
 33
0.0
 40
0.0
 40
0.0
 40
0.0
 40
0.0
 40
0.5
 40
0.5
 40
1.0
 40
1.0
 40
1.0
 40
1.0
 10
96.07408906207972
 20
9.811798970453905
 30
0.0
 10
96.21530405499031
 20
9.811798970453907
 30
0.0
 10
96.35409771077168
 20
9.792751026853665
 30
0.0
 10
96.59478083968352
 20
9.722679912739013
 30
0.0
 10
96.69670647054937
 20
9.67157400082105
 30
0.0
 10
96.76690938510731
 20
9.610319294087622
 30
0.0
  0
LINE
  5
88
330
1F
100
AcDbEntity
  8
1
 62
     4
420
    65535
100
AcDbLine
 10
96.7669093851
 20
-9.6099162149
 30
0.0
 11
96.7669093851
 21
9.6103192941
 31
0.0
  0
LINE
  5
89
330
1F
100
AcDbEntity
  8
1
 62
     4
420
    65535
100
AcDbLine
 10
96.0740890621
 20
15.0079513932
 30
0.0
 11
96.0740890621
 21
24.819548824
 31
0.0
  0
LINE
  5
8A
330
1F
100
AcDbEntity
  8
1
 62
     4
420
    65535
100
AcDbLine
 10
79.5000708909
 20
25.0002015321
 30
0.0
 11
79.5000708909
 21
-24.9934134416
 31
0.0
  0
LINE
  5
8B
330
1F
100
AcDbEntity
  8
1
 62
     4
420
    65535
100
AcDbLine
 10
96.0740890621
 20
15.0079513932
 30
0.0
 11
83.0000708915
 21
15.0079513932
 31
0.0
  0
LINE
  5
8C
330
1F
100
AcDbEntity
  8
1
 62
     4
420
    65535
100
AcDbLine
 10
83.0000708915
 20
9.8117989705
 30
0.0
 11
96.0740890621
 21
9.8117989705
 31
0.0
  0
SPLINE
  5
8D
330
1F
100
AcDbEntity
  8
1
 62
     4
420
    65535
100
AcDbSpline
210
0.0
220
0.0
230
1.0
 70
     8
 71
     3
 72
    12
 73
     8
 74
     0
 42
0.00000001
 43
0.00000001
 12
1.0
 22
0.0
 32
0.0
 13
1.0
 23
0.0
 33
0.0
 40
0.0
 40
0.0
 40
0.0
 40
0.0
 40
0.500000000000018
 40
0.500000000000018
 40
0.750000000000009
 40
0.750000000000009
 40
1.0
 40
1.0
 40
1.0
 40
1.0
 10
96.76690938510728
 20
-9.60991621486817
 30
0.0
 10
96.6966229861125
 20
-9.671243764940453
 30
0.0
 10
96.59487926462202
 20
-9.722250009531653
 30
0.0
 10
96.41419578029657
 20
-9.774850422645006
 30
0.0
 10
96.34823767643749
 20
-9.788620189349576
 30
0.0
 10
96.21372430036864
 20
-9.80675768180673
 30
0.0
 10
96.1447865897936
 20
-9.811395891234445
 30
0.0
 10
96.07408906207972
 20
-9.811395891234444
 30
0.0
  0
SPLINE
  5
8E
330
1F
100
AcDbEntity
  8
1
 62
     4
420
    65535
100
AcDbSpline
210
0.0
220
0.0
230
1.0
 70
     8
 71
     3
 72
    38
 73
    34
 74
     0
 42
0.00000001
 43
0.00000001
 12
1.0
 22
0.0
 32
0.0
 13
1.0
 23
0.0
 33
0.0
 40
0.0
 40
0.0
 40
0.0
 40
0.0
 40
0.0625
 40
0.0625
 40
0.125
 40
0.125
 40
0.1875
 40
0.1875
 40
0.25
 40
0.25
 40
0.3125
 40
0.3125
 40
0.375
 40
0.375
 40
0.4375
 40
0.4375
 40
0.5
 40
0.5
 40
0.5625
 40
0.5625
 40
0.625
 40
0.625
 40
0.6875
 40
0.6875
 40
0.75
 40
0.75
 40
0.8125
 40
0.8125
 40
0.875
 40
0.875
 40
0.9375
 40
0.9375
 40
1.0
 40
1.0
 40
1.0
 40
1.0
 10
83.00007089150725
 20
15.00795139316051
 30
0.0
 10
82.80166131642781
 20
15.00795139316051
 30
0.0
 10
82.60660375804778
 20
14.99226227138733
 30
0.0
 10
82.2229073668295
 20
14.93068341247655
 30
0.0
 10
82.03226616888519
 20
14.88403329886152
 30
0.0
 10
81.66901751286474
 20
14.76194788574055
 30
0.0
 10
81.49676278106824
 20
14.68709499423163
 30
0.0
 10
81.17076721729254
 20
14.50943943226757
 30
0.0
 10
81.01656076107389
 20
14.40576285333129
 30
0.0
 10
80.74010173581642
 20
14.1780215660711
 30
0.0
 10
80.61598338801217
 20
14.05315455757195
 30
0.0
 10
80.39667466516836
 20
13.78011724972657
 30
0.0
 10
80.30360036338222
 20
13.63411015032218
 30
0.0
 10
80.15395594456632
 20
13.32980729362524
 30
0.0
 10
80.09628837733396
 20
13.16925348686072
 30
0.0
 10
80.01921093819638
 20
12.83831408070385
 30
0.0
 10
80.00014287335402
 20
12.67077567319584
 30
0.0
 10
79.99999931257007
 20
12.33153162906561
 30
0.0
 10
80.01955479825327
 20
12.15803047835124
 30
0.0
 10
80.09624464435286
 20
11.82017330408117
 30
0.0
 10
80.152967535644
 20
11.65483303138631
 30
0.0
 10
80.30342380684017
 20
11.33173029252533
 30
0.0
 10
80.39733052360003
 20
11.17475859117119
 30
0.0
 10
80.61446815017483
 20
10.88255779006704
 30
0.0
 10
80.73855611822317
 20
10.74541213359503
 30
0.0
 10
81.0184707524144
 20
10.49102466870194
 30
0.0
 10
81.16984995077465
 20
10.37779398112869
 30
0.0
 10
81.49462328213299
 20
10.17878975452785
 30
0.0
 10
81.67010573067977
 20
10.09231399977728
 30
0.0
 10
82.03336682936997
 20
9.953572710685368
 30
0.0
 10
82.22039512358818
 20
9.901076638546026
 30
0.0
 10
82.60520404492846
 20
9.830001295070904
 30
0.0
 10
82.80418715223715
 20
9.811798970453909
 30
0.0
 10
83.00007089150725
 20
9.81179897045391
 30
0.0
  0
LINE
  5
8F
330
1F
100
AcDbEntity
  8
1
 62
     4
420
    65535
100
AcDbLine
 10
96.0740890621
 20
-9.8113958912
 30
0.0
 11
83.0000708915
 21
-9.8113958912
 31
0.0
  0
LINE
  5
90
330
1F
100
AcDbEntity
  8
1
 62
     4
420
    65535
100
AcDbLine
 10
83.0000708915
 20
-15.0075483139
 30
0.0
 11
96.0740890621
 21
-15.0075483139
 31
0.0
  0
LINE
  5
91
330
1F
100
AcDbEntity
  8
1
 62
     4
420
    65535
100
AcDbLine
 10
96.0740890621
 20
-24.8191457448
 30
0.0
 11
83.0000708915
 21
-24.8191457448
 31
0.0
  0
SPLINE
  5
92
330
1F
100
AcDbEntity
  8
1
 62
     4
420
    65535
100
AcDbSpline
210
0.0
220
0.0
230
1.0
 70
     8
 71
     3
 72
    38
 73
    34
 74
     0
 42
0.00000001
 43
0.00000001
 12
1.0
 22
0.0
 32
0.0
 13
1.0
 23
0.0
 33
0.0
 40
0.0
 40
0.0
 40
0.0
 40
0.0
 40
0.0625
 40
0.0625
 40
0.125
 40
0.125
 40
0.1875
 40
0.1875
 40
0.25
 40
0.25
 40
0.3125
 40
0.3125
 40
0.375
 40
0.375
 40
0.4375
 40
0.4375
 40
0.5
 40
0.5
 40
0.5625
 40
0.5625
 40
0.625
 40
0.625
 40
0.6875
 40
0.6875
 40
0.75
 40
0.75
 40
0.8125
 40
0.8125
 40
0.875
 40
0.875
 40
0.9375
 40
0.9375
 40
1.0
 40
1.0
 40
1.0
 40
1.0
 10
83.00007089150725
 20
-9.811395891234454
 30
0.0
 10
82.80166131642781
 20
-9.811395891234454
 30
0.0
 10
82.60660375804778
 20
-9.829462703658688
 30
0.0
 10
82.2229073668295
 20
-9.900087769583013
 30
0.0
 10
82.03226616888519
 20
-9.95351345615111
 30
0.0
 10
81.66901751286474
 20
-10.09240356271017
 30
0.0
 10
81.49676278106824
 20
-10.17720644052888
 30
0.0
 10
81.17076721729254
 20
-10.37669933002775
 30
0.0
 10
81.01656076107389
 20
-10.49233633693101
 30
0.0
 10
80.74010173581642
 20
-10.74362547892338
 30
0.0
 10
80.61598338801217
 20
-10.88019597826819
 30
0.0
 10
80.39667466516836
 20
-11.17515809698267
 30
0.0
 10
80.30360036338222
 20
-11.33117421633937
 30
0.0
 10
80.15395594456632
 20
-11.65208295692284
 30
0.0
 10
80.09628837733396
 20
-11.81935367448918
 30
0.0
 10
80.01921093819638
 20
-12.15936703246946
 30
0.0
 10
80.00014287335402
 20
-12.32921568145122
 30
0.0
 10
79.99999931257007
 20
-12.66847695287438
 30
0.0
 10
80.01955479825327
 20
-12.83960992725562
 30
0.0
 10
80.09624464435286
 20
-13.16843923322362
 30
0.0
 10
80.152967535644
 20
-13.32716864157446
 30
0.0
 10
80.30342380684017
 20
-13.63357194013531
 30
0.0
 10
80.39733052360003
 20
-13.78045304299135
 30
0.0
 10
80.61446815017483
 20
-14.0509423798361
 30
0.0
 10
80.73855611822317
 20
-14.17636554639565
 30
0.0
 10
81.0184707524144
 20
-14.40691285175048
 30
0.0
 10
81.16984995077465
 20
-14.50841620498133
 30
0.0
 10
81.49462328213299
 20
-14.68564511216317
 30
0.0
 10
81.67010573067977
 20
-14.76197914579682
 30
0.0
 10
82.03336682936997
 20
-14.88393113291512
 30
0.0
 10
82.22039512358818
 20
-14.92976900079856
 30
0.0
 10
82.60520404492846
 20
-14.9917416068368
 30
0.0
 10
82.80418715223715
 20
-15.00754831394112
 30
0.0
 10
83.00007089150725
 20
-15.00754831394111
 30
0.0
  0
LINE
  5
93
330
1F
100
AcDbEntity
  8
1
 62
     4
420
    65535
100
AcDbLine
 10
96.0740890621
 20
-9.8113958912
 30
0.0
 11
96.0740890621
 21
9.8117989705
 31
0.0
  0
SPLINE
  5
94
330
1F
100
AcDbEntity
  8
1
 62
     4
420
    65535
100
AcDbSpline
210
0.0
220
0.0
230
1.0
 70
    11
 71
     3
 72
    38
 73
    34
 74
     0
 42
0.00000001
 43
0.00000001
 12
1.0
 22
0.0
 32
0.0
 13
1.0
 23
0.0
 33
0.0
 40
0.0
 40
0.0
 40
0.0
 40
0.0
 40
0.0624999999999999
 40
0.0624999999999999
 40
0.1249999999999998
 40
0.1249999999999998
 40
0.1874999999999998
 40
0.1874999999999998
 40
0.2499999999999997
 40
0.2499999999999997
 40
0.3124999999999997
 40
0.3124999999999997
 40
0.3749999999999997
 40
0.3749999999999997
 40
0.4374999999999997
 40
0.4374999999999997
 40
0.4999999999999998
 40
0.4999999999999998
 40
0.5624999999999998
 40
0.5624999999999998
 40
0.6249999999999998
 40
0.6249999999999998
 40
0.6874999999999999
 40
0.6874999999999999
 40
0.7499999999999999
 40
0.7499999999999999
 40
0.8124999999999999
 40
0.8124999999999999
 40
0.8749999999999999
 40
0.8749999999999999
 40
0.9375
 40
0.9375
 40
1.0
 40
1.0
 40
1.0
 40
1.0
 10
83.00007089150726
 20
-24.81914574478546
 30
0.0
 10
82.8017246008975
 20
-24.81914574478546
 30
0.0
 10
82.6067115980407
 20
-24.82152194373521
 30
0.0
 10
82.2230715767276
 20
-24.83056472091975
 30
0.0
 10
82.03243935518547
 20
-24.83733884840307
 30
0.0
 10
81.66929520457465
 20
-24.85413541925951
 30
0.0
 10
81.4970619399955
 20
-24.86408179617062
 30
0.0
 10
81.17106250756541
 20
-24.88591550508347
 30
0.0
 10
81.0168934161584
 20
-24.89787125783987
 30
0.0
 10
80.74047318639933
 20
-24.92141192977258
 30
0.0
 10
80.61634318678185
 20
-24.93311446046752
 30
0.0
 10
80.39697277373591
 20
-24.95504257460757
 30
0.0
 10
80.30392496021787
 20
-24.96504768221274
 30
0.0
 10
80.15422155738057
 20
-24.98165836427751
 30
0.0
 10
80.09654110536468
 20
-24.98837610443496
 30
0.0
 10
80.0192660726288
 20
-24.9974728486545
 30
0.0
 10
79.99992524190463
 20
-24.99981593080618
 30
0.0
 10
80.00021817713912
 20
-24.99978077858747
 30
0.0
 10
80.01983740215447
 20
-24.99740525962006
 30
0.0
 10
80.0964114614006
 20
-24.98839170058461
 30
0.0
 10
80.15431134001943
 20
-24.98164641335617
 30
0.0
 10
80.30517447430778
 20
-24.96491104614996
 30
0.0
 10
80.39743514457898
 20
-24.9549975312942
 30
0.0
 10
80.61533805252566
 20
-24.93321376095775
 30
0.0
 10
80.74201507974082
 20
-24.92127154172956
 30
0.0
 10
81.01866419934697
 20
-24.89772963899633
 30
0.0
 10
81.16963781148083
 20
-24.88601374112221
 30
0.0
 10
81.49762918531628
 20
-24.86404099498164
 30
0.0
 10
81.67198054117658
 20
-24.85399975813707
 30
0.0
 10
82.03292896976699
 20
-24.83732775915638
 30
0.0
 10
82.22220203622022
 20
-24.83057777192709
 30
0.0
 10
82.6094958643533
 20
-24.82146379763256
 30
0.0
 10
82.80424508445303
 20
-24.81914574478546
 30
0.0
 10
83.00007089150724
 20
-24.81914574478546
 30
0.0
  0
LINE
  5
95
330
1F
100
AcDbEntity
  8
1
 62
     4
420
    65535
100
AcDbLine
 10
96.0740890621
 20
-15.0075483139
 30
0.0
 11
96.0740890621
 21
-24.8191457448
 31
0.0
  0
SPLINE
  5
96
330
1F
100
AcDbEntity
  8
1
 62
     4
420
    65535
100
AcDbSpline
210
0.0
220
0.0
230
1.0
 70
     8
 71
     3
 72
    38
 73
    34
 74
     0
 42
0.00000001
 43
0.00000001
 12
1.0
 22
0.0
 32
0.0
 13
1.0
 23
0.0
 33
0.0
 40
0.0
 40
0.0
 40
0.0
 40
0.0
 40
0.0625
 40
0.0625
 40
0.125
 40
0.125
 40
0.1875
 40
0.1875
 40
0.25
 40
0.25
 40
0.3125
 40
0.3125
 40
0.375
 40
0.375
 40
0.4375
 40
0.4375
 40
0.5
 40
0.5
 40
0.5625
 40
0.5625
 40
0.625
 40
0.625
 40
0.6875
 40
0.6875
 40
0.75
 40
0.75
 40
0.8125
 40
0.8125
 40
0.875
 40
0.875
 40
0.9375
 40
0.9375
 40
1.0
 40
1.0
 40
1.0
 40
1.0
 10
83.00007089150725
 20
-15.0075483139414
 30
0.0
 10
82.80166131642781
 20
-15.0075483139414
 30
0.0
 10
82.60660375804778
 20
-14.99185919216823
 30
0.0
 10
82.2229073668295
 20
-14.93028033325744
 30
0.0
 10
82.03226616888519
 20
-14.88363021964242
 30
0.0
 10
81.66901751286474
 20
-14.76154480652145
 30
0.0
 10
81.49676278106824
 20
-14.68669191501253
 30
0.0
 10
81.17076721729256
 20
-14.50903635304846
 30
0.0
 10
81.01656076107386
 20
-14.40535977411218
 30
0.0
 10
80.7401017358164
 20
-14.17761848685199
 30
0.0
 10
80.61598338801217
 20
-14.05275147835284
 30
0.0
 10
80.39667466516836
 20
-13.77971417050746
 30
0.0
 10
80.30360036338222
 20
-13.63370707110307
 30
0.0
 10
80.15395594456632
 20
-13.32940421440613
 30
0.0
 10
80.09628837733396
 20
-13.16885040764161
 30
0.0
 10
80.01921093819638
 20
-12.83791100148474
 30
0.0
 10
80.00014287335402
 20
-12.67037259397673
 30
0.0
 10
79.99999931257007
 20
-12.3311285498465
 30
0.0
 10
80.01955479825327
 20
-12.15762739913214
 30
0.0
 10
80.09624464435286
 20
-11.81977022486205
 30
0.0
 10
80.152967535644
 20
-11.65442995216719
 30
0.0
 10
80.30342380684017
 20
-11.33132721330622
 30
0.0
 10
80.39733052360003
 20
-11.17435551195207
 30
0.0
 10
80.61446815017483
 20
-10.88215471084793
 30
0.0
 10
80.73855611822317
 20
-10.74500905437591
 30
0.0
 10
81.0184707524144
 20
-10.49062158948282
 30
0.0
 10
81.16984995077465
 20
-10.37739090190956
 30
0.0
 10
81.49462328213302
 20
-10.17838667530873
 30
0.0
 10
81.67010573067975
 20
-10.09191092055815
 30
0.0
 10
82.03336682936998
 20
-9.953169631466244
 30
0.0
 10
82.22039512358818
 20
-9.900673559326908
 30
0.0
 10
82.60520404492846
 20
-9.829598215851782
 30
0.0
 10
82.80418715223715
 20
-9.811395891234781
 30
0.0
 10
83.00007089150725
 20
-9.811395891234787
 30
0.0
  0
LINE
  5
97
330
1F
100
AcDbEntity
  8
1
 62
     4
420
    65535
100
AcDbLine
 10
96.0740890621
 20
9.8117989705
 30
0.0
 11
96.0740890621
 21
-9.8113958912
 31
0.0
  0
SPLINE
  5
98
330
1F
100
AcDbEntity
  8
1
 62
     4
420
    65535
100
AcDbSpline
210
0.0
220
0.0
230
1.0
 70
     8
 71
     3
 72
    38
 73
    34
 74
     0
 42
0.00000001
 43
0.00000001
 12
1.0
 22
0.0
 32
0.0
 13
1.0
 23
0.0
 33
0.0
 40
0.0
 40
0.0
 40
0.0
 40
0.0
 40
0.0625
 40
0.0625
 40
0.125
 40
0.125
 40
0.1875
 40
0.1875
 40
0.25
 40
0.25
 40
0.3125
 40
0.3125
 40
0.375
 40
0.375
 40
0.4375
 40
0.4375
 40
0.5
 40
0.5
 40
0.5625
 40
0.5625
 40
0.625
 40
0.625
 40
0.6875
 40
0.6875
 40
0.75
 40
0.75
 40
0.8125
 40
0.8125
 40
0.875
 40
0.875
 40
0.9375
 40
0.9375
 40
1.0
 40
1.0
 40
1.0
 40
1.0
 10
83.00007089150725
 20
9.811798970453568
 30
0.0
 10
82.80166131642781
 20
9.81179897045357
 30
0.0
 10
82.60660375804778
 20
9.829865782877807
 30
0.0
 10
82.2229073668295
 20
9.900490848802132
 30
0.0
 10
82.03226616888519
 20
9.953916535370228
 30
0.0
 10
81.66901751286474
 20
10.09280664192929
 30
0.0
 10
81.49676278106824
 20
10.177609519748
 30
0.0
 10
81.17076721729254
 20
10.37710240924686
 30
0.0
 10
81.01656076107389
 20
10.49273941615012
 30
0.0
 10
80.74010173581642
 20
10.74402855814249
 30
0.0
 10
80.61598338801217
 20
10.88059905748731
 30
0.0
 10
80.39667466516836
 20
11.17556117620178
 30
0.0
 10
80.30360036338222
 20
11.33157729555849
 30
0.0
 10
80.15395594456632
 20
11.65248603614196
 30
0.0
 10
80.09628837733396
 20
11.81975675370829
 30
0.0
 10
80.01921093819638
 20
12.15977011168856
 30
0.0
 10
80.00014287335402
 20
12.32961876067032
 30
0.0
 10
79.99999931257007
 20
12.66888003209349
 30
0.0
 10
80.01955479825327
 20
12.84001300647473
 30
0.0
 10
80.09624464435286
 20
13.16884231244272
 30
0.0
 10
80.152967535644
 20
13.32757172079356
 30
0.0
 10
80.30342380684017
 20
13.63397501935441
 30
0.0
 10
80.39733052360003
 20
13.78085612221045
 30
0.0
 10
80.61446815017483
 20
14.0513454590552
 30
0.0
 10
80.73855611822317
 20
14.17676862561474
 30
0.0
 10
81.0184707524144
 20
14.40731593096958
 30
0.0
 10
81.16984995077465
 20
14.50881928420043
 30
0.0
 10
81.49462328213299
 20
14.68604819138227
 30
0.0
 10
81.67010573067977
 20
14.76238222501592
 30
0.0
 10
82.03336682936997
 20
14.88433421213422
 30
0.0
 10
82.22039512358818
 20
14.93017208001766
 30
0.0
 10
82.60520404492846
 20
14.9921446860559
 30
0.0
 10
82.80418715223715
 20
15.00795139316021
 30
0.0
 10
83.00007089150725
 20
15.00795139316021
 30
0.0
  0
LINE
  5
99
330
1F
100
AcDbEntity
  8
1
 62
     4
420
    65535
100
AcDbLine
 10
96.0740890621
 20
24.819548824
 30
0.0
 11
96.0740890621
 21
15.0079513932
 31
0.0
  0
LINE
  5
9A
330
1F
100
AcDbEntity
  8
1
 62
     4
420
    65535
100
AcDbLine
 10
96.0740890621
 20
24.819548824
 30
0.0
 11
83.0000708915
 21
24.819548824
 31
0.0
  0
SPLINE
  5
9B
330
1F
100
AcDbEntity
  8
1
 62
     4
420
    65535
100
AcDbSpline
210
0.0
220
0.0
230
1.0
 70
    11
 71
     3
 72
    38
 73
    34
 74
     0
 42
0.00000001
 43
0.00000001
 12
1.0
 22
0.0
 32
0.0
 13
1.0
 23
0.0
 33
0.0
 40
0.0
 40
0.0
 40
0.0
 40
0.0
 40
0.0624999999999999
 40
0.0624999999999999
 40
0.1249999999999998
 40
0.1249999999999998
 40
0.1874999999999998
 40
0.1874999999999998
 40
0.2499999999999997
 40
0.2499999999999997
 40
0.3124999999999997
 40
0.3124999999999997
 40
0.3749999999999997
 40
0.3749999999999997
 40
0.4374999999999997
 40
0.4374999999999997
 40
0.4999999999999998
 40
0.4999999999999998
 40
0.5624999999999998
 40
0.5624999999999998
 40
0.6249999999999998
 40
0.6249999999999998
 40
0.6874999999999999
 40
0.6874999999999999
 40
0.7499999999999999
 40
0.7499999999999999
 40
0.8124999999999999
 40
0.8124999999999999
 40
0.8749999999999999
 40
0.8749999999999999
 40
0.9375
 40
0.9375
 40
1.0
 40
1.0
 40
1.0
 40
1.0
 10
83.00007089150725
 20
24.81954882400441
 30
0.0
 10
82.80170659385662
 20
24.81954882400442
 30
0.0
 10
82.60669279762081
 20
24.82192542993021
 30
0.0
 10
82.22308100892903
 20
24.83096761398177
 30
0.0
 10
82.03248204341371
 20
24.83774012272266
 30
0.0
 10
81.66929901421582
 20
24.85453815272532
 30
0.0
 10
81.49707315993952
 20
24.86448436891586
 30
0.0
 10
81.17112639977329
 20
24.88631406021997
 30
0.0
 10
81.01693379358022
 20
24.89827104448141
 30
0.0
 10
80.74048583603056
 20
24.921813785674
 30
0.0
 10
80.61636709564218
 20
24.93351535199847
 30
0.0
 10
80.3970417714249
 20
24.95543855472602
 30
0.0
 10
80.30393892215189
 20
24.96544924877708
 30
0.0
 10
80.15423226815089
 20
24.98206021854099
 30
0.0
 10
80.0965272222469
 20
24.98878086504203
 30
0.0
 10
80.0193417677804
 20
24.9978669700685
 30
0.0
 10
80.00021346045904
 20
25.00018442380771
 30
0.0
 10
79.99992989529723
 20
25.00021845161835
 30
0.0
 10
80.01940373212376
 20
24.99786008600594
 30
0.0
 10
80.09592365952487
 20
24.98885150778965
 30
0.0
 10
80.15255523141091
 20
24.98225050958694
 30
0.0
 10
80.30280666295693
 20
24.96557074622198
 30
0.0
 10
80.39661612666198
 20
24.95548813749116
 30
0.0
 10
80.61354794585121
 20
24.93379021512827
 30
0.0
 10
80.73750170447661
 20
24.92207545714198
 30
0.0
 10
81.01722611207579
 20
24.89823868422401
 30
0.0
 10
81.16850802509464
 20
24.88651112468835
 30
0.0
 10
81.49307535393213
 20
24.86473084907033
 30
0.0
 10
81.66844132822933
 20
24.85458436403328
 30
0.0
 10
82.03154989793241
 20
24.83777672730066
 30
0.0
 10
82.21850055015013
 20
24.83110737016062
 30
0.0
 10
82.60314736535886
 20
24.82197787517457
 30
0.0
 10
82.80170696361219
 20
24.81954882400441
 30
0.0
 10
83.00007089150725
 20
24.81954882400441
 30
0.0
  0
SPLINE
  5
9C
330
1F
100
AcDbEntity
  8
1
 62
     4
420
    65535
100
AcDbSpline
210
0.0
220
0.0
230
1.0
 70
     8
 71
     3
 72
     8
 73
     4
 74
     0
 42
0.00000001
 43
0.00000001
 12
1.0
 22
0.0
 32
0.0
 13
1.0
 23
0.0
 33
0.0
 40
0.0
 40
0.0
 40
0.0
 40
0.0
 40
1.0
 40
1.0
 40
1.0
 40
1.0
 10
98.15046965413721
 20
8.402125328256407
 30
0.0
 10
98.3064849443849
 20
10.13417613582527
 30
0.0
 10
98.3064849443849
 20
11.86622694339413
 30
0.0
 10
98.15046965413721
 20
13.598277750963
 30
0.0
  0
LINE
  5
9D
330
1F
100
AcDbEntity
  8
1
 62
     4
420
    65535
100
AcDbLine
 10
99.8928912146
 20
19.1858421799
 30
0.0
 11
99.8928912146
 21
-19.1854391007
 31
0.0
  0
SPLINE
  5
9E
330
1F
100
AcDbEntity
  8
1
 62
     4
420
    65535
100
AcDbSpline
210
0.0
220
0.0
230
1.0
 70
     8
 71
     3
 72
     8
 73
     4
 74
     0
 42
0.00000001
 43
0.00000001
 12
1.0
 22
0.0
 32
0.0
 13
1.0
 23
0.0
 33
0.0
 40
0.0
 40
0.0
 40
0.0
 40
0.0
 40
1.0
 40
1.0
 40
1.0
 40
1.0
 10
96.76690938510728
 20
24.41658947127184
 30
0.0
 10
97.22837942453111
 20
23.61128923240958
 30
0.0
 10
97.68959700252837
 20
22.8058439939375
 30
0.0
 10
98.15046965413718
 20
22.00020153960947
 30
0.0
  0
SPLINE
  5
9F
330
1F
100
AcDbEntity
  8
1
 62
     4
420
    65535
100
AcDbSpline
210
0.0
220
0.0
230
1.0
 70
     8
 71
     3
 72
     8
 73
     4
 74
     0
 42
0.00000001
 43
0.00000001
 12
1.0
 22
0.0
 32
0.0
 13
1.0
 23
0.0
 33
0.0
 40
0.000000266057425
 40
0.000000266057425
 40
0.000000266057425
 40
0.000000266057425
 40
0.0027847174673658
 40
0.0027847174673658
 40
0.0027847174673658
 40
0.0027847174673658
 10
98.15046965413718
 20
13.598277750963
 30
0.0
 10
97.68959702133107
 20
14.00109896169272
 30
0.0
 10
97.22837948424011
 20
14.4038215452647
 30
0.0
 10
96.76690938510728
 20
14.80647171679421
 30
0.0
  0
LINE
  5
A0
330
1F
100
AcDbEntity
  8
1
 62
     4
420
    65535
100
AcDbLine
 10
96.0740890621
 20
-24.8191457448
 30
0.0
 11
96.0740890621
 21
-15.0075483139
 31
0.0
  0
SPLINE
  5
A1
330
1F
100
AcDbEntity
  8
1
 62
     4
420
    65535
100
AcDbSpline
210
0.0
220
0.0
230
1.0
 70
     8
 71
     3
 72
     8
 73
     4
 74
     0
 42
0.00000001
 43
0.00000001
 12
1.0
 22
0.0
 32
0.0
 13
1.0
 23
0.0
 33
0.0
 40
0.0
 40
0.0
 40
0.0
 40
0.0
 40
1.0
 40
1.0
 40
1.0
 40
1.0
 10
98.15046965413718
 20
22.00020153960948
 30
0.0
 10
97.68959700252837
 20
22.80584399393751
 30
0.0
 10
97.22837942453111
 20
23.61128923240959
 30
0.0
 10
96.76690938510728
 20
24.41658947127184
 30
0.0
  0
LINE
  5
A2
330
1F
100
AcDbEntity
  8
1
 62
     4
420
    65535
100
AcDbLine
 10
96.7669093851
 20
24.4165894713
 30
0.0
 11
96.7669093851
 21
14.8064717168
 31
0.0
  0
SPLINE
  5
A3
330
1F
100
AcDbEntity
  8
1
 62
     4
420
    65535
100
AcDbSpline
210
0.0
220
0.0
230
1.0
 70
     8
 71
     3
 72
     8
 73
     4
 74
     0
 42
0.00000001
 43
0.00000001
 12
1.0
 22
0.0
 32
0.0
 13
1.0
 23
0.0
 33
0.0
 40
0.0000004022580618
 40
0.0000004022580618
 40
0.0000004022580618
 40
0.0000004022580618
 40
0.0027848536680027
 40
0.0027848536680027
 40
0.0027848536680027
 40
0.0027848536680027
 10
96.76690938510728
 20
14.80647171679393
 30
0.0
 10
97.22837948424011
 20
14.40382154526442
 30
0.0
 10
97.68959702133107
 20
14.00109896169245
 30
0.0
 10
98.15046965413718
 20
13.59827775096275
 30
0.0
  0
SPLINE
  5
A4
330
1F
100
AcDbEntity
  8
1
 62
     4
420
    65535
100
AcDbSpline
210
0.0
220
0.0
230
1.0
 70
    27
 71
     3
 72
    12
 73
     8
 74
     0
 42
0.00000001
 43
0.00000001
 12
1.0
 22
0.0
 32
0.0
 13
1.0
 23
0.0
 33
0.0
 40
0.0
 40
0.0
 40
0.0
 40
0.0
 40
0.2499999999999999
 40
0.2499999999999999
 40
0.4999999999999999
 40
0.4999999999999999
 40
1.0
 40
1.0
 40
1.0
 40
1.0
 10
98.15046965413718
 20
22.00020153960947
 30
0.0
 10
98.18955394662399
 20
22.00020153960948
 30
0.0
 10
98.21916568099128
 20
22.00020153960947
 30
0.0
 10
98.25841927890525
 20
22.00020153960946
 30
0.0
 10
98.26814820503434
 20
22.00020153960947
 30
0.0
 10
98.26776000592547
 20
22.00020153960947
 30
0.0
 10
98.2279457245944
 20
22.00020153960947
 30
0.0
 10
98.15046965413718
 20
22.00020153960947
 30
0.0
  0
SPLINE
  5
A5
330
1F
100
AcDbEntity
  8
1
 62
     4
420
    65535
100
AcDbSpline
210
0.0
220
0.0
230
1.0
 70
     8
 71
     3
 72
     8
 73
     4
 74
     0
 42
0.00000001
 43
0.00000001
 12
1.0
 22
0.0
 32
0.0
 13
1.0
 23
0.0
 33
0.0
 40
0.0000004022580618
 40
0.0000004022580618
 40
0.0000004022580618
 40
0.0000004022580618
 40
0.0027848536680027
 40
0.0027848536680027
 40
0.0027848536680027
 40
0.0027848536680027
 10
96.76690938510728
 20
-9.609916214868491
 30
0.0
 10
97.22837948424011
 20
-9.207266043338983
 30
0.0
 10
97.68959702133107
 20
-8.804543459767007
 30
0.0
 10
98.15046965413718
 20
-8.401722249037297
 30
0.0
  0
SPLINE
  5
A6
330
1F
100
AcDbEntity
  8
1
 62
     4
420
    65535
100
AcDbSpline
210
0.0
220
0.0
230
1.0
 70
     8
 71
     3
 72
     8
 73
     4
 74
     0
 42
0.00000001
 43
0.00000001
 12
1.0
 22
0.0
 32
0.0
 13
1.0
 23
0.0
 33
0.0
 40
0.0
 40
0.0
 40
0.0
 40
0.0
 40
1.0
 40
1.0
 40
1.0
 40
1.0
 10
98.15046965413721
 20
13.59827775096275
 30
0.0
 10
98.3064849443849
 20
11.86622694339387
 30
0.0
 10
98.3064849443849
 20
10.13417613582499
 30
0.0
 10
98.15046965413721
 20
8.402125328256114
 30
0.0
  0
SPLINE
  5
A7
330
1F
100
AcDbEntity
  8
1
 62
     4
420
    65535
100
AcDbSpline
210
0.0
220
0.0
230
1.0
 70
     8
 71
     3
 72
     8
 73
     4
 74
     0
 42
0.00000001
 43
0.00000001
 12
1.0
 22
0.0
 32
0.0
 13
1.0
 23
0.0
 33
0.0
 40
0.000000266057425
 40
0.000000266057425
 40
0.000000266057425
 40
0.000000266057425
 40
0.0027847174673658
 40
0.0027847174673658
 40
0.0027847174673658
 40
0.0027847174673658
 10
98.15046965413718
 20
8.402125328256108
 30
0.0
 10
97.68959702133107
 20
8.804946538985813
 30
0.0
 10
97.22837948424011
 20
9.207669122557785
 30
0.0
 10
96.76690938510728
 20
9.610319294087288
 30
0.0
  0
SPLINE
  5
A8
330
1F
100
AcDbEntity
  8
1
 62
     4
420
    65535
100
AcDbSpline
210
0.0
220
0.0
230
1.0
 70
     8
 71
     3
 72
     8
 73
     4
 74
     0
 42
0.00000001
 43
0.00000001
 12
1.0
 22
0.0
 32
0.0
 13
1.0
 23
0.0
 33
0.0
 40
0.000000266057425
 40
0.000000266057425
 40
0.000000266057425
 40
0.000000266057425
 40
0.0027847174673658
 40
0.0027847174673658
 40
0.0027847174673658
 40
0.0027847174673658
 10
98.15046965413718
 20
-13.59787467174391
 30
0.0
 10
97.68959702133107
 20
-14.00069588247362
 30
0.0
 10
97.22837948424011
 20
-14.4034184660456
 30
0.0
 10
96.76690938510728
 20
-14.80606863757511
 30
0.0
  0
LINE
  5
A9
330
1F
100
AcDbEntity
  8
1
 62
     4
420
    65535
100
AcDbLine
 10
96.7669093851
 20
-14.8060686376
 30
0.0
 11
96.7669093851
 21
-24.4161863921
 31
0.0
  0
SPLINE
  5
AA
330
1F
100
AcDbEntity
  8
1
 62
     4
420
    65535
100
AcDbSpline
210
0.0
220
0.0
230
1.0
 70
     8
 71
     3
 72
     8
 73
     4
 74
     0
 42
0.00000001
 43
0.00000001
 12
1.0
 22
0.0
 32
0.0
 13
1.0
 23
0.0
 33
0.0
 40
0.0
 40
0.0
 40
0.0
 40
0.0
 40
1.0
 40
1.0
 40
1.0
 40
1.0
 10
96.76690938510728
 20
-24.41618639205288
 30
0.0
 10
97.22837960490021
 20
-23.61088583843283
 30
0.0
 10
97.68959715282972
 20
-22.80544065197968
 30
0.0
 10
98.15046965413718
 20
-21.9997984603905
 30
0.0
  0
SPLINE
  5
AB
330
1F
100
AcDbEntity
  8
1
 62
     4
420
    65535
100
AcDbSpline
210
0.0
220
0.0
230
1.0
 70
    27
 71
     3
 72
    12
 73
     8
 74
     0
 42
0.00000001
 43
0.00000001
 12
1.0
 22
0.0
 32
0.0
 13
1.0
 23
0.0
 33
0.0
 40
0.0
 40
0.0
 40
0.0
 40
0.0
 40
0.5
 40
0.5
 40
0.75
 40
0.75
 40
1.0
 40
1.0
 40
1.0
 40
1.0
 10
98.1504696541372
 20
-21.9997984603905
 30
0.0
 10
98.22794572459442
 20
-21.9997984603905
 30
0.0
 10
98.26776000592547
 20
-21.9997984603905
 30
0.0
 10
98.26814820503434
 20
-21.9997984603905
 30
0.0
 10
98.25841927890528
 20
-21.9997984603905
 30
0.0
 10
98.2191656809913
 20
-21.9997984603905
 30
0.0
 10
98.18955394662402
 20
-21.9997984603905
 30
0.0
 10
98.1504696541372
 20
-21.9997984603905
 30
0.0
  0
SPLINE
  5
AC
330
1F
100
AcDbEntity
  8
1
 62
     4
420
    65535
100
AcDbSpline
210
0.0
220
0.0
230
1.0
 70
     8
 71
     3
 72
     8
 73
     4
 74
     0
 42
0.00000001
 43
0.00000001
 12
1.0
 22
0.0
 32
0.0
 13
1.0
 23
0.0
 33
0.0
 40
0.0
 40
0.0
 40
0.0
 40
0.0
 40
1.0
 40
1.0
 40
1.0
 40
1.0
 10
98.1504696541372
 20
-21.9997984603905
 30
0.0
 10
97.68959715282973
 20
-22.80544065197968
 30
0.0
 10
97.22837960490021
 20
-23.61088583843283
 30
0.0
 10
96.76690938510728
 20
-24.41618639205288
 30
0.0
  0
LINE
  5
AD
330
1F
100
AcDbEntity
  8
1
 62
     4
420
    65535
100
AcDbLine
 10
96.7669093851
 20
-24.4161863921
 30
0.0
 11
96.7669093851
 21
-14.8060686376
 31
0.0
  0
SPLINE
  5
AE
330
1F
100
AcDbEntity
  8
1
 62
     4
420
    65535
100
AcDbSpline
210
0.0
220
0.0
230
1.0
 70
     8
 71
     3
 72
     8
 73
     4
 74
     0
 42
0.00000001
 43
0.00000001
 12
1.0
 22
0.0
 32
0.0
 13
1.0
 23
0.0
 33
0.0
 40
0.0000004022580618
 40
0.0000004022580618
 40
0.0000004022580618
 40
0.0000004022580618
 40
0.0027848536680027
 40
0.0027848536680027
 40
0.0027848536680027
 40
0.0027848536680027
 10
96.76690938510728
 20
-14.80606863757483
 30
0.0
 10
97.22837948424011
 20
-14.40341846604533
 30
0.0
 10
97.68959702133108
 20
-14.00069588247336
 30
0.0
 10
98.1504696541372
 20
-13.59787467174365
 30
0.0
  0
SPLINE
  5
AF
330
1F
100
AcDbEntity
  8
1
 62
     4
420
    65535
100
AcDbSpline
210
0.0
220
0.0
230
1.0
 70
     8
 71
     3
 72
     8
 73
     4
 74
     0
 42
0.00000001
 43
0.00000001
 12
1.0
 22
0.0
 32
0.0
 13
1.0
 23
0.0
 33
0.0
 40
0.0
 40
0.0
 40
0.0
 40
0.0
 40
1.0
 40
1.0
 40
1.0
 40
1.0
 10
98.15046965413721
 20
-8.401722249037295
 30
0.0
 10
98.3064849443849
 20
-10.13377305660617
 30
0.0
 10
98.3064849443849
 20
-11.86582386417504
 30
0.0
 10
98.15046965413721
 20
-13.59787467174391
 30
0.0
  0
LINE
  5
B0
330
1F
100
AcDbEntity
  8
1
 62
     4
420
    65535
100
AcDbLine
 10
96.7669093851
 20
9.6103192941
 30
0.0
 11
96.7669093851
 21
-9.6099162149
 31
0.0
  0
SPLINE
  5
B1
330
1F
100
AcDbEntity
  8
1
 62
     4
420
    65535
100
AcDbSpline
210
0.0
220
0.0
230
1.0
 70
     8
 71
     3
 72
     8
 73
     4
 74
     0
 42
0.00000001
 43
0.00000001
 12
1.0
 22
0.0
 32
0.0
 13
1.0
 23
0.0
 33
0.0
 40
0.0
 40
0.0
 40
0.0
 40
0.0
 40
1.0
 40
1.0
 40
1.0
 40
1.0
 10
98.15046965413721
 20
-13.59787467174366
 30
0.0
 10
98.3064849443849
 20
-11.86582386417477
 30
0.0
 10
98.3064849443849
 20
-10.13377305660589
 30
0.0
 10
98.15046965413721
 20
-8.401722249037
 30
0.0
  0
SPLINE
  5
B2
330
1F
100
AcDbEntity
  8
1
 62
     4
420
    65535
100
AcDbSpline
210
0.0
220
0.0
230
1.0
 70
     8
 71
     3
 72
    10
 73
     6
 74
     0
 42
0.00000001
 43
0.00000001
 12
1.0
 22
0.0
 32
0.0
 13
1.0
 23
0.0
 33
0.0
 40
0.0
 40
0.0
 40
0.0
 40
0.0
 40
0.5
 40
0.5
 40
1.0
 40
1.0
 40
1.0
 40
1.0
 10
96.76690938510728
 20
-24.41618639205288
 30
0.0
 10
96.69702862855578
 20
-24.53813361535055
 30
0.0
 10
96.59625915031597
 20
-24.64007332487769
 30
0.0
 10
96.35239552971282
 20
-24.78201449047089
 30
0.0
 10
96.21325714964853
 20
-24.81914574478545
 30
0.0
 10
96.07408906207972
 20
-24.81914574478544
 30
0.0
  0
SPLINE
  5
B3
330
1F
100
AcDbEntity
  8
1
 62
     4
420
    65535
100
AcDbSpline
210
0.0
220
0.0
230
1.0
 70
     8
 71
     3
 72
     8
 73
     4
 74
     0
 42
0.00000001
 43
0.00000001
 12
1.0
 22
0.0
 32
0.0
 13
1.0
 23
0.0
 33
0.0
 40
0.000000266057425
 40
0.000000266057425
 40
0.000000266057425
 40
0.000000266057425
 40
0.0027847174673659
 40
0.0027847174673659
 40
0.0027847174673659
 40
0.0027847174673659
 10
98.15046965413718
 20
-8.401722249037002
 30
0.0
 10
97.68959702133107
 20
-8.804543459766702
 30
0.0
 10
97.22837948424011
 20
-9.20726604333867
 30
0.0
 10
96.76690938510728
 20
-9.609916214868168
 30
0.0
  0
SPLINE
  5
B4
330
1F
100
AcDbEntity
  8
1
 62
     4
420
    65535
100
AcDbSpline
210
0.0
220
0.0
230
1.0
 70
     8
 71
     3
 72
    12
 73
     8
 74
     0
 42
0.00000001
 43
0.00000001
 12
1.0
 22
0.0
 32
0.0
 13
1.0
 23
0.0
 33
0.0
 40
0.0
 40
0.0
 40
0.0
 40
0.0
 40
0.4999999999999973
 40
0.4999999999999973
 40
0.7499999999999987
 40
0.7499999999999987
 40
1.0
 40
1.0
 40
1.0
 40
1.0
 10
96.76690938510728
 20
-14.80606863757511
 30
0.0
 10
96.69662298611252
 20
-14.86739618764741
 30
0.0
 10
96.59487926462198
 20
-14.9184024322386
 30
0.0
 10
96.41419578029658
 20
-14.97100284535196
 30
0.0
 10
96.3482376764375
 20
-14.98477261205652
 30
0.0
 10
96.21372430036864
 20
-15.00291010451368
 30
0.0
 10
96.14478658979355
 20
-15.0075483139414
 30
0.0
 10
96.07408906207972
 20
-15.00754831394139
 30
0.0
  0
SPLINE
  5
B5
330
1F
100
AcDbEntity
  8
1
 62
     4
420
    65535
100
AcDbSpline
210
0.0
220
0.0
230
1.0
 70
     8
 71
     3
 72
     8
 73
     4
 74
     0
 42
0.00000001
 43
0.00000001
 12
1.0
 22
0.0
 32
0.0
 13
1.0
 23
0.0
 33
0.0
 40
0.0000004022580618
 40
0.0000004022580618
 40
0.0000004022580618
 40
0.0000004022580618
 40
0.0027848536680027
 40
0.0027848536680027
 40
0.0027848536680027
 40
0.0027848536680027
 10
96.76690938510728
 20
9.610319294087619
 30
0.0
 10
97.22837948424011
 20
9.207669122558105
 30
0.0
 10
97.68959702133107
 20
8.804946538986123
 30
0.0
 10
98.15046965413718
 20
8.402125328256409
 30
0.0
  0
SPLINE
  5
B6
330
1F
100
AcDbEntity
  8
1
 62
     4
420
    65535
100
AcDbSpline
210
0.0
220
0.0
230
1.0
 70
     8
 71
     3
 72
    10
 73
     6
 74
     0
 42
0.00000001
 43
0.00000001
 12
1.0
 22
0.0
 32
0.0
 13
1.0
 23
0.0
 33
0.0
 40
0.0
 40
0.0
 40
0.0
 40
0.0
 40
0.5
 40
0.5
 40
1.0
 40
1.0
 40
1.0
 40
1.0
 10
96.07408906207972
 20
-15.00754831394111
 30
0.0
 10
96.21530405499031
 20
-15.00754831394111
 30
0.0
 10
96.35409771077168
 20
-14.98850037034087
 30
0.0
 10
96.59478083968352
 20
-14.91842925622622
 30
0.0
 10
96.69670647054933
 20
-14.86732334430829
 30
0.0
 10
96.7669093851073
 20
-14.80606863757484
 30
0.0
  0
SPLINE
  5
B7
330
1F
100
AcDbEntity
  8
1
 62
     4
420
    65535
100
AcDbSpline
210
0.0
220
0.0
230
1.0
 70
     8
 71
     3
 72
    12
 73
     8
 74
     0
 42
0.00000001
 43
0.00000001
 12
1.0
 22
0.0
 32
0.0
 13
1.0
 23
0.0
 33
0.0
 40
0.0
 40
0.0
 40
0.0
 40
0.0
 40
0.4999999999999981
 40
0.4999999999999981
 40
0.749999999999999
 40
0.749999999999999
 40
1.0
 40
1.0
 40
1.0
 40
1.0
 10
96.76690938510728
 20
9.610319294087294
 30
0.0
 10
96.6966229861125
 20
9.671646844159591
 30
0.0
 10
96.59487926462198
 20
9.722653088750784
 30
0.0
 10
96.41419578029652
 20
9.775253501864123
 30
0.0
 10
96.3482376764375
 20
9.789023268568695
 30
0.0
 10
96.21372430036867
 20
9.807160761025857
 30
0.0
 10
96.14478658979358
 20
9.811798970453571
 30
0.0
 10
96.07408906207972
 20
9.811798970453571
 30
0.0
  0
SPLINE
  5
B8
330
1F
100
AcDbEntity
  8
1
 62
     4
420
    65535
100
AcDbSpline
210
0.0
220
0.0
230
1.0
 70
     8
 71
     3
 72
    10
 73
     6
 74
     0
 42
0.00000001
 43
0.00000001
 12
1.0
 22
0.0
 32
0.0
 13
1.0
 23
0.0
 33
0.0
 40
0.0
 40
0.0
 40
0.0
 40
0.0
 40
0.5
 40
0.5
 40
1.0
 40
1.0
 40
1.0
 40
1.0
 10
96.07408906207972
 20
15.00795139316021
 30
0.0
 10
96.21530405499031
 20
15.00795139316021
 30
0.0
 10
96.35409771077168
 20
14.98890344955997
 30
0.0
 10
96.59478083968352
 20
14.91883233544531
 30
0.0
 10
96.69670647054936
 20
14.86772642352736
 30
0.0
 10
96.7669093851073
 20
14.80647171679393
 30
0.0
  0
SPLINE
  5
B9
330
1F
100
AcDbEntity
  8
1
 62
     4
420
    65535
100
AcDbSpline
210
0.0
220
0.0
230
1.0
 70
     8
 71
     3
 72
    10
 73
     6
 74
     0
 42
0.00000001
 43
0.00000001
 12
1.0
 22
0.0
 32
0.0
 13
1.0
 23
0.0
 33
0.0
 40
0.0
 40
0.0
 40
0.0
 40
0.0
 40
0.5
 40
0.5
 40
1.0
 40
1.0
 40
1.0
 40
1.0
 10
96.76690938510728
 20
24.41658947127184
 30
0.0
 10
96.6970153148955
 20
24.53855992791698
 30
0.0
 10
96.59538500044388
 20
24.64082979896056
 30
0.0
 10
96.3545956547557
 20
24.7812915359027
 30
0.0
 10
96.21414802609416
 20
24.81954882400441
 30
0.0
 10
96.07408906207972
 20
24.81954882400441
 30
0.0
  0
LINE
  5
BA
330
1F
100
AcDbEntity
  8
1
 62
     4
420
    65535
100
AcDbLine
 10
77.5000708915
 20
23.0002015327
 30
0.0
 11
77.5000708915
 21
-22.9933823094
 31
0.0
  0
LINE
  5
BB
330
1F
100
AcDbEntity
  8
1
 62
     4
420
    65535
100
AcDbLine
 10
77.5000708915
 20
19.2502015338
 30
0.0
 11
77.5000708915
 21
-19.2497984546
 31
0.0
  0
SPLINE
  5
BC
330
1F
100
AcDbEntity
  8
1
 62
     4
420
    65535
100
AcDbSpline
210
0.0
220
0.0
230
1.0
 70
     8
 71
     3
 72
    10
 73
     6
 74
     0
 42
0.00000001
 43
0.00000001
 12
1.0
 22
0.0
 32
0.0
 13
1.0
 23
0.0
 33
0.0
 40
0.0
 40
0.0
 40
0.0
 40
0.0
 40
0.5
 40
0.5
 40
1.0
 40
1.0
 40
1.0
 40
1.0
 10
96.07408906207972
 20
-24.81914574478545
 30
0.0
 10
96.21476355809843
 20
-24.81914574478545
 30
0.0
 10
96.35331413676941
 20
-24.78166246668819
 30
0.0
 10
96.59689012561914
 20
-24.63952224672411
 30
0.0
 10
96.69770898554049
 20
-24.53694634078124
 30
0.0
 10
96.76690938510728
 20
-24.41618639205289
 30
0.0
  0
LINE
  5
BD
330
1F
100
AcDbEntity
  8
1
 62
     4
420
    65535
100
AcDbLine
 10
87.0000708954
 20
19.0002015339
 30
0.0
 11
87.0000708954
 21
-18.9933947955
 31
0.0
  0
LINE
  5
BE
330
1F
100
AcDbEntity
  8
1
 62
     4
420
    65535
100
AcDbLine
 10
88.0000708951
 20
19.0002015339
 30
0.0
 11
88.0000708951
 21
-18.9933947955
 31
0.0
  0
SPLINE
  5
BF
330
1F
100
AcDbEntity
  8
1
 62
     4
420
    65535
100
AcDbSpline
210
0.0
220
0.0
230
1.0
 70
     8
 71
     3
 72
    10
 73
     6
 74
     0
 42
0.00000001
 43
0.00000001
 12
1.0
 22
0.0
 32
0.0
 13
1.0
 23
0.0
 33
0.0
 40
0.0
 40
0.0
 40
0.0
 40
0.0
 40
0.5
 40
0.5
 40
1.0
 40
1.0
 40
1.0
 40
1.0
 10
96.07408906207972
 20
-9.811395891234776
 30
0.0
 10
96.21530405499034
 20
-9.811395891234776
 30
0.0
 10
96.35409771077168
 20
-9.792347947634541
 30
0.0
 10
96.59478083968355
 20
-9.722276833519885
 30
0.0
 10
96.69670647054937
 20
-9.671170921601924
 30
0.0
 10
96.76690938510731
 20
-9.609916214868496
 30
0.0
  0
LINE
  5
C0
330
1F
100
AcDbEntity
  8
1
 62
     4
420
    65535
100
AcDbLine
 10
90.0259039194
 20
20.1698167758
 30
0.0
 11
90.0259039194
 21
-20.163043916
 31
0.0
  0
LINE
  5
C1
330
1F
100
AcDbEntity
  8
1
 62
     4
420
    65535
100
AcDbLine
 10
91.4000708941
 20
20.2502015335
 30
0.0
 11
91.4000708941
 21
-20.2434032873
 31
0.0
  0
LINE
  5
C2
330
1F
100
AcDbEntity
  8
1
 62
     4
420
    65535
100
AcDbLine
 10
86.7500708955
 20
19.2502015338
 30
0.0
 11
86.7500708955
 21
-19.2497984546
 31
0.0
  0
LINE
  5
C3
330
1F
100
AcDbEntity
  8
1
 62
     4
420
    65535
100
AcDbLine
 10
92.0000708939
 20
15.0002015351
 30
0.0
 11
92.0000708939
 21
-14.9997984559
 31
0.0
  0
LINE
  5
C4
330
1F
100
AcDbEntity
  8
1
 62
     4
420
    65535
100
AcDbLine
 10
93.6000708934
 20
15.0002015351
 30
0.0
 11
93.6000708934
 21
-14.9997984559
 31
0.0
  0
LINE
  5
C5
330
1F
100
AcDbEntity
  8
1
 62
     4
420
    65535
100
AcDbLine
 10
93.6000708934
 20
16.5002015347
 30
0.0
 11
93.6000708934
 21
-16.4934221541
 31
0.0
  0
LINE
  5
C6
330
1F
100
AcDbEntity
  8
1
 62
     4
420
    65535
100
AcDbLine
 10
94.8000708931
 20
16.5002015347
 30
0.0
 11
94.8000708931
 21
-16.4934221541
 31
0.0
  0
LINE
  5
C7
330
1F
100
AcDbEntity
  8
1
 62
     4
420
    65535
100
AcDbLine
 10
94.8000708931
 20
16.2902015347
 30
0.0
 11
94.8000708931
 21
-16.2897984555
 31
0.0
  0
LINE
  5
C8
330
1F
100
AcDbEntity
  8
1
 62
     4
420
    65535
100
AcDbLine
 10
99.6324926448
 20
13.5002015355
 30
0.0
 11
99.6324926448
 21
-13.4997984563
 31
0.0
  0
LINE
  5
C9
330
1F
100
AcDbEntity
  8
1
 62
     4
420
    65535
100
AcDbLine
 10
99.8000708916
 20
13.5002015355
 30
0.0
 11
99.8000708916
 21
-13.4997984563
 31
0.0
  0
LINE
  5
CA
330
1F
100
AcDbEntity
  8
1
 62
     4
420
    65535
100
AcDbLine
 10
100.0000708915
 20
13.7002015355
 30
0.0
 11
100.0000708915
 21
-13.6934263619
 31
0.0
  0
LINE
  5
CB
330
1F
100
AcDbEntity
  8
1
 62
     4
420
    65535
100
AcDbLine
 10
90.3259039193
 20
20.2502015335
 30
0.0
 11
90.3259039193
 21
-20.2434032873
 31
0.0
  0
LINE
  5
CC
330
1F
100
AcDbEntity
  8
1
 62
     4
420
    65535
100
AcDbLine
 10
83.0000708915
 20
22.0002015396
 30
0.0
 11
80.0000708915
 21
22.0002015396
 31
0.0
  0
LINE
  5
CD
330
1F
100
AcDbEntity
  8
1
 62
     4
420
    65535
100
AcDbLine
 10
92.0000708939
 20
19.6502015337
 30
0.0
 11
92.0000708939
 21
-19.6433893335
 31
0.0
  0
LINE
  5
CE
330
1F
100
AcDbEntity
  8
1
 62
     4
420
    65535
100
AcDbLine
 10
83.0000708915
 20
22.0002015396
 30
0.0
 11
98.1504696541
 21
22.0002015396
 31
0.0
  0
LINE
  5
CF
330
1F
100
AcDbEntity
  8
1
 62
     4
420
    65535
100
AcDbLine
 10
100.0000708915
 20
18.78584218
 30
0.0
 11
100.0000708915
 21
-18.7854391008
 31
0.0
  0
LINE
  5
D0
330
1F
100
AcDbEntity
  8
1
 62
     4
420
    65535
100
AcDbLine
 10
83.0000708915
 20
24.819548824
 30
0.0
 11
83.0000708915
 21
22.0002015396
 31
0.0
  0
LWPOLYLINE
  5
D1
330
1F
100
AcDbEntity
  8
1
 62
     4
420
    65535
100
AcDbPolyline
 90
       25
 70
   128
 43
0.0
 10
83.0000708915
 20
13.598277751
 10
82.6084923148
 20
13.5760508488
 10
82.2236137562
 20
13.5097504508
 10
81.8520205944
 20
13.4005109752
 10
81.5000708915
 20
13.2502015396
 10
81.1737866045
 20
13.0613939802
 10
80.8787505479
 20
12.8373188467
 10
80.6200108706
 20
12.5818101267
 10
80.4019946802
 20
12.2992396453
 10
80.228432294
 20
11.9944422617
 10
80.1022934126
 20
11.6726331437
 10
80.0257363074
 20
11.3393185346
 10
80.0000708915
 20
11.0002015396
 10
80.0257363074
 20
10.6610845446
 10
80.1022934126
 20
10.3277699355
 10
80.228432294
 20
10.0059608175
 10
80.4019946802
 20
9.7011634339
 10
80.6200108706
 20
9.4185929525
 10
80.8787505479
 20
9.1630842325
 10
81.1737866045
 20
8.939009099
 10
81.5000708915
 20
8.7502015396
 10
81.8520205944
 20
8.599892104
 10
82.2236137562
 20
8.4906526284
 10
82.6084923148
 20
8.4243522304
 10
83.0000708915
 20
8.4021253283
  0
LINE
  5
D2
330
1F
100
AcDbEntity
  8
1
 62
     4
420
    65535
100
AcDbLine
 10
83.0000708915
 20
15.0079513932
 30
0.0
 11
83.0000708915
 21
13.598277751
 31
0.0
  0
LINE
  5
D3
330
1F
100
AcDbEntity
  8
1
 62
     4
420
    65535
100
AcDbLine
 10
83.0000708915
 20
8.4021253283
 30
0.0
 11
98.1504696541
 21
8.4021253283
 31
0.0
  0
LINE
  5
D4
330
1F
100
AcDbEntity
  8
1
 62
     4
420
    65535
100
AcDbLine
 10
98.1504696541
 20
13.598277751
 30
0.0
 11
83.0000708915
 21
13.598277751
 31
0.0
  0
LINE
  5
D5
330
1F
100
AcDbEntity
  8
1
 62
     4
420
    65535
100
AcDbLine
 10
83.0000708915
 20
-15.0075483139
 30
0.0
 11
83.0000708915
 21
-13.5978746717
 31
0.0
  0
LINE
  5
D6
330
1F
100
AcDbEntity
  8
1
 62
     4
420
    65535
100
AcDbLine
 10
83.0000708915
 20
-9.8113958912
 30
0.0
 11
83.0000708915
 21
-8.401722249
 31
0.0
  0
LWPOLYLINE
  5
D7
330
1F
100
AcDbEntity
  8
1
 62
     4
420
    65535
100
AcDbPolyline
 90
       25
 70
   128
 43
0.0
 10
83.0000708915
 20
-8.401722249
 10
82.6084923148
 20
-8.4239491512
 10
82.2236137562
 20
-8.4902495492
 10
81.8520205944
 20
-8.5994890248
 10
81.5000708915
 20
-8.7497984604
 10
81.1737866045
 20
-8.9386060198
 10
80.8787505479
 20
-9.1626811533
 10
80.6200108706
 20
-9.4181898733
 10
80.4019946802
 20
-9.7007603547
 10
80.228432294
 20
-10.0055577383
 10
80.1022934126
 20
-10.3273668563
 10
80.0257363074
 20
-10.6606814654
 10
80.0000708915
 20
-10.9997984604
 10
80.0257363074
 20
-11.3389154554
 10
80.1022934126
 20
-11.6722300645
 10
80.228432294
 20
-11.9940391825
 10
80.4019946802
 20
-12.2988365661
 10
80.6200108706
 20
-12.5814070475
 10
80.8787505479
 20
-12.8369157675
 10
81.1737866045
 20
-13.060990901
 10
81.5000708915
 20
-13.2497984604
 10
81.8520205944
 20
-13.400107896
 10
82.2236137562
 20
-13.5093473716
 10
82.6084923148
 20
-13.5756477696
 10
83.0000708915
 20
-13.5978746717
  0
LINE
  5
D8
330
1F
100
AcDbEntity
  8
1
 62
     4
420
    65535
100
AcDbLine
 10
83.0000708915
 20
-13.5978746717
 30
0.0
 11
98.1504696541
 21
-13.5978746717
 31
0.0
  0
LINE
  5
D9
330
1F
100
AcDbEntity
  8
1
 62
     4
420
    65535
100
AcDbLine
 10
98.1504696541
 20
-8.401722249
 30
0.0
 11
83.0000708915
 21
-8.401722249
 31
0.0
  0
LINE
  5
DA
330
1F
100
AcDbEntity
  8
1
 62
     4
420
    65535
100
AcDbLine
 10
83.0000708915
 20
-24.8191457448
 30
0.0
 11
83.0000708915
 21
-21.9997984604
 31
0.0
  0
LINE
  5
DB
330
1F
100
AcDbEntity
  8
1
 62
     4
420
    65535
100
AcDbLine
 10
83.0000708915
 20
-21.9997984604
 30
0.0
 11
80.0000708915
 21
-21.9997984604
 31
0.0
  0
LINE
  5
DC
330
1F
100
AcDbEntity
  8
1
 62
     4
420
    65535
100
AcDbLine
 10
83.0000708915
 20
-21.9997984604
 30
0.0
 11
98.1504696541
 21
-21.9997984604
 31
0.0
  0
LINE
  5
DD
330
1F
100
AcDbEntity
  8
1
 62
     4
420
    65535
100
AcDbLine
 10
83.0000708915
 20
9.8117989705
 30
0.0
 11
83.0000708915
 21
8.4021253283
 31
0.0
  0
LWPOLYLINE
  5
DE
330
1F
100
AcDbEntity
  8
1
 62
     4
420
    65535
100
AcDbPolyline
 90
       25
 70
   128
 43
0.0
 10
83.0000708915
 20
-13.5978746717
 10
82.6084923148
 20
-13.5756477696
 10
82.2236137562
 20
-13.5093473716
 10
81.8520205944
 20
-13.400107896
 10
81.5000708915
 20
-13.2497984604
 10
81.1737866045
 20
-13.060990901
 10
80.8787505479
 20
-12.8369157675
 10
80.6200108706
 20
-12.5814070475
 10
80.4019946802
 20
-12.2988365661
 10
80.228432294
 20
-11.9940391825
 10
80.1022934126
 20
-11.6722300645
 10
80.0257363074
 20
-11.3389154554
 10
80.0000708915
 20
-10.9997984604
 10
80.0257363074
 20
-10.6606814654
 10
80.1022934126
 20
-10.3273668563
 10
80.228432294
 20
-10.0055577383
 10
80.4019946802
 20
-9.7007603547
 10
80.6200108706
 20
-9.4181898733
 10
80.8787505479
 20
-9.1626811533
 10
81.1737866045
 20
-8.9386060198
 10
81.5000708915
 20
-8.7497984604
 10
81.8520205944
 20
-8.5994890248
 10
82.2236137562
 20
-8.4902495492
 10
82.6084923148
 20
-8.4239491512
 10
83.0000708915
 20
-8.401722249
  0
LWPOLYLINE
  5
DF
330
1F
100
AcDbEntity
  8
1
 62
     4
420
    65535
100
AcDbPolyline
 90
       25
 70
   128
 43
0.0
 10
83.0000708915
 20
8.4021253283
 10
82.6084923148
 20
8.4243522304
 10
82.2236137562
 20
8.4906526284
 10
81.8520205944
 20
8.599892104
 10
81.5000708915
 20
8.7502015396
 10
81.1737866045
 20
8.939009099
 10
80.8787505479
 20
9.1630842325
 10
80.6200108706
 20
9.4185929525
 10
80.4019946802
 20
9.7011634339
 10
80.228432294
 20
10.0059608175
 10
80.1022934126
 20
10.3277699355
 10
80.0257363074
 20
10.6610845446
 10
80.0000708915
 20
11.0002015396
 10
80.0257363074
 20
11.3393185346
 10
80.1022934126
 20
11.6726331437
 10
80.228432294
 20
11.9944422617
 10
80.4019946802
 20
12.2992396453
 10
80.6200108706
 20
12.5818101267
 10
80.8787505479
 20
12.8373188467
 10
81.1737866045
 20
13.0613939802
 10
81.5000708915
 20
13.2502015396
 10
81.8520205944
 20
13.4005109752
 10
82.2236137562
 20
13.5097504508
 10
82.6084923148
 20
13.5760508488
 10
83.0000708915
 20
13.598277751
  0
LINE
  5
E0
330
1F
100
AcDbEntity
  8
1
 62
     4
420
    65535
100
AcDbLine
 10
86.5696574459
 20
15.930809674
 30
0.0
 11
86.5696574459
 21
-15.9304065948
 31
0.0
  0
LINE
  5
E1
330
1F
100
AcDbEntity
  8
1
 62
     4
420
    65535
100
AcDbLine
 10
53.0000708954
 20
-11.7497984604
 30
0.0
 11
53.0000708954
 21
11.7502015396
 31
0.0
  0
LINE
  5
E2
330
1F
100
AcDbEntity
  8
1
 62
     4
420
    65535
100
AcDbLine
 10
56.7597495753
 20
-11.7497984604
 30
0.0
 11
56.7597495753
 21
11.7502015396
 31
0.0
  0
LINE
  5
E3
330
1F
100
AcDbEntity
  8
1
 62
     4
420
    65535
100
AcDbLine
 10
86.0000708957
 20
-19.9975604906
 30
0.0
 11
86.0000708957
 21
19.9979635698
 31
0.0
  0
LINE
  5
E4
330
1F
100
AcDbEntity
  8
1
 62
     4
420
    65535
100
AcDbLine
 10
8.0000708915
 20
18.0002015456
 30
0.0
 11
50.0000708915
 21
18.0002015456
 31
0.0
  0
LINE
  5
E5
330
1F
100
AcDbEntity
  8
1
 62
     4
420
    65535
100
AcDbLine
 10
50.0000708915
 20
18.0002015456
 30
0.0
 11
52.0000708795
 21
20.0002015336
 31
0.0
  0
LINE
  5
E6
330
1F
100
AcDbEntity
  8
1
 62
     4
420
    65535
100
AcDbLine
 10
8.0000708915
 20
18.0002015456
 30
0.0
 11
6.0000709035
 21
20.0002015336
 31
0.0
  0
LINE
  5
E7
330
1F
100
AcDbEntity
  8
1
 62
     4
420
    65535
100
AcDbLine
 10
61.0000708915
 20
-17.9997984604
 30
0.0
 11
71.0000708915
 21
-17.9997984604
 31
0.0
  0
LINE
  5
E8
330
1F
100
AcDbEntity
  8
1
 62
     4
420
    65535
100
AcDbLine
 10
87.0000708954
 20
-16.4321952956
 30
0.0
 11
87.0000708954
 21
16.4325983748
 31
0.0
  0
LINE
  5
E9
330
1F
100
AcDbEntity
  8
1
 62
     4
420
    65535
100
AcDbLine
 10
61.0000708915
 20
-17.9997984604
 30
0.0
 11
61.0000708915
 21
-19.9907580162
 31
0.0
  0
LINE
  5
EA
330
1F
100
AcDbEntity
  8
1
 62
     4
420
    65535
100
AcDbLine
 10
61.0000708915
 20
18.0002015396
 30
0.0
 11
71.0000708915
 21
18.0002015396
 31
0.0
  0
LINE
  5
EB
330
1F
100
AcDbEntity
  8
1
 62
     4
420
    65535
100
AcDbLine
 10
52.5670581935
 20
-10.9908774403
 30
0.0
 11
52.5670581935
 21
10.9912805195
 31
0.0
  0
LINE
  5
EC
330
1F
100
AcDbEntity
  8
1
 62
     4
420
    65535
100
AcDbLine
 10
71.0000708915
 20
-17.9997984604
 30
0.0
 11
71.0000708915
 21
-19.9907580162
 31
0.0
  0
LINE
  5
ED
330
1F
100
AcDbEntity
  8
1
 62
     4
420
    65535
100
AcDbLine
 10
61.0000708915
 20
18.0002015396
 30
0.0
 11
61.0000708915
 21
19.9911610955
 31
0.0
  0
LINE
  5
EE
330
1F
100
AcDbEntity
  8
1
 62
     4
420
    65535
100
AcDbLine
 10
0.0000708915
 20
-19.9975604906
 30
0.0
 11
0.0000708915
 21
19.9979635698
 31
0.0
  0
LINE
  5
EF
330
1F
100
AcDbEntity
  8
1
 62
     4
420
    65535
100
AcDbLine
 10
0.0000708915
 20
-10.9908774403
 30
0.0
 11
0.0000708915
 21
10.9912805195
 31
0.0
  0
LINE
  5
F0
330
1F
100
AcDbEntity
  8
1
 62
     4
420
    65535
100
AcDbLine
 10
71.0000708915
 20
18.0002015396
 30
0.0
 11
71.0000708915
 21
19.9911610955
 31
0.0
  0
DIMENSION
  5
F1
330
1F
100
AcDbEntity
  8
2
 62
     7
420
 16777215
100
AcDbDimension
  2
_D
 10
0.0000708915
 20
31.0002015321
 30
0.0
 11
50.0000708915
 21
31.0002015321
 31
0.0
 70
   160
  1
<>
 71
     2
 42
-1.0
 73
     0
 74
     0
 75
     0
  3
SLDDIMSTYLE0
100
AcDbAlignedDimension
 13
100.0000708915
 23
0.0002015396
 33
0.0
 14
0.0000708915
 24
0.0002015396
 34
0.0
 50
0.0
100
AcDbRotatedDimension
  0
DIMENSION
  5
FD
330
1F
100
AcDbEntity
  8
2
 62
     7
420
 16777215
100
AcDbDimension
  2
_D_1
 10
106.0000708915
 20
-24.9997984529
 30
0.0
 11
106.0000708915
 21
0.0002015396
 31
0.0
 70
   160
  1
%%c<>
 71
     2
 42
-1.0
 73
     0
 74
     0
 75
     0
  3
SLDDIMSTYLE0
100
AcDbAlignedDimension
 13
79.5000708909
 23
25.0002015321
 33
0.0
 14
79.5000708909
 24
-24.9997984529
 34
0.0
 50
90.0
100
AcDbRotatedDimension
  0
DIMENSION
  5
108
330
1F
100
AcDbEntity
  8
2
 62
     7
420
 16777215
100
AcDbDimension
  2
_D_2
 10
-5.9999291085
 20
-19.9997984544
 30
0.0
 11
-5.9999291085
 21
0.0002015396
 31
0.0
 70
   160
  1
%%c<>
 71
     2
 42
-1.0
 73
     0
 74
     0
 75
     0
  3
SLDDIMSTYLE0
100
AcDbAlignedDimension
 13
0.0000708915
 23
20.0002015336
 33
0.0
 14
0.0000708915
 24
-19.9997984544
 34
0.0
 50
90.0
100
AcDbRotatedDimension
  0
ENDSEC
  0
SECTION
  2
OBJECTS
  0
DICTIONARY
  5
C
330
0
100
AcDbDictionary
281
     1
  3
ACAD_GROUP
350
D
  3
ACAD_LAYOUT
350
1A
  3
ACAD_MATERIAL
350
3B
  3
ACAD_MLEADERSTYLE
350
114
  3
ACAD_MLINESTYLE
350
17
  3
ACAD_PLOTSETTINGS
350
19
  3
ACAD_PLOTSTYLENAME
350
E
  3
ACAD_TABLESTYLE
350
113
  3
ACAD_VISUALSTYLE
350
2A
  0
DICTIONARY
  5
D
102
{ACAD_REACTORS
330
C
102
}
330
C
100
AcDbDictionary
281
     1
  0
DICTIONARY
  5
1A
102
{ACAD_REACTORS
330
C
102
}
330
C
100
AcDbDictionary
281
     1
  3
Layout1
350
1E
  3
Layout2
350
26
  3
Model
350
22
  0
DICTIONARY
  5
3B
102
{ACAD_REACTORS
330
C
102
}
330
C
100
AcDbDictionary
281
     1
  3
ByBlock
350
3D
  3
ByLayer
350
3C
  3
Global
350
3E
  0
DICTIONARY
  5
114
102
{ACAD_REACTORS
330
C
102
}
330
C
100
AcDbDictionary
281
     1
  0
DICTIONARY
  5
17
102
{ACAD_REACTORS
330
C
102
}
330
C
100
AcDbDictionary
281
     1
  3
Standard
350
18
  0
DICTIONARY
  5
19
102
{ACAD_REACTORS
330
C
102
}
330
C
100
AcDbDictionary
281
     1
  0
ACDBDICTIONARYWDFLT
  5
E
102
{ACAD_REACTORS
330
C
102
}
330
C
100
AcDbDictionary
281
     1
  3
Normal
350
F
100
AcDbDictionaryWithDefault
340
F
  0
DICTIONARY
  5
113
102
{ACAD_REACTORS
330
C
102
}
330
C
100
AcDbDictionary
281
     1
  0
DICTIONARY
  5
2A
102
{ACAD_REACTORS
330
C
102
}
330
C
100
AcDbDictionary
281
     1
  3
2dWireframe
350
2F
  3
3D Hidden
350
31
  3
3dWireframe
350
30
  3
Basic
350
32
  3
Brighten
350
36
  3
ColorChange
350
3A
  3
Conceptual
350
34
  3
Dim
350
35
  3
Facepattern
350
39
  3
Flat
350
2B
  3
FlatWithEdges
350
2C
  3
Gouraud
350
2D
  3
GouraudWithEdges
350
2E
  3
Linepattern
350
38
  3
Realistic
350
33
  3
Thicken
350
37
  0
LAYOUT
  5
1E
102
{ACAD_REACTORS
330
1A
102
}
330
1A
100
AcDbPlotSettings
  1

  2
none_device
  4

  6

 40
0.0
 41
0.0
 42
0.0
 43
0.0
 44
0.0
 45
0.0
 46
0.0
 47
0.0
 48
0.0
 49
0.0
140
0.0
141
0.0
142
1.0
143
1.0
 70
   688
 72
     0
 73
     0
 74
     5
  7

 75
    16
 76
     0
 77
     2
 78
   300
147
1.0
148
0.0
149
0.0
100
AcDbLayout
  1
Layout1
 70
     1
 71
     1
 10
0.0
 20
0.0
 11
420.0
 21
297.0
 12
0.0
 22
0.0
 32
0.0
 14
1.0000000000E+20
 24
1.0000000000E+20
 34
1.0000000000E+20
 15
-1.0000000000E+20
 25
-1.0000000000E+20
 35
-1.0000000000E+20
146
0.0
 13
0.0
 23
0.0
 33
0.0
 16
1.0
 26
0.0
 36
0.0
 17
0.0
 27
1.0
 37
0.0
 76
     0
330
1B
  0
LAYOUT
  5
26
102
{ACAD_REACTORS
330
1A
102
}
330
1A
100
AcDbPlotSettings
  1

  2
none_device
  4

  6

 40
0.0
 41
0.0
 42
0.0
 43
0.0
 44
0.0
 45
0.0
 46
0.0
 47
0.0
 48
0.0
 49
0.0
140
0.0
141
0.0
142
1.0
143
1.0
 70
   688
 72
     0
 73
     0
 74
     5
  7

 75
    16
 76
     0
 77
     2
 78
   300
147
1.0
148
0.0
149
0.0
100
AcDbLayout
  1
Layout2
 70
     1
 71
     2
 10
0.0
 20
0.0
 11
0.0
 21
0.0
 12
0.0
 22
0.0
 32
0.0
 14
0.0
 24
0.0
 34
0.0
 15
0.0
 25
0.0
 35
0.0
146
0.0
 13
0.0
 23
0.0
 33
0.0
 16
1.0
 26
0.0
 36
0.0
 17
0.0
 27
1.0
 37
0.0
 76
     0
330
23
  0
LAYOUT
  5
22
102
{ACAD_REACTORS
330
1A
102
}
330
1A
100
AcDbPlotSettings
  1

  2
none_device
  4

  6

 40
0.0
 41
0.0
 42
0.0
 43
0.0
 44
0.0
 45
0.0
 46
0.0
 47
0.0
 48
0.0
 49
0.0
140
0.0
141
0.0
142
1.0
143
1.0
 70
  1712
 72
     0
 73
     0
 74
     0
  7

 75
     0
 76
     0
 77
     2
 78
   300
147
1.0
148
0.0
149
0.0
100
AcDbLayout
  1
Model
 70
     1
 71
     0
 10
0.0
 20
0.0
 11
297.0
 21
210.0
 12
0.0
 22
0.0
 32
0.0
 14
0.0
 24
0.0
 34
0.0
 15
297.0
 25
210.0
 35
0.0
146
0.0
 13
0.0
 23
0.0
 33
0.0
 16
1.0
 26
0.0
 36
0.0
 17
0.0
 27
1.0
 37
0.0
 76
     0
330
1F
331
29
  0
MATERIAL
  5
3D
102
{ACAD_REACTORS
330
3B
102
}
330
3B
100
AcDbMaterial
  1
ByBlock
 72
     1
 94
      127
  0
MATERIAL
  5
3C
102
{ACAD_REACTORS
330
3B
102
}
330
3B
100
AcDbMaterial
  1
ByLayer
 72
     1
 94
      127
  0
MATERIAL
  5
3E
102
{ACAD_REACTORS
330
3B
102
}
330
3B
100
AcDbMaterial
  1
Global
 72
     1
 94
      127
  0
MLINESTYLE
  5
18
102
{ACAD_REACTORS
330
17
102
}
330
17
100
AcDbMlineStyle
  2
Standard
 70
     0
  3

 62
   256
 51
90.0
 52
90.0
 71
     2
 49
0.5
 62
   256
  6
BYLAYER
 49
-0.5
 62
   256
  6
BYLAYER
  0
ACDBPLACEHOLDER
  5
F
102
{ACAD_REACTORS
330
E
102
}
330
E
  0
VISUALSTYLE
  5
2F
102
{ACAD_REACTORS
330
2A
102
}
330
2A
100
AcDbVisualStyle
  2
2dWireframe
 70
     4
 71
     0
 72
     2
 73
     0
 90
        0
 40
-0.6
 41
-30.0
 62
     5
 63
     7
421
 16777215
 74
     1
 91
        4
 64
     7
 65
   257
 75
     1
175
     1
 42
1.0
 92
        0
 66
   257
 43
1.0
 76
     1
 77
     6
 78
     2
 67
     7
 79
     5
170
     0
171
     0
290
     0
174
     0
 93
        1
 44
0.0
173
     0
291
     0
 45
0.0
  0
VISUALSTYLE
  5
31
102
{ACAD_REACTORS
330
2A
102
}
330
2A
100
AcDbVisualStyle
  2
3D Hidden
 70
     6
 71
     1
 72
     2
 73
     2
 90
        0
 40
-0.6
 41
-30.0
 62
     5
 63
     7
421
 16777215
 74
     2
 91
        2
 64
     7
 65
   257
 75
     2
175
     1
 42
40.0
 92
        0
 66
   257
 43
1.0
 76
     1
 77
     6
 78
     2
 67
     7
 79
     3
170
     0
171
     0
290
     0
174
     0
 93
        1
 44
0.0
173
     0
291
     0
 45
0.0
  0
VISUALSTYLE
  5
30
102
{ACAD_REACTORS
330
2A
102
}
330
2A
100
AcDbVisualStyle
  2
3dWireframe
 70
     5
 71
     0
 72
     2
 73
     0
 90
        0
 40
-0.6
 41
-30.0
 62
     5
 63
     7
421
 16777215
 74
     1
 91
        4
 64
     7
 65
   257
 75
     1
175
     1
 42
1.0
 92
        0
 66
   257
 43
1.0
 76
     1
 77
     6
 78
     2
 67
     7
 79
     5
170
     0
171
     0
290
     0
174
     0
 93
        1
 44
0.0
173
     0
291
     0
 45
0.0
  0
VISUALSTYLE
  5
32
102
{ACAD_REACTORS
330
2A
102
}
330
2A
100
AcDbVisualStyle
  2
Basic
 70
     7
 71
     1
 72
     0
 73
     1
 90
        0
 40
-0.6
 41
-30.0
 62
     5
 63
     7
421
 16777215
 74
     0
 91
        4
 64
     7
 65
   257
 75
     1
175
     1
 42
1.0
 92
        8
 66
     7
 43
1.0
 76
     1
 77
     6
 78
     2
 67
     7
 79
     5
170
     0
171
     0
290
     0
174
     0
 93
        1
 44
0.0
173
     0
291
     1
 45
0.0
  0
VISUALSTYLE
  5
36
102
{ACAD_REACTORS
330
2A
102
}
330
2A
100
AcDbVisualStyle
  2
Brighten
 70
    12
 71
     2
 72
     2
 73
     0
 90
        0
 40
-0.6
 41
-30.0
 62
     5
 63
     7
421
 16777215
 74
     1
 91
        4
 64
     7
 65
   257
 75
     1
175
     1
 42
1.0
 92
        8
 66
     7
 43
1.0
 76
     1
 77
     6
 78
     2
 67
     7
 79
     5
170
     0
171
     0
290
     0
174
     0
 93
        1
 44
50.0
173
     0
291
     1
 45
0.0
  0
VISUALSTYLE
  5
3A
102
{ACAD_REACTORS
330
2A
102
}
330
2A
100
AcDbVisualStyle
  2
ColorChange
 70
    16
 71
     2
 72
     2
 73
     3
 90
        0
 40
-0.6
 41
-30.0
 62
     5
 63
     8
421
  8421504
 74
     1
 91
        4
 64
     7
 65
   257
 75
     1
175
     1
 42
1.0
 92
        8
 66
     8
424
  8421504
 43
1.0
 76
     1
 77
     6
 78
     2
 67
     7
 79
     5
170
     0
171
     0
290
     0
174
     0
 93
        1
 44
0.0
173
     0
291
     1
 45
0.0
  0
VISUALSTYLE
  5
34
102
{ACAD_REACTORS
330
2A
102
}
330
2A
100
AcDbVisualStyle
  2
Conceptual
 70
     9
 71
     3
 72
     2
 73
     0
 90
        0
 40
-0.6
 41
-30.0
 62
     5
 63
     7
421
 16777215
 74
     2
 91
        2
 64
     7
 65
   257
 75
     1
175
     1
 42
40.0
 92
        8
 66
     7
 43
1.0
 76
     1
 77
     6
 78
     2
 67
     7
 79
     3
170
     0
171
     0
290
     0
174
     0
 93
        1
 44
0.0
173
     0
291
     0
 45
0.0
  0
VISUALSTYLE
  5
35
102
{ACAD_REACTORS
330
2A
102
}
330
2A
100
AcDbVisualStyle
  2
Dim
 70
    11
 71
     2
 72
     2
 73
     0
 90
        0
 40
-0.6
 41
-30.0
 62
     5
 63
     7
421
 16777215
 74
     1
 91
        4
 64
     7
 65
   257
 75
     1
175
     1
 42
1.0
 92
        8
 66
     7
 43
1.0
 76
     1
 77
     6
 78
     2
 67
     7
 79
     5
170
     0
171
     0
290
     0
174
     0
 93
        1
 44
-50.0
173
     0
291
     1
 45
0.0
  0
VISUALSTYLE
  5
39
102
{ACAD_REACTORS
330
2A
102
}
330
2A
100
AcDbVisualStyle
  2
Facepattern
 70
    15
 71
     2
 72
     2
 73
     0
 90
        0
 40
-0.6
 41
-30.0
 62
     5
 63
     7
421
 16777215
 74
     1
 91
        4
 64
     7
 65
   257
 75
     1
175
     1
 42
1.0
 92
        8
 66
     7
 43
1.0
 76
     1
 77
     6
 78
     2
 67
     7
 79
     5
170
     0
171
     0
290
     0
174
     0
 93
        1
 44
0.0
173
     0
291
     1
 45
0.0
  0
VISUALSTYLE
  5
2B
102
{ACAD_REACTORS
330
2A
102
}
330
2A
100
AcDbVisualStyle
  2
Flat
 70
     0
 71
     2
 72
     1
 73
     1
 90
        2
 40
-0.6
 41
30.0
 62
     5
 63
     7
421
 16777215
 74
     0
 91
        4
 64
     7
 65
   257
 75
     1
175
     1
 42
1.0
 92
        8
 66
     7
 43
1.0
 76
     1
 77
     6
 78
     2
 67
     7
 79
     5
170
     0
171
     0
290
     0
174
     0
 93
       13
 44
0.0
173
     0
291
     1
 45
0.0
  0
VISUALSTYLE
  5
2C
102
{ACAD_REACTORS
330
2A
102
}
330
2A
100
AcDbVisualStyle
  2
FlatWithEdges
 70
     1
 71
     2
 72
     1
 73
     1
 90
        2
 40
-0.6
 41
30.0
 62
     5
 63
     7
421
 16777215
 74
     1
 91
        4
 64
     7
 65
   257
 75
     1
175
     1
 42
1.0
 92
        0
 66
   257
 43
1.0
 76
     1
 77
     6
 78
     2
 67
     7
 79
     5
170
     0
171
     0
290
     0
174
     0
 93
       13
 44
0.0
173
     0
291
     1
 45
0.0
  0
VISUALSTYLE
  5
2D
102
{ACAD_REACTORS
330
2A
102
}
330
2A
100
AcDbVisualStyle
  2
Gouraud
 70
     2
 71
     2
 72
     2
 73
     1
 90
        2
 40
-0.6
 41
30.0
 62
     5
 63
     7
421
 16777215
 74
     0
 91
        4
 64
     7
 65
   257
 75
     1
175
     1
 42
1.0
 92
        0
 66
     7
 43
1.0
 76
     1
 77
     6
 78
     2
 67
     7
 79
     5
170
     0
171
     0
290
     0
174
     0
 93
       13
 44
0.0
173
     0
291
     1
 45
0.0
  0
VISUALSTYLE
  5
2E
102
{ACAD_REACTORS
330
2A
102
}
330
2A
100
AcDbVisualStyle
  2
GouraudWithEdges
 70
     3
 71
     2
 72
     2
 73
     1
 90
        2
 40
-0.6
 41
30.0
 62
     5
 63
     7
421
 16777215
 74
     1
 91
        4
 64
     7
 65
   257
 75
     1
175
     1
 42
1.0
 92
        0
 66
   257
 43
1.0
 76
     1
 77
     6
 78
     2
 67
     7
 79
     5
170
     0
171
     0
290
     0
174
     0
 93
       13
 44
0.0
173
     0
291
     1
 45
0.0
  0
VISUALSTYLE
  5
38
102
{ACAD_REACTORS
330
2A
102
}
330
2A
100
AcDbVisualStyle
  2
Linepattern
 70
    14
 71
     2
 72
     2
 73
     0
 90
        0
 40
-0.6
 41
-30.0
 62
     5
 63
     7
421
 16777215
 74
     1
 91
        4
 64
     7
 65
   257
 75
     7
175
     7
 42
1.0
 92
        8
 66
     7
 43
1.0
 76
     1
 77
     6
 78
     2
 67
     7
 79
     5
170
     0
171
     0
290
     0
174
     0
 93
        1
 44
0.0
173
     0
291
     1
 45
0.0
  0
VISUALSTYLE
  5
33
102
{ACAD_REACTORS
330
2A
102
}
330
2A
100
AcDbVisualStyle
  2
Realistic
 70
     8
 71
     2
 72
     2
 73
     0
 90
        0
 40
-0.6
 41
-30.0
 62
     5
 63
     7
421
 16777215
 74
     1
 91
        0
 64
     7
 65
   257
 75
     1
175
     1
 42
1.0
 92
        8
 66
     8
424
  7895160
 43
1.0
 76
     1
 77
     6
 78
     2
 67
     7
 79
     5
170
     0
171
     0
290
     0
174
     0
 93
       13
 44
0.0
173
     0
291
     0
 45
0.0
  0
VISUALSTYLE
  5
37
102
{ACAD_REACTORS
330
2A
102
}
330
2A
100
AcDbVisualStyle
  2
Thicken
 70
    13
 71
     2
 72
     2
 73
     0
 90
        0
 40
-0.6
 41
-30.0
 62
     5
 63
     7
421
 16777215
 74
     1
 91
        4
 64
     7
 65
   257
 75
     1
175
     1
 42
1.0
 92
       12
 66
     7
 43
1.0
 76
     1
 77
     6
 78
     2
 67
     7
 79
     5
170
     0
171
     0
290
     0
174
     0
 93
        1
 44
0.0
173
     0
291
     1
 45
0.0
  0
ENDSEC
  0
EOF
