  0
SECTION
  2
HEADER
  9
$ACADVER
  1
AC1021
  9
$ACADMAINTVER
 70
    25
  9
$DWGCODEPAGE
  3
ANSI_1252
  9
$INSBASE
 10
0.0
 20
0.0
 30
0.0
  9
$EXTMIN
 10
0.0
 20
0.0
 30
0.0
  9
$EXTMAX
 10
297.0
 20
210.0
 30
0.0
  9
$LIMMIN
 10
0.0
 20
0.0
  9
$LIMMAX
 10
297.0
 20
210.0
  9
$ORTHOMODE
 70
     0
  9
$REGENMODE
 70
     1
  9
$FILLMODE
 70
     1
  9
$QTEXTMODE
 70
     0
  9
$MIRRTEXT
 70
     1
  9
$LTSCALE
 40
1.0
  9
$ATTMODE
 70
     1
  9
$TEXTSIZE
 40
3.5
  9
$TRACEWID
 40
1.0
  9
$TEXTSTYLE
  7
Standard
  9
$CLAYER
  8
0
  9
$CELTYPE
  6
ByLayer
  9
$CECOLOR
 62
   256
  9
$CELTSCALE
 40
1.0
  9
$DISPSILH
 70
     0
  9
$DIMSCALE
 40
1.0
  9
$DIMASZ
 40
3.302
  9
$DIMEXO
 40
1.0
  9
$DIMDLI
 40
3.75
  9
$DIMRND
 40
0.0
  9
$DIMDLE
 40
0.0
  9
$DIMEXE
 40
1.0
  9
$DIMTP
 40
0.0
  9
$DIMTM
 40
0.0
  9
$DIMTXT
 40
3.5
  9
$DIMCEN
 40
2.5
  9
$DIMTSZ
 40
0.0
  9
$DIMTOL
 70
     0
  9
$DIMLIM
 70
     0
  9
$DIMTIH
 70
     1
  9
$DIMTOH
 70
     1
  9
$DIMSE1
 70
     0
  9
$DIMSE2
 70
     0
  9
$DIMTAD
 70
     1
  9
$DIMZIN
 70
     0
  9
$DIMBLK
  1

  9
$DIMASO
 70
     1
  9
$DIMSHO
 70
     1
  9
$DIMPOST
  1

  9
$DIMAPOST
  1

  9
$DIMALT
 70
     0
  9
$DIMALTD
 70
     3
  9
$DIMALTF
 40
0.0393700787
  9
$DIMLFAC
 40
1.0
  9
$DIMTOFL
 70
     1
  9
$DIMTVP
 40
0.0
  9
$DIMTIX
 70
     0
  9
$DIMSOXD
 70
     0
  9
$DIMSAH
 70
     0
  9
$DIMBLK1
  1

  9
$DIMBLK2
  1

  9
$DIMSTYLE
  2
ISO-25
  9
$DIMCLRD
 70
     0
  9
$DIMCLRE
 70
     0
  9
$DIMCLRT
 70
     0
  9
$DIMTFAC
 40
1.0
  9
$DIMGAP
 40
1.524
  9
$DIMJUST
 70
     0
  9
$DIMSD1
 70
     0
  9
$DIMSD2
 70
     0
  9
$DIMTOLJ
 70
     0
  9
$DIMTZIN
 70
     0
  9
$DIMALTZ
 70
     0
  9
$DIMALTTZ
 70
     0
  9
$DIMUPT
 70
     0
  9
$DIMDEC
 70
     2
  9
$DIMTDEC
 70
     2
  9
$DIMALTU
 70
     2
  9
$DIMALTTD
 70
     3
  9
$DIMTXSTY
  7
Standard
  9
$DIMAUNIT
 70
     0
  9
$DIMADEC
 70
     2
  9
$DIMALTRND
 40
0.0
  9
$DIMAZIN
 70
     0
  9
$DIMDSEP
 70
    44
  9
$DIMATFIT
 70
     3
  9
$DIMFRAC
 70
     0
  9
$DIMLDRBLK
  1

  9
$DIMLUNIT
 70
     2
  9
$DIMLWD
 70
    -2
  9
$DIMLWE
 70
    -2
  9
$DIMTMOVE
 70
     0
  9
$DIMFXL
 40
1.0
  9
$DIMFXLON
 70
     0
  9
$DIMJOGANG
 40
0.7853981634
  9
$DIMTFILL
 70
     0
  9
$DIMTFILLCLR
 70
     0
  9
$DIMARCSYM
 70
     0
  9
$DIMLTYPE
  6

  9
$DIMLTEX1
  6

  9
$DIMLTEX2
  6

  9
$LUNITS
 70
     2
  9
$LUPREC
 70
     2
  9
$SKETCHINC
 40
1.0
  9
$FILLETRAD
 40
10.0
  9
$AUNITS
 70
     0
  9
$AUPREC
 70
     2
  9
$MENU
  1
.
  9
$ELEVATION
 40
0.0
  9
$PELEVATION
 40
0.0
  9
$THICKNESS
 40
0.0
  9
$LIMCHECK
 70
     0
  9
$CHAMFERA
 40
10.0
  9
$CHAMFERB
 40
10.0
  9
$CHAMFERC
 40
20.0
  9
$CHAMFERD
 40
0.0
  9
$SKPOLY
 70
     0
  9
$TDCREATE
 40
2456449.658513067
  9
$TDUCREATE
 40
2456449.575179734
  9
$TDUPDATE
 40
2456449.658513611
  9
$TDUUPDATE
 40
2456449.575180278
  9
$TDINDWG
 40
0.0000000116
  9
$TDUSRTIMER
 40
0.0000000116
  9
$USRTIMER
 70
     1
  9
$ANGBASE
 50
0.0
  9
$ANGDIR
 70
     0
  9
$PDMODE
 70
     0
  9
$PDSIZE
 40
-1.0
  9
$PLINEWID
 40
0.0
  9
$SPLFRAME
 70
     0
  9
$SPLINETYPE
 70
     6
  9
$SPLINESEGS
 70
     8
  9
$HANDSEED
  5
118
  9
$SURFTAB1
 70
     6
  9
$SURFTAB2
 70
     6
  9
$SURFTYPE
 70
     6
  9
$SURFU
 70
     6
  9
$SURFV
 70
     6
  9
$UCSBASE
  2

  9
$UCSNAME
  2

  9
$UCSORG
 10
0.0
 20
0.0
 30
0.0
  9
$UCSXDIR
 10
1.0
 20
0.0
 30
0.0
  9
$UCSYDIR
 10
0.0
 20
1.0
 30
0.0
  9
$UCSORTHOREF
  2

  9
$UCSORTHOVIEW
 70
     0
  9
$UCSORGTOP
 10
0.0
 20
0.0
 30
0.0
  9
$UCSORGBOTTOM
 10
0.0
 20
0.0
 30
0.0
  9
$UCSORGLEFT
 10
0.0
 20
0.0
 30
0.0
  9
$UCSORGRIGHT
 10
0.0
 20
0.0
 30
0.0
  9
$UCSORGFRONT
 10
0.0
 20
0.0
 30
0.0
  9
$UCSORGBACK
 10
0.0
 20
0.0
 30
0.0
  9
$PUCSBASE
  2

  9
$PUCSNAME
  2

  9
$PUCSORG
 10
0.0
 20
0.0
 30
0.0
  9
$PUCSXDIR
 10
1.0
 20
0.0
 30
0.0
  9
$PUCSYDIR
 10
0.0
 20
1.0
 30
0.0
  9
$PUCSORTHOREF
  2

  9
$PUCSORTHOVIEW
 70
     0
  9
$PUCSORGTOP
 10
0.0
 20
0.0
 30
0.0
  9
$PUCSORGBOTTOM
 10
0.0
 20
0.0
 30
0.0
  9
$PUCSORGLEFT
 10
0.0
 20
0.0
 30
0.0
  9
$PUCSORGRIGHT
 10
0.0
 20
0.0
 30
0.0
  9
$PUCSORGFRONT
 10
0.0
 20
0.0
 30
0.0
  9
$PUCSORGBACK
 10
0.0
 20
0.0
 30
0.0
  9
$USERI1
 70
     0
  9
$USERI2
 70
     0
  9
$USERI3
 70
     0
  9
$USERI4
 70
     0
  9
$USERI5
 70
     0
  9
$USERR1
 40
0.0
  9
$USERR2
 40
0.0
  9
$USERR3
 40
0.0
  9
$USERR4
 40
0.0
  9
$USERR5
 40
0.0
  9
$WORLDVIEW
 70
     1
  9
$SHADEDGE
 70
     3
  9
$SHADEDIF
 70
    70
  9
$TILEMODE
 70
     1
  9
$MAXACTVP
 70
    64
  9
$PINSBASE
 10
0.0
 20
0.0
 30
0.0
  9
$PLIMCHECK
 70
     0
  9
$PEXTMIN
 10
1.0000000000E+20
 20
1.0000000000E+20
 30
1.0000000000E+20
  9
$PEXTMAX
 10
-1.0000000000E+20
 20
-1.0000000000E+20
 30
-1.0000000000E+20
  9
$PLIMMIN
 10
0.0
 20
0.0
  9
$PLIMMAX
 10
420.0
 20
297.0
  9
$UNITMODE
 70
     0
  9
$VISRETAIN
 70
     1
  9
$PLINEGEN
 70
     0
  9
$PSLTSCALE
 70
     1
  9
$TREEDEPTH
 70
  3020
  9
$CMLSTYLE
  2
Standard
  9
$CMLJUST
 70
     0
  9
$CMLSCALE
 40
20.0
  9
$PROXYGRAPHICS
 70
     1
  9
$MEASUREMENT
 70
     1
  9
$CELWEIGHT
370
    -1
  9
$ENDCAPS
280
     0
  9
$JOINSTYLE
280
     0
  9
$LWDISPLAY
290
     1
  9
$INSUNITS
 70
     4
  9
$HYPERLINKBASE
  1

  9
$STYLESHEET
  1

  9
$XEDIT
290
     1
  9
$CEPSNTYPE
380
     0
  9
$PSTYLEMODE
290
     1
  9
$FINGERPRINTGUID
  2
{EA7E4CEE-8519-4493-B959-C56506C87C6F}
  9
$VERSIONGUID
  2
{FAEB1C32-E019-11D5-929B-00C0DF256EC4}
  9
$EXTNAMES
290
     1
  9
$PSVPSCALE
 40
0.0
  9
$OLESTARTUP
290
     0
  9
$SORTENTS
280
   127
  9
$INDEXCTL
280
     0
  9
$HIDETEXT
280
     1
  9
$XCLIPFRAME
290
     0
  9
$HALOGAP
280
     0
  9
$OBSCOLOR
 70
   257
  9
$OBSLTYPE
280
     0
  9
$INTERSECTIONDISPLAY
280
     0
  9
$INTERSECTIONCOLOR
 70
   257
  9
$DIMASSOC
280
     2
  9
$PROJECTNAME
  1

  9
$CAMERADISPLAY
290
     0
  9
$LENSLENGTH
 40
50.0
  9
$CAMERAHEIGHT
 40
0.0
  9
$STEPSPERSEC
 40
2.0
  9
$STEPSIZE
 40
6.0
  9
$3DDWFPREC
 40
2.0
  9
$PSOLWIDTH
 40
5.0
  9
$PSOLHEIGHT
 40
80.0
  9
$LOFTANG1
 40
1.5707963268
  9
$LOFTANG2
 40
1.5707963268
  9
$LOFTMAG1
 40
0.0
  9
$LOFTMAG2
 40
0.0
  9
$LOFTPARAM
 70
     7
  9
$LOFTNORMALS
280
     1
  9
$LATITUDE
 40
37.795
  9
$LONGITUDE
 40
-122.394
  9
$NORTHDIRECTION
 40
0.0
  9
$TIMEZONE
 70
 -8000
  9
$LIGHTGLYPHDISPLAY
280
     1
  9
$TILEMODELIGHTSYNCH
280
     1
  9
$SOLIDHIST
280
     1
  9
$SHOWHIST
280
     1
  9
$DWFFRAME
280
     2
  9
$DGNFRAME
280
     2
  9
$REALWORLDSCALE
290
     1
  9
$INTERFERECOLOR
 62
   256
  9
$CSHADOW
280
     0
  9
$SHADOWPLANELOCATION
 40
0.0
  0
ENDSEC
  0
SECTION
  2
CLASSES
  0
CLASS
  1
ACDBDICTIONARYWDFLT
  2
AcDbDictionaryWithDefault
  3
ObjectDBX Classes
 90
        0
 91
        4
280
     0
281
     0
  0
CLASS
  1
VISUALSTYLE
  2
AcDbVisualStyle
  3
ObjectDBX Classes
 90
     4095
 91
        4
280
     0
281
     0
  0
CLASS
  1
MATERIAL
  2
AcDbMaterial
  3
ObjectDBX Classes
 90
     1153
 91
        4
280
     0
281
     0
  0
ENDSEC
  0
SECTION
  2
TABLES
  0
TABLE
  2
VPORT
  5
8
330
0
100
AcDbSymbolTable
 70
     1
  0
VPORT
  5
29
330
8
100
AcDbSymbolTableRecord
100
AcDbViewportTableRecord
  2
*Active
 70
     0
 10
0.0
 20
0.0
 11
1.0
 21
1.0
 12
148.5
 22
105.0
 13
0.0
 23
0.0
 14
10.0
 24
10.0
 15
10.0
 25
10.0
 16
0.0
 26
0.0
 36
1.0
 17
0.0
 27
0.0
 37
0.0
 40
210.0
 41
1.4142857143
 42
50.0
 43
0.0
 44
0.0
 50
0.0
 51
0.0
 71
     0
 72
  2000
 73
     1
 74
     3
 75
     0
 76
     0
 77
     0
 78
     0
281
     0
 65
     1
110
0.0
120
0.0
130
0.0
111
1.0
121
0.0
131
0.0
112
0.0
122
1.0
132
0.0
 79
     0
146
0.0
 60
     3
 61
     5
292
     1
282
     1
141
0.0
142
0.0
 63
   250
  0
ENDTAB
  0
TABLE
  2
LTYPE
  5
5
330
0
100
AcDbSymbolTable
 70
     8
  0
LTYPE
  5
14
330
5
100
AcDbSymbolTableRecord
100
AcDbLinetypeTableRecord
  2
ByBlock
 70
     0
  3

 72
    65
 73
     0
 40
0.0
  0
LTYPE
  5
15
330
5
100
AcDbSymbolTableRecord
100
AcDbLinetypeTableRecord
  2
ByLayer
 70
     0
  3

 72
    65
 73
     0
 40
0.0
  0
LTYPE
  5
16
330
5
100
AcDbSymbolTableRecord
100
AcDbLinetypeTableRecord
  2
Continuous
 70
     0
  3
Solid line
 72
    65
 73
     0
 40
0.0
  0
LTYPE
  5
3F
330
5
100
AcDbSymbolTableRecord
100
AcDbLinetypeTableRecord
  2
SLD-Durchgehend
 70
     0
  3
SolidWorks Line Style
 72
    65
 73
     0
 40
0.0
  0
LTYPE
  5
40
330
5
100
AcDbSymbolTableRecord
100
AcDbLinetypeTableRecord
  2
SLD-Gestrichelt
 70
     0
  3
SolidWorks Line Style
 72
    65
 73
     2
 40
1.905
 49
1.27
 74
     0
 49
-0.635
 74
     0
  0
LTYPE
  5
41
330
5
100
AcDbSymbolTableRecord
100
AcDbLinetypeTableRecord
  2
SLD-Phantom
 70
     0
  3
SolidWorks Line Style
 72
    65
 73
     6
 40
12.7
 49
6.35
 74
     0
 49
-1.27
 74
     0
 49
1.27
 74
     0
 49
-1.27
 74
     0
 49
1.27
 74
     0
 49
-1.27
 74
     0
  0
LTYPE
  5
42
330
5
100
AcDbSymbolTableRecord
100
AcDbLinetypeTableRecord
  2
SLD-Kette
 70
     0
  3
SolidWorks Line Style
 72
    65
 73
     4
 40
10.16
 49
6.35
 74
     0
 49
-1.27
 74
     0
 49
1.27
 74
     0
 49
-1.27
 74
     0
  0
LTYPE
  5
43
330
5
100
AcDbSymbolTableRecord
100
AcDbLinetypeTableRecord
  2
SLD-Punktstrich
 70
     0
  3
SolidWorks Line Style
 72
    65
 73
     4
 40
19.05
 49
15.24
 74
     0
 49
-1.27
 74
     0
 49
1.27
 74
     0
 49
-1.27
 74
     0
  0
LTYPE
  5
44
330
5
100
AcDbSymbolTableRecord
100
AcDbLinetypeTableRecord
  2
SLD-Naht
 70
     0
  3
SolidWorks Line Style
 72
    65
 73
     2
 40
0.635
 49
0.0
 74
     0
 49
-0.635
 74
     0
  0
LTYPE
  5
45
330
5
100
AcDbSymbolTableRecord
100
AcDbLinetypeTableRecord
  2
SLD-Dicke-Dünne-Kette
 70
     0
  3
SolidWorks Line Style
 72
    65
 73
     4
 40
10.16
 49
6.35
 74
     0
 49
-1.27
 74
     0
 49
1.27
 74
     0
 49
-1.27
 74
     0
  0
ENDTAB
  0
TABLE
  2
LAYER
  5
2
330
0
100
AcDbSymbolTable
 70
     3
  0
LAYER
  5
10
330
2
100
AcDbSymbolTableRecord
100
AcDbLayerTableRecord
  2
0
 70
     0
 62
     7
  6
Continuous
370
    -3
390
F
347
3E
  0
LAYER
  5
46
330
2
100
AcDbSymbolTableRecord
100
AcDbLayerTableRecord
  2
1
 70
     0
 62
     4
  6
Continuous
370
    -1
390
F
347
3E
  0
LAYER
  5
47
330
2
100
AcDbSymbolTableRecord
100
AcDbLayerTableRecord
  2
2
 70
     0
 62
     7
  6
SLD-Durchgehend
370
    -3
390
F
347
3E
  0
ENDTAB
  0
TABLE
  2
STYLE
  5
3
330
0
100
AcDbSymbolTable
 70
     2
  0
STYLE
  5
11
330
3
100
AcDbSymbolTableRecord
100
AcDbTextStyleTableRecord
  2
Standard
 70
     0
 40
0.0
 41
1.0
 50
0.0
 71
     0
 42
3.5
  3
txt
  4

  0
STYLE
  5
F5
330
3
100
AcDbSymbolTableRecord
100
AcDbTextStyleTableRecord
  2
SLDTEXTSTYLE0
 70
     0
 40
0.0
 41
0.75
 50
0.0
 71
     0
 42
0.2
  3
TXT
  4

  0
ENDTAB
  0
TABLE
  2
VIEW
  5
6
330
0
100
AcDbSymbolTable
 70
     0
  0
ENDTAB
  0
TABLE
  2
UCS
  5
7
330
0
100
AcDbSymbolTable
 70
     0
  0
ENDTAB
  0
TABLE
  2
APPID
  5
9
330
0
100
AcDbSymbolTable
 70
     1
  0
APPID
  5
12
330
9
100
AcDbSymbolTableRecord
100
AcDbRegAppTableRecord
  2
ACAD
 70
     0
  0
ENDTAB
  0
TABLE
  2
DIMSTYLE
  5
A
330
0
100
AcDbSymbolTable
 70
     2
100
AcDbDimStyleTable
  0
DIMSTYLE
105
27
330
A
100
AcDbSymbolTableRecord
100
AcDbDimStyleTableRecord
  2
ISO-25
 70
     0
 41
2.5
 42
0.625
 43
3.75
 44
1.25
 73
     0
 74
     0
 77
     1
 78
     8
140
2.5
141
2.5
143
0.0393700787
147
0.625
171
     3
172
     1
178
     0
271
     2
272
     2
274
     3
278
    44
283
     0
284
     8
340
11
  0
DIMSTYLE
105
F6
102
{ACAD_REACTORS
330
F4
330
100
330
10B
102
}
330
A
100
AcDbSymbolTableRecord
100
AcDbDimStyleTableRecord
  2
SLDDIMSTYLE0
 70
     0
 41
3.302
 44
0.0
 45
0.000000001
 73
     0
 74
     0
 77
     1
 78
    12
 79
     3
140
3.5
147
0.875
173
     1
178
     0
271
     2
272
     2
276
     2
284
    12
340
F5
  0
ENDTAB
  0
TABLE
  2
BLOCK_RECORD
  5
1
330
0
100
AcDbSymbolTable
 70
     4
  0
BLOCK_RECORD
  5
1F
330
1
100
AcDbSymbolTableRecord
100
AcDbBlockTableRecord
  2
*Model_Space
340
22
 70
     0
280
     1
281
     0
  0
BLOCK_RECORD
  5
1B
330
1
100
AcDbSymbolTableRecord
100
AcDbBlockTableRecord
  2
*Paper_Space
340
1E
 70
     0
280
     1
281
     0
  0
BLOCK_RECORD
  5
23
330
1
100
AcDbSymbolTableRecord
100
AcDbBlockTableRecord
  2
*Paper_Space0
340
26
 70
     0
280
     1
281
     0
  0
BLOCK_RECORD
  5
F7
330
1
100
AcDbSymbolTableRecord
100
AcDbBlockTableRecord
  2
_D
340
0
 70
     0
280
     1
281
     0
  0
BLOCK_RECORD
  5
101
330
1
100
AcDbSymbolTableRecord
100
AcDbBlockTableRecord
  2
_D_1
340
0
 70
     0
280
     1
281
     0
  0
BLOCK_RECORD
  5
10C
330
1
100
AcDbSymbolTableRecord
100
AcDbBlockTableRecord
  2
_D_2
340
0
 70
     0
280
     1
281
     0
  0
ENDTAB
  0
ENDSEC
  0
SECTION
  2
BLOCKS
  0
BLOCK
  5
20
330
1F
100
AcDbEntity
  8
0
100
AcDbBlockBegin
  2
*Model_Space
 70
     0
 10
0.0
 20
0.0
 30
0.0
  3
*Model_Space
  1

  0
ENDBLK
  5
21
330
1F
100
AcDbEntity
  8
0
100
AcDbBlockEnd
  0
BLOCK
  5
1C
330
1B
100
AcDbEntity
 67
     1
  8
0
100
AcDbBlockBegin
  2
*Paper_Space
 70
     0
 10
0.0
 20
0.0
 30
0.0
  3
*Paper_Space
  1

  0
ENDBLK
  5
1D
330
1B
100
AcDbEntity
 67
     1
  8
0
100
AcDbBlockEnd
  0
BLOCK
  5
24
330
23
100
AcDbEntity
  8
0
100
AcDbBlockBegin
  2
*Paper_Space0
 70
     0
 10
0.0
 20
0.0
 30
0.0
  3
*Paper_Space0
  1

  0
ENDBLK
  5
25
330
23
100
AcDbEntity
  8
0
100
AcDbBlockEnd
  0
BLOCK
  5
F8
330
F7
100
AcDbEntity
  8
0
100
AcDbBlockBegin
  2
_D
 70
     0
 10
0.0
 20
0.0
 30
0.0
  3
_D
  1

  0
SOLID
  5
FA
330
F7
100
AcDbEntity
  8
2
 62
     7
420
 16777215
100
AcDbTrace
 10
0.0000708915
 20
37.5002015396
 30
0.0
 11
3.3020708915
 21
36.9922015396
 31
0.0
 12
3.3020708915
 22
38.0082015396
 32
0.0
 13
3.3020708915
 23
38.0082015396
 33
0.0
  0
SOLID
  5
FB
330
F7
100
AcDbEntity
  8
2
 62
     7
420
 16777215
100
AcDbTrace
 10
139.0000708915
 20
37.5002015396
 30
0.0
 11
135.6980708915
 21
38.0082015396
 31
0.0
 12
135.6980708915
 22
36.9922015396
 32
0.0
 13
135.6980708915
 23
36.9922015396
 33
0.0
  0
LINE
  5
FC
330
F7
100
AcDbEntity
  8
2
 62
     7
420
 16777215
100
AcDbLine
 10
0.0000708915
 20
1.0002015396
 30
0.0
 11
0.0000708915
 21
38.5002015396
 31
0.0
  0
LINE
  5
FD
330
F7
100
AcDbEntity
  8
2
 62
     7
420
 16777215
100
AcDbLine
 10
139.0000708915
 20
1.0002015396
 30
0.0
 11
139.0000708915
 21
38.5002015396
 31
0.0
  0
LINE
  5
FE
330
F7
100
AcDbEntity
  8
2
 62
     7
420
 16777215
100
AcDbLine
 10
0.0000708915
 20
37.5002015396
 30
0.0
 11
139.0000708915
 21
37.5002015396
 31
0.0
  0
MTEXT
  5
FF
330
F7
100
AcDbEntity
  8
2
 62
     7
420
 16777215
100
AcDbMText
 10
64.1990293629
 20
42.0119384542
 30
0.0
 40
3.5
 41
0.0
 46
0.0
 71
     1
 72
     1
  1
139
  7
SLDTEXTSTYLE0
 73
     1
 44
1.0
  0
ENDBLK
  5
F9
330
F7
100
AcDbEntity
  8
0
100
AcDbBlockEnd
  0
BLOCK
  5
102
330
101
100
AcDbEntity
  8
0
100
AcDbBlockBegin
  2
_D_1
 70
     0
 10
0.0
 20
0.0
 30
0.0
  3
_D_1
  1

  0
SOLID
  5
104
330
101
100
AcDbEntity
  8
2
 62
     7
420
 16777215
100
AcDbTrace
 10
145.0000708915
 20
31.5002015396
 30
0.0
 11
144.4920708915
 21
28.1982015396
 31
0.0
 12
145.5080708915
 22
28.1982015396
 32
0.0
 13
145.5080708915
 23
28.1982015396
 33
0.0
  0
SOLID
  5
105
330
101
100
AcDbEntity
  8
2
 62
     7
420
 16777215
100
AcDbTrace
 10
145.0000708915
 20
-31.4997984604
 30
0.0
 11
145.5080708915
 21
-28.1977984604
 31
0.0
 12
144.4920708915
 22
-28.1977984604
 32
0.0
 13
144.4920708915
 23
-28.1977984604
 33
0.0
  0
LINE
  5
106
330
101
100
AcDbEntity
  8
2
 62
     7
420
 16777215
100
AcDbLine
 10
116.0000708915
 20
31.5002015396
 30
0.0
 11
146.0000708915
 21
31.5002015396
 31
0.0
  0
LINE
  5
107
330
101
100
AcDbEntity
  8
2
 62
     7
420
 16777215
100
AcDbLine
 10
116.0000708915
 20
-31.4997984604
 30
0.0
 11
146.0000708915
 21
-31.4997984604
 31
0.0
  0
LINE
  5
108
330
101
100
AcDbEntity
  8
2
 62
     7
420
 16777215
100
AcDbLine
 10
145.0000708915
 20
31.5002015396
 30
0.0
 11
145.0000708915
 21
-31.4997984604
 31
0.0
  0
MTEXT
  5
109
330
101
100
AcDbEntity
  8
2
 62
     7
420
 16777215
100
AcDbMText
 10
140.4883338023
 20
-6.6470034406
 30
0.0
 40
3.5
 41
0.0
 46
0.0
 71
     1
 72
     1
  1
%%c
  7
SLDTEXTSTYLE0
 11
-7.044195017643634E-15
 21
1.0
 31
0.0
 73
     1
 44
1.0
  0
MTEXT
  5
10A
330
101
100
AcDbEntity
  8
2
 62
     7
420
 16777215
100
AcDbMText
 10
140.4348616256
 20
-1.3685660423
 30
0.0
 40
3.5
 41
0.0
 46
0.0
 71
     1
 72
     1
  1
63
  7
SLDTEXTSTYLE0
 11
-7.044195017643634E-15
 21
1.0
 31
0.0
 73
     1
 44
1.0
  0
ENDBLK
  5
103
330
101
100
AcDbEntity
  8
0
100
AcDbBlockEnd
  0
BLOCK
  5
10D
330
10C
100
AcDbEntity
  8
0
100
AcDbBlockBegin
  2
_D_2
 70
     0
 10
0.0
 20
0.0
 30
0.0
  3
_D_2
  1

  0
SOLID
  5
10F
330
10C
100
AcDbEntity
  8
2
 62
     7
420
 16777215
100
AcDbTrace
 10
-5.9999291085
 20
20.0002015396
 30
0.0
 11
-6.5079291085
 21
16.6982015396
 31
0.0
 12
-5.4919291085
 22
16.6982015396
 32
0.0
 13
-5.4919291085
 23
16.6982015396
 33
0.0
  0
SOLID
  5
110
330
10C
100
AcDbEntity
  8
2
 62
     7
420
 16777215
100
AcDbTrace
 10
-5.9999291085
 20
-19.9997984604
 30
0.0
 11
-5.4919291085
 21
-16.6977984604
 31
0.0
 12
-6.5079291085
 22
-16.6977984604
 32
0.0
 13
-6.5079291085
 23
-16.6977984604
 33
0.0
  0
LINE
  5
111
330
10C
100
AcDbEntity
  8
2
 62
     7
420
 16777215
100
AcDbLine
 10
-0.9999291085
 20
20.0002015396
 30
0.0
 11
-6.9999291085
 21
20.0002015396
 31
0.0
  0
LINE
  5
112
330
10C
100
AcDbEntity
  8
2
 62
     7
420
 16777215
100
AcDbLine
 10
-0.9999291085
 20
-19.9997984604
 30
0.0
 11
-6.9999291085
 21
-19.9997984604
 31
0.0
  0
LINE
  5
113
330
10C
100
AcDbEntity
  8
2
 62
     7
420
 16777215
100
AcDbLine
 10
-5.9999291085
 20
20.0002015396
 30
0.0
 11
-5.9999291085
 21
-19.9997984604
 31
0.0
  0
MTEXT
  5
114
330
10C
100
AcDbEntity
  8
2
 62
     7
420
 16777215
100
AcDbMText
 10
-10.5116661977
 20
-6.6470034406
 30
0.0
 40
3.5
 41
0.0
 46
0.0
 71
     1
 72
     1
  1
%%c
  7
SLDTEXTSTYLE0
 11
-7.044195017643634E-15
 21
1.0
 31
0.0
 73
     1
 44
1.0
  0
MTEXT
  5
115
330
10C
100
AcDbEntity
  8
2
 62
     7
420
 16777215
100
AcDbMText
 10
-10.5651383744
 20
-1.3685660423
 30
0.0
 40
3.5
 41
0.0
 46
0.0
 71
     1
 72
     1
  1
40
  7
SLDTEXTSTYLE0
 11
-7.044195017643634E-15
 21
1.0
 31
0.0
 73
     1
 44
1.0
  0
ENDBLK
  5
10E
330
10C
100
AcDbEntity
  8
0
100
AcDbBlockEnd
  0
ENDSEC
  0
SECTION
  2
ENTITIES
  0
LINE
  5
48
330
1F
100
AcDbEntity
  8
0
  6
SLD-Punktstrich
 62
     7
100
AcDbLine
 10
0.0000708915
 20
0.0002015396
 30
0.0
 11
139.0000708915
 21
0.0002015396
 31
0.0
  0
POINT
  5
49
330
1F
100
AcDbEntity
  8
1
 62
     4
420
    65535
100
AcDbPoint
 10
0.0000708915
 20
0.0002015396
 30
0.0
  0
POINT
  5
4A
330
1F
100
AcDbEntity
  8
1
 62
     4
420
    65535
100
AcDbPoint
 10
139.0000708915
 20
0.0002015396
 30
0.0
  0
POINT
  5
4B
330
1F
100
AcDbEntity
  8
1
 62
     4
420
    65535
100
AcDbPoint
 10
0.0000708915
 20
0.0002015396
 30
0.0
  0
POINT
  5
4C
330
1F
100
AcDbEntity
  8
1
 62
     4
420
    65535
100
AcDbPoint
 10
139.0000708915
 20
0.0002015396
 30
0.0
  0
LINE
  5
4D
330
1F
100
AcDbEntity
  8
1
 62
     4
420
    65535
100
AcDbLine
 10
119.4009730506
 20
31.5002015396
 30
0.0
 11
115.0000708915
 21
31.5002015396
 31
0.0
  0
LINE
  5
4E
330
1F
100
AcDbEntity
  8
1
 62
     4
420
    65535
100
AcDbLine
 10
115.0000708915
 20
-31.4997984604
 30
0.0
 11
119.3928912145
 21
-31.4997984604
 31
0.0
  0
LINE
  5
4F
330
1F
100
AcDbEntity
  8
1
 62
     4
420
    65535
100
AcDbLine
 10
138.8928912145
 20
24.1858421856
 30
0.0
 11
136.4005056064
 21
28.5027806909
 31
0.0
  0
LINE
  5
50
330
1F
100
AcDbEntity
  8
1
 62
     4
420
    65535
100
AcDbLine
 10
136.4005259567
 20
-28.5023423641
 30
0.0
 11
138.8928912145
 21
-24.1854391064
 31
0.0
  0
LINE
  5
51
330
1F
100
AcDbEntity
  8
1
 62
     4
420
    65535
100
AcDbLine
 10
123.7500708915
 20
24.2502015396
 30
0.0
 11
113.5000708915
 21
24.2502015396
 31
0.0
  0
LINE
  5
52
330
1F
100
AcDbEntity
  8
1
 62
     4
420
    65535
100
AcDbLine
 10
113.5000708915
 20
-24.2497984604
 30
0.0
 11
123.7500708915
 21
-24.2497984604
 31
0.0
  0
ARC
  5
53
330
1F
100
AcDbEntity
  8
1
 62
     4
420
    65535
100
AcDbCircle
 10
138.8000708915
 20
16.9502015396
 30
0.0
 40
0.199999999999978
100
AcDbArc
 50
270.0
 51
0.0
  0
ARC
  5
54
330
1F
100
AcDbEntity
  8
1
 62
     4
420
    65535
100
AcDbCircle
 10
138.8000708915
 20
-16.9497984604
 30
0.0
 40
0.199999999999978
100
AcDbArc
 50
360.0
 51
90.0
  0
ARC
  5
55
330
1F
100
AcDbEntity
  8
1
 62
     4
420
    65535
100
AcDbCircle
 10
138.2000708915
 20
23.7858421856
 30
0.0
 40
0.799999999999983
100
AcDbArc
 50
0.0
 51
30.0
  0
ARC
  5
56
330
1F
100
AcDbEntity
  8
1
 62
     4
420
    65535
100
AcDbCircle
 10
138.2000708915
 20
-23.7854391064
 30
0.0
 40
0.799999999999983
100
AcDbArc
 50
330.0
 51
0.0
  0
LINE
  5
57
330
1F
100
AcDbEntity
  8
1
 62
     4
420
    65535
100
AcDbLine
 10
124.0000708915
 20
24.0002015396
 30
0.0
 11
123.7500708915
 21
24.2502015396
 31
0.0
  0
LINE
  5
58
330
1F
100
AcDbEntity
  8
1
 62
     4
420
    65535
100
AcDbLine
 10
123.7500708915
 20
-24.2497984604
 30
0.0
 11
124.0000708915
 21
-23.9997984604
 31
0.0
  0
ARC
  5
59
330
1F
100
AcDbEntity
  8
1
 62
     4
420
    65535
100
AcDbCircle
 10
115.0000708915
 20
30.0002015396
 30
0.0
 40
1.500000000000004
100
AcDbArc
 50
90.0
 51
180.0
  0
ARC
  5
5A
330
1F
100
AcDbEntity
  8
1
 62
     4
420
    65535
100
AcDbCircle
 10
115.0000708915
 20
-29.9997984604
 30
0.0
 40
1.5
100
AcDbArc
 50
180.0
 51
270.0
  0
LINE
  5
5B
330
1F
100
AcDbEntity
  8
1
 62
     4
420
    65535
100
AcDbLine
 10
125.5000708915
 20
24.0002015396
 30
0.0
 11
124.0000708915
 21
24.0002015396
 31
0.0
  0
LINE
  5
5C
330
1F
100
AcDbEntity
  8
1
 62
     4
420
    65535
100
AcDbLine
 10
124.0000708915
 20
-23.9997984604
 30
0.0
 11
125.5000708915
 21
-23.9997984604
 31
0.0
  0
LINE
  5
5D
330
1F
100
AcDbEntity
  8
1
 62
     4
420
    65535
100
AcDbLine
 10
125.5000708915
 20
-23.9997984604
 30
0.0
 11
127.5259039164
 21
-25.1694137027
 31
0.0
  0
LINE
  5
5E
330
1F
100
AcDbEntity
  8
1
 62
     4
420
    65535
100
AcDbLine
 10
127.5259039164
 20
25.1698167819
 30
0.0
 11
125.5000708915
 21
24.0002015396
 31
0.0
  0
LINE
  5
5F
330
1F
100
AcDbEntity
  8
1
 62
     4
420
    65535
100
AcDbLine
 10
128.9000708915
 20
25.2502015396
 30
0.0
 11
127.8259039164
 21
25.2502015396
 31
0.0
  0
LINE
  5
60
330
1F
100
AcDbEntity
  8
1
 62
     4
420
    65535
100
AcDbLine
 10
127.8259039164
 20
-25.2497984604
 30
0.0
 11
128.9000708915
 21
-25.2497984604
 31
0.0
  0
LINE
  5
61
330
1F
100
AcDbEntity
  8
1
 62
     4
420
    65535
100
AcDbLine
 10
131.3000708915
 20
18.8502015396
 30
0.0
 11
129.5000708915
 21
18.8502015396
 31
0.0
  0
LINE
  5
62
330
1F
100
AcDbEntity
  8
1
 62
     4
420
    65535
100
AcDbLine
 10
129.5000708915
 20
-18.8497984604
 30
0.0
 11
131.3000708915
 21
-18.8497984604
 31
0.0
  0
LINE
  5
63
330
1F
100
AcDbEntity
  8
1
 62
     4
420
    65535
100
AcDbLine
 10
132.5000708915
 20
20.5002015396
 30
0.0
 11
131.3000708915
 21
20.5002015396
 31
0.0
  0
LINE
  5
64
330
1F
100
AcDbEntity
  8
1
 62
     4
420
    65535
100
AcDbLine
 10
131.3000708915
 20
-20.4997984604
 30
0.0
 11
132.5000708915
 21
-20.4997984604
 31
0.0
  0
ARC
  5
65
330
1F
100
AcDbEntity
  8
1
 62
     4
420
    65535
100
AcDbCircle
 10
127.8259039164
 20
24.6502015396
 30
0.0
 40
0.5999999999999872
100
AcDbArc
 50
90.0
 51
120.0
  0
ARC
  5
66
330
1F
100
AcDbEntity
  8
1
 62
     4
420
    65535
100
AcDbCircle
 10
127.8259039164
 20
-24.6497984604
 30
0.0
 40
0.5999999999999908
100
AcDbArc
 50
240.0
 51
270.0
  0
LINE
  5
67
330
1F
100
AcDbEntity
  8
1
 62
     4
420
    65535
100
AcDbLine
 10
138.5016269397
 20
16.7502015396
 30
0.0
 11
132.5000708915
 21
20.2152015396
 31
0.0
  0
LINE
  5
68
330
1F
100
AcDbEntity
  8
1
 62
     4
420
    65535
100
AcDbLine
 10
132.5000708915
 20
-20.2147984604
 30
0.0
 11
138.5016269397
 21
-16.7497984604
 31
0.0
  0
LINE
  5
69
330
1F
100
AcDbEntity
  8
1
 62
     4
420
    65535
100
AcDbLine
 10
138.8000708915
 20
16.7502015396
 30
0.0
 11
138.5016269397
 21
16.7502015396
 31
0.0
  0
LINE
  5
6A
330
1F
100
AcDbEntity
  8
1
 62
     4
420
    65535
100
AcDbLine
 10
138.5016269397
 20
-16.7497984604
 30
0.0
 11
138.8000708915
 21
-16.7497984604
 31
0.0
  0
LINE
  5
6B
330
1F
100
AcDbEntity
  8
1
 62
     4
420
    65535
100
AcDbLine
 10
119.3928912145
 20
15.7501544226
 30
0.0
 11
119.3928912145
 21
14.2502015396
 31
0.0
  0
ARC
  5
6C
330
1F
100
AcDbEntity
  8
1
 62
     4
420
    65535
100
AcDbCircle
 10
128.9000708915
 20
24.6502015396
 30
0.0
 40
0.5999999999999943
100
AcDbArc
 50
0.0
 51
90.0
  0
ARC
  5
6D
330
1F
100
AcDbEntity
  8
1
 62
     4
420
    65535
100
AcDbCircle
 10
128.9000708915
 20
-24.6497984604
 30
0.0
 40
0.5999999999999979
100
AcDbArc
 50
270.0
 51
0.0
  0
LINE
  5
6E
330
1F
100
AcDbEntity
  8
1
 62
     4
420
    65535
100
AcDbLine
 10
119.3928912145
 20
31.5002015396
 30
0.0
 11
119.3928912145
 21
28.5002015396
 31
0.0
  0
LINE
  5
6F
330
1F
100
AcDbEntity
  8
1
 62
     4
420
    65535
100
AcDbLine
 10
119.3928912145
 20
15.7501544226
 30
0.0
 11
119.3928912145
 21
14.2502015396
 31
0.0
  0
LINE
  5
70
330
1F
100
AcDbEntity
  8
1
 62
     4
420
    65535
100
AcDbLine
 10
119.3928912145
 20
-28.4997984604
 30
0.0
 11
119.3928912145
 21
-31.4997984604
 31
0.0
  0
LINE
  5
71
330
1F
100
AcDbEntity
  8
1
 62
     4
420
    65535
100
AcDbLine
 10
119.3928912145
 20
-14.2497984604
 30
0.0
 11
119.3928912145
 21
-15.7497513434
 31
0.0
  0
LINE
  5
72
330
1F
100
AcDbEntity
  8
1
 62
     4
420
    65535
100
AcDbLine
 10
119.3928912145
 20
-14.2497984604
 30
0.0
 11
119.3928912145
 21
-15.7497513434
 31
0.0
  0
LINE
  5
73
330
1F
100
AcDbEntity
  8
1
 62
     4
420
    65535
100
AcDbLine
 10
90.0000708915
 20
-24.9997984604
 30
0.0
 11
122.3917813374
 21
-24.9997984604
 31
0.0
  0
LINE
  5
74
330
1F
100
AcDbEntity
  8
1
 62
     4
420
    65535
100
AcDbLine
 10
122.3917813374
 20
25.0002015396
 30
0.0
 11
90.0000708915
 21
25.0002015396
 31
0.0
  0
LINE
  5
75
330
1F
100
AcDbEntity
  8
1
 62
     4
420
    65535
100
AcDbLine
 10
124.0000708915
 20
23.3919119855
 30
0.0
 11
122.3917813374
 21
25.0002015396
 31
0.0
  0
LINE
  5
76
330
1F
100
AcDbEntity
  8
1
 62
     4
420
    65535
100
AcDbLine
 10
122.3917813374
 20
-24.9997984604
 30
0.0
 11
124.0000708915
 21
-23.3915089063
 31
0.0
  0
LINE
  5
77
330
1F
100
AcDbEntity
  8
1
 62
     4
420
    65535
100
AcDbLine
 10
0.0000708915
 20
-19.9997984604
 30
0.0
 11
80.0000708915
 21
-19.9997984604
 31
0.0
  0
LINE
  5
78
330
1F
100
AcDbEntity
  8
1
 62
     4
420
    65535
100
AcDbLine
 10
80.0000708915
 20
20.0002015396
 30
0.0
 11
74.0000708915
 21
20.0002015396
 31
0.0
  0
LINE
  5
79
330
1F
100
AcDbEntity
  8
1
 62
     4
420
    65535
100
AcDbLine
 10
8.0000708915
 20
20.0002015396
 30
0.0
 11
0.0000708915
 21
20.0002015396
 31
0.0
  0
LINE
  5
7A
330
1F
100
AcDbEntity
  8
1
 62
     4
420
    65535
100
AcDbLine
 10
90.2020647102
 20
-15.2497984604
 30
0.0
 11
123.569657442
 21
-19.9393077949
 31
0.0
  0
LINE
  5
7B
330
1F
100
AcDbEntity
  8
1
 62
     4
420
    65535
100
AcDbLine
 10
123.569657442
 20
19.9397108741
 30
0.0
 11
90.2020647102
 21
15.2502015396
 31
0.0
  0
LINE
  5
7C
330
1F
100
AcDbEntity
  8
1
 62
     4
420
    65535
100
AcDbLine
 10
86.0000708915
 20
-15.2497984604
 30
0.0
 11
90.2020647102
 21
-15.2497984604
 31
0.0
  0
LINE
  5
7D
330
1F
100
AcDbEntity
  8
1
 62
     4
420
    65535
100
AcDbLine
 10
90.2020647102
 20
15.2502015396
 30
0.0
 11
86.0000708915
 21
15.2502015396
 31
0.0
  0
LINE
  5
7E
330
1F
100
AcDbEntity
  8
1
 62
     4
420
    65535
100
AcDbLine
 10
84.9897079204
 20
-13.4997984604
 30
0.0
 11
86.0000708915
 21
-15.2497984604
 31
0.0
  0
LINE
  5
7F
330
1F
100
AcDbEntity
  8
1
 62
     4
420
    65535
100
AcDbLine
 10
86.0000708915
 20
15.2502015396
 30
0.0
 11
84.9897079204
 21
13.5002015396
 31
0.0
  0
LINE
  5
80
330
1F
100
AcDbEntity
  8
1
 62
     4
420
    65535
100
AcDbLine
 10
0.0000708915
 20
-13.4997984604
 30
0.0
 11
84.9897079204
 21
-13.4997984604
 31
0.0
  0
LINE
  5
81
330
1F
100
AcDbEntity
  8
1
 62
     4
420
    65535
100
AcDbLine
 10
84.9897079204
 20
13.5002015396
 30
0.0
 11
0.0000708915
 21
13.5002015396
 31
0.0
  0
ARC
  5
82
330
1F
100
AcDbEntity
  8
1
 62
     4
420
    65535
100
AcDbCircle
 10
123.5000708915
 20
-20.4344418293
 30
0.0
 40
0.5
100
AcDbArc
 50
0.0
 51
82.0
  0
ARC
  5
83
330
1F
100
AcDbEntity
  8
1
 62
     4
420
    65535
100
AcDbCircle
 10
123.5000708915
 20
20.4348449085
 30
0.0
 40
0.5
100
AcDbArc
 50
278.0
 51
0.0
  0
LINE
  5
84
330
1F
100
AcDbEntity
  8
1
 62
     4
420
    65535
100
AcDbLine
 10
138.8928912145
 20
-24.1774207808
 30
0.0
 11
138.8928912145
 21
24.1778238601
 31
0.0
  0
SPLINE
  5
85
330
1F
100
AcDbEntity
  8
1
 62
     4
420
    65535
100
AcDbSpline
210
0.0
220
0.0
230
1.0
 70
     8
 71
     3
 72
     8
 73
     4
 74
     0
 42
0.00000001
 43
0.00000001
 12
1.0
 22
0.0
 32
0.0
 13
1.0
 23
0.0
 33
0.0
 40
0.0000002664120095
 40
0.0000002664120095
 40
0.0000002664120095
 40
0.0000002664120095
 40
0.0032309834828477
 40
0.0032309834828477
 40
0.0032309834828477
 40
0.0032309834828477
 10
136.3388100429516
 20
16.41526504907084
 30
0.0
 10
135.8019042125734
 20
16.88202462183346
 30
0.0
 10
135.2648482135311
 20
17.34874101487938
 30
0.0
 10
134.7276788994738
 20
17.81542479266455
 30
0.0
  0
SPLINE
  5
86
330
1F
100
AcDbEntity
  8
1
 62
     4
420
    65535
100
AcDbSpline
210
0.0
220
0.0
230
1.0
 70
     8
 71
     3
 72
     8
 73
     4
 74
     0
 42
0.00000001
 43
0.00000001
 12
1.0
 22
0.0
 32
0.0
 13
1.0
 23
0.0
 33
0.0
 40
0.0
 40
0.0
 40
0.0
 40
0.0
 40
1.0
 40
1.0
 40
1.0
 40
1.0
 10
136.3388100429516
 20
12.08513803014868
 30
0.0
 10
136.4228950933948
 20
13.52851370312273
 30
0.0
 10
136.4228950933948
 20
14.97188937609679
 30
0.0
 10
136.3388100429516
 20
16.41526504907084
 30
0.0
  0
SPLINE
  5
87
330
1F
100
AcDbEntity
  8
1
 62
     4
420
    65535
100
AcDbSpline
210
0.0
220
0.0
230
1.0
 70
     8
 71
     3
 72
     8
 73
     4
 74
     0
 42
0.00000001
 43
0.00000001
 12
1.0
 22
0.0
 32
0.0
 13
1.0
 23
0.0
 33
0.0
 40
0.0000002664120095
 40
0.0000002664120095
 40
0.0000002664120095
 40
0.0000002664120095
 40
0.0032309834828477
 40
0.0032309834828477
 40
0.0032309834828477
 40
0.0032309834828477
 10
136.3388100429516
 20
-12.08473495092919
 30
0.0
 10
135.8019042125734
 20
-12.55149452369178
 30
0.0
 10
135.2648482135311
 20
-13.01821091673769
 30
0.0
 10
134.7276788994738
 20
-13.48489469452284
 30
0.0
  0
SPLINE
  5
88
330
1F
100
AcDbEntity
  8
1
 62
     4
420
    65535
100
AcDbSpline
210
0.0
220
0.0
230
1.0
 70
     8
 71
     3
 72
     8
 73
     4
 74
     0
 42
0.00000001
 43
0.00000001
 12
1.0
 22
0.0
 32
0.0
 13
1.0
 23
0.0
 33
0.0
 40
0.0
 40
0.0
 40
0.0
 40
0.0
 40
1.0
 40
1.0
 40
1.0
 40
1.0
 10
136.3388100429516
 20
-16.4148619698514
 30
0.0
 10
136.4228950933948
 20
-14.97148629687733
 30
0.0
 10
136.4228950933948
 20
-13.52811062390326
 30
0.0
 10
136.3388100429516
 20
-12.08473495092919
 30
0.0
  0
LINE
  5
89
330
1F
100
AcDbEntity
  8
1
 62
     4
420
    65535
100
AcDbLine
 10
134.7276788995
 20
-17.8150217134
 30
0.0
 11
136.338810043
 21
-16.4148619699
 31
0.0
  0
LINE
  5
8A
330
1F
100
AcDbEntity
  8
1
 62
     4
420
    65535
100
AcDbLine
 10
134.7276788995
 20
-31.3001179476
 30
0.0
 11
134.7276788995
 21
-17.8150217134
 31
0.0
  0
SPLINE
  5
8B
330
1F
100
AcDbEntity
  8
1
 62
     4
420
    65535
100
AcDbSpline
210
0.0
220
0.0
230
1.0
 70
     8
 71
     3
 72
    11
 73
     7
 74
     0
 42
0.00000001
 43
0.00000001
 12
1.0
 22
0.0
 32
0.0
 13
1.0
 23
0.0
 33
0.0
 40
0.0073203761563768
 40
0.0073203761563768
 40
0.0073203761563768
 40
0.0073203761563768
 40
0.009749423463665
 40
0.009749423463665
 40
0.009749423463665
 40
0.0105510928865931
 40
0.0105510928865931
 40
0.0105510928865931
 40
0.0105510928865931
 10
136.3388100429516
 20
-28.49979846039052
 30
0.0
 10
135.9351319247729
 20
-29.20167433997251
 30
0.0
 10
135.531368640437
 20
-29.90350124134478
 30
0.0
 10
135.1275365691723
 20
-30.60528855360777
 30
0.0
 10
134.994258046192
 20
-30.83690259092734
 30
0.0
 10
134.8609719934128
 20
-31.06851229548917
 30
0.0
 10
134.7276788994738
 20
-31.30011794757791
 30
0.0
  0
SPLINE
  5
8C
330
1F
100
AcDbEntity
  8
1
 62
     4
420
    65535
100
AcDbSpline
210
0.0
220
0.0
230
1.0
 70
    27
 71
     3
 72
    10
 73
     6
 74
     0
 42
0.00000001
 43
0.00000001
 12
1.0
 22
0.0
 32
0.0
 13
1.0
 23
0.0
 33
0.0
 40
0.0
 40
0.0
 40
0.0
 40
0.0
 40
0.5
 40
0.5
 40
1.0
 40
1.0
 40
1.0
 40
1.0
 10
136.3388100429516
 20
-28.49979846039052
 30
0.0
 10
136.3809134410214
 20
-28.49979846039052
 30
0.0
 10
136.4020751289315
 20
-28.49979846039052
 30
0.0
 10
136.4019137687751
 20
-28.49979846039052
 30
0.0
 10
136.3806852636625
 20
-28.49979846039053
 30
0.0
 10
136.3388100429516
 20
-28.49979846039052
 30
0.0
  0
LINE
  5
8D
330
1F
100
AcDbEntity
  8
1
 62
     4
420
    65535
100
AcDbLine
 10
134.7276788995
 20
-17.8150217134
 30
0.0
 11
134.7276788995
 21
-31.3001179476
 31
0.0
  0
SPLINE
  5
8E
330
1F
100
AcDbEntity
  8
1
 62
     4
420
    65535
100
AcDbSpline
210
0.0
220
0.0
230
1.0
 70
     8
 71
     3
 72
     8
 73
     4
 74
     0
 42
0.00000001
 43
0.00000001
 12
1.0
 22
0.0
 32
0.0
 13
1.0
 23
0.0
 33
0.0
 40
0.0000002664120095
 40
0.0000002664120095
 40
0.0000002664120095
 40
0.0000002664120095
 40
0.0032309834828477
 40
0.0032309834828477
 40
0.0032309834828477
 40
0.0032309834828477
 10
136.3388100429516
 20
-16.41486196985173
 30
0.0
 10
135.8019042125734
 20
-16.88162154261434
 30
0.0
 10
135.2648482135311
 20
-17.34833793566025
 30
0.0
 10
134.7276788994738
 20
-17.81502171344541
 30
0.0
  0
SPLINE
  5
8F
330
1F
100
AcDbEntity
  8
1
 62
     4
420
    65535
100
AcDbSpline
210
0.0
220
0.0
230
1.0
 70
     8
 71
     3
 72
     8
 73
     4
 74
     0
 42
0.00000001
 43
0.00000001
 12
1.0
 22
0.0
 32
0.0
 13
1.0
 23
0.0
 33
0.0
 40
0.0
 40
0.0
 40
0.0
 40
0.0
 40
1.0
 40
1.0
 40
1.0
 40
1.0
 10
136.3388100429516
 20
-12.08473495092955
 30
0.0
 10
136.4228950933948
 20
-13.52811062390361
 30
0.0
 10
136.4228950933948
 20
-14.97148629687767
 30
0.0
 10
136.3388100429516
 20
-16.41486196985174
 30
0.0
  0
LINE
  5
90
330
1F
100
AcDbEntity
  8
1
 62
     4
420
    65535
100
AcDbLine
 10
134.7276788995
 20
-13.4848946945
 30
0.0
 11
134.7276788995
 21
13.4852977737
 31
0.0
  0
LINE
  5
91
330
1F
100
AcDbEntity
  8
1
 62
     4
420
    65535
100
AcDbLine
 10
134.7276788995
 20
-13.4848946945
 30
0.0
 11
136.338810043
 21
-12.0847349509
 31
0.0
  0
LINE
  5
92
330
1F
100
AcDbEntity
  8
1
 62
     4
420
    65535
100
AcDbLine
 10
134.7276788995
 20
13.4852977737
 30
0.0
 11
136.338810043
 21
12.0851380301
 31
0.0
  0
LINE
  5
93
330
1F
100
AcDbEntity
  8
1
 62
     4
420
    65535
100
AcDbLine
 10
134.7276788995
 20
13.4852977737
 30
0.0
 11
134.7276788995
 21
-13.4848946945
 31
0.0
  0
SPLINE
  5
94
330
1F
100
AcDbEntity
  8
1
 62
     4
420
    65535
100
AcDbSpline
210
0.0
220
0.0
230
1.0
 70
     8
 71
     3
 72
     8
 73
     4
 74
     0
 42
0.00000001
 43
0.00000001
 12
1.0
 22
0.0
 32
0.0
 13
1.0
 23
0.0
 33
0.0
 40
0.0000002664120095
 40
0.0000002664120095
 40
0.0000002664120095
 40
0.0000002664120095
 40
0.0032309834828477
 40
0.0032309834828477
 40
0.0032309834828477
 40
0.0032309834828477
 10
136.3388100429516
 20
12.08513803014831
 30
0.0
 10
135.8019042125734
 20
12.55189760291091
 30
0.0
 10
135.2648482135311
 20
13.01861399595682
 30
0.0
 10
134.7276788994738
 20
13.48529777374198
 30
0.0
  0
SPLINE
  5
95
330
1F
100
AcDbEntity
  8
1
 62
     4
420
    65535
100
AcDbSpline
210
0.0
220
0.0
230
1.0
 70
     8
 71
     3
 72
     8
 73
     4
 74
     0
 42
0.00000001
 43
0.00000001
 12
1.0
 22
0.0
 32
0.0
 13
1.0
 23
0.0
 33
0.0
 40
0.0
 40
0.0
 40
0.0
 40
0.0
 40
1.0
 40
1.0
 40
1.0
 40
1.0
 10
136.3388100429516
 20
16.41526504907052
 30
0.0
 10
136.4228950933948
 20
14.97188937609645
 30
0.0
 10
136.4228950933948
 20
13.52851370312238
 30
0.0
 10
136.3388100429516
 20
12.08513803014832
 30
0.0
  0
LINE
  5
96
330
1F
100
AcDbEntity
  8
1
 62
     4
420
    65535
100
AcDbLine
 10
134.7276788995
 20
31.3005210268
 30
0.0
 11
134.7276788995
 21
17.8154247927
 31
0.0
  0
SPLINE
  5
97
330
1F
100
AcDbEntity
  8
1
 62
     4
420
    65535
100
AcDbSpline
210
0.0
220
0.0
230
1.0
 70
     8
 71
     3
 72
    11
 73
     7
 74
     0
 42
0.00000001
 43
0.00000001
 12
1.0
 22
0.0
 32
0.0
 13
1.0
 23
0.0
 33
0.0
 40
0.0090964637912347
 40
0.0090964637912347
 40
0.0090964637912347
 40
0.0090964637912347
 40
0.009749424067333
 40
0.009749424067333
 40
0.009749424067333
 40
0.0123271802881595
 40
0.0123271802881595
 40
0.0123271802881595
 40
0.0123271802881595
 10
136.3388100429516
 20
28.50020153960948
 30
0.0
 10
136.2302959767569
 20
28.6888751442157
 30
0.0
 10
136.1217757298726
 20
28.87754519416896
 30
0.0
 10
136.0132496548606
 20
29.06621189149445
 30
0.0
 10
135.5848104813673
 20
29.81103016543403
 30
0.0
 10
135.1562808955446
 20
30.5557964363998
 30
0.0
 10
134.7276788994738
 20
31.30052102679683
 30
0.0
  0
LWPOLYLINE
  5
98
330
1F
100
AcDbEntity
  8
1
 62
     4
420
    65535
100
AcDbPolyline
 90
        3
 70
   128
 43
0.0
 10
134.7276788995
 20
-31.3001179476
 10
135.1275365692
 20
-30.6052885536
 10
136.338810043
 20
-28.4997984604
  0
LWPOLYLINE
  5
99
330
1F
100
AcDbEntity
  8
1
 62
     4
420
    65535
100
AcDbPolyline
 90
        3
 70
   128
 43
0.0
 10
134.7276788995
 20
31.3005210268
 10
136.0132496549
 20
29.0662118915
 10
136.338810043
 20
28.5002015396
  0
LINE
  5
9A
330
1F
100
AcDbEntity
  8
1
 62
     4
420
    65535
100
AcDbLine
 10
134.7276788995
 20
17.8154247927
 30
0.0
 11
134.7276788995
 21
31.3005210268
 31
0.0
  0
SPLINE
  5
9B
330
1F
100
AcDbEntity
  8
1
 62
     4
420
    65535
100
AcDbSpline
210
0.0
220
0.0
230
1.0
 70
     8
 71
     3
 72
     8
 73
     4
 74
     0
 42
0.00000001
 43
0.00000001
 12
1.0
 22
0.0
 32
0.0
 13
1.0
 23
0.0
 33
0.0
 40
0.0
 40
0.0
 40
0.0
 40
0.0
 40
1.0
 40
1.0
 40
1.0
 40
1.0
 10
134.7276788994738
 20
17.81542479266455
 30
0.0
 10
134.6924710898548
 20
17.84601275286734
 30
0.0
 10
134.6250732031278
 20
17.86558351717847
 30
0.0
 10
134.5544738187169
 20
17.86558351717847
 30
0.0
  0
LINE
  5
9C
330
1F
100
AcDbEntity
  8
1
 62
     4
420
    65535
100
AcDbLine
 10
134.7276788995
 20
17.8154247927
 30
0.0
 11
136.338810043
 21
16.4152650491
 31
0.0
  0
LINE
  5
9D
330
1F
100
AcDbEntity
  8
1
 62
     4
420
    65535
100
AcDbLine
 10
134.5544738187
 20
17.8655835172
 30
0.0
 11
134.5544738187
 21
31.4008384758
 31
0.0
  0
SPLINE
  5
9E
330
1F
100
AcDbEntity
  8
1
 62
     4
420
    65535
100
AcDbSpline
210
0.0
220
0.0
230
1.0
 70
    27
 71
     3
 72
    10
 73
     6
 74
     0
 42
0.00000001
 43
0.00000001
 12
1.0
 22
0.0
 32
0.0
 13
1.0
 23
0.0
 33
0.0
 40
0.0
 40
0.0
 40
0.0
 40
0.0
 40
0.5
 40
0.5
 40
1.0
 40
1.0
 40
1.0
 40
1.0
 10
136.3388100429516
 20
28.50020153960948
 30
0.0
 10
136.3806852636625
 20
28.50020153960947
 30
0.0
 10
136.4019137687751
 20
28.50020153960948
 30
0.0
 10
136.4020751289315
 20
28.50020153960947
 30
0.0
 10
136.3809134410214
 20
28.50020153960948
 30
0.0
 10
136.3388100429516
 20
28.50020153960948
 30
0.0
  0
LINE
  5
9F
330
1F
100
AcDbEntity
  8
1
 62
     4
420
    65535
100
AcDbLine
 10
134.5544738187
 20
-13.535053419
 30
0.0
 11
134.5544738187
 21
13.5354564983
 31
0.0
  0
SPLINE
  5
A0
330
1F
100
AcDbEntity
  8
1
 62
     4
420
    65535
100
AcDbSpline
210
0.0
220
0.0
230
1.0
 70
     8
 71
     3
 72
     8
 73
     4
 74
     0
 42
0.00000001
 43
0.00000001
 12
1.0
 22
0.0
 32
0.0
 13
1.0
 23
0.0
 33
0.0
 40
0.0
 40
0.0
 40
0.0
 40
0.0
 40
1.0
 40
1.0
 40
1.0
 40
1.0
 10
134.7276788994738
 20
-13.48489469452285
 30
0.0
 10
134.6924710898548
 20
-13.51548265472565
 30
0.0
 10
134.6250732031278
 20
-13.53505341903676
 30
0.0
 10
134.5544738187169
 20
-13.53505341903676
 30
0.0
  0
LINE
  5
A1
330
1F
100
AcDbEntity
  8
1
 62
     4
420
    65535
100
AcDbLine
 10
134.5544738187
 20
17.8655835172
 30
0.0
 11
121.8928912145
 21
17.8655835172
 31
0.0
  0
LINE
  5
A2
330
1F
100
AcDbEntity
  8
1
 62
     4
420
    65535
100
AcDbLine
 10
121.8928912145
 20
31.4008384758
 30
0.0
 11
134.5544738187
 21
31.4008384758
 31
0.0
  0
SPLINE
  5
A3
330
1F
100
AcDbEntity
  8
1
 62
     4
420
    65535
100
AcDbSpline
210
0.0
220
0.0
230
1.0
 70
     8
 71
     3
 72
    10
 73
     6
 74
     0
 42
0.00000001
 43
0.00000001
 12
1.0
 22
0.0
 32
0.0
 13
1.0
 23
0.0
 33
0.0
 40
0.0
 40
0.0
 40
0.0
 40
0.0
 40
0.5
 40
0.5
 40
1.0
 40
1.0
 40
1.0
 40
1.0
 10
134.5544738187169
 20
31.40083847582467
 30
0.0
 10
134.5893474061492
 20
31.40083847582467
 30
0.0
 10
134.6244766451383
 20
31.39136912756507
 30
0.0
 10
134.6847864144355
 20
31.35636538426893
 30
0.0
 10
134.7102196205737
 20
31.33085768982384
 30
0.0
 10
134.7276788994738
 20
31.3005210267968
 30
0.0
  0
SPLINE
  5
A4
330
1F
100
AcDbEntity
  8
1
 62
     4
420
    65535
100
AcDbSpline
210
0.0
220
0.0
230
1.0
 70
    11
 71
     3
 72
    38
 73
    34
 74
     0
 42
0.00000001
 43
0.00000001
 12
1.0
 22
0.0
 32
0.0
 13
1.0
 23
0.0
 33
0.0
 40
0.0
 40
0.0
 40
0.0
 40
0.0
 40
0.0625000000000001
 40
0.0625000000000001
 40
0.1250000000000001
 40
0.1250000000000001
 40
0.1875000000000002
 40
0.1875000000000002
 40
0.2500000000000003
 40
0.2500000000000003
 40
0.3125000000000003
 40
0.3125000000000003
 40
0.3750000000000003
 40
0.3750000000000003
 40
0.4375000000000003
 40
0.4375000000000003
 40
0.5000000000000003
 40
0.5000000000000003
 40
0.5625000000000003
 40
0.5625000000000003
 40
0.6250000000000002
 40
0.6250000000000002
 40
0.6875000000000002
 40
0.6875000000000002
 40
0.7500000000000001
 40
0.7500000000000001
 40
0.8125000000000001
 40
0.8125000000000001
 40
0.8750000000000001
 40
0.8750000000000001
 40
0.9375
 40
0.9375
 40
1.0
 40
1.0
 40
1.0
 40
1.0
 10
121.8928912145348
 20
31.40083847582465
 30
0.0
 10
121.7276760327483
 20
31.40083847582466
 30
0.0
 10
121.5652344713724
 20
31.40214151732654
 30
0.0
 10
121.2456677153392
 20
31.40710163625569
 30
0.0
 10
121.0868825363778
 20
31.41081701613287
 30
0.0
 10
120.7841836872672
 20
31.42004156157279
 30
0.0
 10
120.6406269235361
 20
31.42550580358228
 30
0.0
 10
120.3689376646449
 20
31.43750448771523
 30
0.0
 10
120.2403473571421
 20
31.44408264757734
 30
0.0
 10
120.0098345444692
 20
31.45703959358575
 30
0.0
 10
119.9063713282927
 20
31.46348087729337
 30
0.0
 10
119.7236038612149
 20
31.47554892520578
 30
0.0
 10
119.645967167929
 20
31.48106556059719
 30
0.0
 10
119.5212421207089
 20
31.49021346817102
 30
0.0
 10
119.4732067575463
 20
31.49391275399158
 30
0.0
 10
119.4089237334771
 20
31.49891687262676
 30
0.0
 10
119.3930054612213
 20
31.50019247241433
 30
0.0
 10
119.3927781816133
 20
31.50021051047411
 30
0.0
 10
119.4089869508193
 20
31.49891216512989
 30
0.0
 10
119.472720010679
 20
31.49395043260314
 30
0.0
 10
119.5198884592946
 20
31.49031505387659
 30
0.0
 10
119.6450125741844
 20
31.48113331500004
 30
0.0
 10
119.7232248636836
 20
31.47557783613878
 30
0.0
 10
119.9040535456125
 20
31.46363009098362
 30
0.0
 10
120.0072943482127
 20
31.45718684524483
 30
0.0
 10
120.2404812402175
 20
31.44407069879374
 30
0.0
 10
120.3667691454822
 20
31.43761210210384
 30
0.0
 10
120.6373354425313
 20
31.42563955726954
 30
0.0
 10
120.7834028287478
 20
31.42006895852609
 30
0.0
 10
121.0861712015102
 20
31.41083511048028
 30
0.0
 10
121.2419713600183
 20
31.40717602661598
 30
0.0
 10
121.5623242564212
 20
31.40217001746561
 30
0.0
 10
121.7276762646242
 20
31.40083847582465
 30
0.0
 10
121.8928912145348
 20
31.40083847582465
 30
0.0
  0
LINE
  5
A5
330
1F
100
AcDbEntity
  8
1
 62
     4
420
    65535
100
AcDbLine
 10
134.5544738187
 20
31.4008384758
 30
0.0
 11
134.5544738187
 21
17.8655835172
 31
0.0
  0
LINE
  5
A6
330
1F
100
AcDbEntity
  8
1
 62
     4
420
    65535
100
AcDbLine
 10
134.5544738187
 20
13.5354564983
 30
0.0
 11
121.8928912145
 21
13.5354564983
 31
0.0
  0
SPLINE
  5
A7
330
1F
100
AcDbEntity
  8
1
 62
     4
420
    65535
100
AcDbSpline
210
0.0
220
0.0
230
1.0
 70
     8
 71
     3
 72
    34
 73
    30
 74
     0
 42
0.00000001
 43
0.00000001
 12
1.0
 22
0.0
 32
0.0
 13
1.0
 23
0.0
 33
0.0
 40
0.0
 40
0.0
 40
0.0
 40
0.0
 40
0.0625000000000035
 40
0.0625000000000035
 40
0.125000000000007
 40
0.125000000000007
 40
0.2500000000000096
 40
0.2500000000000096
 40
0.3125000000000088
 40
0.3125000000000088
 40
0.375000000000008
 40
0.375000000000008
 40
0.4375000000000072
 40
0.4375000000000072
 40
0.5000000000000064
 40
0.5000000000000064
 40
0.5625000000000057
 40
0.5625000000000057
 40
0.6250000000000048
 40
0.6250000000000048
 40
0.687500000000004
 40
0.687500000000004
 40
0.7500000000000032
 40
0.7500000000000032
 40
0.8125000000000024
 40
0.8125000000000024
 40
0.8750000000000016
 40
0.8750000000000016
 40
1.0
 40
1.0
 40
1.0
 40
1.0
 10
121.8928912145348
 20
13.5354564982559
 30
0.0
 10
121.729734292158
 20
13.5354564982559
 30
0.0
 10
121.5675344850112
 20
13.54979142124019
 30
0.0
 10
121.2450912409248
 20
13.60769864414835
 30
0.0
 10
121.0871860516747
 20
13.65111958237152
 30
0.0
 10
120.6358856272857
 20
13.81976464570542
 30
0.0
 10
120.3569728000928
 20
13.9874293206768
 30
0.0
 10
120.0110433084498
 20
14.2963122602618
 30
0.0
 10
119.9054469603702
 20
14.41085953845491
 30
0.0
 10
119.7238140504251
 20
14.65211973975038
 30
0.0
 10
119.6469620346137
 20
14.7791112420968
 30
0.0
 10
119.521348196034
 20
15.04560158442962
 30
0.0
 10
119.4730912527472
 20
15.18506923276628
 30
0.0
 10
119.4093334080608
 20
15.46429783667832
 30
0.0
 10
119.3930233460677
 20
15.60555351429441
 30
0.0
 10
119.3927606664709
 20
15.8914033426003
 30
0.0
 10
119.4088810554209
 20
16.03181797910112
 30
0.0
 10
119.4721723892608
 20
16.3061043441133
 30
0.0
 10
119.5200721216333
 20
16.44164099854042
 30
0.0
 10
119.645417822994
 20
16.69945888386805
 30
0.0
 10
119.7221155629806
 20
16.82111250672311
 30
0.0
 10
119.9032121294474
 20
17.05041569274517
 30
0.0
 10
120.0086687475892
 20
17.15859251766197
 30
0.0
 10
120.239103337946
 20
17.35195390982358
 30
0.0
 10
120.3648017627015
 20
17.43837958262218
 30
0.0
 10
120.6376312306255
 20
17.59066762933288
 30
0.0
 10
120.7832061587819
 20
17.65534704803918
 30
0.0
 10
121.2341963573234
 20
17.81076453947556
 30
0.0
 10
121.5624661412711
 20
17.8655835171781
 30
0.0
 10
121.8928912145348
 20
17.8655835171781
 30
0.0
  0
LINE
  5
A8
330
1F
100
AcDbEntity
  8
1
 62
     4
420
    65535
100
AcDbLine
 10
121.8928912145
 20
-13.535053419
 30
0.0
 11
134.5544738187
 21
-13.535053419
 31
0.0
  0
SPLINE
  5
A9
330
1F
100
AcDbEntity
  8
1
 62
     4
420
    65535
100
AcDbSpline
210
0.0
220
0.0
230
1.0
 70
     8
 71
     3
 72
     8
 73
     4
 74
     0
 42
0.00000001
 43
0.00000001
 12
1.0
 22
0.0
 32
0.0
 13
1.0
 23
0.0
 33
0.0
 40
0.0
 40
0.0
 40
0.0
 40
0.0
 40
1.0
 40
1.0
 40
1.0
 40
1.0
 10
134.5544738187169
 20
13.5354564982563
 30
0.0
 10
134.6249866376084
 20
13.5354564982563
 30
0.0
 10
134.6925042076265
 20
13.51585696177527
 30
0.0
 10
134.7276788994739
 20
13.4852977737424
 30
0.0
  0
LINE
  5
AA
330
1F
100
AcDbEntity
  8
1
 62
     4
420
    65535
100
AcDbLine
 10
134.5544738187
 20
-17.865180438
 30
0.0
 11
121.8928912145
 21
-17.865180438
 31
0.0
  0
SPLINE
  5
AB
330
1F
100
AcDbEntity
  8
1
 62
     4
420
    65535
100
AcDbSpline
210
0.0
220
0.0
230
1.0
 70
     8
 71
     3
 72
    34
 73
    30
 74
     0
 42
0.00000001
 43
0.00000001
 12
1.0
 22
0.0
 32
0.0
 13
1.0
 23
0.0
 33
0.0
 40
0.0
 40
0.0
 40
0.0
 40
0.0
 40
0.0625000000000017
 40
0.0625000000000017
 40
0.1250000000000034
 40
0.1250000000000034
 40
0.2500000000000016
 40
0.2500000000000016
 40
0.3125000000000018
 40
0.3125000000000018
 40
0.3750000000000022
 40
0.3750000000000022
 40
0.4375000000000024
 40
0.4375000000000024
 40
0.5000000000000028
 40
0.5000000000000028
 40
0.5625000000000024
 40
0.5625000000000024
 40
0.6250000000000021
 40
0.6250000000000021
 40
0.6875000000000019
 40
0.6875000000000019
 40
0.7500000000000016
 40
0.7500000000000016
 40
0.8125000000000012
 40
0.8125000000000012
 40
0.8750000000000009
 40
0.8750000000000009
 40
1.0
 40
1.0
 40
1.0
 40
1.0
 10
121.8928912145348
 20
-17.86518043795933
 30
0.0
 10
121.729734292158
 20
-17.86518043795933
 30
0.0
 10
121.5675344850112
 20
-17.8521172919231
 30
0.0
 10
121.2450912409248
 20
-17.79920598897655
 30
0.0
 10
121.0871860516747
 20
-17.75949250243227
 30
0.0
 10
120.6358856272856
 20
-17.60458301620498
 30
0.0
 10
120.3569728000927
 20
-17.44990561323183
 30
0.0
 10
120.0110433084498
 20
-17.16045326218777
 30
0.0
 10
119.9054469603703
 20
-17.05247981079475
 30
0.0
 10
119.7238140504252
 20
-16.8232147951913
 30
0.0
 10
119.6469620346137
 20
-16.70168090775764
 30
0.0
 10
119.5213481960341
 20
-16.44440147669623
 30
0.0
 10
119.4730912527472
 20
-16.30865112141029
 30
0.0
 10
119.4093334080608
 20
-16.03438545755012
 30
0.0
 10
119.3930233460677
 20
-15.89443599907937
 30
0.0
 10
119.3927606664709
 20
-15.60860701835396
 30
0.0
 10
119.4088810554209
 20
-15.46690121856844
 30
0.0
 10
119.4721723892608
 20
-15.18768685755202
 30
0.0
 10
119.5200721216333
 20
-15.0484584567942
 30
0.0
 10
119.645417822994
 20
-14.78144373827593
 30
0.0
 10
119.7221155629806
 20
-14.65433989295176
 30
0.0
 10
119.9032121294474
 20
-14.41306567369697
 30
0.0
 10
120.0086687475892
 20
-14.29831548803663
 30
0.0
 10
120.239103337946
 20
-14.09199274632621
 30
0.0
 10
120.3648017627015
 20
-13.99912166786445
 30
0.0
 10
120.6376312306255
 20
-13.83475369049589
 30
0.0
 10
120.7832061587819
 20
-13.76453237358182
 30
0.0
 10
121.2341963573234
 20
-13.59534261661533
 30
0.0
 10
121.5624661412712
 20
-13.53505341903715
 30
0.0
 10
121.8928912145348
 20
-13.53505341903715
 30
0.0
  0
LINE
  5
AC
330
1F
100
AcDbEntity
  8
1
 62
     4
420
    65535
100
AcDbLine
 10
134.5544738187
 20
-17.865180438
 30
0.0
 11
134.5544738187
 21
-31.4004353966
 31
0.0
  0
LINE
  5
AD
330
1F
100
AcDbEntity
  8
1
 62
     4
420
    65535
100
AcDbLine
 10
121.8928912145
 20
-31.4004353966
 30
0.0
 11
134.5544738187
 21
-31.4004353966
 31
0.0
  0
SPLINE
  5
AE
330
1F
100
AcDbEntity
  8
1
 62
     4
420
    65535
100
AcDbSpline
210
0.0
220
0.0
230
1.0
 70
    11
 71
     3
 72
    36
 73
    32
 74
     0
 42
0.00000001
 43
0.00000001
 12
1.0
 22
0.0
 32
0.0
 13
1.0
 23
0.0
 33
0.0
 40
0.0
 40
0.0
 40
0.0
 40
0.0
 40
0.0625000000000006
 40
0.0625000000000006
 40
0.1250000000000012
 40
0.1250000000000012
 40
0.1875000000000019
 40
0.1875000000000019
 40
0.2500000000000025
 40
0.2500000000000025
 40
0.3125000000000031
 40
0.3125000000000031
 40
0.3750000000000038
 40
0.3750000000000038
 40
0.500000000000003
 40
0.500000000000003
 40
0.5625000000000027
 40
0.5625000000000027
 40
0.6250000000000022
 40
0.6250000000000022
 40
0.6875000000000019
 40
0.6875000000000019
 40
0.7500000000000014
 40
0.7500000000000014
 40
0.8125000000000011
 40
0.8125000000000011
 40
0.8750000000000008
 40
0.8750000000000008
 40
0.9375000000000003
 40
0.9375000000000003
 40
1.0
 40
1.0
 40
1.0
 40
1.0
 10
121.8928912145348
 20
-31.4004353966057
 30
0.0
 10
121.7278435315518
 20
-31.4004353966057
 30
0.0
 10
121.565027255983
 20
-31.40174073858753
 30
0.0
 10
121.2455145941995
 20
-31.4067018505125
 30
0.0
 10
121.0868961065009
 20
-31.41041315530462
 30
0.0
 10
120.7840172291078
 20
-31.41964392330988
 30
0.0
 10
120.6404611234951
 20
-31.42510961503788
 30
0.0
 10
120.3689031809603
 20
-31.43710336332297
 30
0.0
 10
120.2402849695456
 20
-31.44368275289942
 30
0.0
 10
120.0097204979204
 20
-31.4566432472986
 30
0.0
 10
119.9062976743007
 20
-31.4630826519961
 30
0.0
 10
119.7236709966158
 20
-31.47514142248493
 30
0.0
 10
119.6459161633711
 20
-31.48066613691062
 30
0.0
 10
119.4588515322731
 20
-31.49438657198336
 30
0.0
 10
119.3926395348484
 20
-31.49981843496302
 30
0.0
 10
119.3930181488319
 20
-31.4997883862429
 30
0.0
 10
119.4093533837102
 20
-31.4984801762405
 30
0.0
 10
119.4731179378059
 20
-31.49351676087159
 30
0.0
 10
119.5213281396803
 20
-31.4898029546976
 30
0.0
 10
119.6470198692789
 20
-31.48058640689703
 30
0.0
 10
119.7238984133097
 20
-31.47512724799864
 30
0.0
 10
119.9054851358767
 20
-31.46313546455701
 30
0.0
 10
120.0111057817233
 20
-31.45656015162002
 30
0.0
 10
120.241776808112
 20
-31.44360418531448
 30
0.0
 10
120.367642971032
 20
-31.43716059916199
 30
0.0
 10
120.6409956259068
 20
-31.42508443529898
 30
0.0
 10
120.7864164512417
 20
-31.41956427215524
 30
0.0
 10
121.0872399157103
 20
-31.41040926756255
 30
0.0
 10
121.2448677008197
 20
-31.40670704794192
 30
0.0
 10
121.5675669396684
 20
-31.40170618008647
 30
0.0
 10
121.7297989387255
 20
-31.4004353966057
 30
0.0
 10
121.8928912145348
 20
-31.4004353966057
 30
0.0
  0
LINE
  5
AF
330
1F
100
AcDbEntity
  8
1
 62
     4
420
    65535
100
AcDbLine
 10
115.0000708915
 20
-31.4997984604
 30
0.0
 11
115.0000708915
 21
31.5002015396
 31
0.0
  0
LINE
  5
B0
330
1F
100
AcDbEntity
  8
1
 62
     4
420
    65535
100
AcDbLine
 10
134.5544738187
 20
-31.4004353966
 30
0.0
 11
134.5544738187
 21
-17.865180438
 31
0.0
  0
LINE
  5
B1
330
1F
100
AcDbEntity
  8
1
 62
     4
420
    65535
100
AcDbLine
 10
134.5544738187
 20
13.5354564983
 30
0.0
 11
134.5544738187
 21
-13.535053419
 31
0.0
  0
SPLINE
  5
B2
330
1F
100
AcDbEntity
  8
1
 62
     4
420
    65535
100
AcDbSpline
210
0.0
220
0.0
230
1.0
 70
     8
 71
     3
 72
    34
 73
    30
 74
     0
 42
0.00000001
 43
0.00000001
 12
1.0
 22
0.0
 32
0.0
 13
1.0
 23
0.0
 33
0.0
 40
0.0
 40
0.0
 40
0.0
 40
0.0
 40
0.0624999999999963
 40
0.0624999999999963
 40
0.1249999999999925
 40
0.1249999999999925
 40
0.2499999999999897
 40
0.2499999999999897
 40
0.3124999999999902
 40
0.3124999999999902
 40
0.3749999999999907
 40
0.3749999999999907
 40
0.4374999999999912
 40
0.4374999999999912
 40
0.4999999999999917
 40
0.4999999999999917
 40
0.5624999999999927
 40
0.5624999999999927
 40
0.6249999999999938
 40
0.6249999999999938
 40
0.6874999999999948
 40
0.6874999999999948
 40
0.7499999999999958
 40
0.7499999999999958
 40
0.8124999999999969
 40
0.8124999999999969
 40
0.8749999999999979
 40
0.8749999999999979
 40
1.0
 40
1.0
 40
1.0
 40
1.0
 10
121.8928912145348
 20
-13.53505341903675
 30
0.0
 10
121.7297342921581
 20
-13.53505341903676
 30
0.0
 10
121.5675344850112
 20
-13.54938834202104
 30
0.0
 10
121.2450912409248
 20
-13.60729556492921
 30
0.0
 10
121.0871860516746
 20
-13.65071650315238
 30
0.0
 10
120.6358856272856
 20
-13.81936156648628
 30
0.0
 10
120.3569728000927
 20
-13.98702624145765
 30
0.0
 10
120.0110433084498
 20
-14.29590918104267
 30
0.0
 10
119.9054469603703
 20
-14.41045645923577
 30
0.0
 10
119.7238140504252
 20
-14.65171666053125
 30
0.0
 10
119.6469620346137
 20
-14.77870816287766
 30
0.0
 10
119.5213481960341
 20
-15.04519850521049
 30
0.0
 10
119.4730912527472
 20
-15.18466615354714
 30
0.0
 10
119.4093334080608
 20
-15.46389475745919
 30
0.0
 10
119.3930233460677
 20
-15.60515043507527
 30
0.0
 10
119.3927606664709
 20
-15.89100026338117
 30
0.0
 10
119.4088810554209
 20
-16.03141489988198
 30
0.0
 10
119.4721723892608
 20
-16.30570126489417
 30
0.0
 10
119.5200721216333
 20
-16.44123791932128
 30
0.0
 10
119.645417822994
 20
-16.69905580464892
 30
0.0
 10
119.7221155629806
 20
-16.82070942750397
 30
0.0
 10
119.9032121294474
 20
-17.05001261352605
 30
0.0
 10
120.0086687475892
 20
-17.15818943844284
 30
0.0
 10
120.239103337946
 20
-17.35155083060446
 30
0.0
 10
120.3648017627015
 20
-17.43797650340305
 30
0.0
 10
120.6376312306255
 20
-17.59026455011375
 30
0.0
 10
120.7832061587819
 20
-17.65494396882005
 30
0.0
 10
121.2341963573234
 20
-17.81036146025643
 30
0.0
 10
121.5624661412711
 20
-17.86518043795896
 30
0.0
 10
121.8928912145348
 20
-17.86518043795897
 30
0.0
  0
SPLINE
  5
B3
330
1F
100
AcDbEntity
  8
1
 62
     4
420
    65535
100
AcDbSpline
210
0.0
220
0.0
230
1.0
 70
     8
 71
     3
 72
    34
 73
    30
 74
     0
 42
0.00000001
 43
0.00000001
 12
1.0
 22
0.0
 32
0.0
 13
1.0
 23
0.0
 33
0.0
 40
0.0
 40
0.0
 40
0.0
 40
0.0
 40
0.0624999999999957
 40
0.0624999999999957
 40
0.1249999999999913
 40
0.1249999999999913
 40
0.249999999999988
 40
0.249999999999988
 40
0.3124999999999886
 40
0.3124999999999886
 40
0.3749999999999892
 40
0.3749999999999892
 40
0.4374999999999899
 40
0.4374999999999899
 40
0.4999999999999906
 40
0.4999999999999906
 40
0.5624999999999918
 40
0.5624999999999918
 40
0.624999999999993
 40
0.624999999999993
 40
0.6874999999999942
 40
0.6874999999999942
 40
0.7499999999999953
 40
0.7499999999999953
 40
0.8124999999999966
 40
0.8124999999999966
 40
0.8749999999999978
 40
0.8749999999999978
 40
1.0
 40
1.0
 40
1.0
 40
1.0
 10
121.8928912145348
 20
17.86558351717846
 30
0.0
 10
121.729734292158
 20
17.86558351717846
 30
0.0
 10
121.5675344850112
 20
17.85252037114223
 30
0.0
 10
121.2450912409248
 20
17.79960906819569
 30
0.0
 10
121.0871860516746
 20
17.75989558165139
 30
0.0
 10
120.6358856272856
 20
17.6049860954241
 30
0.0
 10
120.3569728000928
 20
17.45030869245097
 30
0.0
 10
120.0110433084498
 20
17.1608563414069
 30
0.0
 10
119.9054469603703
 20
17.05288289001388
 30
0.0
 10
119.7238140504252
 20
16.82361787441044
 30
0.0
 10
119.6469620346137
 20
16.70208398697677
 30
0.0
 10
119.5213481960341
 20
16.44480455591536
 30
0.0
 10
119.4730912527472
 20
16.30905420062943
 30
0.0
 10
119.4093334080608
 20
16.03478853676926
 30
0.0
 10
119.3930233460677
 20
15.8948390782985
 30
0.0
 10
119.3927606664709
 20
15.60901009757309
 30
0.0
 10
119.4088810554209
 20
15.46730429778758
 30
0.0
 10
119.4721723892608
 20
15.18808993677116
 30
0.0
 10
119.5200721216333
 20
15.04886153601334
 30
0.0
 10
119.645417822994
 20
14.78184681749507
 30
0.0
 10
119.7221155629806
 20
14.65474297217091
 30
0.0
 10
119.9032121294474
 20
14.41346875291612
 30
0.0
 10
120.0086687475892
 20
14.29871856725578
 30
0.0
 10
120.239103337946
 20
14.09239582554536
 30
0.0
 10
120.3648017627015
 20
13.9995247470836
 30
0.0
 10
120.6376312306255
 20
13.83515676971503
 30
0.0
 10
120.7832061587819
 20
13.76493545280095
 30
0.0
 10
121.2341963573234
 20
13.59574569583447
 30
0.0
 10
121.5624661412712
 20
13.5354564982563
 30
0.0
 10
121.8928912145348
 20
13.53545649825629
 30
0.0
  0
SPLINE
  5
B4
330
1F
100
AcDbEntity
  8
1
 62
     4
420
    65535
100
AcDbSpline
210
0.0
220
0.0
230
1.0
 70
     8
 71
     3
 72
    10
 73
     6
 74
     0
 42
0.00000001
 43
0.00000001
 12
1.0
 22
0.0
 32
0.0
 13
1.0
 23
0.0
 33
0.0
 40
0.0
 40
0.0
 40
0.0
 40
0.0
 40
0.5
 40
0.5
 40
1.0
 40
1.0
 40
1.0
 40
1.0
 10
134.7276788994738
 20
-31.30011794757793
 30
0.0
 10
134.710321512926
 20
-31.33027756583823
 30
0.0
 10
134.6848519270006
 20
-31.35594269451161
 30
0.0
 10
134.6242537284473
 20
-31.39107696822084
 30
0.0
 10
134.5893867407468
 20
-31.40043539660573
 30
0.0
 10
134.5544738187168
 20
-31.40043539660572
 30
0.0
  0
SPLINE
  5
B5
330
1F
100
AcDbEntity
  8
1
 62
     4
420
    65535
100
AcDbSpline
210
0.0
220
0.0
230
1.0
 70
     8
 71
     3
 72
     8
 73
     4
 74
     0
 42
0.00000001
 43
0.00000001
 12
1.0
 22
0.0
 32
0.0
 13
1.0
 23
0.0
 33
0.0
 40
0.0
 40
0.0
 40
0.0
 40
0.0
 40
1.0
 40
1.0
 40
1.0
 40
1.0
 10
134.7276788994738
 20
-17.81502171344541
 30
0.0
 10
134.6924710898548
 20
-17.84560967364821
 30
0.0
 10
134.6250732031278
 20
-17.86518043795933
 30
0.0
 10
134.5544738187169
 20
-17.86518043795933
 30
0.0
  0
SPLINE
  5
B6
330
1F
100
AcDbEntity
  8
1
 62
     4
420
    65535
100
AcDbSpline
210
0.0
220
0.0
230
1.0
 70
     8
 71
     3
 72
     8
 73
     4
 74
     0
 42
0.00000001
 43
0.00000001
 12
1.0
 22
0.0
 32
0.0
 13
1.0
 23
0.0
 33
0.0
 40
0.0
 40
0.0
 40
0.0
 40
0.0
 40
1.0
 40
1.0
 40
1.0
 40
1.0
 10
134.5544738187169
 20
-13.53505341903716
 30
0.0
 10
134.6249866376084
 20
-13.53505341903716
 30
0.0
 10
134.6925042076265
 20
-13.51545388255612
 30
0.0
 10
134.7276788994739
 20
-13.48489469452325
 30
0.0
  0
SPLINE
  5
B7
330
1F
100
AcDbEntity
  8
1
 62
     4
420
    65535
100
AcDbSpline
210
0.0
220
0.0
230
1.0
 70
     8
 71
     3
 72
     8
 73
     4
 74
     0
 42
0.00000001
 43
0.00000001
 12
1.0
 22
0.0
 32
0.0
 13
1.0
 23
0.0
 33
0.0
 40
0.0
 40
0.0
 40
0.0
 40
0.0
 40
1.0
 40
1.0
 40
1.0
 40
1.0
 10
134.7276788994738
 20
13.48529777374199
 30
0.0
 10
134.6924710898548
 20
13.51588573394478
 30
0.0
 10
134.6250732031278
 20
13.5354564982559
 30
0.0
 10
134.5544738187169
 20
13.5354564982559
 30
0.0
  0
SPLINE
  5
B8
330
1F
100
AcDbEntity
  8
1
 62
     4
420
    65535
100
AcDbSpline
210
0.0
220
0.0
230
1.0
 70
     8
 71
     3
 72
     8
 73
     4
 74
     0
 42
0.00000001
 43
0.00000001
 12
1.0
 22
0.0
 32
0.0
 13
1.0
 23
0.0
 33
0.0
 40
0.0
 40
0.0
 40
0.0
 40
0.0
 40
1.0
 40
1.0
 40
1.0
 40
1.0
 10
134.5544738187169
 20
17.8655835171781
 30
0.0
 10
134.6249866376084
 20
17.8655835171781
 30
0.0
 10
134.6925042076265
 20
17.84598398069707
 30
0.0
 10
134.7276788994739
 20
17.8154247926642
 30
0.0
  0
SPLINE
  5
B9
330
1F
100
AcDbEntity
  8
1
 62
     4
420
    65535
100
AcDbSpline
210
0.0
220
0.0
230
1.0
 70
     8
 71
     3
 72
    10
 73
     6
 74
     0
 42
0.00000001
 43
0.00000001
 12
1.0
 22
0.0
 32
0.0
 13
1.0
 23
0.0
 33
0.0
 40
0.0
 40
0.0
 40
0.0
 40
0.0
 40
0.5
 40
0.5
 40
1.0
 40
1.0
 40
1.0
 40
1.0
 10
134.7276788994738
 20
31.30052102679683
 30
0.0
 10
134.7102496933651
 20
31.3308054363406
 30
0.0
 10
134.6845816396907
 20
31.35652689287734
 30
0.0
 10
134.624313922166
 20
31.39142065335577
 30
0.0
 10
134.5895558014307
 20
31.40083847582466
 30
0.0
 10
134.5544738187169
 20
31.40083847582466
 30
0.0
  0
LINE
  5
BA
330
1F
100
AcDbEntity
  8
1
 62
     4
420
    65535
100
AcDbLine
 10
139.0000708915
 20
-16.9417594095
 30
0.0
 11
139.0000708915
 21
16.9421624888
 31
0.0
  0
LINE
  5
BB
330
1F
100
AcDbEntity
  8
1
 62
     4
420
    65535
100
AcDbLine
 10
138.8000708915
 20
-16.7418542656
 30
0.0
 11
138.8000708915
 21
16.7422573448
 31
0.0
  0
LINE
  5
BC
330
1F
100
AcDbEntity
  8
1
 62
     4
420
    65535
100
AcDbLine
 10
139.0000708915
 20
-23.7834348754
 30
0.0
 11
139.0000708915
 21
23.7838379546
 31
0.0
  0
SPLINE
  5
BD
330
1F
100
AcDbEntity
  8
1
 62
     4
420
    65535
100
AcDbSpline
210
0.0
220
0.0
230
1.0
 70
     8
 71
     3
 72
     8
 73
     4
 74
     0
 42
0.00000001
 43
0.00000001
 12
1.0
 22
0.0
 32
0.0
 13
1.0
 23
0.0
 33
0.0
 40
0.0
 40
0.0
 40
0.0
 40
0.0
 40
1.0
 40
1.0
 40
1.0
 40
1.0
 10
134.5544738187169
 20
-17.86518043795897
 30
0.0
 10
134.6249866376084
 20
-17.86518043795897
 30
0.0
 10
134.6925042076265
 20
-17.84558090147793
 30
0.0
 10
134.7276788994739
 20
-17.81502171344507
 30
0.0
  0
SPLINE
  5
BE
330
1F
100
AcDbEntity
  8
1
 62
     4
420
    65535
100
AcDbSpline
210
0.0
220
0.0
230
1.0
 70
     8
 71
     3
 72
    10
 73
     6
 74
     0
 42
0.00000001
 43
0.00000001
 12
1.0
 22
0.0
 32
0.0
 13
1.0
 23
0.0
 33
0.0
 40
0.0
 40
0.0
 40
0.0
 40
0.0
 40
0.5
 40
0.5
 40
1.0
 40
1.0
 40
1.0
 40
1.0
 10
134.5544738187169
 20
-31.40043539660571
 30
0.0
 10
134.5892243329631
 20
-31.4004353966057
 30
0.0
 10
134.6246106799516
 20
-31.39089951468968
 30
0.0
 10
134.6847492629784
 20
-31.3559725895286
 30
0.0
 10
134.7101697191683
 20
-31.3305413176293
 30
0.0
 10
134.7276788994738
 20
-31.30011794757787
 30
0.0
  0
LINE
  5
BF
330
1F
100
AcDbEntity
  8
1
 62
     4
420
    65535
100
AcDbLine
 10
113.5000708915
 20
-24.247821011
 30
0.0
 11
113.5000708915
 21
24.2482240902
 31
0.0
  0
LINE
  5
C0
330
1F
100
AcDbEntity
  8
1
 62
     4
420
    65535
100
AcDbLine
 10
124.0000708915
 20
-23.9918416807
 30
0.0
 11
124.0000708915
 21
23.99224476
 31
0.0
  0
LINE
  5
C1
330
1F
100
AcDbEntity
  8
1
 62
     4
420
    65535
100
AcDbLine
 10
125.5000708915
 20
-23.9918416807
 30
0.0
 11
125.5000708915
 21
23.99224476
 31
0.0
  0
LINE
  5
C2
330
1F
100
AcDbEntity
  8
1
 62
     4
420
    65535
100
AcDbLine
 10
127.5259039164
 20
-25.1674264156
 30
0.0
 11
127.5259039164
 21
25.1678294949
 31
0.0
  0
LINE
  5
C3
330
1F
100
AcDbEntity
  8
1
 62
     4
420
    65535
100
AcDbLine
 10
127.8259039164
 20
-25.2478048265
 30
0.0
 11
127.8259039164
 21
25.2482079057
 31
0.0
  0
LINE
  5
C4
330
1F
100
AcDbEntity
  8
1
 62
     4
420
    65535
100
AcDbLine
 10
128.9000708915
 20
-25.2478048265
 30
0.0
 11
128.9000708915
 21
25.2482079057
 31
0.0
  0
LINE
  5
C5
330
1F
100
AcDbEntity
  8
1
 62
     4
420
    65535
100
AcDbLine
 10
129.5000708915
 20
-24.6497984604
 30
0.0
 11
129.5000708915
 21
24.6502015396
 31
0.0
  0
LINE
  5
C6
330
1F
100
AcDbEntity
  8
1
 62
     4
420
    65535
100
AcDbLine
 10
129.5000708915
 20
-18.8497984604
 30
0.0
 11
129.5000708915
 21
18.8502015396
 31
0.0
  0
LINE
  5
C7
330
1F
100
AcDbEntity
  8
1
 62
     4
420
    65535
100
AcDbLine
 10
131.3000708915
 20
-18.8497984604
 30
0.0
 11
131.3000708915
 21
18.8502015396
 31
0.0
  0
LINE
  5
C8
330
1F
100
AcDbEntity
  8
1
 62
     4
420
    65535
100
AcDbLine
 10
131.3000708915
 20
-20.4978178469
 30
0.0
 11
131.3000708915
 21
20.4982209261
 31
0.0
  0
LINE
  5
C9
330
1F
100
AcDbEntity
  8
1
 62
     4
420
    65535
100
AcDbLine
 10
132.5000708915
 20
-20.4978178469
 30
0.0
 11
132.5000708915
 21
20.4982209261
 31
0.0
  0
LINE
  5
CA
330
1F
100
AcDbEntity
  8
1
 62
     4
420
    65535
100
AcDbLine
 10
132.5000708915
 20
-20.2147984604
 30
0.0
 11
132.5000708915
 21
20.2152015396
 31
0.0
  0
LINE
  5
CB
330
1F
100
AcDbEntity
  8
1
 62
     4
420
    65535
100
AcDbLine
 10
138.5016269397
 20
-16.7418542656
 30
0.0
 11
138.5016269397
 21
16.7422573448
 31
0.0
  0
LINE
  5
CC
330
1F
100
AcDbEntity
  8
1
 62
     4
420
    65535
100
AcDbLine
 10
136.338810043
 20
28.5002015396
 30
0.0
 11
121.8928912145
 21
28.5002015396
 31
0.0
  0
LINE
  5
CD
330
1F
100
AcDbEntity
  8
1
 62
     4
420
    65535
100
AcDbLine
 10
121.8928912145
 20
28.5002015396
 30
0.0
 11
119.401429982
 21
28.5002015396
 31
0.0
  0
LINE
  5
CE
330
1F
100
AcDbEntity
  8
1
 62
     4
420
    65535
100
AcDbLine
 10
121.8928912145
 20
31.4008384758
 30
0.0
 11
121.8928912145
 21
28.5002015396
 31
0.0
  0
LINE
  5
CF
330
1F
100
AcDbEntity
  8
1
 62
     4
420
    65535
100
AcDbLine
 10
136.338810043
 20
12.0851380301
 30
0.0
 11
121.8928912145
 21
12.0851380301
 31
0.0
  0
LINE
  5
D0
330
1F
100
AcDbEntity
  8
1
 62
     4
420
    65535
100
AcDbLine
 10
121.8928912145
 20
16.4152650491
 30
0.0
 11
136.338810043
 21
16.4152650491
 31
0.0
  0
LINE
  5
D1
330
1F
100
AcDbEntity
  8
1
 62
     4
420
    65535
100
AcDbLine
 10
113.5000708915
 20
-29.9997984604
 30
0.0
 11
113.5000708915
 21
30.0002015396
 31
0.0
  0
LINE
  5
D2
330
1F
100
AcDbEntity
  8
1
 62
     4
420
    65535
100
AcDbLine
 10
121.8928912145
 20
13.5354564983
 30
0.0
 11
121.8928912145
 21
12.0851380301
 31
0.0
  0
LINE
  5
D3
330
1F
100
AcDbEntity
  8
1
 62
     4
420
    65535
100
AcDbLine
 10
121.8928912145
 20
17.8655835172
 30
0.0
 11
121.8928912145
 21
16.4152650491
 31
0.0
  0
LINE
  5
D4
330
1F
100
AcDbEntity
  8
1
 62
     4
420
    65535
100
AcDbLine
 10
136.338810043
 20
-16.4148619699
 30
0.0
 11
121.8928912145
 21
-16.4148619699
 31
0.0
  0
LINE
  5
D5
330
1F
100
AcDbEntity
  8
1
 62
     4
420
    65535
100
AcDbLine
 10
121.8928912145
 20
-12.0847349509
 30
0.0
 11
136.338810043
 21
-12.0847349509
 31
0.0
  0
LWPOLYLINE
  5
D6
330
1F
100
AcDbEntity
  8
1
 62
     4
420
    65535
100
AcDbPolyline
 90
       20
 70
   128
 43
0.0
 10
121.8928912145
 20
-16.4148619699
 10
121.4814047388
 20
-16.3853333255
 10
121.0811425415
 20
-16.297552857
 10
120.7030227319
 20
-16.1539149867
 10
120.3573594328
 20
-15.9583377811
 10
120.0535814379
 20
-15.7161560767
 10
119.7999750189
 20
-15.4339759591
 10
119.6034578979
 20
-15.1194945662
 10
119.4693905497
 20
-14.7812901307
 10
119.401429982
 20
-14.4285879879
 10
119.401429982
 20
-14.0710089329
 10
119.4693905497
 20
-13.7183067901
 10
119.6034578979
 20
-13.3801023546
 10
119.7999750189
 20
-13.0656209617
 10
120.0535814379
 20
-12.783440844
 10
120.3573594328
 20
-12.5412591397
 10
120.7030227319
 20
-12.3456819341
 10
121.0811425415
 20
-12.2020440638
 10
121.4814047388
 20
-12.1142635952
 10
121.8928912145
 20
-12.0847349509
  0
LINE
  5
D7
330
1F
100
AcDbEntity
  8
1
 62
     4
420
    65535
100
AcDbLine
 10
123.7500708915
 20
-24.247821011
 30
0.0
 11
123.7500708915
 21
24.2482240902
 31
0.0
  0
LINE
  5
D8
330
1F
100
AcDbEntity
  8
1
 62
     4
420
    65535
100
AcDbLine
 10
136.338810043
 20
-28.4997984604
 30
0.0
 11
121.8928912145
 21
-28.4997984604
 31
0.0
  0
LWPOLYLINE
  5
D9
330
1F
100
AcDbEntity
  8
1
 62
     4
420
    65535
100
AcDbPolyline
 90
       20
 70
   128
 43
0.0
 10
121.8928912145
 20
12.0851380301
 10
121.4814047388
 20
12.1146666745
 10
121.0811425415
 20
12.202447143
 10
120.7030227319
 20
12.3460850133
 10
120.3573594328
 20
12.5416622189
 10
120.0535814379
 20
12.7838439233
 10
119.7999750189
 20
13.0660240409
 10
119.6034578979
 20
13.3805054338
 10
119.4693905497
 20
13.7187098693
 10
119.401429982
 20
14.0714120121
 10
119.401429982
 20
14.4289910671
 10
119.4693905497
 20
14.7816932099
 10
119.6034578979
 20
15.1198976454
 10
119.7999750189
 20
15.4343790383
 10
120.0535814379
 20
15.716559156
 10
120.3573594328
 20
15.9587408603
 10
120.7030227319
 20
16.1543180659
 10
121.0811425415
 20
16.2979559362
 10
121.4814047388
 20
16.3857364048
 10
121.8928912145
 20
16.4152650491
  0
LINE
  5
DA
330
1F
100
AcDbEntity
  8
1
 62
     4
420
    65535
100
AcDbLine
 10
121.8928912145
 20
-28.4997984604
 30
0.0
 11
119.401429982
 21
-28.4997984604
 31
0.0
  0
LINE
  5
DB
330
1F
100
AcDbEntity
  8
1
 62
     4
420
    65535
100
AcDbLine
 10
121.8928912145
 20
-31.4004353966
 30
0.0
 11
121.8928912145
 21
-28.4997984604
 31
0.0
  0
LINE
  5
DC
330
1F
100
AcDbEntity
  8
1
 62
     4
420
    65535
100
AcDbLine
 10
121.8928912145
 20
-17.865180438
 30
0.0
 11
121.8928912145
 21
-16.4148619699
 31
0.0
  0
LINE
  5
DD
330
1F
100
AcDbEntity
  8
1
 62
     4
420
    65535
100
AcDbLine
 10
121.8928912145
 20
-13.535053419
 30
0.0
 11
121.8928912145
 21
-12.0847349509
 31
0.0
  0
LWPOLYLINE
  5
DE
330
1F
100
AcDbEntity
  8
1
 62
     4
420
    65535
100
AcDbPolyline
 90
       20
 70
   128
 43
0.0
 10
121.8928912145
 20
-12.0847349509
 10
121.4814047388
 20
-12.1142635952
 10
121.0811425415
 20
-12.2020440638
 10
120.7030227319
 20
-12.3456819341
 10
120.3573594328
 20
-12.5412591397
 10
120.0535814379
 20
-12.783440844
 10
119.7999750189
 20
-13.0656209617
 10
119.6034578979
 20
-13.3801023546
 10
119.4693905497
 20
-13.7183067901
 10
119.401429982
 20
-14.0710089329
 10
119.401429982
 20
-14.4285879879
 10
119.4693905497
 20
-14.7812901307
 10
119.6034578979
 20
-15.1194945662
 10
119.7999750189
 20
-15.4339759591
 10
120.0535814379
 20
-15.7161560767
 10
120.3573594328
 20
-15.9583377811
 10
120.7030227319
 20
-16.1539149867
 10
121.0811425415
 20
-16.297552857
 10
121.4814047388
 20
-16.3853333255
 10
121.8928912145
 20
-16.4148619699
  0
LWPOLYLINE
  5
DF
330
1F
100
AcDbEntity
  8
1
 62
     4
420
    65535
100
AcDbPolyline
 90
       20
 70
   128
 43
0.0
 10
121.8928912145
 20
16.4152650491
 10
121.4814047388
 20
16.3857364048
 10
121.0811425415
 20
16.2979559362
 10
120.7030227319
 20
16.1543180659
 10
120.3573594328
 20
15.9587408603
 10
120.0535814379
 20
15.716559156
 10
119.7999750189
 20
15.4343790383
 10
119.6034578979
 20
15.1198976454
 10
119.4693905497
 20
14.7816932099
 10
119.401429982
 20
14.4289910671
 10
119.401429982
 20
14.0714120121
 10
119.4693905497
 20
13.7187098693
 10
119.6034578979
 20
13.3805054338
 10
119.7999750189
 20
13.0660240409
 10
120.0535814379
 20
12.7838439233
 10
120.3573594328
 20
12.5416622189
 10
120.7030227319
 20
12.3460850133
 10
121.0811425415
 20
12.202447143
 10
121.4814047388
 20
12.1146666745
 10
121.8928912145
 20
12.0851380301
  0
LINE
  5
E0
330
1F
100
AcDbEntity
  8
1
 62
     4
420
    65535
100
AcDbLine
 10
122.3917813374
 20
25.0002015396
 30
0.0
 11
122.3917813374
 21
-24.9997984604
 31
0.0
  0
LINE
  5
E1
330
1F
100
AcDbEntity
  8
1
 62
     4
420
    65535
100
AcDbLine
 10
80.0000708915
 20
-19.9997984604
 30
0.0
 11
90.0000708915
 21
-19.9997984604
 31
0.0
  0
LINE
  5
E2
330
1F
100
AcDbEntity
  8
1
 62
     4
420
    65535
100
AcDbLine
 10
80.0000708915
 20
20.0002015396
 30
0.0
 11
80.0000708915
 21
-19.9997984604
 31
0.0
  0
LINE
  5
E3
330
1F
100
AcDbEntity
  8
1
 62
     4
420
    65535
100
AcDbLine
 10
80.0000708915
 20
-19.9997984604
 30
0.0
 11
80.0000708915
 21
20.0002015396
 31
0.0
  0
LINE
  5
E4
330
1F
100
AcDbEntity
  8
1
 62
     4
420
    65535
100
AcDbLine
 10
80.0000708915
 20
20.0002015396
 30
0.0
 11
90.0000708915
 21
20.0002015396
 31
0.0
  0
LINE
  5
E5
330
1F
100
AcDbEntity
  8
1
 62
     4
420
    65535
100
AcDbLine
 10
90.0000708915
 20
20.0002015396
 30
0.0
 11
90.0000708915
 21
25.0002015396
 31
0.0
  0
LINE
  5
E6
330
1F
100
AcDbEntity
  8
1
 62
     4
420
    65535
100
AcDbLine
 10
80.0000708915
 20
20.0002015396
 30
0.0
 11
80.0000708915
 21
-19.9997984604
 31
0.0
  0
LINE
  5
E7
330
1F
100
AcDbEntity
  8
1
 62
     4
420
    65535
100
AcDbLine
 10
123.569657442
 20
-19.9393077949
 30
0.0
 11
123.569657442
 21
19.9272898013
 31
0.0
  0
LINE
  5
E8
330
1F
100
AcDbEntity
  8
1
 62
     4
420
    65535
100
AcDbLine
 10
124.0000708915
 20
20.4348449085
 30
0.0
 11
124.0000708915
 21
-20.4344418293
 31
0.0
  0
LINE
  5
E9
330
1F
100
AcDbEntity
  8
1
 62
     4
420
    65535
100
AcDbLine
 10
10.0000708915
 20
18.0002015396
 30
0.0
 11
72.0000708915
 21
18.0002015396
 31
0.0
  0
LINE
  5
EA
330
1F
100
AcDbEntity
  8
1
 62
     4
420
    65535
100
AcDbLine
 10
10.0000708915
 20
18.0002015396
 30
0.0
 11
8.0091113297
 21
19.9911611014
 31
0.0
  0
LINE
  5
EB
330
1F
100
AcDbEntity
  8
1
 62
     4
420
    65535
100
AcDbLine
 10
0.0000708915
 20
20.0002015396
 30
0.0
 11
0.0000708915
 21
-19.9997984604
 31
0.0
  0
LINE
  5
EC
330
1F
100
AcDbEntity
  8
1
 62
     4
420
    65535
100
AcDbLine
 10
80.0000708915
 20
-19.9997984604
 30
0.0
 11
80.0000708915
 21
20.0002015396
 31
0.0
  0
LINE
  5
ED
330
1F
100
AcDbEntity
  8
1
 62
     4
420
    65535
100
AcDbLine
 10
90.0000708915
 20
-19.9997984604
 30
0.0
 11
90.0000708915
 21
-24.9997984604
 31
0.0
  0
LINE
  5
EE
330
1F
100
AcDbEntity
  8
1
 62
     4
420
    65535
100
AcDbLine
 10
124.0000708915
 20
23.3919119855
 30
0.0
 11
124.0000708915
 21
-23.3792415693
 31
0.0
  0
LINE
  5
EF
330
1F
100
AcDbEntity
  8
1
 62
     4
420
    65535
100
AcDbLine
 10
86.0000708915
 20
15.2502015396
 30
0.0
 11
86.0000708915
 21
-15.2497984604
 31
0.0
  0
LINE
  5
F0
330
1F
100
AcDbEntity
  8
1
 62
     4
420
    65535
100
AcDbLine
 10
84.9897079204
 20
13.5002015396
 30
0.0
 11
84.9897079204
 21
-13.4872990143
 31
0.0
  0
LINE
  5
F1
330
1F
100
AcDbEntity
  8
1
 62
     4
420
    65535
100
AcDbLine
 10
0.0000708915
 20
13.5002015396
 30
0.0
 11
0.0000708915
 21
-13.4872990143
 31
0.0
  0
LINE
  5
F2
330
1F
100
AcDbEntity
  8
1
 62
     4
420
    65535
100
AcDbLine
 10
72.0000708915
 20
18.0002015396
 30
0.0
 11
73.9910304533
 21
19.9911611014
 31
0.0
  0
LINE
  5
F3
330
1F
100
AcDbEntity
  8
1
 62
     4
420
    65535
100
AcDbLine
 10
90.2020647102
 20
15.2502015396
 30
0.0
 11
90.2020647102
 21
-15.2497984604
 31
0.0
  0
DIMENSION
  5
F4
330
1F
100
AcDbEntity
  8
2
 62
     7
420
 16777215
100
AcDbDimension
  2
_D
 10
139.0000708915
 20
37.5002015396
 30
0.0
 11
69.5000708915
 21
37.5002015396
 31
0.0
 70
   160
  1
<>
 71
     2
 42
-1.0
 73
     0
 74
     0
 75
     0
  3
SLDDIMSTYLE0
100
AcDbAlignedDimension
 13
0.0000708915
 23
0.0002015396
 33
0.0
 14
139.0000708915
 24
0.0002015396
 34
0.0
 50
0.0
100
AcDbRotatedDimension
  0
DIMENSION
  5
100
330
1F
100
AcDbEntity
  8
2
 62
     7
420
 16777215
100
AcDbDimension
  2
_D_1
 10
145.0000708915
 20
-31.4997984604
 30
0.0
 11
145.0000708915
 21
0.0002015396
 31
0.0
 70
   160
  1
%%c<>
 71
     2
 42
-1.0
 73
     0
 74
     0
 75
     0
  3
SLDDIMSTYLE0
100
AcDbAlignedDimension
 13
115.0000708915
 23
31.5002015396
 33
0.0
 14
115.0000708915
 24
-31.4997984604
 34
0.0
 50
90.0
100
AcDbRotatedDimension
  0
DIMENSION
  5
10B
330
1F
100
AcDbEntity
  8
2
 62
     7
420
 16777215
100
AcDbDimension
  2
_D_2
 10
-5.9999291085
 20
-19.9997984604
 30
0.0
 11
-5.9999291085
 21
0.0002015396
 31
0.0
 70
   160
  1
%%c<>
 71
     2
 42
-1.0
 73
     0
 74
     0
 75
     0
  3
SLDDIMSTYLE0
100
AcDbAlignedDimension
 13
0.0000708915
 23
20.0002015396
 33
0.0
 14
0.0000708915
 24
-19.9997984604
 34
0.0
 50
90.0
100
AcDbRotatedDimension
  0
ENDSEC
  0
SECTION
  2
OBJECTS
  0
DICTIONARY
  5
C
330
0
100
AcDbDictionary
281
     1
  3
ACAD_GROUP
350
D
  3
ACAD_LAYOUT
350
1A
  3
ACAD_MATERIAL
350
3B
  3
ACAD_MLEADERSTYLE
350
117
  3
ACAD_MLINESTYLE
350
17
  3
ACAD_PLOTSETTINGS
350
19
  3
ACAD_PLOTSTYLENAME
350
E
  3
ACAD_TABLESTYLE
350
116
  3
ACAD_VISUALSTYLE
350
2A
  0
DICTIONARY
  5
D
102
{ACAD_REACTORS
330
C
102
}
330
C
100
AcDbDictionary
281
     1
  0
DICTIONARY
  5
1A
102
{ACAD_REACTORS
330
C
102
}
330
C
100
AcDbDictionary
281
     1
  3
Layout1
350
1E
  3
Layout2
350
26
  3
Model
350
22
  0
DICTIONARY
  5
3B
102
{ACAD_REACTORS
330
C
102
}
330
C
100
AcDbDictionary
281
     1
  3
ByBlock
350
3D
  3
ByLayer
350
3C
  3
Global
350
3E
  0
DICTIONARY
  5
117
102
{ACAD_REACTORS
330
C
102
}
330
C
100
AcDbDictionary
281
     1
  0
DICTIONARY
  5
17
102
{ACAD_REACTORS
330
C
102
}
330
C
100
AcDbDictionary
281
     1
  3
Standard
350
18
  0
DICTIONARY
  5
19
102
{ACAD_REACTORS
330
C
102
}
330
C
100
AcDbDictionary
281
     1
  0
ACDBDICTIONARYWDFLT
  5
E
102
{ACAD_REACTORS
330
C
102
}
330
C
100
AcDbDictionary
281
     1
  3
Normal
350
F
100
AcDbDictionaryWithDefault
340
F
  0
DICTIONARY
  5
116
102
{ACAD_REACTORS
330
C
102
}
330
C
100
AcDbDictionary
281
     1
  0
DICTIONARY
  5
2A
102
{ACAD_REACTORS
330
C
102
}
330
C
100
AcDbDictionary
281
     1
  3
2dWireframe
350
2F
  3
3D Hidden
350
31
  3
3dWireframe
350
30
  3
Basic
350
32
  3
Brighten
350
36
  3
ColorChange
350
3A
  3
Conceptual
350
34
  3
Dim
350
35
  3
Facepattern
350
39
  3
Flat
350
2B
  3
FlatWithEdges
350
2C
  3
Gouraud
350
2D
  3
GouraudWithEdges
350
2E
  3
Linepattern
350
38
  3
Realistic
350
33
  3
Thicken
350
37
  0
LAYOUT
  5
1E
102
{ACAD_REACTORS
330
1A
102
}
330
1A
100
AcDbPlotSettings
  1

  2
none_device
  4

  6

 40
0.0
 41
0.0
 42
0.0
 43
0.0
 44
0.0
 45
0.0
 46
0.0
 47
0.0
 48
0.0
 49
0.0
140
0.0
141
0.0
142
1.0
143
1.0
 70
   688
 72
     0
 73
     0
 74
     5
  7

 75
    16
 76
     0
 77
     2
 78
   300
147
1.0
148
0.0
149
0.0
100
AcDbLayout
  1
Layout1
 70
     1
 71
     1
 10
0.0
 20
0.0
 11
420.0
 21
297.0
 12
0.0
 22
0.0
 32
0.0
 14
1.0000000000E+20
 24
1.0000000000E+20
 34
1.0000000000E+20
 15
-1.0000000000E+20
 25
-1.0000000000E+20
 35
-1.0000000000E+20
146
0.0
 13
0.0
 23
0.0
 33
0.0
 16
1.0
 26
0.0
 36
0.0
 17
0.0
 27
1.0
 37
0.0
 76
     0
330
1B
  0
LAYOUT
  5
26
102
{ACAD_REACTORS
330
1A
102
}
330
1A
100
AcDbPlotSettings
  1

  2
none_device
  4

  6

 40
0.0
 41
0.0
 42
0.0
 43
0.0
 44
0.0
 45
0.0
 46
0.0
 47
0.0
 48
0.0
 49
0.0
140
0.0
141
0.0
142
1.0
143
1.0
 70
   688
 72
     0
 73
     0
 74
     5
  7

 75
    16
 76
     0
 77
     2
 78
   300
147
1.0
148
0.0
149
0.0
100
AcDbLayout
  1
Layout2
 70
     1
 71
     2
 10
0.0
 20
0.0
 11
0.0
 21
0.0
 12
0.0
 22
0.0
 32
0.0
 14
0.0
 24
0.0
 34
0.0
 15
0.0
 25
0.0
 35
0.0
146
0.0
 13
0.0
 23
0.0
 33
0.0
 16
1.0
 26
0.0
 36
0.0
 17
0.0
 27
1.0
 37
0.0
 76
     0
330
23
  0
LAYOUT
  5
22
102
{ACAD_REACTORS
330
1A
102
}
330
1A
100
AcDbPlotSettings
  1

  2
none_device
  4

  6

 40
0.0
 41
0.0
 42
0.0
 43
0.0
 44
0.0
 45
0.0
 46
0.0
 47
0.0
 48
0.0
 49
0.0
140
0.0
141
0.0
142
1.0
143
1.0
 70
  1712
 72
     0
 73
     0
 74
     0
  7

 75
     0
 76
     0
 77
     2
 78
   300
147
1.0
148
0.0
149
0.0
100
AcDbLayout
  1
Model
 70
     1
 71
     0
 10
0.0
 20
0.0
 11
297.0
 21
210.0
 12
0.0
 22
0.0
 32
0.0
 14
0.0
 24
0.0
 34
0.0
 15
297.0
 25
210.0
 35
0.0
146
0.0
 13
0.0
 23
0.0
 33
0.0
 16
1.0
 26
0.0
 36
0.0
 17
0.0
 27
1.0
 37
0.0
 76
     0
330
1F
331
29
  0
MATERIAL
  5
3D
102
{ACAD_REACTORS
330
3B
102
}
330
3B
100
AcDbMaterial
  1
ByBlock
 72
     1
 94
      127
  0
MATERIAL
  5
3C
102
{ACAD_REACTORS
330
3B
102
}
330
3B
100
AcDbMaterial
  1
ByLayer
 72
     1
 94
      127
  0
MATERIAL
  5
3E
102
{ACAD_REACTORS
330
3B
102
}
330
3B
100
AcDbMaterial
  1
Global
 72
     1
 94
      127
  0
MLINESTYLE
  5
18
102
{ACAD_REACTORS
330
17
102
}
330
17
100
AcDbMlineStyle
  2
Standard
 70
     0
  3

 62
   256
 51
90.0
 52
90.0
 71
     2
 49
0.5
 62
   256
  6
BYLAYER
 49
-0.5
 62
   256
  6
BYLAYER
  0
ACDBPLACEHOLDER
  5
F
102
{ACAD_REACTORS
330
E
102
}
330
E
  0
VISUALSTYLE
  5
2F
102
{ACAD_REACTORS
330
2A
102
}
330
2A
100
AcDbVisualStyle
  2
2dWireframe
 70
     4
 71
     0
 72
     2
 73
     0
 90
        0
 40
-0.6
 41
-30.0
 62
     5
 63
     7
421
 16777215
 74
     1
 91
        4
 64
     7
 65
   257
 75
     1
175
     1
 42
1.0
 92
        0
 66
   257
 43
1.0
 76
     1
 77
     6
 78
     2
 67
     7
 79
     5
170
     0
171
     0
290
     0
174
     0
 93
        1
 44
0.0
173
     0
291
     0
 45
0.0
  0
VISUALSTYLE
  5
31
102
{ACAD_REACTORS
330
2A
102
}
330
2A
100
AcDbVisualStyle
  2
3D Hidden
 70
     6
 71
     1
 72
     2
 73
     2
 90
        0
 40
-0.6
 41
-30.0
 62
     5
 63
     7
421
 16777215
 74
     2
 91
        2
 64
     7
 65
   257
 75
     2
175
     1
 42
40.0
 92
        0
 66
   257
 43
1.0
 76
     1
 77
     6
 78
     2
 67
     7
 79
     3
170
     0
171
     0
290
     0
174
     0
 93
        1
 44
0.0
173
     0
291
     0
 45
0.0
  0
VISUALSTYLE
  5
30
102
{ACAD_REACTORS
330
2A
102
}
330
2A
100
AcDbVisualStyle
  2
3dWireframe
 70
     5
 71
     0
 72
     2
 73
     0
 90
        0
 40
-0.6
 41
-30.0
 62
     5
 63
     7
421
 16777215
 74
     1
 91
        4
 64
     7
 65
   257
 75
     1
175
     1
 42
1.0
 92
        0
 66
   257
 43
1.0
 76
     1
 77
     6
 78
     2
 67
     7
 79
     5
170
     0
171
     0
290
     0
174
     0
 93
        1
 44
0.0
173
     0
291
     0
 45
0.0
  0
VISUALSTYLE
  5
32
102
{ACAD_REACTORS
330
2A
102
}
330
2A
100
AcDbVisualStyle
  2
Basic
 70
     7
 71
     1
 72
     0
 73
     1
 90
        0
 40
-0.6
 41
-30.0
 62
     5
 63
     7
421
 16777215
 74
     0
 91
        4
 64
     7
 65
   257
 75
     1
175
     1
 42
1.0
 92
        8
 66
     7
 43
1.0
 76
     1
 77
     6
 78
     2
 67
     7
 79
     5
170
     0
171
     0
290
     0
174
     0
 93
        1
 44
0.0
173
     0
291
     1
 45
0.0
  0
VISUALSTYLE
  5
36
102
{ACAD_REACTORS
330
2A
102
}
330
2A
100
AcDbVisualStyle
  2
Brighten
 70
    12
 71
     2
 72
     2
 73
     0
 90
        0
 40
-0.6
 41
-30.0
 62
     5
 63
     7
421
 16777215
 74
     1
 91
        4
 64
     7
 65
   257
 75
     1
175
     1
 42
1.0
 92
        8
 66
     7
 43
1.0
 76
     1
 77
     6
 78
     2
 67
     7
 79
     5
170
     0
171
     0
290
     0
174
     0
 93
        1
 44
50.0
173
     0
291
     1
 45
0.0
  0
VISUALSTYLE
  5
3A
102
{ACAD_REACTORS
330
2A
102
}
330
2A
100
AcDbVisualStyle
  2
ColorChange
 70
    16
 71
     2
 72
     2
 73
     3
 90
        0
 40
-0.6
 41
-30.0
 62
     5
 63
     8
421
  8421504
 74
     1
 91
        4
 64
     7
 65
   257
 75
     1
175
     1
 42
1.0
 92
        8
 66
     8
424
  8421504
 43
1.0
 76
     1
 77
     6
 78
     2
 67
     7
 79
     5
170
     0
171
     0
290
     0
174
     0
 93
        1
 44
0.0
173
     0
291
     1
 45
0.0
  0
VISUALSTYLE
  5
34
102
{ACAD_REACTORS
330
2A
102
}
330
2A
100
AcDbVisualStyle
  2
Conceptual
 70
     9
 71
     3
 72
     2
 73
     0
 90
        0
 40
-0.6
 41
-30.0
 62
     5
 63
     7
421
 16777215
 74
     2
 91
        2
 64
     7
 65
   257
 75
     1
175
     1
 42
40.0
 92
        8
 66
     7
 43
1.0
 76
     1
 77
     6
 78
     2
 67
     7
 79
     3
170
     0
171
     0
290
     0
174
     0
 93
        1
 44
0.0
173
     0
291
     0
 45
0.0
  0
VISUALSTYLE
  5
35
102
{ACAD_REACTORS
330
2A
102
}
330
2A
100
AcDbVisualStyle
  2
Dim
 70
    11
 71
     2
 72
     2
 73
     0
 90
        0
 40
-0.6
 41
-30.0
 62
     5
 63
     7
421
 16777215
 74
     1
 91
        4
 64
     7
 65
   257
 75
     1
175
     1
 42
1.0
 92
        8
 66
     7
 43
1.0
 76
     1
 77
     6
 78
     2
 67
     7
 79
     5
170
     0
171
     0
290
     0
174
     0
 93
        1
 44
-50.0
173
     0
291
     1
 45
0.0
  0
VISUALSTYLE
  5
39
102
{ACAD_REACTORS
330
2A
102
}
330
2A
100
AcDbVisualStyle
  2
Facepattern
 70
    15
 71
     2
 72
     2
 73
     0
 90
        0
 40
-0.6
 41
-30.0
 62
     5
 63
     7
421
 16777215
 74
     1
 91
        4
 64
     7
 65
   257
 75
     1
175
     1
 42
1.0
 92
        8
 66
     7
 43
1.0
 76
     1
 77
     6
 78
     2
 67
     7
 79
     5
170
     0
171
     0
290
     0
174
     0
 93
        1
 44
0.0
173
     0
291
     1
 45
0.0
  0
VISUALSTYLE
  5
2B
102
{ACAD_REACTORS
330
2A
102
}
330
2A
100
AcDbVisualStyle
  2
Flat
 70
     0
 71
     2
 72
     1
 73
     1
 90
        2
 40
-0.6
 41
30.0
 62
     5
 63
     7
421
 16777215
 74
     0
 91
        4
 64
     7
 65
   257
 75
     1
175
     1
 42
1.0
 92
        8
 66
     7
 43
1.0
 76
     1
 77
     6
 78
     2
 67
     7
 79
     5
170
     0
171
     0
290
     0
174
     0
 93
       13
 44
0.0
173
     0
291
     1
 45
0.0
  0
VISUALSTYLE
  5
2C
102
{ACAD_REACTORS
330
2A
102
}
330
2A
100
AcDbVisualStyle
  2
FlatWithEdges
 70
     1
 71
     2
 72
     1
 73
     1
 90
        2
 40
-0.6
 41
30.0
 62
     5
 63
     7
421
 16777215
 74
     1
 91
        4
 64
     7
 65
   257
 75
     1
175
     1
 42
1.0
 92
        0
 66
   257
 43
1.0
 76
     1
 77
     6
 78
     2
 67
     7
 79
     5
170
     0
171
     0
290
     0
174
     0
 93
       13
 44
0.0
173
     0
291
     1
 45
0.0
  0
VISUALSTYLE
  5
2D
102
{ACAD_REACTORS
330
2A
102
}
330
2A
100
AcDbVisualStyle
  2
Gouraud
 70
     2
 71
     2
 72
     2
 73
     1
 90
        2
 40
-0.6
 41
30.0
 62
     5
 63
     7
421
 16777215
 74
     0
 91
        4
 64
     7
 65
   257
 75
     1
175
     1
 42
1.0
 92
        0
 66
     7
 43
1.0
 76
     1
 77
     6
 78
     2
 67
     7
 79
     5
170
     0
171
     0
290
     0
174
     0
 93
       13
 44
0.0
173
     0
291
     1
 45
0.0
  0
VISUALSTYLE
  5
2E
102
{ACAD_REACTORS
330
2A
102
}
330
2A
100
AcDbVisualStyle
  2
GouraudWithEdges
 70
     3
 71
     2
 72
     2
 73
     1
 90
        2
 40
-0.6
 41
30.0
 62
     5
 63
     7
421
 16777215
 74
     1
 91
        4
 64
     7
 65
   257
 75
     1
175
     1
 42
1.0
 92
        0
 66
   257
 43
1.0
 76
     1
 77
     6
 78
     2
 67
     7
 79
     5
170
     0
171
     0
290
     0
174
     0
 93
       13
 44
0.0
173
     0
291
     1
 45
0.0
  0
VISUALSTYLE
  5
38
102
{ACAD_REACTORS
330
2A
102
}
330
2A
100
AcDbVisualStyle
  2
Linepattern
 70
    14
 71
     2
 72
     2
 73
     0
 90
        0
 40
-0.6
 41
-30.0
 62
     5
 63
     7
421
 16777215
 74
     1
 91
        4
 64
     7
 65
   257
 75
     7
175
     7
 42
1.0
 92
        8
 66
     7
 43
1.0
 76
     1
 77
     6
 78
     2
 67
     7
 79
     5
170
     0
171
     0
290
     0
174
     0
 93
        1
 44
0.0
173
     0
291
     1
 45
0.0
  0
VISUALSTYLE
  5
33
102
{ACAD_REACTORS
330
2A
102
}
330
2A
100
AcDbVisualStyle
  2
Realistic
 70
     8
 71
     2
 72
     2
 73
     0
 90
        0
 40
-0.6
 41
-30.0
 62
     5
 63
     7
421
 16777215
 74
     1
 91
        0
 64
     7
 65
   257
 75
     1
175
     1
 42
1.0
 92
        8
 66
     8
424
  7895160
 43
1.0
 76
     1
 77
     6
 78
     2
 67
     7
 79
     5
170
     0
171
     0
290
     0
174
     0
 93
       13
 44
0.0
173
     0
291
     0
 45
0.0
  0
VISUALSTYLE
  5
37
102
{ACAD_REACTORS
330
2A
102
}
330
2A
100
AcDbVisualStyle
  2
Thicken
 70
    13
 71
     2
 72
     2
 73
     0
 90
        0
 40
-0.6
 41
-30.0
 62
     5
 63
     7
421
 16777215
 74
     1
 91
        4
 64
     7
 65
   257
 75
     1
175
     1
 42
1.0
 92
       12
 66
     7
 43
1.0
 76
     1
 77
     6
 78
     2
 67
     7
 79
     5
170
     0
171
     0
290
     0
174
     0
 93
        1
 44
0.0
173
     0
291
     1
 45
0.0
  0
ENDSEC
  0
EOF
