  0
SECTION
  2
HEADER
  9
$ACADVER
  1
AC1021
  9
$ACADMAINTVER
 70
    25
  9
$DWGCODEPAGE
  3
ANSI_1252
  9
$INSBASE
 10
0.0
 20
0.0
 30
0.0
  9
$EXTMIN
 10
0.0
 20
0.0
 30
0.0
  9
$EXTMAX
 10
297.0
 20
210.0
 30
0.0
  9
$LIMMIN
 10
0.0
 20
0.0
  9
$LIMMAX
 10
297.0
 20
210.0
  9
$ORTHOMODE
 70
     0
  9
$REGENMODE
 70
     1
  9
$FILLMODE
 70
     1
  9
$QTEXTMODE
 70
     0
  9
$MIRRTEXT
 70
     1
  9
$LTSCALE
 40
1.0
  9
$ATTMODE
 70
     1
  9
$TEXTSIZE
 40
3.5
  9
$TRACEWID
 40
1.0
  9
$TEXTSTYLE
  7
Standard
  9
$CLAYER
  8
0
  9
$CELTYPE
  6
ByLayer
  9
$CECOLOR
 62
   256
  9
$CELTSCALE
 40
1.0
  9
$DISPSILH
 70
     0
  9
$DIMSCALE
 40
1.0
  9
$DIMASZ
 40
3.302
  9
$DIMEXO
 40
1.0
  9
$DIMDLI
 40
3.75
  9
$DIMRND
 40
0.0
  9
$DIMDLE
 40
0.0
  9
$DIMEXE
 40
1.0
  9
$DIMTP
 40
0.0
  9
$DIMTM
 40
0.0
  9
$DIMTXT
 40
3.5
  9
$DIMCEN
 40
2.5
  9
$DIMTSZ
 40
0.0
  9
$DIMTOL
 70
     0
  9
$DIMLIM
 70
     0
  9
$DIMTIH
 70
     1
  9
$DIMTOH
 70
     1
  9
$DIMSE1
 70
     0
  9
$DIMSE2
 70
     0
  9
$DIMTAD
 70
     1
  9
$DIMZIN
 70
     0
  9
$DIMBLK
  1

  9
$DIMASO
 70
     1
  9
$DIMSHO
 70
     1
  9
$DIMPOST
  1

  9
$DIMAPOST
  1

  9
$DIMALT
 70
     0
  9
$DIMALTD
 70
     3
  9
$DIMALTF
 40
0.0393700787
  9
$DIMLFAC
 40
1.0
  9
$DIMTOFL
 70
     1
  9
$DIMTVP
 40
0.0
  9
$DIMTIX
 70
     0
  9
$DIMSOXD
 70
     0
  9
$DIMSAH
 70
     0
  9
$DIMBLK1
  1

  9
$DIMBLK2
  1

  9
$DIMSTYLE
  2
ISO-25
  9
$DIMCLRD
 70
     0
  9
$DIMCLRE
 70
     0
  9
$DIMCLRT
 70
     0
  9
$DIMTFAC
 40
1.0
  9
$DIMGAP
 40
1.524
  9
$DIMJUST
 70
     0
  9
$DIMSD1
 70
     0
  9
$DIMSD2
 70
     0
  9
$DIMTOLJ
 70
     0
  9
$DIMTZIN
 70
     0
  9
$DIMALTZ
 70
     0
  9
$DIMALTTZ
 70
     0
  9
$DIMUPT
 70
     0
  9
$DIMDEC
 70
     2
  9
$DIMTDEC
 70
     2
  9
$DIMALTU
 70
     2
  9
$DIMALTTD
 70
     3
  9
$DIMTXSTY
  7
Standard
  9
$DIMAUNIT
 70
     0
  9
$DIMADEC
 70
     2
  9
$DIMALTRND
 40
0.0
  9
$DIMAZIN
 70
     0
  9
$DIMDSEP
 70
    44
  9
$DIMATFIT
 70
     3
  9
$DIMFRAC
 70
     0
  9
$DIMLDRBLK
  1

  9
$DIMLUNIT
 70
     2
  9
$DIMLWD
 70
    -2
  9
$DIMLWE
 70
    -2
  9
$DIMTMOVE
 70
     0
  9
$DIMFXL
 40
1.0
  9
$DIMFXLON
 70
     0
  9
$DIMJOGANG
 40
0.7853981634
  9
$DIMTFILL
 70
     0
  9
$DIMTFILLCLR
 70
     0
  9
$DIMARCSYM
 70
     0
  9
$DIMLTYPE
  6

  9
$DIMLTEX1
  6

  9
$DIMLTEX2
  6

  9
$LUNITS
 70
     2
  9
$LUPREC
 70
     2
  9
$SKETCHINC
 40
1.0
  9
$FILLETRAD
 40
10.0
  9
$AUNITS
 70
     0
  9
$AUPREC
 70
     2
  9
$MENU
  1
.
  9
$ELEVATION
 40
0.0
  9
$PELEVATION
 40
0.0
  9
$THICKNESS
 40
0.0
  9
$LIMCHECK
 70
     0
  9
$CHAMFERA
 40
10.0
  9
$CHAMFERB
 40
10.0
  9
$CHAMFERC
 40
20.0
  9
$CHAMFERD
 40
0.0
  9
$SKPOLY
 70
     0
  9
$TDCREATE
 40
2456450.580266898
  9
$TDUCREATE
 40
2456450.496933565
  9
$TDUPDATE
 40
2456450.580267269
  9
$TDUUPDATE
 40
2456450.496933935
  9
$TDINDWG
 40
0.0000000116
  9
$TDUSRTIMER
 40
0.0000000116
  9
$USRTIMER
 70
     1
  9
$ANGBASE
 50
0.0
  9
$ANGDIR
 70
     0
  9
$PDMODE
 70
     0
  9
$PDSIZE
 40
-1.0
  9
$PLINEWID
 40
0.0
  9
$SPLFRAME
 70
     0
  9
$SPLINETYPE
 70
     6
  9
$SPLINESEGS
 70
     8
  9
$HANDSEED
  5
A4
  9
$SURFTAB1
 70
     6
  9
$SURFTAB2
 70
     6
  9
$SURFTYPE
 70
     6
  9
$SURFU
 70
     6
  9
$SURFV
 70
     6
  9
$UCSBASE
  2

  9
$UCSNAME
  2

  9
$UCSORG
 10
0.0
 20
0.0
 30
0.0
  9
$UCSXDIR
 10
1.0
 20
0.0
 30
0.0
  9
$UCSYDIR
 10
0.0
 20
1.0
 30
0.0
  9
$UCSORTHOREF
  2

  9
$UCSORTHOVIEW
 70
     0
  9
$UCSORGTOP
 10
0.0
 20
0.0
 30
0.0
  9
$UCSORGBOTTOM
 10
0.0
 20
0.0
 30
0.0
  9
$UCSORGLEFT
 10
0.0
 20
0.0
 30
0.0
  9
$UCSORGRIGHT
 10
0.0
 20
0.0
 30
0.0
  9
$UCSORGFRONT
 10
0.0
 20
0.0
 30
0.0
  9
$UCSORGBACK
 10
0.0
 20
0.0
 30
0.0
  9
$PUCSBASE
  2

  9
$PUCSNAME
  2

  9
$PUCSORG
 10
0.0
 20
0.0
 30
0.0
  9
$PUCSXDIR
 10
1.0
 20
0.0
 30
0.0
  9
$PUCSYDIR
 10
0.0
 20
1.0
 30
0.0
  9
$PUCSORTHOREF
  2

  9
$PUCSORTHOVIEW
 70
     0
  9
$PUCSORGTOP
 10
0.0
 20
0.0
 30
0.0
  9
$PUCSORGBOTTOM
 10
0.0
 20
0.0
 30
0.0
  9
$PUCSORGLEFT
 10
0.0
 20
0.0
 30
0.0
  9
$PUCSORGRIGHT
 10
0.0
 20
0.0
 30
0.0
  9
$PUCSORGFRONT
 10
0.0
 20
0.0
 30
0.0
  9
$PUCSORGBACK
 10
0.0
 20
0.0
 30
0.0
  9
$USERI1
 70
     0
  9
$USERI2
 70
     0
  9
$USERI3
 70
     0
  9
$USERI4
 70
     0
  9
$USERI5
 70
     0
  9
$USERR1
 40
0.0
  9
$USERR2
 40
0.0
  9
$USERR3
 40
0.0
  9
$USERR4
 40
0.0
  9
$USERR5
 40
0.0
  9
$WORLDVIEW
 70
     1
  9
$SHADEDGE
 70
     3
  9
$SHADEDIF
 70
    70
  9
$TILEMODE
 70
     1
  9
$MAXACTVP
 70
    64
  9
$PINSBASE
 10
0.0
 20
0.0
 30
0.0
  9
$PLIMCHECK
 70
     0
  9
$PEXTMIN
 10
1.0000000000E+20
 20
1.0000000000E+20
 30
1.0000000000E+20
  9
$PEXTMAX
 10
-1.0000000000E+20
 20
-1.0000000000E+20
 30
-1.0000000000E+20
  9
$PLIMMIN
 10
0.0
 20
0.0
  9
$PLIMMAX
 10
420.0
 20
297.0
  9
$UNITMODE
 70
     0
  9
$VISRETAIN
 70
     1
  9
$PLINEGEN
 70
     0
  9
$PSLTSCALE
 70
     1
  9
$TREEDEPTH
 70
  3020
  9
$CMLSTYLE
  2
Standard
  9
$CMLJUST
 70
     0
  9
$CMLSCALE
 40
20.0
  9
$PROXYGRAPHICS
 70
     1
  9
$MEASUREMENT
 70
     1
  9
$CELWEIGHT
370
    -1
  9
$ENDCAPS
280
     0
  9
$JOINSTYLE
280
     0
  9
$LWDISPLAY
290
     1
  9
$INSUNITS
 70
     4
  9
$HYPERLINKBASE
  1

  9
$STYLESHEET
  1

  9
$XEDIT
290
     1
  9
$CEPSNTYPE
380
     0
  9
$PSTYLEMODE
290
     1
  9
$FINGERPRINTGUID
  2
{1E44B633-7A06-4C02-9FC5-0433ED6A80D0}
  9
$VERSIONGUID
  2
{FAEB1C32-E019-11D5-929B-00C0DF256EC4}
  9
$EXTNAMES
290
     1
  9
$PSVPSCALE
 40
0.0
  9
$OLESTARTUP
290
     0
  9
$SORTENTS
280
   127
  9
$INDEXCTL
280
     0
  9
$HIDETEXT
280
     1
  9
$XCLIPFRAME
290
     0
  9
$HALOGAP
280
     0
  9
$OBSCOLOR
 70
   257
  9
$OBSLTYPE
280
     0
  9
$INTERSECTIONDISPLAY
280
     0
  9
$INTERSECTIONCOLOR
 70
   257
  9
$DIMASSOC
280
     2
  9
$PROJECTNAME
  1

  9
$CAMERADISPLAY
290
     0
  9
$LENSLENGTH
 40
50.0
  9
$CAMERAHEIGHT
 40
0.0
  9
$STEPSPERSEC
 40
2.0
  9
$STEPSIZE
 40
6.0
  9
$3DDWFPREC
 40
2.0
  9
$PSOLWIDTH
 40
5.0
  9
$PSOLHEIGHT
 40
80.0
  9
$LOFTANG1
 40
1.5707963268
  9
$LOFTANG2
 40
1.5707963268
  9
$LOFTMAG1
 40
0.0
  9
$LOFTMAG2
 40
0.0
  9
$LOFTPARAM
 70
     7
  9
$LOFTNORMALS
280
     1
  9
$LATITUDE
 40
37.795
  9
$LONGITUDE
 40
-122.394
  9
$NORTHDIRECTION
 40
0.0
  9
$TIMEZONE
 70
 -8000
  9
$LIGHTGLYPHDISPLAY
280
     1
  9
$TILEMODELIGHTSYNCH
280
     1
  9
$SOLIDHIST
280
     1
  9
$SHOWHIST
280
     1
  9
$DWFFRAME
280
     2
  9
$DGNFRAME
280
     2
  9
$REALWORLDSCALE
290
     1
  9
$INTERFERECOLOR
 62
   256
  9
$CSHADOW
280
     0
  9
$SHADOWPLANELOCATION
 40
0.0
  0
ENDSEC
  0
SECTION
  2
CLASSES
  0
CLASS
  1
ACDBDICTIONARYWDFLT
  2
AcDbDictionaryWithDefault
  3
ObjectDBX Classes
 90
        0
 91
        4
280
     0
281
     0
  0
CLASS
  1
VISUALSTYLE
  2
AcDbVisualStyle
  3
ObjectDBX Classes
 90
     4095
 91
        4
280
     0
281
     0
  0
CLASS
  1
MATERIAL
  2
AcDbMaterial
  3
ObjectDBX Classes
 90
     1153
 91
        4
280
     0
281
     0
  0
ENDSEC
  0
SECTION
  2
TABLES
  0
TABLE
  2
VPORT
  5
8
330
0
100
AcDbSymbolTable
 70
     1
  0
VPORT
  5
29
330
8
100
AcDbSymbolTableRecord
100
AcDbViewportTableRecord
  2
*Active
 70
     0
 10
0.0
 20
0.0
 11
1.0
 21
1.0
 12
148.5
 22
105.0
 13
0.0
 23
0.0
 14
10.0
 24
10.0
 15
10.0
 25
10.0
 16
0.0
 26
0.0
 36
1.0
 17
0.0
 27
0.0
 37
0.0
 40
210.0
 41
1.4142857143
 42
50.0
 43
0.0
 44
0.0
 50
0.0
 51
0.0
 71
     0
 72
  2000
 73
     1
 74
     3
 75
     0
 76
     0
 77
     0
 78
     0
281
     0
 65
     1
110
0.0
120
0.0
130
0.0
111
1.0
121
0.0
131
0.0
112
0.0
122
1.0
132
0.0
 79
     0
146
0.0
 60
     3
 61
     5
292
     1
282
     1
141
0.0
142
0.0
 63
   250
  0
ENDTAB
  0
TABLE
  2
LTYPE
  5
5
330
0
100
AcDbSymbolTable
 70
     8
  0
LTYPE
  5
14
330
5
100
AcDbSymbolTableRecord
100
AcDbLinetypeTableRecord
  2
ByBlock
 70
     0
  3

 72
    65
 73
     0
 40
0.0
  0
LTYPE
  5
15
330
5
100
AcDbSymbolTableRecord
100
AcDbLinetypeTableRecord
  2
ByLayer
 70
     0
  3

 72
    65
 73
     0
 40
0.0
  0
LTYPE
  5
16
330
5
100
AcDbSymbolTableRecord
100
AcDbLinetypeTableRecord
  2
Continuous
 70
     0
  3
Solid line
 72
    65
 73
     0
 40
0.0
  0
LTYPE
  5
3F
330
5
100
AcDbSymbolTableRecord
100
AcDbLinetypeTableRecord
  2
SLD-Durchgehend
 70
     0
  3
SolidWorks Line Style
 72
    65
 73
     0
 40
0.0
  0
LTYPE
  5
40
330
5
100
AcDbSymbolTableRecord
100
AcDbLinetypeTableRecord
  2
SLD-Gestrichelt
 70
     0
  3
SolidWorks Line Style
 72
    65
 73
     2
 40
1.905
 49
1.27
 74
     0
 49
-0.635
 74
     0
  0
LTYPE
  5
41
330
5
100
AcDbSymbolTableRecord
100
AcDbLinetypeTableRecord
  2
SLD-Phantom
 70
     0
  3
SolidWorks Line Style
 72
    65
 73
     6
 40
12.7
 49
6.35
 74
     0
 49
-1.27
 74
     0
 49
1.27
 74
     0
 49
-1.27
 74
     0
 49
1.27
 74
     0
 49
-1.27
 74
     0
  0
LTYPE
  5
42
330
5
100
AcDbSymbolTableRecord
100
AcDbLinetypeTableRecord
  2
SLD-Kette
 70
     0
  3
SolidWorks Line Style
 72
    65
 73
     4
 40
10.16
 49
6.35
 74
     0
 49
-1.27
 74
     0
 49
1.27
 74
     0
 49
-1.27
 74
     0
  0
LTYPE
  5
43
330
5
100
AcDbSymbolTableRecord
100
AcDbLinetypeTableRecord
  2
SLD-Punktstrich
 70
     0
  3
SolidWorks Line Style
 72
    65
 73
     4
 40
19.05
 49
15.24
 74
     0
 49
-1.27
 74
     0
 49
1.27
 74
     0
 49
-1.27
 74
     0
  0
LTYPE
  5
44
330
5
100
AcDbSymbolTableRecord
100
AcDbLinetypeTableRecord
  2
SLD-Naht
 70
     0
  3
SolidWorks Line Style
 72
    65
 73
     2
 40
0.635
 49
0.0
 74
     0
 49
-0.635
 74
     0
  0
LTYPE
  5
45
330
5
100
AcDbSymbolTableRecord
100
AcDbLinetypeTableRecord
  2
SLD-Dicke-Dünne-Kette
 70
     0
  3
SolidWorks Line Style
 72
    65
 73
     4
 40
10.16
 49
6.35
 74
     0
 49
-1.27
 74
     0
 49
1.27
 74
     0
 49
-1.27
 74
     0
  0
ENDTAB
  0
TABLE
  2
LAYER
  5
2
330
0
100
AcDbSymbolTable
 70
     3
  0
LAYER
  5
10
330
2
100
AcDbSymbolTableRecord
100
AcDbLayerTableRecord
  2
0
 70
     0
 62
     7
  6
Continuous
370
    -3
390
F
347
3E
  0
LAYER
  5
46
330
2
100
AcDbSymbolTableRecord
100
AcDbLayerTableRecord
  2
1
 70
     0
 62
     4
  6
Continuous
370
    -1
390
F
347
3E
  0
LAYER
  5
47
330
2
100
AcDbSymbolTableRecord
100
AcDbLayerTableRecord
  2
2
 70
     0
 62
     7
  6
SLD-Durchgehend
370
    -3
390
F
347
3E
  0
ENDTAB
  0
TABLE
  2
STYLE
  5
3
330
0
100
AcDbSymbolTable
 70
     2
  0
STYLE
  5
11
330
3
100
AcDbSymbolTableRecord
100
AcDbTextStyleTableRecord
  2
Standard
 70
     0
 40
0.0
 41
1.0
 50
0.0
 71
     0
 42
3.5
  3
txt
  4

  0
STYLE
  5
7E
330
3
100
AcDbSymbolTableRecord
100
AcDbTextStyleTableRecord
  2
SLDTEXTSTYLE0
 70
     0
 40
0.0
 41
0.75
 50
0.0
 71
     0
 42
0.2
  3
TXT
  4

  0
ENDTAB
  0
TABLE
  2
VIEW
  5
6
330
0
100
AcDbSymbolTable
 70
     0
  0
ENDTAB
  0
TABLE
  2
UCS
  5
7
330
0
100
AcDbSymbolTable
 70
     0
  0
ENDTAB
  0
TABLE
  2
APPID
  5
9
330
0
100
AcDbSymbolTable
 70
     1
  0
APPID
  5
12
330
9
100
AcDbSymbolTableRecord
100
AcDbRegAppTableRecord
  2
ACAD
 70
     0
  0
ENDTAB
  0
TABLE
  2
DIMSTYLE
  5
A
330
0
100
AcDbSymbolTable
 70
     3
100
AcDbDimStyleTable
  0
DIMSTYLE
105
27
330
A
100
AcDbSymbolTableRecord
100
AcDbDimStyleTableRecord
  2
ISO-25
 70
     0
 41
2.5
 42
0.625
 43
3.75
 44
1.25
 73
     0
 74
     0
 77
     1
 78
     8
140
2.5
141
2.5
143
0.0393700787
147
0.625
171
     3
172
     1
178
     0
271
     2
272
     2
274
     3
278
    44
283
     0
284
     8
340
11
  0
DIMSTYLE
105
7F
102
{ACAD_REACTORS
330
7D
330
89
102
}
330
A
100
AcDbSymbolTableRecord
100
AcDbDimStyleTableRecord
  2
SLDDIMSTYLE0
 70
     0
 41
3.302
 44
0.0
 45
0.000000001
 73
     0
 74
     0
 77
     1
 78
    12
 79
     3
140
3.5
147
0.875
173
     1
178
     0
271
     2
272
     2
276
     2
284
    12
340
7E
  0
DIMSTYLE
105
95
102
{ACAD_REACTORS
330
94
102
}
330
A
100
AcDbSymbolTableRecord
100
AcDbDimStyleTableRecord
  2
SLDDIMSTYLE1
 70
     0
 41
3.302
 44
0.0
 45
0.000000001
 73
     0
 74
     0
 77
     1
 78
    12
 79
     3
140
3.5
147
0.875
172
     1
173
     1
178
     0
271
     2
272
     2
276
     2
284
    12
289
     0
340
7E
  0
ENDTAB
  0
TABLE
  2
BLOCK_RECORD
  5
1
330
0
100
AcDbSymbolTable
 70
     4
  0
BLOCK_RECORD
  5
1F
330
1
100
AcDbSymbolTableRecord
100
AcDbBlockTableRecord
  2
*Model_Space
340
22
 70
     0
280
     1
281
     0
  0
BLOCK_RECORD
  5
1B
330
1
100
AcDbSymbolTableRecord
100
AcDbBlockTableRecord
  2
*Paper_Space
340
1E
 70
     0
280
     1
281
     0
  0
BLOCK_RECORD
  5
23
330
1
100
AcDbSymbolTableRecord
100
AcDbBlockTableRecord
  2
*Paper_Space0
340
26
 70
     0
280
     1
281
     0
  0
BLOCK_RECORD
  5
80
330
1
100
AcDbSymbolTableRecord
100
AcDbBlockTableRecord
  2
_D
340
0
 70
     0
280
     1
281
     0
  0
BLOCK_RECORD
  5
8A
330
1
100
AcDbSymbolTableRecord
100
AcDbBlockTableRecord
  2
_D_1
340
0
 70
     0
280
     1
281
     0
  0
BLOCK_RECORD
  5
96
330
1
100
AcDbSymbolTableRecord
100
AcDbBlockTableRecord
  2
_D_2
340
0
 70
     0
280
     1
281
     0
  0
ENDTAB
  0
ENDSEC
  0
SECTION
  2
BLOCKS
  0
BLOCK
  5
20
330
1F
100
AcDbEntity
  8
0
100
AcDbBlockBegin
  2
*Model_Space
 70
     0
 10
0.0
 20
0.0
 30
0.0
  3
*Model_Space
  1

  0
ENDBLK
  5
21
330
1F
100
AcDbEntity
  8
0
100
AcDbBlockEnd
  0
BLOCK
  5
1C
330
1B
100
AcDbEntity
 67
     1
  8
0
100
AcDbBlockBegin
  2
*Paper_Space
 70
     0
 10
0.0
 20
0.0
 30
0.0
  3
*Paper_Space
  1

  0
ENDBLK
  5
1D
330
1B
100
AcDbEntity
 67
     1
  8
0
100
AcDbBlockEnd
  0
BLOCK
  5
24
330
23
100
AcDbEntity
  8
0
100
AcDbBlockBegin
  2
*Paper_Space0
 70
     0
 10
0.0
 20
0.0
 30
0.0
  3
*Paper_Space0
  1

  0
ENDBLK
  5
25
330
23
100
AcDbEntity
  8
0
100
AcDbBlockEnd
  0
BLOCK
  5
81
330
80
100
AcDbEntity
  8
0
100
AcDbBlockBegin
  2
_D
 70
     0
 10
0.0
 20
0.0
 30
0.0
  3
_D
  1

  0
SOLID
  5
83
330
80
100
AcDbEntity
  8
2
 62
     7
420
 16777215
100
AcDbTrace
 10
0.0004315969
 20
28.7647535608
 30
0.0
 11
3.3024315969
 21
28.2567535608
 31
0.0
 12
3.3024315969
 22
29.2727535608
 32
0.0
 13
3.3024315969
 23
29.2727535608
 33
0.0
  0
SOLID
  5
84
330
80
100
AcDbEntity
  8
2
 62
     7
420
 16777215
100
AcDbTrace
 10
171.0004315969
 20
28.7647535608
 30
0.0
 11
167.6984315969
 21
29.2727535608
 31
0.0
 12
167.6984315969
 22
28.2567535608
 32
0.0
 13
167.6984315969
 23
28.2567535608
 33
0.0
  0
LINE
  5
85
330
80
100
AcDbEntity
  8
2
 62
     7
420
 16777215
100
AcDbLine
 10
0.0004315969
 20
0.999627717
 30
0.0
 11
0.0004315969
 21
29.7647535608
 31
0.0
  0
LINE
  5
86
330
80
100
AcDbEntity
  8
2
 62
     7
420
 16777215
100
AcDbLine
 10
171.0004315969
 20
0.999627717
 30
0.0
 11
171.0004315969
 21
29.7647535608
 31
0.0
  0
LINE
  5
87
330
80
100
AcDbEntity
  8
2
 62
     7
420
 16777215
100
AcDbLine
 10
0.0004315969
 20
28.7647535608
 30
0.0
 11
171.0004315969
 21
28.7647535608
 31
0.0
  0
MTEXT
  5
88
330
80
100
AcDbEntity
  8
2
 62
     7
420
 16777215
100
AcDbMText
 10
80.1993900683
 20
33.2764904754
 30
0.0
 40
3.5
 41
0.0
 46
0.0
 71
     1
 72
     1
  1
171
  7
SLDTEXTSTYLE0
 73
     1
 44
1.0
  0
ENDBLK
  5
82
330
80
100
AcDbEntity
  8
0
100
AcDbBlockEnd
  0
BLOCK
  5
8B
330
8A
100
AcDbEntity
  8
0
100
AcDbBlockBegin
  2
_D_1
 70
     0
 10
0.0
 20
0.0
 30
0.0
  3
_D_1
  1

  0
SOLID
  5
8D
330
8A
100
AcDbEntity
  8
2
 62
     7
420
 16777215
100
AcDbTrace
 10
183.0004315969
 20
22.7647535608
 30
0.0
 11
182.4924315969
 21
19.4627535608
 31
0.0
 12
183.5084315969
 22
19.4627535608
 32
0.0
 13
183.5084315969
 23
19.4627535608
 33
0.0
  0
SOLID
  5
8E
330
8A
100
AcDbEntity
  8
2
 62
     7
420
 16777215
100
AcDbTrace
 10
183.0004315969
 20
-22.7654981268
 30
0.0
 11
183.5084315969
 21
-19.4634981268
 31
0.0
 12
182.4924315969
 22
-19.4634981268
 32
0.0
 13
182.4924315969
 23
-19.4634981268
 33
0.0
  0
LINE
  5
8F
330
8A
100
AcDbEntity
  8
2
 62
     7
420
 16777215
100
AcDbLine
 10
172.0004315969
 20
22.7647535608
 30
0.0
 11
184.0004315969
 21
22.7647535608
 31
0.0
  0
LINE
  5
90
330
8A
100
AcDbEntity
  8
2
 62
     7
420
 16777215
100
AcDbLine
 10
172.0004315969
 20
-22.7654981268
 30
0.0
 11
184.0004315969
 21
-22.7654981268
 31
0.0
  0
LINE
  5
91
330
8A
100
AcDbEntity
  8
2
 62
     7
420
 16777215
100
AcDbLine
 10
183.0004315969
 20
22.7647535608
 30
0.0
 11
183.0004315969
 21
-22.7654981268
 31
0.0
  0
MTEXT
  5
92
330
8A
100
AcDbEntity
  8
2
 62
     7
420
 16777215
100
AcDbMText
 10
178.4886945077
 20
-9.8802165462
 30
0.0
 40
3.5
 41
0.0
 46
0.0
 71
     1
 72
     1
  1
%%c
  7
SLDTEXTSTYLE0
 11
-7.044195017643634E-15
 21
1.0
 31
0.0
 73
     1
 44
1.0
  0
MTEXT
  5
93
330
8A
100
AcDbEntity
  8
2
 62
     7
420
 16777215
100
AcDbMText
 10
178.435222331
 20
-4.6017791478
 30
0.0
 40
3.5
 41
0.0
 46
0.0
 71
     1
 72
     1
  1
45,53
  7
SLDTEXTSTYLE0
 11
-7.044195017643634E-15
 21
1.0
 31
0.0
 73
     1
 44
1.0
  0
ENDBLK
  5
8C
330
8A
100
AcDbEntity
  8
0
100
AcDbBlockEnd
  0
BLOCK
  5
97
330
96
100
AcDbEntity
  8
0
100
AcDbBlockBegin
  2
_D_2
 70
     0
 10
0.0
 20
0.0
 30
0.0
  3
_D_2
  1

  0
SOLID
  5
99
330
96
100
AcDbEntity
  8
2
 62
     7
420
 16777215
100
AcDbTrace
 10
177.0004315969
 20
11.8998576664
 30
0.0
 11
177.5084315969
 21
15.2018576664
 31
0.0
 12
176.4924315969
 22
15.2018576664
 32
0.0
 13
176.4924315969
 23
15.2018576664
 33
0.0
  0
SOLID
  5
9A
330
96
100
AcDbEntity
  8
2
 62
     7
420
 16777215
100
AcDbTrace
 10
177.0004315969
 20
-11.9006022325
 30
0.0
 11
176.4924315969
 21
-15.2026022325
 31
0.0
 12
177.5084315969
 22
-15.2026022325
 32
0.0
 13
177.5084315969
 23
-15.2026022325
 33
0.0
  0
LINE
  5
9B
330
96
100
AcDbEntity
  8
2
 62
     7
420
 16777215
100
AcDbLine
 10
171.5130144162
 20
11.8998576664
 30
0.0
 11
178.0004315969
 21
11.8998576664
 31
0.0
  0
LINE
  5
9C
330
96
100
AcDbEntity
  8
2
 62
     7
420
 16777215
100
AcDbLine
 10
171.5130144162
 20
-11.9006022325
 30
0.0
 11
178.0004315969
 21
-11.9006022325
 31
0.0
  0
LINE
  5
9D
330
96
100
AcDbEntity
  8
2
 62
     7
420
 16777215
100
AcDbLine
 10
177.0004315969
 20
11.8998576664
 30
0.0
 11
177.0004315969
 21
16.8998576664
 31
0.0
  0
LINE
  5
9E
330
96
100
AcDbEntity
  8
2
 62
     7
420
 16777215
100
AcDbLine
 10
177.0004315969
 20
11.8998576664
 30
0.0
 11
177.0004315969
 21
-11.9006022325
 31
0.0
  0
LINE
  5
9F
330
96
100
AcDbEntity
  8
2
 62
     7
420
 16777215
100
AcDbLine
 10
177.0004315969
 20
-11.9006022325
 30
0.0
 11
177.0004315969
 21
-16.9006022325
 31
0.0
  0
MTEXT
  5
A0
330
96
100
AcDbEntity
  8
2
 62
     7
420
 16777215
100
AcDbMText
 10
172.4886945077
 20
-9.8802165462
 30
0.0
 40
3.5
 41
0.0
 46
0.0
 71
     1
 72
     1
  1
%%c
  7
SLDTEXTSTYLE0
 11
-7.044195017643634E-15
 21
1.0
 31
0.0
 73
     1
 44
1.0
  0
MTEXT
  5
A1
330
96
100
AcDbEntity
  8
2
 62
     7
420
 16777215
100
AcDbMText
 10
172.435222331
 20
-4.6017791478
 30
0.0
 40
3.5
 41
0.0
 46
0.0
 71
     1
 72
     1
  1
23,80
  7
SLDTEXTSTYLE0
 11
-7.044195017643634E-15
 21
1.0
 31
0.0
 73
     1
 44
1.0
  0
ENDBLK
  5
98
330
96
100
AcDbEntity
  8
0
100
AcDbBlockEnd
  0
ENDSEC
  0
SECTION
  2
ENTITIES
  0
LINE
  5
48
330
1F
100
AcDbEntity
  8
0
  6
SLD-Punktstrich
 62
     7
100
AcDbLine
 10
0.0004315969
 20
-0.000372283
 30
0.0
 11
171.0004315969
 21
-0.000372283
 31
0.0
  0
POINT
  5
49
330
1F
100
AcDbEntity
  8
1
 62
     4
420
    65535
100
AcDbPoint
 10
0.0004315969
 20
-0.000372283
 30
0.0
  0
POINT
  5
4A
330
1F
100
AcDbEntity
  8
1
 62
     4
420
    65535
100
AcDbPoint
 10
171.0004315969
 20
-0.000372283
 30
0.0
  0
POINT
  5
4B
330
1F
100
AcDbEntity
  8
1
 62
     4
420
    65535
100
AcDbPoint
 10
149.5004315969
 20
-0.000372283
 30
0.0
  0
LINE
  5
4C
330
1F
100
AcDbEntity
  8
1
 62
     4
420
    65535
100
AcDbLine
 10
171.0004315969
 20
22.7647535608
 30
0.0
 11
29.0004315969
 21
19.0289921736
 31
0.0
  0
LINE
  5
4D
330
1F
100
AcDbEntity
  8
1
 62
     4
420
    65535
100
AcDbLine
 10
29.0004315969
 20
-19.0297367397
 30
0.0
 11
171.0004315969
 21
-22.7654981268
 31
0.0
  0
LINE
  5
4E
330
1F
100
AcDbEntity
  8
1
 62
     4
420
    65535
100
AcDbLine
 10
29.0004315969
 20
19.0289921736
 30
0.0
 11
27.8210671402
 21
17.849627717
 31
0.0
  0
LINE
  5
4F
330
1F
100
AcDbEntity
  8
1
 62
     4
420
    65535
100
AcDbLine
 10
27.8210671402
 20
-17.850372283
 30
0.0
 11
29.0004315969
 21
-19.0297367397
 31
0.0
  0
LINE
  5
50
330
1F
100
AcDbEntity
  8
1
 62
     4
420
    65535
100
AcDbLine
 10
1.0819417816
 20
7.6949725396
 30
0.0
 11
0.0004315969
 21
-0.000372283
 31
0.0
  0
LINE
  5
51
330
1F
100
AcDbEntity
  8
1
 62
     4
420
    65535
100
AcDbLine
 10
0.0004315969
 20
-0.000372283
 30
0.0
 11
1.0815089864
 21
-7.6926376081
 31
0.0
  0
ARC
  5
52
330
1F
100
AcDbEntity
  8
1
 62
     4
420
    65535
100
AcDbCircle
 10
1.3785305616
 20
-7.6503723323
 30
0.0
 40
0.2999999506833088
100
AcDbArc
 50
188.1480572656
 51
270.0050661674
  0
ARC
  5
53
330
1F
100
AcDbEntity
  8
1
 62
     4
420
    65535
100
AcDbCircle
 10
1.3785193439
 20
7.649627725
 30
0.0
 40
0.2999999919603674
100
AcDbArc
 50
89.9992043544
 51
170.725605949
  0
LINE
  5
54
330
1F
100
AcDbEntity
  8
1
 62
     4
420
    65535
100
AcDbLine
 10
171.0004315969
 20
-0.000372283
 30
0.0
 11
171.0004315969
 21
22.7647535608
 31
0.0
  0
LINE
  5
55
330
1F
100
AcDbEntity
  8
1
 62
     4
420
    65535
100
AcDbLine
 10
171.0004315969
 20
-22.7654981268
 30
0.0
 11
171.0004315969
 21
-0.000372283
 31
0.0
  0
LINE
  5
56
330
1F
100
AcDbEntity
  8
1
 62
     4
420
    65535
100
AcDbLine
 10
29.0004315969
 20
-0.000372283
 30
0.0
 11
29.0004315969
 21
19.0289921736
 31
0.0
  0
LINE
  5
57
330
1F
100
AcDbEntity
  8
1
 62
     4
420
    65535
100
AcDbLine
 10
29.0004315969
 20
-19.0297367397
 30
0.0
 11
29.0004315969
 21
-0.000372283
 31
0.0
  0
SPLINE
  5
58
330
1F
100
AcDbEntity
  8
1
 62
     4
420
    65535
100
AcDbSpline
210
0.0
220
0.0
230
1.0
 70
     8
 71
     3
 72
    38
 73
    34
 74
     0
 42
0.00000001
 43
0.00000001
 12
1.0
 22
0.0
 32
0.0
 13
1.0
 23
0.0
 33
0.0
 40
0.0
 40
0.0
 40
0.0
 40
0.0
 40
0.0625
 40
0.0625
 40
0.125
 40
0.125
 40
0.1875
 40
0.1875
 40
0.25
 40
0.25
 40
0.3125
 40
0.3125
 40
0.375
 40
0.375
 40
0.4375
 40
0.4375
 40
0.5
 40
0.5
 40
0.5625
 40
0.5625
 40
0.625
 40
0.625
 40
0.6875
 40
0.6875
 40
0.75
 40
0.75
 40
0.8125
 40
0.8125
 40
0.875
 40
0.875
 40
0.9375
 40
0.9375
 40
1.0
 40
1.0
 40
1.0
 40
1.0
 10
69.95043159690212
 20
-3.950372283013853
 30
0.0
 10
69.68917142117165
 20
-3.950372283013852
 30
0.0
 10
69.43225087885597
 20
-3.924707232347918
 30
0.0
 10
68.9267370039193
 20
-3.824109385825361
 30
0.0
 10
68.67546189823845
 20
-3.747899937706845
 30
0.0
 10
68.19727503060611
 20
-3.549450094115274
 30
0.0
 10
67.97050555412929
 20
-3.428056423868562
 30
0.0
 10
67.54127195268502
 20
-3.141244058969167
 30
0.0
 10
67.3385849893568
 20
-2.974739316323268
 30
0.0
 10
66.97505662678887
 20
-2.611070606720976
 30
0.0
 10
66.81170714792434
 20
-2.412505447020265
 30
0.0
 10
66.52284611801882
 20
-1.980684216134212
 30
0.0
 10
66.40070350085975
 20
-1.751950049857722
 30
0.0
 10
66.20360779323525
 20
-1.277049851317498
 30
0.0
 10
66.12744726036193
 20
-1.027389449523487
 30
0.0
 10
66.02587604191265
 20
-0.5179021792887427
 30
0.0
 10
66.00063051339805
 20
-0.2614767799451578
 30
0.0
 10
66.00023499971644
 20
0.2546786945386585
 30
0.0
 10
66.02593715069283
 20
0.5168647180362586
 30
0.0
 10
66.12668843096655
 20
1.02343383854627
 30
0.0
 10
66.20126636328627
 20
1.269830689720095
 30
0.0
 10
66.39935369997028
 20
1.748770738816509
 30
0.0
 10
66.52257697423569
 20
1.979107170135911
 30
0.0
 10
66.80791973754802
 20
2.406523110100784
 30
0.0
 10
66.97176667226204
 20
2.606843075746345
 30
0.0
 10
67.33897351146051
 20
2.97457365401052
 30
0.0
 10
67.53778231384238
 20
3.137741525540632
 30
0.0
 10
67.96504171893409
 20
3.42407831101595
 30
0.0
 10
68.1963478909946
 20
3.548226011227581
 30
0.0
 10
68.6739260566377
 20
3.746612252168768
 30
0.0
 10
68.92013139499811
 20
3.821657356990865
 30
0.0
 10
69.42744459836409
 20
3.923390410432103
 30
0.0
 10
69.68916559163755
 20
3.94962771698616
 30
0.0
 10
69.95043159690215
 20
3.94962771698616
 30
0.0
  0
LINE
  5
59
330
1F
100
AcDbEntity
  8
1
 62
     4
420
    65535
100
AcDbLine
 10
89.0504315969
 20
-3.950372283
 30
0.0
 11
69.9504315969
 21
-3.950372283
 31
0.0
  0
SPLINE
  5
5A
330
1F
100
AcDbEntity
  8
1
 62
     4
420
    65535
100
AcDbSpline
210
0.0
220
0.0
230
1.0
 70
     8
 71
     3
 72
    38
 73
    34
 74
     0
 42
0.00000001
 43
0.00000001
 12
1.0
 22
0.0
 32
0.0
 13
1.0
 23
0.0
 33
0.0
 40
0.0
 40
0.0
 40
0.0
 40
0.0
 40
0.0625
 40
0.0625
 40
0.125
 40
0.125
 40
0.1875
 40
0.1875
 40
0.25
 40
0.25
 40
0.3125
 40
0.3125
 40
0.375
 40
0.375
 40
0.4375
 40
0.4375
 40
0.5
 40
0.5
 40
0.5625
 40
0.5625
 40
0.625
 40
0.625
 40
0.6875
 40
0.6875
 40
0.75
 40
0.75
 40
0.8125
 40
0.8125
 40
0.875
 40
0.875
 40
0.9375
 40
0.9375
 40
1.0
 40
1.0
 40
1.0
 40
1.0
 10
89.05043159690213
 20
3.949627716986146
 30
0.0
 10
89.31223244908324
 20
3.949627716986146
 30
0.0
 10
89.56939123469785
 20
3.923859827911979
 30
0.0
 10
90.07488781818157
 20
3.823160928135789
 30
0.0
 10
90.32586526979372
 20
3.746979068878756
 30
0.0
 10
90.80354782740497
 20
3.548706004489061
 30
0.0
 10
91.02995752425086
 20
3.427504802270725
 30
0.0
 10
91.45841656956193
 20
3.141358542551819
 30
0.0
 10
91.66088750368844
 20
2.975188308915675
 30
0.0
 10
92.02416949084113
 20
2.612159786774165
 30
0.0
 10
92.1874375594908
 20
2.413960294697409
 30
0.0
 10
92.47627531499266
 20
1.982908590774436
 30
0.0
 10
92.59889908949276
 20
1.753779480463682
 30
0.0
 10
92.79643404369722
 20
1.278742889239491
 30
0.0
 10
92.87273971608815
 20
1.029343652894393
 30
0.0
 10
92.97486189086243
 20
0.5184736811269662
 30
0.0
 10
93.00021021073518
 20
0.2614897283410956
 30
0.0
 10
93.00065012320763
 20
-0.2555122558064322
 30
0.0
 10
92.97488569127574
 20
-0.5182032481423048
 30
0.0
 10
92.87375953162227
 20
-1.025873307333277
 30
0.0
 10
92.79893149440743
 20
-1.272569345773301
 30
0.0
 10
92.60045087387277
 20
-1.751686070211252
 30
0.0
 10
92.47697315410826
 20
-1.982121598978625
 30
0.0
 10
92.19136824091156
 20
-2.409321097934229
 30
0.0
 10
92.02748145913122
 20
-2.609396763698489
 30
0.0
 10
91.6605775087542
 20
-2.976438972765922
 30
0.0
 10
91.46200525327711
 20
-3.139281060295058
 30
0.0
 10
91.0353205643119
 20
-3.425084183198985
 30
0.0
 10
90.80439320717964
 20
-3.549006369819801
 30
0.0
 10
90.32744849337027
 20
-3.747159314391973
 30
0.0
 10
90.08145095011788
 20
-3.822206485321337
 30
0.0
 10
89.57420105746988
 20
-3.92402913967312
 30
0.0
 10
89.31223297686128
 20
-3.950372283013855
 30
0.0
 10
89.05043159690213
 20
-3.950372283013855
 30
0.0
  0
LINE
  5
5B
330
1F
100
AcDbEntity
  8
1
 62
     4
420
    65535
100
AcDbLine
 10
69.9504315969
 20
3.949627717
 30
0.0
 11
89.0504315969
 21
3.949627717
 31
0.0
  0
LINE
  5
5C
330
1F
100
AcDbEntity
  8
1
 62
     4
420
    65535
100
AcDbLine
 10
27.8210671402
 20
-17.850372283
 30
0.0
 11
27.8210671402
 21
17.849627717
 31
0.0
  0
SPLINE
  5
5D
330
1F
100
AcDbEntity
  8
1
 62
     4
420
    65535
100
AcDbSpline
210
0.0
220
0.0
230
1.0
 70
     8
 71
     3
 72
     8
 73
     4
 74
     0
 42
0.00000001
 43
0.00000001
 12
1.0
 22
0.0
 32
0.0
 13
1.0
 23
0.0
 33
0.0
 40
0.0
 40
0.0
 40
0.0
 40
0.0
 40
0.0000236927895046
 40
0.0000236927895046
 40
0.0000236927895046
 40
0.0000236927895046
 10
2.793541772723326
 20
7.949627716986148
 30
0.0
 10
2.785644176221812
 20
7.949627716986148
 30
0.0
 10
2.777738956930523
 20
7.949320092403983
 30
0.0
 10
2.769871517684673
 20
7.948702722973528
 30
0.0
  0
LINE
  5
5E
330
1F
100
AcDbEntity
  8
1
 62
     4
420
    65535
100
AcDbLine
 10
2.7935417727
 20
7.949627717
 30
0.0
 11
17.8215671527
 21
7.949627717
 31
0.0
  0
SPLINE
  5
5F
330
1F
100
AcDbEntity
  8
1
 62
     4
420
    65535
100
AcDbSpline
210
0.0
220
0.0
230
1.0
 70
     8
 71
     3
 72
    40
 73
    36
 74
     0
 42
0.00000001
 43
0.00000001
 12
1.0
 22
0.0
 32
0.0
 13
1.0
 23
0.0
 33
0.0
 40
0.0
 40
0.0
 40
0.0
 40
0.0
 40
0.0624999999999995
 40
0.0624999999999995
 40
0.124999999999999
 40
0.124999999999999
 40
0.1562499999999989
 40
0.1562499999999989
 40
0.1874999999999988
 40
0.1874999999999988
 40
0.2499999999999987
 40
0.2499999999999987
 40
0.2812499999999986
 40
0.2812499999999986
 40
0.3124999999999985
 40
0.3124999999999985
 40
0.3749999999999987
 40
0.3749999999999987
 40
0.4062499999999987
 40
0.4062499999999987
 40
0.4374999999999988
 40
0.4374999999999988
 40
0.4999999999999991
 40
0.4999999999999991
 40
0.5624999999999992
 40
0.5624999999999992
 40
0.6249999999999994
 40
0.6249999999999994
 40
0.6874999999999996
 40
0.6874999999999996
 40
0.7499999999999998
 40
0.7499999999999998
 40
0.8749999999999999
 40
0.8749999999999999
 40
1.0
 40
1.0
 40
1.0
 40
1.0
 10
17.8215671527443
 20
7.949627716986146
 30
0.0
 10
18.34424507403626
 20
7.949627716986145
 30
0.0
 10
18.87376122638778
 20
7.99155002983294
 30
0.0
 10
19.900977885673
 20
8.15440058354151
 30
0.0
 10
20.40353459699583
 20
8.274915008919688
 30
0.0
 10
21.14058040888422
 20
8.512954231468754
 30
0.0
 10
21.3846235882335
 20
8.602393711914958
 30
0.0
 10
21.86042670312635
 20
8.797919229478047
 30
0.0
 10
22.09184348021642
 20
8.903730459251486
 30
0.0
 10
22.76721785535745
 20
9.243617863466419
 30
0.0
 10
23.19238242377475
 20
9.50008829063745
 30
0.0
 10
23.79296814344951
 20
9.924513169115587
 30
0.0
 10
23.98770989496909
 20
10.07331941124224
 30
0.0
 10
24.35829441995841
 20
10.37805288220565
 30
0.0
 10
24.53476348802366
 20
10.53432618621084
 30
0.0
 10
25.03919618777292
 20
11.01272362178499
 30
0.0
 10
25.34223990994015
 20
11.34440207233961
 30
0.0
 10
25.7514161016055
 20
11.85332746333836
 30
0.0
 10
25.88025759419851
 20
12.02503162855624
 30
0.0
 10
26.11982243356334
 20
12.36551724739627
 30
0.0
 10
26.23112863931904
 20
12.53498951300839
 30
0.0
 10
26.5420804087646
 20
13.03955911691545
 30
0.0
 10
26.71882350327638
 20
13.37078588592642
 30
0.0
 10
27.02215140450943
 20
14.01564595455801
 30
0.0
 10
27.14740903965031
 20
14.32678837921915
 30
0.0
 10
27.3540900241035
 20
14.91198068781104
 30
0.0
 10
27.43633303804921
 20
15.18785970986732
 30
0.0
 10
27.56983654024422
 20
15.70411452328183
 30
0.0
 10
27.62106389313519
 20
15.94450060905275
 30
0.0
 10
27.70136396078478
 20
16.3874862010747
 30
0.0
 10
27.73013091178881
 20
16.5885355139928
 30
0.0
 10
27.79381702157148
 20
17.1231511219914
 30
0.0
 10
27.80768526999645
 20
17.39235016508389
 30
0.0
 10
27.82134890763091
 20
17.75603490667934
 30
0.0
 10
27.82106714024368
 20
17.84962771698603
 30
0.0
 10
27.82106714024368
 20
17.84962771698604
 30
0.0
  0
SPLINE
  5
60
330
1F
100
AcDbEntity
  8
1
 62
     4
420
    65535
100
AcDbSpline
210
0.0
220
0.0
230
1.0
 70
     8
 71
     3
 72
    40
 73
    36
 74
     0
 42
0.00000001
 43
0.00000001
 12
1.0
 22
0.0
 32
0.0
 13
1.0
 23
0.0
 33
0.0
 40
0.0
 40
0.0
 40
0.0
 40
0.0
 40
0.1250000000000001
 40
0.1250000000000001
 40
0.1875000000000001
 40
0.1875000000000001
 40
0.2500000000000001
 40
0.2500000000000001
 40
0.3749999999999999
 40
0.3749999999999999
 40
0.4374999999999998
 40
0.4374999999999998
 40
0.4999999999999998
 40
0.4999999999999998
 40
0.5624999999999997
 40
0.5624999999999997
 40
0.6249999999999997
 40
0.6249999999999997
 40
0.6874999999999996
 40
0.6874999999999996
 40
0.7187499999999994
 40
0.7187499999999994
 40
0.7499999999999993
 40
0.7499999999999993
 40
0.8124999999999996
 40
0.8124999999999996
 40
0.8437499999999996
 40
0.8437499999999996
 40
0.8749999999999996
 40
0.8749999999999996
 40
0.9375
 40
0.9375
 40
0.96875
 40
0.96875
 40
1.0
 40
1.0
 40
1.0
 40
1.0
 10
27.82106714024368
 20
-17.85037228301385
 30
0.0
 10
27.82106714024368
 20
-17.85037228301384
 30
0.0
 10
27.82137213390625
 20
-17.7583204621847
 30
0.0
 10
27.81119616389938
 20
-17.48608992250704
 30
0.0
 10
27.80581050057081
 20
-17.3728574271789
 30
0.0
 10
27.78632342114865
 20
-17.10050691213202
 30
0.0
 10
27.77217973868605
 20
-16.94157931850892
 30
0.0
 10
27.70810597760143
 20
-16.405779654668
 30
0.0
 10
27.63747959698189
 20
-15.96786415907957
 30
0.0
 10
27.43839982104995
 20
-15.19589441535714
 30
0.0
 10
27.35629248103746
 20
-14.91931212560205
 30
0.0
 10
27.14767290497042
 20
-14.32793328944341
 30
0.0
 10
27.02227271256137
 20
-14.01690052936479
 30
0.0
 10
26.72127231050515
 20
-13.37648652360439
 30
0.0
 10
26.54535898879856
 20
-13.04603775318862
 30
0.0
 10
26.12990945242435
 20
-12.37108116221808
 30
0.0
 10
25.88815272748751
 20
-12.02440075380602
 30
0.0
 10
25.34656645154439
 20
-11.35027175706007
 30
0.0
 10
25.04553853529596
 20
-11.02020626102511
 30
0.0
 10
24.54381061618975
 20
-10.54330243554857
 30
0.0
 10
24.36818927241489
 20
-10.38737369203005
 30
0.0
 10
23.99912064717593
 20
-10.08303209153751
 30
0.0
 10
23.80453544712622
 20
-9.933837275860125
 30
0.0
 10
23.20126966544316
 20
-9.506334540034599
 30
0.0
 10
22.77524976258302
 20
-9.24894878443648
 30
0.0
 10
22.10063404565622
 20
-8.908634501970882
 30
0.0
 10
21.86981105720013
 20
-8.802838084430078
 30
0.0
 10
21.39600710174458
 20
-8.607511924685982
 30
0.0
 10
21.15192633628066
 20
-8.517635463458074
 30
0.0
 10
20.4087257013785
 20
-8.276806475221193
 30
0.0
 10
19.90380657179412
 20
-8.155721909978608
 30
0.0
 10
19.13274984444418
 20
-8.033289840024407
 30
0.0
 10
18.87343834089873
 20
-8.002384844872246
 30
0.0
 10
18.35015297719633
 20
-7.960903623866811
 30
0.0
 10
18.08488262272348
 20
-7.950372283013738
 30
0.0
 10
17.8215671527443
 20
-7.950372283013738
 30
0.0
  0
LINE
  5
61
330
1F
100
AcDbEntity
  8
1
 62
     4
420
    65535
100
AcDbLine
 10
17.8215671527
 20
-7.950372283
 30
0.0
 11
2.7935417727
 21
-7.950372283
 31
0.0
  0
SPLINE
  5
62
330
1F
100
AcDbEntity
  8
1
 62
     4
420
    65535
100
AcDbSpline
210
0.0
220
0.0
230
1.0
 70
     8
 71
     3
 72
     8
 73
     4
 74
     0
 42
0.00000001
 43
0.00000001
 12
1.0
 22
0.0
 32
0.0
 13
1.0
 23
0.0
 33
0.0
 40
0.0
 40
0.0
 40
0.0
 40
0.0
 40
0.0000236927895046
 40
0.0000236927895046
 40
0.0000236927895046
 40
0.0000236927895046
 10
2.769871517684673
 20
-7.949447289001122
 30
0.0
 10
2.777738956930523
 20
-7.950064658431576
 30
0.0
 10
2.785644176221812
 20
-7.950372283013742
 30
0.0
 10
2.793541772723326
 20
-7.950372283013742
 30
0.0
  0
LINE
  5
63
330
1F
100
AcDbEntity
  8
1
 62
     4
420
    65535
100
AcDbLine
 10
2.7698715177
 20
7.948702723
 30
0.0
 11
2.7698715177
 21
-7.949447289
 31
0.0
  0
LINE
  5
64
330
1F
100
AcDbEntity
  8
1
 62
     4
420
    65535
100
AcDbLine
 10
2.4727910971
 20
-7.6685718424
 30
0.0
 11
2.4727910971
 21
7.6678272763
 31
0.0
  0
SPLINE
  5
65
330
1F
100
AcDbEntity
  8
1
 62
     4
420
    65535
100
AcDbSpline
210
0.0
220
0.0
230
1.0
 70
     8
 71
     3
 72
    10
 73
     6
 74
     0
 42
0.00000001
 43
0.00000001
 12
1.0
 22
0.0
 32
0.0
 13
1.0
 23
0.0
 33
0.0
 40
0.0
 40
0.0
 40
0.0
 40
0.0
 40
0.5
 40
0.5
 40
1.0
 40
1.0
 40
1.0
 40
1.0
 10
2.769871517684673
 20
7.948702722973528
 30
0.0
 10
2.690628098130282
 20
7.942484376282978
 30
0.0
 10
2.617063885433632
 20
7.904450828978668
 30
0.0
 10
2.513733294774195
 20
7.800349946017594
 30
0.0
 10
2.482010271660638
 20
7.733975358290739
 30
0.0
 10
2.4727910970622
 20
7.667827276342463
 30
0.0
  0
SPLINE
  5
66
330
1F
100
AcDbEntity
  8
1
 62
     4
420
    65535
100
AcDbSpline
210
0.0
220
0.0
230
1.0
 70
     8
 71
     3
 72
    10
 73
     6
 74
     0
 42
0.00000001
 43
0.00000001
 12
1.0
 22
0.0
 32
0.0
 13
1.0
 23
0.0
 33
0.0
 40
0.0
 40
0.0
 40
0.0
 40
0.0
 40
0.5
 40
0.5
 40
1.0
 40
1.0
 40
1.0
 40
1.0
 10
2.769871517684673
 20
-7.949447289001122
 30
0.0
 10
2.690628098130282
 20
-7.94322894231057
 30
0.0
 10
2.617063885433625
 20
-7.905195395006257
 30
0.0
 10
2.513733294774188
 20
-7.801094512045172
 30
0.0
 10
2.482010271660708
 20
-7.734719924317736
 30
0.0
 10
2.4727910970622
 20
-7.668571842370045
 30
0.0
  0
SPLINE
  5
67
330
1F
100
AcDbEntity
  8
1
 62
     4
420
    65535
100
AcDbSpline
210
0.0
220
0.0
230
1.0
 70
    24
 71
     3
 72
    12
 73
     8
 74
     0
 42
0.00000001
 43
0.00000001
 12
1.0
 22
0.0
 32
0.0
 13
1.0
 23
0.0
 33
0.0
 40
0.0
 40
0.0
 40
0.0
 40
0.0
 40
0.3809832389478593
 40
0.6278422147429826
 40
0.8749662648663228
 40
0.9884408322372709
 40
1.0
 40
1.0
 40
1.0
 40
1.0
 10
2.793541772723326
 20
-7.950372283013742
 30
0.0
 10
2.54176967624007
 20
-7.950372283013754
 30
0.0
 10
2.126861264250421
 20
-7.950372283013778
 30
0.0
 10
1.635512464628328
 20
-7.950372283013813
 30
0.0
 10
1.437782144318375
 20
-7.950372283013826
 30
0.0
 10
1.359376642477109
 20
-7.950372283013855
 30
0.0
 10
1.382586597940993
 20
-7.950372283013853
 30
0.0
 10
1.384732321002738
 20
-7.950372283013853
 30
0.0
  0
SPLINE
  5
68
330
1F
100
AcDbEntity
  8
1
 62
     4
420
    65535
100
AcDbSpline
210
0.0
220
0.0
230
1.0
 70
    24
 71
     3
 72
    11
 73
     7
 74
     0
 42
0.00000001
 43
0.00000001
 12
1.0
 22
0.0
 32
0.0
 13
1.0
 23
0.0
 33
0.0
 40
0.0
 40
0.0
 40
0.0
 40
0.0
 40
0.1237691109041943
 40
0.3425375432765129
 40
0.5613619806498157
 40
1.0
 40
1.0
 40
1.0
 40
1.0
 10
1.414430010967235
 20
7.949627716986148
 30
0.0
 10
1.407383925278421
 20
7.949627716986148
 30
0.0
 10
1.387883511451971
 20
7.949627716986148
 30
0.0
 10
1.612417077273477
 20
7.94962771698615
 30
0.0
 10
2.063911453504576
 20
7.949627716986146
 30
0.0
 10
2.50155795822269
 20
7.949627716986146
 30
0.0
 10
2.793541772723326
 20
7.949627716986148
 30
0.0
  0
SPLINE
  5
69
330
1F
100
AcDbEntity
  8
1
 62
     4
420
    65535
100
AcDbSpline
210
0.0
220
0.0
230
1.0
 70
     8
 71
     3
 72
    12
 73
     8
 74
     0
 42
0.00000001
 43
0.00000001
 12
1.0
 22
0.0
 32
0.0
 13
1.0
 23
0.0
 33
0.0
 40
0.0
 40
0.0
 40
0.0
 40
0.0
 40
0.0093572867367993
 40
0.1247849717495474
 40
0.3752053705393164
 40
0.6260545749103908
 40
1.0
 40
1.0
 40
1.0
 40
1.0
 10
1.086390107148706
 20
-7.691951611367718
 30
0.0
 10
1.084715344116777
 20
-7.69200983608364
 30
0.0
 10
1.062381385192067
 20
-7.692786297224135
 30
0.0
 10
1.140896335169478
 20
-7.689831448357458
 30
0.0
 10
1.33763058728998
 20
-7.683378586105089
 30
0.0
 10
1.822520673800496
 20
-7.674090850919638
 30
0.0
 10
2.22931868525502
 20
-7.67063825393405
 30
0.0
 10
2.472791097062208
 20
-7.668571842370058
 30
0.0
  0
SPLINE
  5
6A
330
1F
100
AcDbEntity
  8
1
 62
     4
420
    65535
100
AcDbSpline
210
0.0
220
0.0
230
1.0
 70
     8
 71
     3
 72
    11
 73
     7
 74
     0
 42
0.00000001
 43
0.00000001
 12
1.0
 22
0.0
 32
0.0
 13
1.0
 23
0.0
 33
0.0
 40
0.0
 40
0.0
 40
0.0
 40
0.0
 40
0.4373324546136331
 40
0.6561718591539009
 40
0.8752299699594143
 40
1.0
 40
1.0
 40
1.0
 40
1.0
 10
2.4727910970622
 20
7.667827276342466
 30
0.0
 10
2.18519535468157
 20
7.670406437896672
 30
0.0
 10
1.753687857417585
 20
7.674276201538103
 30
0.0
 10
1.313467529994922
 20
7.683307226524057
 30
0.0
 10
1.090987298742976
 20
7.690935840792982
 30
0.0
 10
1.110092241233318
 20
7.690279919606924
 30
0.0
 10
1.117025135796805
 20
7.690041895732883
 30
0.0
  0
LINE
  5
6B
330
1F
100
AcDbEntity
  8
1
  6
SLD-Gestrichelt
 62
   131
420
  8454143
370
     0
100
AcDbLine
 10
170.5130144162
 20
-11.8966569196
 30
0.0
 11
170.5130144162
 21
11.8959123536
 31
0.0
  0
LINE
  5
6C
330
1F
100
AcDbEntity
  8
1
  6
SLD-Gestrichelt
 62
   131
420
  8454143
370
     0
100
AcDbLine
 10
99.0004315969
 20
-0.000372283
 30
0.0
 11
99.0004315969
 21
10.099627717
 31
0.0
  0
LINE
  5
6D
330
1F
100
AcDbEntity
  8
1
  6
SLD-Gestrichelt
 62
   131
420
  8454143
370
     0
100
AcDbLine
 10
99.0004315969
 20
-10.100372283
 30
0.0
 11
99.0004315969
 21
-0.000372283
 31
0.0
  0
LINE
  5
6E
330
1F
100
AcDbEntity
  8
1
  6
SLD-Gestrichelt
 62
   131
420
  8454143
370
     0
100
AcDbLine
 10
87.0004315969
 20
3.949627717
 30
0.0
 11
87.0004315969
 21
10.099627717
 31
0.0
  0
LINE
  5
6F
330
1F
100
AcDbEntity
  8
1
  6
SLD-Gestrichelt
 62
   131
420
  8454143
370
     0
100
AcDbLine
 10
87.0004315969
 20
-10.100372283
 30
0.0
 11
87.0004315969
 21
-3.950372283
 31
0.0
  0
LINE
  5
70
330
1F
100
AcDbEntity
  8
1
  6
SLD-Gestrichelt
 62
   131
420
  8454143
370
     0
100
AcDbLine
 10
2.7698715177
 20
-7.949447289
 30
0.0
 11
2.7698715177
 21
7.948702723
 31
0.0
  0
LINE
  5
71
330
1F
100
AcDbEntity
  8
1
  6
SLD-Gestrichelt
 62
   131
420
  8454143
370
     0
100
AcDbLine
 10
1.3788800973
 20
-7.9503720794
 30
0.0
 11
1.378557088
 21
-7.9503722818
 31
0.0
  0
LINE
  5
72
330
1F
100
AcDbEntity
  8
1
  6
SLD-Gestrichelt
 62
   131
420
  8454143
370
     0
100
AcDbLine
 10
1.3785235099
 20
7.949627717
 30
0.0
 11
1.37952359
 21
7.9496260361
 31
0.0
  0
ARC
  5
73
330
1F
100
AcDbEntity
  8
1
  6
SLD-Gestrichelt
 62
   131
420
  8454143
370
     0
100
AcDbCircle
 10
170.5004315969
 20
-12.40044388
 30
0.0
 40
0.5000000000000018
100
AcDbArc
 50
0.0
 51
88.5579628882
  0
ARC
  5
74
330
1F
100
AcDbEntity
  8
1
  6
SLD-Gestrichelt
 62
   131
420
  8454143
370
     0
100
AcDbCircle
 10
170.5004315969
 20
12.399699314
 30
0.0
 40
0.5
100
AcDbArc
 50
271.4420371118
 51
0.0
  0
LINE
  5
75
330
1F
100
AcDbEntity
  8
1
  6
SLD-Gestrichelt
 62
   131
420
  8454143
370
     0
100
AcDbLine
 10
170.5130144162
 20
11.8998576664
 30
0.0
 11
99.0004315969
 21
10.099627717
 31
0.0
  0
LINE
  5
76
330
1F
100
AcDbEntity
  8
1
  6
SLD-Gestrichelt
 62
   131
420
  8454143
370
     0
100
AcDbLine
 10
99.0004315969
 20
-10.100372283
 30
0.0
 11
170.5130144162
 21
-11.9006022325
 31
0.0
  0
LINE
  5
77
330
1F
100
AcDbEntity
  8
1
  6
SLD-Gestrichelt
 62
   131
420
  8454143
370
     0
100
AcDbLine
 10
87.0004315969
 20
-10.100372283
 30
0.0
 11
99.0004315969
 21
-10.100372283
 31
0.0
  0
LINE
  5
78
330
1F
100
AcDbEntity
  8
1
  6
SLD-Gestrichelt
 62
   131
420
  8454143
370
     0
100
AcDbLine
 10
99.0004315969
 20
10.099627717
 30
0.0
 11
87.0004315969
 21
10.099627717
 31
0.0
  0
LINE
  5
79
330
1F
100
AcDbEntity
  8
1
  6
SLD-Gestrichelt
 62
   131
420
  8454143
370
     0
100
AcDbLine
 10
87.0004315969
 20
10.099627717
 30
0.0
 11
83.3051387899
 21
3.949627717
 31
0.0
  0
LINE
  5
7A
330
1F
100
AcDbEntity
  8
1
  6
SLD-Gestrichelt
 62
   131
420
  8454143
370
     0
100
AcDbLine
 10
83.3051387899
 20
-3.950372283
 30
0.0
 11
87.0004315969
 21
-10.100372283
 31
0.0
  0
SPLINE
  5
7B
330
1F
100
AcDbEntity
  8
1
  6
SLD-Gestrichelt
 62
   131
420
  8454143
370
     0
100
AcDbSpline
210
0.0
220
0.0
230
1.0
 70
     8
 71
     3
 72
    10
 73
     6
 74
     0
 42
0.00000001
 43
0.00000001
 12
1.0
 22
0.0
 32
0.0
 13
1.0
 23
0.0
 33
0.0
 40
0.0
 40
0.0
 40
0.0
 40
0.0
 40
0.5040234152185502
 40
0.7564137454119894
 40
1.0
 40
1.0
 40
1.0
 40
1.0
 10
2.4727910970622
 20
-7.668571842370279
 30
0.0
 10
2.146333580141491
 20
-7.671393792319424
 30
0.0
 10
1.656402069747632
 20
-7.675628837093031
 30
0.0
 10
1.164931301073965
 20
-7.688645061943943
 30
0.0
 10
1.112258842353726
 20
-7.690862549090827
 30
0.0
 10
1.086390107148706
 20
-7.691951611367718
 30
0.0
  0
SPLINE
  5
7C
330
1F
100
AcDbEntity
  8
1
  6
SLD-Gestrichelt
 62
   131
420
  8454143
370
     0
100
AcDbSpline
210
0.0
220
0.0
230
1.0
 70
     8
 71
     3
 72
    11
 73
     7
 74
     0
 42
0.00000001
 43
0.00000001
 12
1.0
 22
0.0
 32
0.0
 13
1.0
 23
0.0
 33
0.0
 40
0.0
 40
0.0
 40
0.0
 40
0.0
 40
0.1261411284420956
 40
0.3781145100660047
 40
0.7554486849446198
 40
1.0
 40
1.0
 40
1.0
 40
1.0
 10
1.117025135796805
 20
7.690041895732882
 30
0.0
 10
1.110522024749983
 20
7.690260706621348
 30
0.0
 10
1.091028615441358
 20
7.690916603495836
 30
0.0
 10
1.40921434412454
 20
7.680191682771812
 30
0.0
 10
1.902522796409054
 20
7.67256966809187
 30
0.0
 10
2.311833180620927
 20
7.669165813823956
 30
0.0
 10
2.4727910970622
 20
7.667827276342465
 30
0.0
  0
DIMENSION
  5
7D
330
1F
100
AcDbEntity
  8
2
 62
     7
420
 16777215
100
AcDbDimension
  2
_D
 10
171.0004315969
 20
28.7647535608
 30
0.0
 11
85.5004315969
 21
28.7647535608
 31
0.0
 70
   160
  1
<>
 71
     2
 42
-1.0
 73
     0
 74
     0
 75
     0
  3
SLDDIMSTYLE0
100
AcDbAlignedDimension
 13
0.0004315969
 23
-0.000372283
 33
0.0
 14
171.0004315969
 24
-0.000372283
 34
0.0
 50
0.0
100
AcDbRotatedDimension
  0
DIMENSION
  5
89
330
1F
100
AcDbEntity
  8
2
 62
     7
420
 16777215
100
AcDbDimension
  2
_D_1
 10
183.0004315969
 20
-22.7654981268
 30
0.0
 11
183.0004315969
 21
-0.000372283
 31
0.0
 70
   160
  1
%%c<>
 71
     2
 42
-1.0
 73
     0
 74
     0
 75
     0
  3
SLDDIMSTYLE0
100
AcDbAlignedDimension
 13
171.0004315969
 23
22.7647535608
 33
0.0
 14
171.0004315969
 24
-22.7654981268
 34
0.0
 50
90.0
100
AcDbRotatedDimension
  0
DIMENSION
  5
94
330
1F
100
AcDbEntity
  8
2
 62
     7
420
 16777215
100
AcDbDimension
  2
_D_2
 10
177.0004315969
 20
-11.9006022325
 30
0.0
 11
177.0004315969
 21
-0.000372283
 31
0.0
 70
   160
  1
%%c<>
 71
     2
 42
-1.0
 73
     0
 74
     0
 75
     0
  3
SLDDIMSTYLE1
100
AcDbAlignedDimension
 13
170.5130144162
 23
11.8998576664
 33
0.0
 14
170.5130144162
 24
-11.9006022325
 34
0.0
 50
90.0
100
AcDbRotatedDimension
  0
ENDSEC
  0
SECTION
  2
OBJECTS
  0
DICTIONARY
  5
C
330
0
100
AcDbDictionary
281
     1
  3
ACAD_GROUP
350
D
  3
ACAD_LAYOUT
350
1A
  3
ACAD_MATERIAL
350
3B
  3
ACAD_MLEADERSTYLE
350
A3
  3
ACAD_MLINESTYLE
350
17
  3
ACAD_PLOTSETTINGS
350
19
  3
ACAD_PLOTSTYLENAME
350
E
  3
ACAD_TABLESTYLE
350
A2
  3
ACAD_VISUALSTYLE
350
2A
  0
DICTIONARY
  5
D
102
{ACAD_REACTORS
330
C
102
}
330
C
100
AcDbDictionary
281
     1
  0
DICTIONARY
  5
1A
102
{ACAD_REACTORS
330
C
102
}
330
C
100
AcDbDictionary
281
     1
  3
Layout1
350
1E
  3
Layout2
350
26
  3
Model
350
22
  0
DICTIONARY
  5
3B
102
{ACAD_REACTORS
330
C
102
}
330
C
100
AcDbDictionary
281
     1
  3
ByBlock
350
3D
  3
ByLayer
350
3C
  3
Global
350
3E
  0
DICTIONARY
  5
A3
102
{ACAD_REACTORS
330
C
102
}
330
C
100
AcDbDictionary
281
     1
  0
DICTIONARY
  5
17
102
{ACAD_REACTORS
330
C
102
}
330
C
100
AcDbDictionary
281
     1
  3
Standard
350
18
  0
DICTIONARY
  5
19
102
{ACAD_REACTORS
330
C
102
}
330
C
100
AcDbDictionary
281
     1
  0
ACDBDICTIONARYWDFLT
  5
E
102
{ACAD_REACTORS
330
C
102
}
330
C
100
AcDbDictionary
281
     1
  3
Normal
350
F
100
AcDbDictionaryWithDefault
340
F
  0
DICTIONARY
  5
A2
102
{ACAD_REACTORS
330
C
102
}
330
C
100
AcDbDictionary
281
     1
  0
DICTIONARY
  5
2A
102
{ACAD_REACTORS
330
C
102
}
330
C
100
AcDbDictionary
281
     1
  3
2dWireframe
350
2F
  3
3D Hidden
350
31
  3
3dWireframe
350
30
  3
Basic
350
32
  3
Brighten
350
36
  3
ColorChange
350
3A
  3
Conceptual
350
34
  3
Dim
350
35
  3
Facepattern
350
39
  3
Flat
350
2B
  3
FlatWithEdges
350
2C
  3
Gouraud
350
2D
  3
GouraudWithEdges
350
2E
  3
Linepattern
350
38
  3
Realistic
350
33
  3
Thicken
350
37
  0
LAYOUT
  5
1E
102
{ACAD_REACTORS
330
1A
102
}
330
1A
100
AcDbPlotSettings
  1

  2
none_device
  4

  6

 40
0.0
 41
0.0
 42
0.0
 43
0.0
 44
0.0
 45
0.0
 46
0.0
 47
0.0
 48
0.0
 49
0.0
140
0.0
141
0.0
142
1.0
143
1.0
 70
   688
 72
     0
 73
     0
 74
     5
  7

 75
    16
 76
     0
 77
     2
 78
   300
147
1.0
148
0.0
149
0.0
100
AcDbLayout
  1
Layout1
 70
     1
 71
     1
 10
0.0
 20
0.0
 11
420.0
 21
297.0
 12
0.0
 22
0.0
 32
0.0
 14
1.0000000000E+20
 24
1.0000000000E+20
 34
1.0000000000E+20
 15
-1.0000000000E+20
 25
-1.0000000000E+20
 35
-1.0000000000E+20
146
0.0
 13
0.0
 23
0.0
 33
0.0
 16
1.0
 26
0.0
 36
0.0
 17
0.0
 27
1.0
 37
0.0
 76
     0
330
1B
  0
LAYOUT
  5
26
102
{ACAD_REACTORS
330
1A
102
}
330
1A
100
AcDbPlotSettings
  1

  2
none_device
  4

  6

 40
0.0
 41
0.0
 42
0.0
 43
0.0
 44
0.0
 45
0.0
 46
0.0
 47
0.0
 48
0.0
 49
0.0
140
0.0
141
0.0
142
1.0
143
1.0
 70
   688
 72
     0
 73
     0
 74
     5
  7

 75
    16
 76
     0
 77
     2
 78
   300
147
1.0
148
0.0
149
0.0
100
AcDbLayout
  1
Layout2
 70
     1
 71
     2
 10
0.0
 20
0.0
 11
0.0
 21
0.0
 12
0.0
 22
0.0
 32
0.0
 14
0.0
 24
0.0
 34
0.0
 15
0.0
 25
0.0
 35
0.0
146
0.0
 13
0.0
 23
0.0
 33
0.0
 16
1.0
 26
0.0
 36
0.0
 17
0.0
 27
1.0
 37
0.0
 76
     0
330
23
  0
LAYOUT
  5
22
102
{ACAD_REACTORS
330
1A
102
}
330
1A
100
AcDbPlotSettings
  1

  2
none_device
  4

  6

 40
0.0
 41
0.0
 42
0.0
 43
0.0
 44
0.0
 45
0.0
 46
0.0
 47
0.0
 48
0.0
 49
0.0
140
0.0
141
0.0
142
1.0
143
1.0
 70
  1712
 72
     0
 73
     0
 74
     0
  7

 75
     0
 76
     0
 77
     2
 78
   300
147
1.0
148
0.0
149
0.0
100
AcDbLayout
  1
Model
 70
     1
 71
     0
 10
0.0
 20
0.0
 11
297.0
 21
210.0
 12
0.0
 22
0.0
 32
0.0
 14
0.0
 24
0.0
 34
0.0
 15
297.0
 25
210.0
 35
0.0
146
0.0
 13
0.0
 23
0.0
 33
0.0
 16
1.0
 26
0.0
 36
0.0
 17
0.0
 27
1.0
 37
0.0
 76
     0
330
1F
331
29
  0
MATERIAL
  5
3D
102
{ACAD_REACTORS
330
3B
102
}
330
3B
100
AcDbMaterial
  1
ByBlock
 72
     1
 94
      127
  0
MATERIAL
  5
3C
102
{ACAD_REACTORS
330
3B
102
}
330
3B
100
AcDbMaterial
  1
ByLayer
 72
     1
 94
      127
  0
MATERIAL
  5
3E
102
{ACAD_REACTORS
330
3B
102
}
330
3B
100
AcDbMaterial
  1
Global
 72
     1
 94
      127
  0
MLINESTYLE
  5
18
102
{ACAD_REACTORS
330
17
102
}
330
17
100
AcDbMlineStyle
  2
Standard
 70
     0
  3

 62
   256
 51
90.0
 52
90.0
 71
     2
 49
0.5
 62
   256
  6
BYLAYER
 49
-0.5
 62
   256
  6
BYLAYER
  0
ACDBPLACEHOLDER
  5
F
102
{ACAD_REACTORS
330
E
102
}
330
E
  0
VISUALSTYLE
  5
2F
102
{ACAD_REACTORS
330
2A
102
}
330
2A
100
AcDbVisualStyle
  2
2dWireframe
 70
     4
 71
     0
 72
     2
 73
     0
 90
        0
 40
-0.6
 41
-30.0
 62
     5
 63
     7
421
 16777215
 74
     1
 91
        4
 64
     7
 65
   257
 75
     1
175
     1
 42
1.0
 92
        0
 66
   257
 43
1.0
 76
     1
 77
     6
 78
     2
 67
     7
 79
     5
170
     0
171
     0
290
     0
174
     0
 93
        1
 44
0.0
173
     0
291
     0
 45
0.0
  0
VISUALSTYLE
  5
31
102
{ACAD_REACTORS
330
2A
102
}
330
2A
100
AcDbVisualStyle
  2
3D Hidden
 70
     6
 71
     1
 72
     2
 73
     2
 90
        0
 40
-0.6
 41
-30.0
 62
     5
 63
     7
421
 16777215
 74
     2
 91
        2
 64
     7
 65
   257
 75
     2
175
     1
 42
40.0
 92
        0
 66
   257
 43
1.0
 76
     1
 77
     6
 78
     2
 67
     7
 79
     3
170
     0
171
     0
290
     0
174
     0
 93
        1
 44
0.0
173
     0
291
     0
 45
0.0
  0
VISUALSTYLE
  5
30
102
{ACAD_REACTORS
330
2A
102
}
330
2A
100
AcDbVisualStyle
  2
3dWireframe
 70
     5
 71
     0
 72
     2
 73
     0
 90
        0
 40
-0.6
 41
-30.0
 62
     5
 63
     7
421
 16777215
 74
     1
 91
        4
 64
     7
 65
   257
 75
     1
175
     1
 42
1.0
 92
        0
 66
   257
 43
1.0
 76
     1
 77
     6
 78
     2
 67
     7
 79
     5
170
     0
171
     0
290
     0
174
     0
 93
        1
 44
0.0
173
     0
291
     0
 45
0.0
  0
VISUALSTYLE
  5
32
102
{ACAD_REACTORS
330
2A
102
}
330
2A
100
AcDbVisualStyle
  2
Basic
 70
     7
 71
     1
 72
     0
 73
     1
 90
        0
 40
-0.6
 41
-30.0
 62
     5
 63
     7
421
 16777215
 74
     0
 91
        4
 64
     7
 65
   257
 75
     1
175
     1
 42
1.0
 92
        8
 66
     7
 43
1.0
 76
     1
 77
     6
 78
     2
 67
     7
 79
     5
170
     0
171
     0
290
     0
174
     0
 93
        1
 44
0.0
173
     0
291
     1
 45
0.0
  0
VISUALSTYLE
  5
36
102
{ACAD_REACTORS
330
2A
102
}
330
2A
100
AcDbVisualStyle
  2
Brighten
 70
    12
 71
     2
 72
     2
 73
     0
 90
        0
 40
-0.6
 41
-30.0
 62
     5
 63
     7
421
 16777215
 74
     1
 91
        4
 64
     7
 65
   257
 75
     1
175
     1
 42
1.0
 92
        8
 66
     7
 43
1.0
 76
     1
 77
     6
 78
     2
 67
     7
 79
     5
170
     0
171
     0
290
     0
174
     0
 93
        1
 44
50.0
173
     0
291
     1
 45
0.0
  0
VISUALSTYLE
  5
3A
102
{ACAD_REACTORS
330
2A
102
}
330
2A
100
AcDbVisualStyle
  2
ColorChange
 70
    16
 71
     2
 72
     2
 73
     3
 90
        0
 40
-0.6
 41
-30.0
 62
     5
 63
     8
421
  8421504
 74
     1
 91
        4
 64
     7
 65
   257
 75
     1
175
     1
 42
1.0
 92
        8
 66
     8
424
  8421504
 43
1.0
 76
     1
 77
     6
 78
     2
 67
     7
 79
     5
170
     0
171
     0
290
     0
174
     0
 93
        1
 44
0.0
173
     0
291
     1
 45
0.0
  0
VISUALSTYLE
  5
34
102
{ACAD_REACTORS
330
2A
102
}
330
2A
100
AcDbVisualStyle
  2
Conceptual
 70
     9
 71
     3
 72
     2
 73
     0
 90
        0
 40
-0.6
 41
-30.0
 62
     5
 63
     7
421
 16777215
 74
     2
 91
        2
 64
     7
 65
   257
 75
     1
175
     1
 42
40.0
 92
        8
 66
     7
 43
1.0
 76
     1
 77
     6
 78
     2
 67
     7
 79
     3
170
     0
171
     0
290
     0
174
     0
 93
        1
 44
0.0
173
     0
291
     0
 45
0.0
  0
VISUALSTYLE
  5
35
102
{ACAD_REACTORS
330
2A
102
}
330
2A
100
AcDbVisualStyle
  2
Dim
 70
    11
 71
     2
 72
     2
 73
     0
 90
        0
 40
-0.6
 41
-30.0
 62
     5
 63
     7
421
 16777215
 74
     1
 91
        4
 64
     7
 65
   257
 75
     1
175
     1
 42
1.0
 92
        8
 66
     7
 43
1.0
 76
     1
 77
     6
 78
     2
 67
     7
 79
     5
170
     0
171
     0
290
     0
174
     0
 93
        1
 44
-50.0
173
     0
291
     1
 45
0.0
  0
VISUALSTYLE
  5
39
102
{ACAD_REACTORS
330
2A
102
}
330
2A
100
AcDbVisualStyle
  2
Facepattern
 70
    15
 71
     2
 72
     2
 73
     0
 90
        0
 40
-0.6
 41
-30.0
 62
     5
 63
     7
421
 16777215
 74
     1
 91
        4
 64
     7
 65
   257
 75
     1
175
     1
 42
1.0
 92
        8
 66
     7
 43
1.0
 76
     1
 77
     6
 78
     2
 67
     7
 79
     5
170
     0
171
     0
290
     0
174
     0
 93
        1
 44
0.0
173
     0
291
     1
 45
0.0
  0
VISUALSTYLE
  5
2B
102
{ACAD_REACTORS
330
2A
102
}
330
2A
100
AcDbVisualStyle
  2
Flat
 70
     0
 71
     2
 72
     1
 73
     1
 90
        2
 40
-0.6
 41
30.0
 62
     5
 63
     7
421
 16777215
 74
     0
 91
        4
 64
     7
 65
   257
 75
     1
175
     1
 42
1.0
 92
        8
 66
     7
 43
1.0
 76
     1
 77
     6
 78
     2
 67
     7
 79
     5
170
     0
171
     0
290
     0
174
     0
 93
       13
 44
0.0
173
     0
291
     1
 45
0.0
  0
VISUALSTYLE
  5
2C
102
{ACAD_REACTORS
330
2A
102
}
330
2A
100
AcDbVisualStyle
  2
FlatWithEdges
 70
     1
 71
     2
 72
     1
 73
     1
 90
        2
 40
-0.6
 41
30.0
 62
     5
 63
     7
421
 16777215
 74
     1
 91
        4
 64
     7
 65
   257
 75
     1
175
     1
 42
1.0
 92
        0
 66
   257
 43
1.0
 76
     1
 77
     6
 78
     2
 67
     7
 79
     5
170
     0
171
     0
290
     0
174
     0
 93
       13
 44
0.0
173
     0
291
     1
 45
0.0
  0
VISUALSTYLE
  5
2D
102
{ACAD_REACTORS
330
2A
102
}
330
2A
100
AcDbVisualStyle
  2
Gouraud
 70
     2
 71
     2
 72
     2
 73
     1
 90
        2
 40
-0.6
 41
30.0
 62
     5
 63
     7
421
 16777215
 74
     0
 91
        4
 64
     7
 65
   257
 75
     1
175
     1
 42
1.0
 92
        0
 66
     7
 43
1.0
 76
     1
 77
     6
 78
     2
 67
     7
 79
     5
170
     0
171
     0
290
     0
174
     0
 93
       13
 44
0.0
173
     0
291
     1
 45
0.0
  0
VISUALSTYLE
  5
2E
102
{ACAD_REACTORS
330
2A
102
}
330
2A
100
AcDbVisualStyle
  2
GouraudWithEdges
 70
     3
 71
     2
 72
     2
 73
     1
 90
        2
 40
-0.6
 41
30.0
 62
     5
 63
     7
421
 16777215
 74
     1
 91
        4
 64
     7
 65
   257
 75
     1
175
     1
 42
1.0
 92
        0
 66
   257
 43
1.0
 76
     1
 77
     6
 78
     2
 67
     7
 79
     5
170
     0
171
     0
290
     0
174
     0
 93
       13
 44
0.0
173
     0
291
     1
 45
0.0
  0
VISUALSTYLE
  5
38
102
{ACAD_REACTORS
330
2A
102
}
330
2A
100
AcDbVisualStyle
  2
Linepattern
 70
    14
 71
     2
 72
     2
 73
     0
 90
        0
 40
-0.6
 41
-30.0
 62
     5
 63
     7
421
 16777215
 74
     1
 91
        4
 64
     7
 65
   257
 75
     7
175
     7
 42
1.0
 92
        8
 66
     7
 43
1.0
 76
     1
 77
     6
 78
     2
 67
     7
 79
     5
170
     0
171
     0
290
     0
174
     0
 93
        1
 44
0.0
173
     0
291
     1
 45
0.0
  0
VISUALSTYLE
  5
33
102
{ACAD_REACTORS
330
2A
102
}
330
2A
100
AcDbVisualStyle
  2
Realistic
 70
     8
 71
     2
 72
     2
 73
     0
 90
        0
 40
-0.6
 41
-30.0
 62
     5
 63
     7
421
 16777215
 74
     1
 91
        0
 64
     7
 65
   257
 75
     1
175
     1
 42
1.0
 92
        8
 66
     8
424
  7895160
 43
1.0
 76
     1
 77
     6
 78
     2
 67
     7
 79
     5
170
     0
171
     0
290
     0
174
     0
 93
       13
 44
0.0
173
     0
291
     0
 45
0.0
  0
VISUALSTYLE
  5
37
102
{ACAD_REACTORS
330
2A
102
}
330
2A
100
AcDbVisualStyle
  2
Thicken
 70
    13
 71
     2
 72
     2
 73
     0
 90
        0
 40
-0.6
 41
-30.0
 62
     5
 63
     7
421
 16777215
 74
     1
 91
        4
 64
     7
 65
   257
 75
     1
175
     1
 42
1.0
 92
       12
 66
     7
 43
1.0
 76
     1
 77
     6
 78
     2
 67
     7
 79
     5
170
     0
171
     0
290
     0
174
     0
 93
        1
 44
0.0
173
     0
291
     1
 45
0.0
  0
ENDSEC
  0
EOF
