  0
SECTION
  2
HEADER
  9
$ACADVER
  1
AC1021
  9
$ACADMAINTVER
 70
    25
  9
$DWGCODEPAGE
  3
ANSI_1252
  9
$INSBASE
 10
0.0
 20
0.0
 30
0.0
  9
$EXTMIN
 10
0.0
 20
0.0
 30
0.0
  9
$EXTMAX
 10
297.0
 20
210.0
 30
0.0
  9
$LIMMIN
 10
0.0
 20
0.0
  9
$LIMMAX
 10
297.0
 20
210.0
  9
$ORTHOMODE
 70
     0
  9
$REGENMODE
 70
     1
  9
$FILLMODE
 70
     1
  9
$QTEXTMODE
 70
     0
  9
$MIRRTEXT
 70
     1
  9
$LTSCALE
 40
1.0
  9
$ATTMODE
 70
     1
  9
$TEXTSIZE
 40
3.5
  9
$TRACEWID
 40
1.0
  9
$TEXTSTYLE
  7
Standard
  9
$CLAYER
  8
0
  9
$CELTYPE
  6
ByLayer
  9
$CECOLOR
 62
   256
  9
$CELTSCALE
 40
1.0
  9
$DISPSILH
 70
     0
  9
$DIMSCALE
 40
1.0
  9
$DIMASZ
 40
3.302
  9
$DIMEXO
 40
1.0
  9
$DIMDLI
 40
3.75
  9
$DIMRND
 40
0.0
  9
$DIMDLE
 40
0.0
  9
$DIMEXE
 40
1.0
  9
$DIMTP
 40
0.0
  9
$DIMTM
 40
0.0
  9
$DIMTXT
 40
3.5
  9
$DIMCEN
 40
2.5
  9
$DIMTSZ
 40
0.0
  9
$DIMTOL
 70
     0
  9
$DIMLIM
 70
     0
  9
$DIMTIH
 70
     1
  9
$DIMTOH
 70
     1
  9
$DIMSE1
 70
     0
  9
$DIMSE2
 70
     0
  9
$DIMTAD
 70
     1
  9
$DIMZIN
 70
     0
  9
$DIMBLK
  1

  9
$DIMASO
 70
     1
  9
$DIMSHO
 70
     1
  9
$DIMPOST
  1

  9
$DIMAPOST
  1

  9
$DIMALT
 70
     0
  9
$DIMALTD
 70
     3
  9
$DIMALTF
 40
0.0393700787
  9
$DIMLFAC
 40
1.0
  9
$DIMTOFL
 70
     1
  9
$DIMTVP
 40
0.0
  9
$DIMTIX
 70
     0
  9
$DIMSOXD
 70
     0
  9
$DIMSAH
 70
     0
  9
$DIMBLK1
  1

  9
$DIMBLK2
  1

  9
$DIMSTYLE
  2
ISO-25
  9
$DIMCLRD
 70
     0
  9
$DIMCLRE
 70
     0
  9
$DIMCLRT
 70
     0
  9
$DIMTFAC
 40
1.0
  9
$DIMGAP
 40
1.524
  9
$DIMJUST
 70
     0
  9
$DIMSD1
 70
     0
  9
$DIMSD2
 70
     0
  9
$DIMTOLJ
 70
     0
  9
$DIMTZIN
 70
     0
  9
$DIMALTZ
 70
     0
  9
$DIMALTTZ
 70
     0
  9
$DIMUPT
 70
     0
  9
$DIMDEC
 70
     2
  9
$DIMTDEC
 70
     2
  9
$DIMALTU
 70
     2
  9
$DIMALTTD
 70
     3
  9
$DIMTXSTY
  7
Standard
  9
$DIMAUNIT
 70
     0
  9
$DIMADEC
 70
     2
  9
$DIMALTRND
 40
0.0
  9
$DIMAZIN
 70
     0
  9
$DIMDSEP
 70
    44
  9
$DIMATFIT
 70
     3
  9
$DIMFRAC
 70
     0
  9
$DIMLDRBLK
  1

  9
$DIMLUNIT
 70
     2
  9
$DIMLWD
 70
    -2
  9
$DIMLWE
 70
    -2
  9
$DIMTMOVE
 70
     0
  9
$DIMFXL
 40
1.0
  9
$DIMFXLON
 70
     0
  9
$DIMJOGANG
 40
0.7853981634
  9
$DIMTFILL
 70
     0
  9
$DIMTFILLCLR
 70
     0
  9
$DIMARCSYM
 70
     0
  9
$DIMLTYPE
  6

  9
$DIMLTEX1
  6

  9
$DIMLTEX2
  6

  9
$LUNITS
 70
     2
  9
$LUPREC
 70
     2
  9
$SKETCHINC
 40
1.0
  9
$FILLETRAD
 40
10.0
  9
$AUNITS
 70
     0
  9
$AUPREC
 70
     2
  9
$MENU
  1
.
  9
$ELEVATION
 40
0.0
  9
$PELEVATION
 40
0.0
  9
$THICKNESS
 40
0.0
  9
$LIMCHECK
 70
     0
  9
$CHAMFERA
 40
10.0
  9
$CHAMFERB
 40
10.0
  9
$CHAMFERC
 40
20.0
  9
$CHAMFERD
 40
0.0
  9
$SKPOLY
 70
     0
  9
$TDCREATE
 40
2456450.580212303
  9
$TDUCREATE
 40
2456450.49687897
  9
$TDUPDATE
 40
2456450.580212674
  9
$TDUUPDATE
 40
2456450.49687934
  9
$TDINDWG
 40
0.0000000116
  9
$TDUSRTIMER
 40
0.0000000116
  9
$USRTIMER
 70
     1
  9
$ANGBASE
 50
0.0
  9
$ANGDIR
 70
     0
  9
$PDMODE
 70
     0
  9
$PDSIZE
 40
-1.0
  9
$PLINEWID
 40
0.0
  9
$SPLFRAME
 70
     0
  9
$SPLINETYPE
 70
     6
  9
$SPLINESEGS
 70
     8
  9
$HANDSEED
  5
A2
  9
$SURFTAB1
 70
     6
  9
$SURFTAB2
 70
     6
  9
$SURFTYPE
 70
     6
  9
$SURFU
 70
     6
  9
$SURFV
 70
     6
  9
$UCSBASE
  2

  9
$UCSNAME
  2

  9
$UCSORG
 10
0.0
 20
0.0
 30
0.0
  9
$UCSXDIR
 10
1.0
 20
0.0
 30
0.0
  9
$UCSYDIR
 10
0.0
 20
1.0
 30
0.0
  9
$UCSORTHOREF
  2

  9
$UCSORTHOVIEW
 70
     0
  9
$UCSORGTOP
 10
0.0
 20
0.0
 30
0.0
  9
$UCSORGBOTTOM
 10
0.0
 20
0.0
 30
0.0
  9
$UCSORGLEFT
 10
0.0
 20
0.0
 30
0.0
  9
$UCSORGRIGHT
 10
0.0
 20
0.0
 30
0.0
  9
$UCSORGFRONT
 10
0.0
 20
0.0
 30
0.0
  9
$UCSORGBACK
 10
0.0
 20
0.0
 30
0.0
  9
$PUCSBASE
  2

  9
$PUCSNAME
  2

  9
$PUCSORG
 10
0.0
 20
0.0
 30
0.0
  9
$PUCSXDIR
 10
1.0
 20
0.0
 30
0.0
  9
$PUCSYDIR
 10
0.0
 20
1.0
 30
0.0
  9
$PUCSORTHOREF
  2

  9
$PUCSORTHOVIEW
 70
     0
  9
$PUCSORGTOP
 10
0.0
 20
0.0
 30
0.0
  9
$PUCSORGBOTTOM
 10
0.0
 20
0.0
 30
0.0
  9
$PUCSORGLEFT
 10
0.0
 20
0.0
 30
0.0
  9
$PUCSORGRIGHT
 10
0.0
 20
0.0
 30
0.0
  9
$PUCSORGFRONT
 10
0.0
 20
0.0
 30
0.0
  9
$PUCSORGBACK
 10
0.0
 20
0.0
 30
0.0
  9
$USERI1
 70
     0
  9
$USERI2
 70
     0
  9
$USERI3
 70
     0
  9
$USERI4
 70
     0
  9
$USERI5
 70
     0
  9
$USERR1
 40
0.0
  9
$USERR2
 40
0.0
  9
$USERR3
 40
0.0
  9
$USERR4
 40
0.0
  9
$USERR5
 40
0.0
  9
$WORLDVIEW
 70
     1
  9
$SHADEDGE
 70
     3
  9
$SHADEDIF
 70
    70
  9
$TILEMODE
 70
     1
  9
$MAXACTVP
 70
    64
  9
$PINSBASE
 10
0.0
 20
0.0
 30
0.0
  9
$PLIMCHECK
 70
     0
  9
$PEXTMIN
 10
1.0000000000E+20
 20
1.0000000000E+20
 30
1.0000000000E+20
  9
$PEXTMAX
 10
-1.0000000000E+20
 20
-1.0000000000E+20
 30
-1.0000000000E+20
  9
$PLIMMIN
 10
0.0
 20
0.0
  9
$PLIMMAX
 10
420.0
 20
297.0
  9
$UNITMODE
 70
     0
  9
$VISRETAIN
 70
     1
  9
$PLINEGEN
 70
     0
  9
$PSLTSCALE
 70
     1
  9
$TREEDEPTH
 70
  3020
  9
$CMLSTYLE
  2
Standard
  9
$CMLJUST
 70
     0
  9
$CMLSCALE
 40
20.0
  9
$PROXYGRAPHICS
 70
     1
  9
$MEASUREMENT
 70
     1
  9
$CELWEIGHT
370
    -1
  9
$ENDCAPS
280
     0
  9
$JOINSTYLE
280
     0
  9
$LWDISPLAY
290
     1
  9
$INSUNITS
 70
     4
  9
$HYPERLINKBASE
  1

  9
$STYLESHEET
  1

  9
$XEDIT
290
     1
  9
$CEPSNTYPE
380
     0
  9
$PSTYLEMODE
290
     1
  9
$FINGERPRINTGUID
  2
{6F2D1A6E-2EF7-4BA5-93B8-A88240560D79}
  9
$VERSIONGUID
  2
{FAEB1C32-E019-11D5-929B-00C0DF256EC4}
  9
$EXTNAMES
290
     1
  9
$PSVPSCALE
 40
0.0
  9
$OLESTARTUP
290
     0
  9
$SORTENTS
280
   127
  9
$INDEXCTL
280
     0
  9
$HIDETEXT
280
     1
  9
$XCLIPFRAME
290
     0
  9
$HALOGAP
280
     0
  9
$OBSCOLOR
 70
   257
  9
$OBSLTYPE
280
     0
  9
$INTERSECTIONDISPLAY
280
     0
  9
$INTERSECTIONCOLOR
 70
   257
  9
$DIMASSOC
280
     2
  9
$PROJECTNAME
  1

  9
$CAMERADISPLAY
290
     0
  9
$LENSLENGTH
 40
50.0
  9
$CAMERAHEIGHT
 40
0.0
  9
$STEPSPERSEC
 40
2.0
  9
$STEPSIZE
 40
6.0
  9
$3DDWFPREC
 40
2.0
  9
$PSOLWIDTH
 40
5.0
  9
$PSOLHEIGHT
 40
80.0
  9
$LOFTANG1
 40
1.5707963268
  9
$LOFTANG2
 40
1.5707963268
  9
$LOFTMAG1
 40
0.0
  9
$LOFTMAG2
 40
0.0
  9
$LOFTPARAM
 70
     7
  9
$LOFTNORMALS
280
     1
  9
$LATITUDE
 40
37.795
  9
$LONGITUDE
 40
-122.394
  9
$NORTHDIRECTION
 40
0.0
  9
$TIMEZONE
 70
 -8000
  9
$LIGHTGLYPHDISPLAY
280
     1
  9
$TILEMODELIGHTSYNCH
280
     1
  9
$SOLIDHIST
280
     1
  9
$SHOWHIST
280
     1
  9
$DWFFRAME
280
     2
  9
$DGNFRAME
280
     2
  9
$REALWORLDSCALE
290
     1
  9
$INTERFERECOLOR
 62
   256
  9
$CSHADOW
280
     0
  9
$SHADOWPLANELOCATION
 40
0.0
  0
ENDSEC
  0
SECTION
  2
CLASSES
  0
CLASS
  1
ACDBDICTIONARYWDFLT
  2
AcDbDictionaryWithDefault
  3
ObjectDBX Classes
 90
        0
 91
        4
280
     0
281
     0
  0
CLASS
  1
VISUALSTYLE
  2
AcDbVisualStyle
  3
ObjectDBX Classes
 90
     4095
 91
        4
280
     0
281
     0
  0
CLASS
  1
MATERIAL
  2
AcDbMaterial
  3
ObjectDBX Classes
 90
     1153
 91
        4
280
     0
281
     0
  0
ENDSEC
  0
SECTION
  2
TABLES
  0
TABLE
  2
VPORT
  5
8
330
0
100
AcDbSymbolTable
 70
     1
  0
VPORT
  5
29
330
8
100
AcDbSymbolTableRecord
100
AcDbViewportTableRecord
  2
*Active
 70
     0
 10
0.0
 20
0.0
 11
1.0
 21
1.0
 12
148.5
 22
105.0
 13
0.0
 23
0.0
 14
10.0
 24
10.0
 15
10.0
 25
10.0
 16
0.0
 26
0.0
 36
1.0
 17
0.0
 27
0.0
 37
0.0
 40
210.0
 41
1.4142857143
 42
50.0
 43
0.0
 44
0.0
 50
0.0
 51
0.0
 71
     0
 72
  2000
 73
     1
 74
     3
 75
     0
 76
     0
 77
     0
 78
     0
281
     0
 65
     1
110
0.0
120
0.0
130
0.0
111
1.0
121
0.0
131
0.0
112
0.0
122
1.0
132
0.0
 79
     0
146
0.0
 60
     3
 61
     5
292
     1
282
     1
141
0.0
142
0.0
 63
   250
  0
ENDTAB
  0
TABLE
  2
LTYPE
  5
5
330
0
100
AcDbSymbolTable
 70
     8
  0
LTYPE
  5
14
330
5
100
AcDbSymbolTableRecord
100
AcDbLinetypeTableRecord
  2
ByBlock
 70
     0
  3

 72
    65
 73
     0
 40
0.0
  0
LTYPE
  5
15
330
5
100
AcDbSymbolTableRecord
100
AcDbLinetypeTableRecord
  2
ByLayer
 70
     0
  3

 72
    65
 73
     0
 40
0.0
  0
LTYPE
  5
16
330
5
100
AcDbSymbolTableRecord
100
AcDbLinetypeTableRecord
  2
Continuous
 70
     0
  3
Solid line
 72
    65
 73
     0
 40
0.0
  0
LTYPE
  5
3F
330
5
100
AcDbSymbolTableRecord
100
AcDbLinetypeTableRecord
  2
SLD-Durchgehend
 70
     0
  3
SolidWorks Line Style
 72
    65
 73
     0
 40
0.0
  0
LTYPE
  5
40
330
5
100
AcDbSymbolTableRecord
100
AcDbLinetypeTableRecord
  2
SLD-Gestrichelt
 70
     0
  3
SolidWorks Line Style
 72
    65
 73
     2
 40
1.905
 49
1.27
 74
     0
 49
-0.635
 74
     0
  0
LTYPE
  5
41
330
5
100
AcDbSymbolTableRecord
100
AcDbLinetypeTableRecord
  2
SLD-Phantom
 70
     0
  3
SolidWorks Line Style
 72
    65
 73
     6
 40
12.7
 49
6.35
 74
     0
 49
-1.27
 74
     0
 49
1.27
 74
     0
 49
-1.27
 74
     0
 49
1.27
 74
     0
 49
-1.27
 74
     0
  0
LTYPE
  5
42
330
5
100
AcDbSymbolTableRecord
100
AcDbLinetypeTableRecord
  2
SLD-Kette
 70
     0
  3
SolidWorks Line Style
 72
    65
 73
     4
 40
10.16
 49
6.35
 74
     0
 49
-1.27
 74
     0
 49
1.27
 74
     0
 49
-1.27
 74
     0
  0
LTYPE
  5
43
330
5
100
AcDbSymbolTableRecord
100
AcDbLinetypeTableRecord
  2
SLD-Punktstrich
 70
     0
  3
SolidWorks Line Style
 72
    65
 73
     4
 40
19.05
 49
15.24
 74
     0
 49
-1.27
 74
     0
 49
1.27
 74
     0
 49
-1.27
 74
     0
  0
LTYPE
  5
44
330
5
100
AcDbSymbolTableRecord
100
AcDbLinetypeTableRecord
  2
SLD-Naht
 70
     0
  3
SolidWorks Line Style
 72
    65
 73
     2
 40
0.635
 49
0.0
 74
     0
 49
-0.635
 74
     0
  0
LTYPE
  5
45
330
5
100
AcDbSymbolTableRecord
100
AcDbLinetypeTableRecord
  2
SLD-Dicke-Dünne-Kette
 70
     0
  3
SolidWorks Line Style
 72
    65
 73
     4
 40
10.16
 49
6.35
 74
     0
 49
-1.27
 74
     0
 49
1.27
 74
     0
 49
-1.27
 74
     0
  0
ENDTAB
  0
TABLE
  2
LAYER
  5
2
330
0
100
AcDbSymbolTable
 70
     3
  0
LAYER
  5
10
330
2
100
AcDbSymbolTableRecord
100
AcDbLayerTableRecord
  2
0
 70
     0
 62
     7
  6
Continuous
370
    -3
390
F
347
3E
  0
LAYER
  5
46
330
2
100
AcDbSymbolTableRecord
100
AcDbLayerTableRecord
  2
1
 70
     0
 62
     4
  6
Continuous
370
    -1
390
F
347
3E
  0
LAYER
  5
47
330
2
100
AcDbSymbolTableRecord
100
AcDbLayerTableRecord
  2
2
 70
     0
 62
     7
  6
SLD-Durchgehend
370
    -3
390
F
347
3E
  0
ENDTAB
  0
TABLE
  2
STYLE
  5
3
330
0
100
AcDbSymbolTable
 70
     2
  0
STYLE
  5
11
330
3
100
AcDbSymbolTableRecord
100
AcDbTextStyleTableRecord
  2
Standard
 70
     0
 40
0.0
 41
1.0
 50
0.0
 71
     0
 42
3.5
  3
txt
  4

  0
STYLE
  5
7E
330
3
100
AcDbSymbolTableRecord
100
AcDbTextStyleTableRecord
  2
SLDTEXTSTYLE0
 70
     0
 40
0.0
 41
0.75
 50
0.0
 71
     0
 42
0.2
  3
TXT
  4

  0
ENDTAB
  0
TABLE
  2
VIEW
  5
6
330
0
100
AcDbSymbolTable
 70
     0
  0
ENDTAB
  0
TABLE
  2
UCS
  5
7
330
0
100
AcDbSymbolTable
 70
     0
  0
ENDTAB
  0
TABLE
  2
APPID
  5
9
330
0
100
AcDbSymbolTable
 70
     1
  0
APPID
  5
12
330
9
100
AcDbSymbolTableRecord
100
AcDbRegAppTableRecord
  2
ACAD
 70
     0
  0
ENDTAB
  0
TABLE
  2
DIMSTYLE
  5
A
330
0
100
AcDbSymbolTable
 70
     2
100
AcDbDimStyleTable
  0
DIMSTYLE
105
27
330
A
100
AcDbSymbolTableRecord
100
AcDbDimStyleTableRecord
  2
ISO-25
 70
     0
 41
2.5
 42
0.625
 43
3.75
 44
1.25
 73
     0
 74
     0
 77
     1
 78
     8
140
2.5
141
2.5
143
0.0393700787
147
0.625
171
     3
172
     1
178
     0
271
     2
272
     2
274
     3
278
    44
283
     0
284
     8
340
11
  0
DIMSTYLE
105
7F
102
{ACAD_REACTORS
330
7D
330
89
330
94
102
}
330
A
100
AcDbSymbolTableRecord
100
AcDbDimStyleTableRecord
  2
SLDDIMSTYLE0
 70
     0
 41
3.302
 44
0.0
 45
0.000000001
 73
     0
 74
     0
 77
     1
 78
    12
 79
     3
140
3.5
147
0.875
173
     1
178
     0
271
     2
272
     2
276
     2
284
    12
340
7E
  0
ENDTAB
  0
TABLE
  2
BLOCK_RECORD
  5
1
330
0
100
AcDbSymbolTable
 70
     4
  0
BLOCK_RECORD
  5
1F
330
1
100
AcDbSymbolTableRecord
100
AcDbBlockTableRecord
  2
*Model_Space
340
22
 70
     0
280
     1
281
     0
  0
BLOCK_RECORD
  5
1B
330
1
100
AcDbSymbolTableRecord
100
AcDbBlockTableRecord
  2
*Paper_Space
340
1E
 70
     0
280
     1
281
     0
  0
BLOCK_RECORD
  5
23
330
1
100
AcDbSymbolTableRecord
100
AcDbBlockTableRecord
  2
*Paper_Space0
340
26
 70
     0
280
     1
281
     0
  0
BLOCK_RECORD
  5
80
330
1
100
AcDbSymbolTableRecord
100
AcDbBlockTableRecord
  2
_D
340
0
 70
     0
280
     1
281
     0
  0
BLOCK_RECORD
  5
8A
330
1
100
AcDbSymbolTableRecord
100
AcDbBlockTableRecord
  2
_D_1
340
0
 70
     0
280
     1
281
     0
  0
BLOCK_RECORD
  5
95
330
1
100
AcDbSymbolTableRecord
100
AcDbBlockTableRecord
  2
_D_2
340
0
 70
     0
280
     1
281
     0
  0
ENDTAB
  0
ENDSEC
  0
SECTION
  2
BLOCKS
  0
BLOCK
  5
20
330
1F
100
AcDbEntity
  8
0
100
AcDbBlockBegin
  2
*Model_Space
 70
     0
 10
0.0
 20
0.0
 30
0.0
  3
*Model_Space
  1

  0
ENDBLK
  5
21
330
1F
100
AcDbEntity
  8
0
100
AcDbBlockEnd
  0
BLOCK
  5
1C
330
1B
100
AcDbEntity
 67
     1
  8
0
100
AcDbBlockBegin
  2
*Paper_Space
 70
     0
 10
0.0
 20
0.0
 30
0.0
  3
*Paper_Space
  1

  0
ENDBLK
  5
1D
330
1B
100
AcDbEntity
 67
     1
  8
0
100
AcDbBlockEnd
  0
BLOCK
  5
24
330
23
100
AcDbEntity
  8
0
100
AcDbBlockBegin
  2
*Paper_Space0
 70
     0
 10
0.0
 20
0.0
 30
0.0
  3
*Paper_Space0
  1

  0
ENDBLK
  5
25
330
23
100
AcDbEntity
  8
0
100
AcDbBlockEnd
  0
BLOCK
  5
81
330
80
100
AcDbEntity
  8
0
100
AcDbBlockBegin
  2
_D
 70
     0
 10
0.0
 20
0.0
 30
0.0
  3
_D
  1

  0
SOLID
  5
83
330
80
100
AcDbEntity
  8
2
 62
     7
420
 16777215
100
AcDbTrace
 10
0.0004315969
 20
28.3701308791
 30
0.0
 11
3.3024315969
 21
27.8621308791
 31
0.0
 12
3.3024315969
 22
28.8781308791
 32
0.0
 13
3.3024315969
 23
28.8781308791
 33
0.0
  0
SOLID
  5
84
330
80
100
AcDbEntity
  8
2
 62
     7
420
 16777215
100
AcDbTrace
 10
156.0004315969
 20
28.3701308791
 30
0.0
 11
152.6984315969
 21
28.8781308791
 31
0.0
 12
152.6984315969
 22
27.8621308791
 32
0.0
 13
152.6984315969
 23
27.8621308791
 33
0.0
  0
LINE
  5
85
330
80
100
AcDbEntity
  8
2
 62
     7
420
 16777215
100
AcDbLine
 10
0.0004315969
 20
0.999627717
 30
0.0
 11
0.0004315969
 21
29.3701308791
 31
0.0
  0
LINE
  5
86
330
80
100
AcDbEntity
  8
2
 62
     7
420
 16777215
100
AcDbLine
 10
156.0004315969
 20
0.999627717
 30
0.0
 11
156.0004315969
 21
29.3701308791
 31
0.0
  0
LINE
  5
87
330
80
100
AcDbEntity
  8
2
 62
     7
420
 16777215
100
AcDbLine
 10
0.0004315969
 20
28.3701308791
 30
0.0
 11
156.0004315969
 21
28.3701308791
 31
0.0
  0
MTEXT
  5
88
330
80
100
AcDbEntity
  8
2
 62
     7
420
 16777215
100
AcDbMText
 10
72.6993900683
 20
32.8818677937
 30
0.0
 40
3.5
 41
0.0
 46
0.0
 71
     1
 72
     1
  1
156
  7
SLDTEXTSTYLE0
 73
     1
 44
1.0
  0
ENDBLK
  5
82
330
80
100
AcDbEntity
  8
0
100
AcDbBlockEnd
  0
BLOCK
  5
8B
330
8A
100
AcDbEntity
  8
0
100
AcDbBlockBegin
  2
_D_1
 70
     0
 10
0.0
 20
0.0
 30
0.0
  3
_D_1
  1

  0
SOLID
  5
8D
330
8A
100
AcDbEntity
  8
2
 62
     7
420
 16777215
100
AcDbTrace
 10
174.0004315969
 20
22.3701308791
 30
0.0
 11
173.4924315969
 21
19.0681308791
 31
0.0
 12
174.5084315969
 22
19.0681308791
 32
0.0
 13
174.5084315969
 23
19.0681308791
 33
0.0
  0
SOLID
  5
8E
330
8A
100
AcDbEntity
  8
2
 62
     7
420
 16777215
100
AcDbTrace
 10
174.0004315969
 20
-22.3708754451
 30
0.0
 11
174.5084315969
 21
-19.0688754451
 31
0.0
 12
173.4924315969
 22
-19.0688754451
 32
0.0
 13
173.4924315969
 23
-19.0688754451
 33
0.0
  0
LINE
  5
8F
330
8A
100
AcDbEntity
  8
2
 62
     7
420
 16777215
100
AcDbLine
 10
157.0004315969
 20
22.3701308791
 30
0.0
 11
175.0004315969
 21
22.3701308791
 31
0.0
  0
LINE
  5
90
330
8A
100
AcDbEntity
  8
2
 62
     7
420
 16777215
100
AcDbLine
 10
157.0004315969
 20
-22.3708754451
 30
0.0
 11
175.0004315969
 21
-22.3708754451
 31
0.0
  0
LINE
  5
91
330
8A
100
AcDbEntity
  8
2
 62
     7
420
 16777215
100
AcDbLine
 10
174.0004315969
 20
22.3701308791
 30
0.0
 11
174.0004315969
 21
-22.3708754451
 31
0.0
  0
MTEXT
  5
92
330
8A
100
AcDbEntity
  8
2
 62
     7
420
 16777215
100
AcDbMText
 10
169.4886945077
 20
-9.8802165462
 30
0.0
 40
3.5
 41
0.0
 46
0.0
 71
     1
 72
     1
  1
%%c
  7
SLDTEXTSTYLE0
 11
-7.044195017643634E-15
 21
1.0
 31
0.0
 73
     1
 44
1.0
  0
MTEXT
  5
93
330
8A
100
AcDbEntity
  8
2
 62
     7
420
 16777215
100
AcDbMText
 10
169.435222331
 20
-4.6017791478
 30
0.0
 40
3.5
 41
0.0
 46
0.0
 71
     1
 72
     1
  1
44,74
  7
SLDTEXTSTYLE0
 11
-7.044195017643634E-15
 21
1.0
 31
0.0
 73
     1
 44
1.0
  0
ENDBLK
  5
8C
330
8A
100
AcDbEntity
  8
0
100
AcDbBlockEnd
  0
BLOCK
  5
96
330
95
100
AcDbEntity
  8
0
100
AcDbBlockBegin
  2
_D_2
 70
     0
 10
0.0
 20
0.0
 30
0.0
  3
_D_2
  1

  0
SOLID
  5
98
330
95
100
AcDbEntity
  8
2
 62
     7
420
 16777215
100
AcDbTrace
 10
162.0004315969
 20
6.0198643317
 30
0.0
 11
161.4924315969
 21
2.7178643317
 31
0.0
 12
162.5084315969
 22
2.7178643317
 32
0.0
 13
162.5084315969
 23
2.7178643317
 33
0.0
  0
SOLID
  5
99
330
95
100
AcDbEntity
  8
2
 62
     7
420
 16777215
100
AcDbTrace
 10
162.0004315969
 20
-6.0206088977
 30
0.0
 11
162.5084315969
 21
-2.7186088977
 31
0.0
 12
161.4924315969
 22
-2.7186088977
 32
0.0
 13
161.4924315969
 23
-2.7186088977
 33
0.0
  0
LINE
  5
9A
330
95
100
AcDbEntity
  8
2
 62
     7
420
 16777215
100
AcDbLine
 10
156.5130074045
 20
6.0198643317
 30
0.0
 11
163.0004315969
 21
6.0198643317
 31
0.0
  0
LINE
  5
9B
330
95
100
AcDbEntity
  8
2
 62
     7
420
 16777215
100
AcDbLine
 10
156.5130074045
 20
-6.0206088977
 30
0.0
 11
163.0004315969
 21
-6.0206088977
 31
0.0
  0
LINE
  5
9C
330
95
100
AcDbEntity
  8
2
 62
     7
420
 16777215
100
AcDbLine
 10
162.0004315969
 20
6.0198643317
 30
0.0
 11
162.0004315969
 21
-6.0206088977
 31
0.0
  0
LINE
  5
9D
330
95
100
AcDbEntity
  8
2
 62
     7
420
 16777215
100
AcDbLine
 10
162.0004315969
 20
-6.0206088977
 30
0.0
 11
162.0004315969
 21
-30.6514778169
 31
0.0
  0
MTEXT
  5
9E
330
95
100
AcDbEntity
  8
2
 62
     7
420
 16777215
100
AcDbMText
 10
157.4886945077
 20
-30.6514778169
 30
0.0
 40
3.5
 41
0.0
 46
0.0
 71
     1
 72
     1
  1
%%c
  7
SLDTEXTSTYLE0
 11
-7.044195017643634E-15
 21
1.0
 31
0.0
 73
     1
 44
1.0
  0
MTEXT
  5
9F
330
95
100
AcDbEntity
  8
2
 62
     7
420
 16777215
100
AcDbMText
 10
157.435222331
 20
-25.3730404186
 30
0.0
 40
3.5
 41
0.0
 46
0.0
 71
     1
 72
     1
  1
12,04
  7
SLDTEXTSTYLE0
 11
-7.044195017643634E-15
 21
1.0
 31
0.0
 73
     1
 44
1.0
  0
ENDBLK
  5
97
330
95
100
AcDbEntity
  8
0
100
AcDbBlockEnd
  0
ENDSEC
  0
SECTION
  2
ENTITIES
  0
LINE
  5
48
330
1F
100
AcDbEntity
  8
0
  6
SLD-Punktstrich
 62
     7
100
AcDbLine
 10
0.0004315969
 20
-0.000372283
 30
0.0
 11
156.0004315969
 21
-0.000372283
 31
0.0
  0
POINT
  5
49
330
1F
100
AcDbEntity
  8
1
 62
     4
420
    65535
100
AcDbPoint
 10
0.0004315969
 20
-0.000372283
 30
0.0
  0
POINT
  5
4A
330
1F
100
AcDbEntity
  8
1
 62
     4
420
    65535
100
AcDbPoint
 10
156.0004315969
 20
-0.000372283
 30
0.0
  0
POINT
  5
4B
330
1F
100
AcDbEntity
  8
1
 62
     4
420
    65535
100
AcDbPoint
 10
149.5004315969
 20
-0.000372283
 30
0.0
  0
LINE
  5
4C
330
1F
100
AcDbEntity
  8
1
 62
     4
420
    65535
100
AcDbLine
 10
156.0004315969
 20
22.3701308791
 30
0.0
 11
29.0004315969
 21
19.0289921736
 31
0.0
  0
LINE
  5
4D
330
1F
100
AcDbEntity
  8
1
 62
     4
420
    65535
100
AcDbLine
 10
29.0004315969
 20
-19.0297367397
 30
0.0
 11
156.0004315969
 21
-22.3708754451
 31
0.0
  0
LINE
  5
4E
330
1F
100
AcDbEntity
  8
1
 62
     4
420
    65535
100
AcDbLine
 10
29.0004315969
 20
19.0289921736
 30
0.0
 11
27.8210671402
 21
17.849627717
 31
0.0
  0
LINE
  5
4F
330
1F
100
AcDbEntity
  8
1
 62
     4
420
    65535
100
AcDbLine
 10
27.8210671402
 20
-17.850372283
 30
0.0
 11
29.0004315969
 21
-19.0297367397
 31
0.0
  0
LINE
  5
50
330
1F
100
AcDbEntity
  8
1
 62
     4
420
    65535
100
AcDbLine
 10
1.0819417816
 20
7.6949725396
 30
0.0
 11
0.0004315969
 21
-0.000372283
 31
0.0
  0
LINE
  5
51
330
1F
100
AcDbEntity
  8
1
 62
     4
420
    65535
100
AcDbLine
 10
0.0004315969
 20
-0.000372283
 30
0.0
 11
1.0815089864
 21
-7.6926376081
 31
0.0
  0
ARC
  5
52
330
1F
100
AcDbEntity
  8
1
 62
     4
420
    65535
100
AcDbCircle
 10
1.3785305616
 20
-7.6503723323
 30
0.0
 40
0.2999999506833088
100
AcDbArc
 50
188.1480572656
 51
270.0050661674
  0
ARC
  5
53
330
1F
100
AcDbEntity
  8
1
 62
     4
420
    65535
100
AcDbCircle
 10
1.3785193439
 20
7.649627725
 30
0.0
 40
0.2999999919603674
100
AcDbArc
 50
89.9992043544
 51
170.725605949
  0
LINE
  5
54
330
1F
100
AcDbEntity
  8
1
 62
     4
420
    65535
100
AcDbLine
 10
156.0004315969
 20
-0.000372283
 30
0.0
 11
156.0004315969
 21
22.3701308791
 31
0.0
  0
LINE
  5
55
330
1F
100
AcDbEntity
  8
1
 62
     4
420
    65535
100
AcDbLine
 10
156.0004315969
 20
-22.3708754451
 30
0.0
 11
156.0004315969
 21
-0.000372283
 31
0.0
  0
LINE
  5
56
330
1F
100
AcDbEntity
  8
1
 62
     4
420
    65535
100
AcDbLine
 10
29.0004315969
 20
-0.000372283
 30
0.0
 11
29.0004315969
 21
19.0289921736
 31
0.0
  0
LINE
  5
57
330
1F
100
AcDbEntity
  8
1
 62
     4
420
    65535
100
AcDbLine
 10
29.0004315969
 20
-19.0297367397
 30
0.0
 11
29.0004315969
 21
-0.000372283
 31
0.0
  0
SPLINE
  5
58
330
1F
100
AcDbEntity
  8
1
 62
     4
420
    65535
100
AcDbSpline
210
0.0
220
0.0
230
1.0
 70
     8
 71
     3
 72
    38
 73
    34
 74
     0
 42
0.00000001
 43
0.00000001
 12
1.0
 22
0.0
 32
0.0
 13
1.0
 23
0.0
 33
0.0
 40
0.0
 40
0.0
 40
0.0
 40
0.0
 40
0.0624999999999999
 40
0.0624999999999999
 40
0.1249999999999999
 40
0.1249999999999999
 40
0.1874999999999998
 40
0.1874999999999998
 40
0.2499999999999997
 40
0.2499999999999997
 40
0.3124999999999997
 40
0.3124999999999997
 40
0.3749999999999996
 40
0.3749999999999996
 40
0.4374999999999996
 40
0.4374999999999996
 40
0.4999999999999996
 40
0.4999999999999996
 40
0.5624999999999996
 40
0.5624999999999996
 40
0.6249999999999997
 40
0.6249999999999997
 40
0.6874999999999997
 40
0.6874999999999997
 40
0.7499999999999997
 40
0.7499999999999997
 40
0.8124999999999998
 40
0.8124999999999998
 40
0.8749999999999998
 40
0.8749999999999998
 40
0.9374999999999999
 40
0.9374999999999999
 40
1.0
 40
1.0
 40
1.0
 40
1.0
 10
87.60043159690214
 20
-2.600372283013853
 30
0.0
 10
87.42865443238973
 20
-2.600372283013853
 30
0.0
 10
87.25971642382623
 20
-2.583515926658201
 30
0.0
 10
86.92729361779757
 20
-2.517434692639684
 30
0.0
 10
86.76206521401944
 20
-2.467390847688161
 30
0.0
 10
86.4472364737014
 20
-2.336861058553228
 30
0.0
 10
86.29791148037657
 20
-2.256988465901704
 30
0.0
 10
86.0152765674389
 20
-2.068259800117302
 30
0.0
 10
85.88159596652257
 20
-1.958515689152039
 30
0.0
 10
85.64194696961953
 20
-1.71881910731843
 30
0.0
 10
85.53434972076998
 20
-1.587993134222474
 30
0.0
 10
85.3442326220319
 20
-1.30375268484165
 30
0.0
 10
85.26361853323544
 20
-1.1527431332613
 30
0.0
 10
85.13392696351843
 20
-0.8400202833807494
 30
0.0
 10
85.08392653095568
 20
-0.6759790997343579
 30
0.0
 10
85.01711697918543
 20
-0.3405603245800642
 30
0.0
 10
85.00055218434218
 20
-0.1718663943576444
 30
0.0
 10
85.0003123088719
 20
0.1674457079521372
 30
0.0
 10
85.01718335501629
 20
0.3397922305809091
 30
0.0
 10
85.08344532500242
 20
0.6731731739405419
 30
0.0
 10
85.13249029343086
 20
0.8352724692277748
 30
0.0
 10
85.26266663757151
 20
1.150232525012996
 30
0.0
 10
85.34393256274414
 20
1.302269171752694
 30
0.0
 10
85.53191526302814
 20
1.583895001041656
 30
0.0
 10
85.63936570835622
 20
1.71533837878114
 30
0.0
 10
85.8818502105915
 20
1.958178332324437
 30
0.0
 10
86.01300620365157
 20
2.065724584434039
 30
0.0
 10
86.29441120562447
 20
2.254175650027629
 30
0.0
 10
86.44647386107552
 20
2.335739463766437
 30
0.0
 10
86.76124749164754
 20
2.466367789836741
 30
0.0
 10
86.92329248106326
 20
2.515651505675577
 30
0.0
 10
87.256635231654
 20
2.58239699562726
 30
0.0
 10
87.4286517725924
 20
2.599627716986165
 30
0.0
 10
87.60043159690214
 20
2.599627716986165
 30
0.0
  0
LINE
  5
59
330
1F
100
AcDbEntity
  8
1
 62
     4
420
    65535
100
AcDbLine
 10
101.4004315969
 20
-2.600372283
 30
0.0
 11
87.6004315969
 21
-2.600372283
 31
0.0
  0
SPLINE
  5
5A
330
1F
100
AcDbEntity
  8
1
 62
     4
420
    65535
100
AcDbSpline
210
0.0
220
0.0
230
1.0
 70
     8
 71
     3
 72
    38
 73
    34
 74
     0
 42
0.00000001
 43
0.00000001
 12
1.0
 22
0.0
 32
0.0
 13
1.0
 23
0.0
 33
0.0
 40
0.0
 40
0.0
 40
0.0
 40
0.0
 40
0.0625000000000001
 40
0.0625000000000001
 40
0.1250000000000001
 40
0.1250000000000001
 40
0.1875000000000002
 40
0.1875000000000002
 40
0.2500000000000002
 40
0.2500000000000002
 40
0.3125000000000003
 40
0.3125000000000003
 40
0.3750000000000003
 40
0.3750000000000003
 40
0.4375000000000003
 40
0.4375000000000003
 40
0.5000000000000003
 40
0.5000000000000003
 40
0.5625000000000003
 40
0.5625000000000003
 40
0.6250000000000003
 40
0.6250000000000003
 40
0.6875000000000002
 40
0.6875000000000002
 40
0.7500000000000002
 40
0.7500000000000002
 40
0.8125000000000001
 40
0.8125000000000001
 40
0.8750000000000001
 40
0.8750000000000001
 40
0.9375
 40
0.9375
 40
1.0
 40
1.0
 40
1.0
 40
1.0
 10
101.4004315969021
 20
2.599627716986145
 30
0.0
 10
101.5724456125371
 20
2.599627716986145
 30
0.0
 10
101.7414935753688
 20
2.582726279329692
 30
0.0
 10
102.0739277491214
 20
2.516595016909374
 30
0.0
 10
102.2390386826878
 20
2.466556847410881
 30
0.0
 10
102.5536561352417
 20
2.336093925395658
 30
0.0
 10
102.7028279405066
 20
2.256299206283339
 30
0.0
 10
102.9851315455553
 20
2.067846399616099
 30
0.0
 10
103.1187027953063
 20
1.958254182578995
 30
0.0
 10
103.3582327967227
 20
1.718839165577379
 30
0.0
 10
103.4657919767391
 20
1.588172268429233
 30
0.0
 10
103.6558988857297
 20
1.304255863067942
 30
0.0
 10
103.7367005512451
 20
1.153110562386961
 30
0.0
 10
103.866581656268
 20
0.8403293206190281
 30
0.0
 10
103.9166450772467
 20
0.6763984352602534
 30
0.0
 10
103.9836909055383
 20
0.34039189956032
 30
0.0
 10
104.0003015142941
 20
0.1714550414614791
 30
0.0
 10
104.0005601720513
 20
-0.1682401164078852
 30
0.0
 10
103.9836618315738
 20
-0.3407976869186083
 30
0.0
 10
103.9172377597519
 20
-0.6746531144089831
 30
0.0
 10
103.8680840824248
 20
-0.8368850846673828
 30
0.0
 10
103.7377295714906
 20
-1.151936712223717
 30
0.0
 10
103.6563680108029
 20
-1.303985906946693
 30
0.0
 10
103.4682821591073
 20
-1.585506862932755
 30
0.0
 10
103.3607850932103
 20
-1.716878646999133
 30
0.0
 10
103.1184759069045
 20
-1.959378070896625
 30
0.0
 10
102.9874378053372
 20
-2.066777417199789
 30
0.0
 10
102.7062859518117
 20
-2.255003802345817
 30
0.0
 10
102.5543658530154
 20
-2.336484495524419
 30
0.0
 10
102.2398808401831
 20
-2.467011596903848
 30
0.0
 10
102.077921421442
 20
-2.516302143642585
 30
0.0
 10
101.7445737252254
 20
-2.583095985129801
 30
0.0
 10
101.5724456166762
 20
-2.600372283013855
 30
0.0
 10
101.4004315969021
 20
-2.600372283013855
 30
0.0
  0
LINE
  5
5B
330
1F
100
AcDbEntity
  8
1
 62
     4
420
    65535
100
AcDbLine
 10
87.6004315969
 20
2.599627717
 30
0.0
 11
101.4004315969
 21
2.599627717
 31
0.0
  0
LINE
  5
5C
330
1F
100
AcDbEntity
  8
1
 62
     4
420
    65535
100
AcDbLine
 10
27.8210671402
 20
-17.850372283
 30
0.0
 11
27.8210671402
 21
17.849627717
 31
0.0
  0
SPLINE
  5
5D
330
1F
100
AcDbEntity
  8
1
 62
     4
420
    65535
100
AcDbSpline
210
0.0
220
0.0
230
1.0
 70
     8
 71
     3
 72
     8
 73
     4
 74
     0
 42
0.00000001
 43
0.00000001
 12
1.0
 22
0.0
 32
0.0
 13
1.0
 23
0.0
 33
0.0
 40
0.0
 40
0.0
 40
0.0
 40
0.0
 40
0.0000236927895046
 40
0.0000236927895046
 40
0.0000236927895046
 40
0.0000236927895046
 10
2.793541772723326
 20
7.949627716986148
 30
0.0
 10
2.785644176221812
 20
7.949627716986148
 30
0.0
 10
2.777738956930523
 20
7.949320092403983
 30
0.0
 10
2.769871517684673
 20
7.948702722973528
 30
0.0
  0
LINE
  5
5E
330
1F
100
AcDbEntity
  8
1
 62
     4
420
    65535
100
AcDbLine
 10
2.7935417727
 20
7.949627717
 30
0.0
 11
17.8215671527
 21
7.949627717
 31
0.0
  0
SPLINE
  5
5F
330
1F
100
AcDbEntity
  8
1
 62
     4
420
    65535
100
AcDbSpline
210
0.0
220
0.0
230
1.0
 70
     8
 71
     3
 72
    40
 73
    36
 74
     0
 42
0.00000001
 43
0.00000001
 12
1.0
 22
0.0
 32
0.0
 13
1.0
 23
0.0
 33
0.0
 40
0.0
 40
0.0
 40
0.0
 40
0.0
 40
0.0624999999999995
 40
0.0624999999999995
 40
0.124999999999999
 40
0.124999999999999
 40
0.1562499999999989
 40
0.1562499999999989
 40
0.1874999999999988
 40
0.1874999999999988
 40
0.2499999999999987
 40
0.2499999999999987
 40
0.2812499999999986
 40
0.2812499999999986
 40
0.3124999999999985
 40
0.3124999999999985
 40
0.3749999999999987
 40
0.3749999999999987
 40
0.4062499999999987
 40
0.4062499999999987
 40
0.4374999999999988
 40
0.4374999999999988
 40
0.4999999999999991
 40
0.4999999999999991
 40
0.5624999999999992
 40
0.5624999999999992
 40
0.6249999999999994
 40
0.6249999999999994
 40
0.6874999999999996
 40
0.6874999999999996
 40
0.7499999999999998
 40
0.7499999999999998
 40
0.8749999999999999
 40
0.8749999999999999
 40
1.0
 40
1.0
 40
1.0
 40
1.0
 10
17.8215671527443
 20
7.949627716986146
 30
0.0
 10
18.34424507403626
 20
7.949627716986145
 30
0.0
 10
18.87376122638778
 20
7.99155002983294
 30
0.0
 10
19.900977885673
 20
8.15440058354151
 30
0.0
 10
20.40353459699583
 20
8.274915008919688
 30
0.0
 10
21.14058040888422
 20
8.512954231468754
 30
0.0
 10
21.3846235882335
 20
8.602393711914958
 30
0.0
 10
21.86042670312635
 20
8.797919229478047
 30
0.0
 10
22.09184348021642
 20
8.903730459251486
 30
0.0
 10
22.76721785535745
 20
9.243617863466419
 30
0.0
 10
23.19238242377475
 20
9.50008829063745
 30
0.0
 10
23.79296814344951
 20
9.924513169115587
 30
0.0
 10
23.98770989496909
 20
10.07331941124224
 30
0.0
 10
24.35829441995841
 20
10.37805288220565
 30
0.0
 10
24.53476348802366
 20
10.53432618621084
 30
0.0
 10
25.03919618777292
 20
11.01272362178499
 30
0.0
 10
25.34223990994015
 20
11.34440207233961
 30
0.0
 10
25.7514161016055
 20
11.85332746333836
 30
0.0
 10
25.88025759419851
 20
12.02503162855624
 30
0.0
 10
26.11982243356334
 20
12.36551724739627
 30
0.0
 10
26.23112863931904
 20
12.53498951300839
 30
0.0
 10
26.5420804087646
 20
13.03955911691545
 30
0.0
 10
26.71882350327638
 20
13.37078588592642
 30
0.0
 10
27.02215140450943
 20
14.01564595455801
 30
0.0
 10
27.14740903965031
 20
14.32678837921915
 30
0.0
 10
27.3540900241035
 20
14.91198068781104
 30
0.0
 10
27.43633303804921
 20
15.18785970986732
 30
0.0
 10
27.56983654024422
 20
15.70411452328183
 30
0.0
 10
27.62106389313519
 20
15.94450060905275
 30
0.0
 10
27.70136396078478
 20
16.3874862010747
 30
0.0
 10
27.73013091178881
 20
16.5885355139928
 30
0.0
 10
27.79381702157148
 20
17.1231511219914
 30
0.0
 10
27.80768526999645
 20
17.39235016508389
 30
0.0
 10
27.82134890763091
 20
17.75603490667934
 30
0.0
 10
27.82106714024368
 20
17.84962771698603
 30
0.0
 10
27.82106714024368
 20
17.84962771698604
 30
0.0
  0
SPLINE
  5
60
330
1F
100
AcDbEntity
  8
1
 62
     4
420
    65535
100
AcDbSpline
210
0.0
220
0.0
230
1.0
 70
     8
 71
     3
 72
    40
 73
    36
 74
     0
 42
0.00000001
 43
0.00000001
 12
1.0
 22
0.0
 32
0.0
 13
1.0
 23
0.0
 33
0.0
 40
0.0
 40
0.0
 40
0.0
 40
0.0
 40
0.1250000000000001
 40
0.1250000000000001
 40
0.1875000000000001
 40
0.1875000000000001
 40
0.2500000000000001
 40
0.2500000000000001
 40
0.3749999999999999
 40
0.3749999999999999
 40
0.4374999999999998
 40
0.4374999999999998
 40
0.4999999999999998
 40
0.4999999999999998
 40
0.5624999999999997
 40
0.5624999999999997
 40
0.6249999999999997
 40
0.6249999999999997
 40
0.6874999999999996
 40
0.6874999999999996
 40
0.7187499999999994
 40
0.7187499999999994
 40
0.7499999999999993
 40
0.7499999999999993
 40
0.8124999999999996
 40
0.8124999999999996
 40
0.8437499999999996
 40
0.8437499999999996
 40
0.8749999999999996
 40
0.8749999999999996
 40
0.9375
 40
0.9375
 40
0.96875
 40
0.96875
 40
1.0
 40
1.0
 40
1.0
 40
1.0
 10
27.82106714024368
 20
-17.85037228301385
 30
0.0
 10
27.82106714024368
 20
-17.85037228301384
 30
0.0
 10
27.82137213390625
 20
-17.7583204621847
 30
0.0
 10
27.81119616389938
 20
-17.48608992250704
 30
0.0
 10
27.80581050057081
 20
-17.3728574271789
 30
0.0
 10
27.78632342114865
 20
-17.10050691213202
 30
0.0
 10
27.77217973868605
 20
-16.94157931850892
 30
0.0
 10
27.70810597760143
 20
-16.405779654668
 30
0.0
 10
27.63747959698189
 20
-15.96786415907957
 30
0.0
 10
27.43839982104995
 20
-15.19589441535714
 30
0.0
 10
27.35629248103746
 20
-14.91931212560205
 30
0.0
 10
27.14767290497042
 20
-14.32793328944341
 30
0.0
 10
27.02227271256137
 20
-14.01690052936479
 30
0.0
 10
26.72127231050515
 20
-13.37648652360439
 30
0.0
 10
26.54535898879856
 20
-13.04603775318862
 30
0.0
 10
26.12990945242435
 20
-12.37108116221808
 30
0.0
 10
25.88815272748751
 20
-12.02440075380602
 30
0.0
 10
25.34656645154439
 20
-11.35027175706007
 30
0.0
 10
25.04553853529596
 20
-11.02020626102511
 30
0.0
 10
24.54381061618975
 20
-10.54330243554857
 30
0.0
 10
24.36818927241489
 20
-10.38737369203005
 30
0.0
 10
23.99912064717593
 20
-10.08303209153751
 30
0.0
 10
23.80453544712622
 20
-9.933837275860125
 30
0.0
 10
23.20126966544316
 20
-9.506334540034599
 30
0.0
 10
22.77524976258302
 20
-9.24894878443648
 30
0.0
 10
22.10063404565622
 20
-8.908634501970882
 30
0.0
 10
21.86981105720013
 20
-8.802838084430078
 30
0.0
 10
21.39600710174458
 20
-8.607511924685982
 30
0.0
 10
21.15192633628066
 20
-8.517635463458074
 30
0.0
 10
20.4087257013785
 20
-8.276806475221193
 30
0.0
 10
19.90380657179412
 20
-8.155721909978608
 30
0.0
 10
19.13274984444418
 20
-8.033289840024407
 30
0.0
 10
18.87343834089873
 20
-8.002384844872246
 30
0.0
 10
18.35015297719633
 20
-7.960903623866811
 30
0.0
 10
18.08488262272348
 20
-7.950372283013738
 30
0.0
 10
17.8215671527443
 20
-7.950372283013738
 30
0.0
  0
LINE
  5
61
330
1F
100
AcDbEntity
  8
1
 62
     4
420
    65535
100
AcDbLine
 10
17.8215671527
 20
-7.950372283
 30
0.0
 11
2.7935417727
 21
-7.950372283
 31
0.0
  0
SPLINE
  5
62
330
1F
100
AcDbEntity
  8
1
 62
     4
420
    65535
100
AcDbSpline
210
0.0
220
0.0
230
1.0
 70
     8
 71
     3
 72
     8
 73
     4
 74
     0
 42
0.00000001
 43
0.00000001
 12
1.0
 22
0.0
 32
0.0
 13
1.0
 23
0.0
 33
0.0
 40
0.0
 40
0.0
 40
0.0
 40
0.0
 40
0.0000236927895046
 40
0.0000236927895046
 40
0.0000236927895046
 40
0.0000236927895046
 10
2.769871517684673
 20
-7.949447289001122
 30
0.0
 10
2.777738956930523
 20
-7.950064658431576
 30
0.0
 10
2.785644176221812
 20
-7.950372283013742
 30
0.0
 10
2.793541772723326
 20
-7.950372283013742
 30
0.0
  0
LINE
  5
63
330
1F
100
AcDbEntity
  8
1
 62
     4
420
    65535
100
AcDbLine
 10
2.7698715177
 20
7.948702723
 30
0.0
 11
2.7698715177
 21
-7.949447289
 31
0.0
  0
LINE
  5
64
330
1F
100
AcDbEntity
  8
1
 62
     4
420
    65535
100
AcDbLine
 10
2.4727910971
 20
-7.6685718424
 30
0.0
 11
2.4727910971
 21
7.6678272763
 31
0.0
  0
SPLINE
  5
65
330
1F
100
AcDbEntity
  8
1
 62
     4
420
    65535
100
AcDbSpline
210
0.0
220
0.0
230
1.0
 70
     8
 71
     3
 72
    10
 73
     6
 74
     0
 42
0.00000001
 43
0.00000001
 12
1.0
 22
0.0
 32
0.0
 13
1.0
 23
0.0
 33
0.0
 40
0.0
 40
0.0
 40
0.0
 40
0.0
 40
0.5
 40
0.5
 40
1.0
 40
1.0
 40
1.0
 40
1.0
 10
2.769871517684673
 20
7.948702722973528
 30
0.0
 10
2.690628098130282
 20
7.942484376282978
 30
0.0
 10
2.617063885433632
 20
7.904450828978668
 30
0.0
 10
2.513733294774195
 20
7.800349946017594
 30
0.0
 10
2.482010271660638
 20
7.733975358290739
 30
0.0
 10
2.4727910970622
 20
7.667827276342463
 30
0.0
  0
SPLINE
  5
66
330
1F
100
AcDbEntity
  8
1
 62
     4
420
    65535
100
AcDbSpline
210
0.0
220
0.0
230
1.0
 70
     8
 71
     3
 72
    10
 73
     6
 74
     0
 42
0.00000001
 43
0.00000001
 12
1.0
 22
0.0
 32
0.0
 13
1.0
 23
0.0
 33
0.0
 40
0.0
 40
0.0
 40
0.0
 40
0.0
 40
0.5
 40
0.5
 40
1.0
 40
1.0
 40
1.0
 40
1.0
 10
2.769871517684673
 20
-7.949447289001122
 30
0.0
 10
2.690628098130282
 20
-7.94322894231057
 30
0.0
 10
2.617063885433625
 20
-7.905195395006257
 30
0.0
 10
2.513733294774188
 20
-7.801094512045172
 30
0.0
 10
2.482010271660708
 20
-7.734719924317736
 30
0.0
 10
2.4727910970622
 20
-7.668571842370045
 30
0.0
  0
SPLINE
  5
67
330
1F
100
AcDbEntity
  8
1
 62
     4
420
    65535
100
AcDbSpline
210
0.0
220
0.0
230
1.0
 70
    24
 71
     3
 72
    12
 73
     8
 74
     0
 42
0.00000001
 43
0.00000001
 12
1.0
 22
0.0
 32
0.0
 13
1.0
 23
0.0
 33
0.0
 40
0.0
 40
0.0
 40
0.0
 40
0.0
 40
0.3809832389478594
 40
0.6278422147429829
 40
0.8749662648663231
 40
0.9884408322372712
 40
1.0
 40
1.0
 40
1.0
 40
1.0
 10
2.793541772723326
 20
-7.950372283013742
 30
0.0
 10
2.54176967624007
 20
-7.950372283013755
 30
0.0
 10
2.126861264250421
 20
-7.95037228301378
 30
0.0
 10
1.635512464628328
 20
-7.950372283013809
 30
0.0
 10
1.437782144318375
 20
-7.950372283013837
 30
0.0
 10
1.359376642477109
 20
-7.950372283013846
 30
0.0
 10
1.382586597940993
 20
-7.950372283013853
 30
0.0
 10
1.384732321002738
 20
-7.950372283013855
 30
0.0
  0
SPLINE
  5
68
330
1F
100
AcDbEntity
  8
1
 62
     4
420
    65535
100
AcDbSpline
210
0.0
220
0.0
230
1.0
 70
    24
 71
     3
 72
    11
 73
     7
 74
     0
 42
0.00000001
 43
0.00000001
 12
1.0
 22
0.0
 32
0.0
 13
1.0
 23
0.0
 33
0.0
 40
0.0
 40
0.0
 40
0.0
 40
0.0
 40
0.1237691109041943
 40
0.3425375432765129
 40
0.5613619806498157
 40
1.0
 40
1.0
 40
1.0
 40
1.0
 10
1.414430010967235
 20
7.949627716986148
 30
0.0
 10
1.407383925278421
 20
7.949627716986148
 30
0.0
 10
1.387883511451971
 20
7.949627716986148
 30
0.0
 10
1.612417077273477
 20
7.94962771698615
 30
0.0
 10
2.063911453504576
 20
7.949627716986146
 30
0.0
 10
2.50155795822269
 20
7.949627716986146
 30
0.0
 10
2.793541772723326
 20
7.949627716986148
 30
0.0
  0
SPLINE
  5
69
330
1F
100
AcDbEntity
  8
1
 62
     4
420
    65535
100
AcDbSpline
210
0.0
220
0.0
230
1.0
 70
     8
 71
     3
 72
    12
 73
     8
 74
     0
 42
0.00000001
 43
0.00000001
 12
1.0
 22
0.0
 32
0.0
 13
1.0
 23
0.0
 33
0.0
 40
0.0
 40
0.0
 40
0.0
 40
0.0
 40
0.0093572867367993
 40
0.1247849717495474
 40
0.3752053705393164
 40
0.6260545749103908
 40
1.0
 40
1.0
 40
1.0
 40
1.0
 10
1.086390107148706
 20
-7.691951611367718
 30
0.0
 10
1.084715344116777
 20
-7.69200983608364
 30
0.0
 10
1.062381385192067
 20
-7.692786297224135
 30
0.0
 10
1.140896335169478
 20
-7.689831448357458
 30
0.0
 10
1.33763058728998
 20
-7.683378586105089
 30
0.0
 10
1.822520673800496
 20
-7.674090850919638
 30
0.0
 10
2.22931868525502
 20
-7.67063825393405
 30
0.0
 10
2.472791097062208
 20
-7.668571842370058
 30
0.0
  0
SPLINE
  5
6A
330
1F
100
AcDbEntity
  8
1
 62
     4
420
    65535
100
AcDbSpline
210
0.0
220
0.0
230
1.0
 70
     8
 71
     3
 72
    11
 73
     7
 74
     0
 42
0.00000001
 43
0.00000001
 12
1.0
 22
0.0
 32
0.0
 13
1.0
 23
0.0
 33
0.0
 40
0.0
 40
0.0
 40
0.0
 40
0.0
 40
0.4373324546136331
 40
0.6561718591539009
 40
0.8752299699594143
 40
1.0
 40
1.0
 40
1.0
 40
1.0
 10
2.4727910970622
 20
7.667827276342466
 30
0.0
 10
2.18519535468157
 20
7.670406437896672
 30
0.0
 10
1.753687857417585
 20
7.674276201538103
 30
0.0
 10
1.313467529994922
 20
7.683307226524057
 30
0.0
 10
1.090987298742976
 20
7.690935840792982
 30
0.0
 10
1.110092241233318
 20
7.690279919606924
 30
0.0
 10
1.117025135796805
 20
7.690041895732883
 30
0.0
  0
LINE
  5
6B
330
1F
100
AcDbEntity
  8
1
  6
SLD-Gestrichelt
 62
   131
420
  8454143
370
     0
100
AcDbLine
 10
155.5130074045
 20
-6.0169415323
 30
0.0
 11
155.5130074045
 21
6.0161969662
 31
0.0
  0
LINE
  5
6C
330
1F
100
AcDbEntity
  8
1
  6
SLD-Gestrichelt
 62
   131
420
  8454143
370
     0
100
AcDbLine
 10
109.0004315969
 20
-0.000372283
 30
0.0
 11
109.0004315969
 21
4.849627717
 31
0.0
  0
LINE
  5
6D
330
1F
100
AcDbEntity
  8
1
  6
SLD-Gestrichelt
 62
   131
420
  8454143
370
     0
100
AcDbLine
 10
109.0004315969
 20
-4.850372283
 30
0.0
 11
109.0004315969
 21
-0.000372283
 31
0.0
  0
LINE
  5
6E
330
1F
100
AcDbEntity
  8
1
  6
SLD-Gestrichelt
 62
   131
420
  8454143
370
     0
100
AcDbLine
 10
100.0004315969
 20
2.599627717
 30
0.0
 11
100.0004315969
 21
4.849627717
 31
0.0
  0
LINE
  5
6F
330
1F
100
AcDbEntity
  8
1
  6
SLD-Gestrichelt
 62
   131
420
  8454143
370
     0
100
AcDbLine
 10
100.0004315969
 20
-4.850372283
 30
0.0
 11
100.0004315969
 21
-2.600372283
 31
0.0
  0
LINE
  5
70
330
1F
100
AcDbEntity
  8
1
  6
SLD-Gestrichelt
 62
   131
420
  8454143
370
     0
100
AcDbLine
 10
2.7698715177
 20
-7.949447289
 30
0.0
 11
2.7698715177
 21
7.948702723
 31
0.0
  0
LINE
  5
71
330
1F
100
AcDbEntity
  8
1
  6
SLD-Gestrichelt
 62
   131
420
  8454143
370
     0
100
AcDbLine
 10
1.3788800973
 20
-7.9503720794
 30
0.0
 11
1.378557088
 21
-7.9503722818
 31
0.0
  0
LINE
  5
72
330
1F
100
AcDbEntity
  8
1
  6
SLD-Gestrichelt
 62
   131
420
  8454143
370
     0
100
AcDbLine
 10
1.3785235099
 20
7.949627717
 30
0.0
 11
1.37952359
 21
7.9496260361
 31
0.0
  0
ARC
  5
73
330
1F
100
AcDbEntity
  8
1
  6
SLD-Gestrichelt
 62
   131
420
  8454143
370
     0
100
AcDbCircle
 10
155.5004315969
 20
-6.5204507218
 30
0.0
 40
0.5000000000000001
100
AcDbArc
 50
0.0
 51
88.5587666196
  0
ARC
  5
74
330
1F
100
AcDbEntity
  8
1
  6
SLD-Gestrichelt
 62
   131
420
  8454143
370
     0
100
AcDbCircle
 10
155.5004315969
 20
6.5197061558
 30
0.0
 40
0.500000000000001
100
AcDbArc
 50
271.4412333804
 51
0.0
  0
LINE
  5
75
330
1F
100
AcDbEntity
  8
1
  6
SLD-Gestrichelt
 62
   131
420
  8454143
370
     0
100
AcDbLine
 10
155.5130074045
 20
6.0198643317
 30
0.0
 11
109.0004315969
 21
4.849627717
 31
0.0
  0
LINE
  5
76
330
1F
100
AcDbEntity
  8
1
  6
SLD-Gestrichelt
 62
   131
420
  8454143
370
     0
100
AcDbLine
 10
109.0004315969
 20
-4.850372283
 30
0.0
 11
155.5130074045
 21
-6.0206088977
 31
0.0
  0
LINE
  5
77
330
1F
100
AcDbEntity
  8
1
  6
SLD-Gestrichelt
 62
   131
420
  8454143
370
     0
100
AcDbLine
 10
100.0004315969
 20
-4.850372283
 30
0.0
 11
109.0004315969
 21
-4.850372283
 31
0.0
  0
LINE
  5
78
330
1F
100
AcDbEntity
  8
1
  6
SLD-Gestrichelt
 62
   131
420
  8454143
370
     0
100
AcDbLine
 10
109.0004315969
 20
4.849627717
 30
0.0
 11
100.0004315969
 21
4.849627717
 31
0.0
  0
LINE
  5
79
330
1F
100
AcDbEntity
  8
1
  6
SLD-Gestrichelt
 62
   131
420
  8454143
370
     0
100
AcDbLine
 10
100.0004315969
 20
4.849627717
 30
0.0
 11
98.6484952041
 21
2.599627717
 31
0.0
  0
LINE
  5
7A
330
1F
100
AcDbEntity
  8
1
  6
SLD-Gestrichelt
 62
   131
420
  8454143
370
     0
100
AcDbLine
 10
98.6484952041
 20
-2.600372283
 30
0.0
 11
100.0004315969
 21
-4.850372283
 31
0.0
  0
SPLINE
  5
7B
330
1F
100
AcDbEntity
  8
1
  6
SLD-Gestrichelt
 62
   131
420
  8454143
370
     0
100
AcDbSpline
210
0.0
220
0.0
230
1.0
 70
     8
 71
     3
 72
    10
 73
     6
 74
     0
 42
0.00000001
 43
0.00000001
 12
1.0
 22
0.0
 32
0.0
 13
1.0
 23
0.0
 33
0.0
 40
0.0
 40
0.0
 40
0.0
 40
0.0
 40
0.5040234152185502
 40
0.7564137454119894
 40
1.0
 40
1.0
 40
1.0
 40
1.0
 10
2.4727910970622
 20
-7.668571842370279
 30
0.0
 10
2.146333580141491
 20
-7.671393792319424
 30
0.0
 10
1.656402069747632
 20
-7.675628837093031
 30
0.0
 10
1.164931301073965
 20
-7.688645061943943
 30
0.0
 10
1.112258842353726
 20
-7.690862549090827
 30
0.0
 10
1.086390107148706
 20
-7.691951611367718
 30
0.0
  0
SPLINE
  5
7C
330
1F
100
AcDbEntity
  8
1
  6
SLD-Gestrichelt
 62
   131
420
  8454143
370
     0
100
AcDbSpline
210
0.0
220
0.0
230
1.0
 70
     8
 71
     3
 72
    11
 73
     7
 74
     0
 42
0.00000001
 43
0.00000001
 12
1.0
 22
0.0
 32
0.0
 13
1.0
 23
0.0
 33
0.0
 40
0.0
 40
0.0
 40
0.0
 40
0.0
 40
0.1261411284420956
 40
0.3781145100660047
 40
0.7554486849446198
 40
1.0
 40
1.0
 40
1.0
 40
1.0
 10
1.117025135796805
 20
7.690041895732882
 30
0.0
 10
1.110522024749983
 20
7.690260706621348
 30
0.0
 10
1.091028615441358
 20
7.690916603495836
 30
0.0
 10
1.40921434412454
 20
7.680191682771812
 30
0.0
 10
1.902522796409054
 20
7.67256966809187
 30
0.0
 10
2.311833180620927
 20
7.669165813823956
 30
0.0
 10
2.4727910970622
 20
7.667827276342465
 30
0.0
  0
DIMENSION
  5
7D
330
1F
100
AcDbEntity
  8
2
 62
     7
420
 16777215
100
AcDbDimension
  2
_D
 10
156.0004315969
 20
28.3701308791
 30
0.0
 11
78.0004315969
 21
28.3701308791
 31
0.0
 70
   160
  1
<>
 71
     2
 42
-1.0
 73
     0
 74
     0
 75
     0
  3
SLDDIMSTYLE0
100
AcDbAlignedDimension
 13
0.0004315969
 23
-0.000372283
 33
0.0
 14
156.0004315969
 24
-0.000372283
 34
0.0
 50
0.0
100
AcDbRotatedDimension
  0
DIMENSION
  5
89
330
1F
100
AcDbEntity
  8
2
 62
     7
420
 16777215
100
AcDbDimension
  2
_D_1
 10
174.0004315969
 20
-22.3708754451
 30
0.0
 11
174.0004315969
 21
-0.000372283
 31
0.0
 70
   160
  1
%%c<>
 71
     2
 42
-1.0
 73
     0
 74
     0
 75
     0
  3
SLDDIMSTYLE0
100
AcDbAlignedDimension
 13
156.0004315969
 23
22.3701308791
 33
0.0
 14
156.0004315969
 24
-22.3708754451
 34
0.0
 50
90.0
100
AcDbRotatedDimension
  0
DIMENSION
  5
94
330
1F
100
AcDbEntity
  8
2
 62
     7
420
 16777215
100
AcDbDimension
  2
_D_2
 10
162.0004315969
 20
-6.0206088977
 30
0.0
 11
162.0004315969
 21
-20.7716335537
 31
0.0
 70
   160
  1
%%c<>
 71
     2
 42
-1.0
 73
     0
 74
     0
 75
     0
  3
SLDDIMSTYLE0
100
AcDbAlignedDimension
 13
155.5130074045
 23
6.0198643317
 33
0.0
 14
155.5130074045
 24
-6.0206088977
 34
0.0
 50
90.0
100
AcDbRotatedDimension
  0
ENDSEC
  0
SECTION
  2
OBJECTS
  0
DICTIONARY
  5
C
330
0
100
AcDbDictionary
281
     1
  3
ACAD_GROUP
350
D
  3
ACAD_LAYOUT
350
1A
  3
ACAD_MATERIAL
350
3B
  3
ACAD_MLEADERSTYLE
350
A1
  3
ACAD_MLINESTYLE
350
17
  3
ACAD_PLOTSETTINGS
350
19
  3
ACAD_PLOTSTYLENAME
350
E
  3
ACAD_TABLESTYLE
350
A0
  3
ACAD_VISUALSTYLE
350
2A
  0
DICTIONARY
  5
D
102
{ACAD_REACTORS
330
C
102
}
330
C
100
AcDbDictionary
281
     1
  0
DICTIONARY
  5
1A
102
{ACAD_REACTORS
330
C
102
}
330
C
100
AcDbDictionary
281
     1
  3
Layout1
350
1E
  3
Layout2
350
26
  3
Model
350
22
  0
DICTIONARY
  5
3B
102
{ACAD_REACTORS
330
C
102
}
330
C
100
AcDbDictionary
281
     1
  3
ByBlock
350
3D
  3
ByLayer
350
3C
  3
Global
350
3E
  0
DICTIONARY
  5
A1
102
{ACAD_REACTORS
330
C
102
}
330
C
100
AcDbDictionary
281
     1
  0
DICTIONARY
  5
17
102
{ACAD_REACTORS
330
C
102
}
330
C
100
AcDbDictionary
281
     1
  3
Standard
350
18
  0
DICTIONARY
  5
19
102
{ACAD_REACTORS
330
C
102
}
330
C
100
AcDbDictionary
281
     1
  0
ACDBDICTIONARYWDFLT
  5
E
102
{ACAD_REACTORS
330
C
102
}
330
C
100
AcDbDictionary
281
     1
  3
Normal
350
F
100
AcDbDictionaryWithDefault
340
F
  0
DICTIONARY
  5
A0
102
{ACAD_REACTORS
330
C
102
}
330
C
100
AcDbDictionary
281
     1
  0
DICTIONARY
  5
2A
102
{ACAD_REACTORS
330
C
102
}
330
C
100
AcDbDictionary
281
     1
  3
2dWireframe
350
2F
  3
3D Hidden
350
31
  3
3dWireframe
350
30
  3
Basic
350
32
  3
Brighten
350
36
  3
ColorChange
350
3A
  3
Conceptual
350
34
  3
Dim
350
35
  3
Facepattern
350
39
  3
Flat
350
2B
  3
FlatWithEdges
350
2C
  3
Gouraud
350
2D
  3
GouraudWithEdges
350
2E
  3
Linepattern
350
38
  3
Realistic
350
33
  3
Thicken
350
37
  0
LAYOUT
  5
1E
102
{ACAD_REACTORS
330
1A
102
}
330
1A
100
AcDbPlotSettings
  1

  2
none_device
  4

  6

 40
0.0
 41
0.0
 42
0.0
 43
0.0
 44
0.0
 45
0.0
 46
0.0
 47
0.0
 48
0.0
 49
0.0
140
0.0
141
0.0
142
1.0
143
1.0
 70
   688
 72
     0
 73
     0
 74
     5
  7

 75
    16
 76
     0
 77
     2
 78
   300
147
1.0
148
0.0
149
0.0
100
AcDbLayout
  1
Layout1
 70
     1
 71
     1
 10
0.0
 20
0.0
 11
420.0
 21
297.0
 12
0.0
 22
0.0
 32
0.0
 14
1.0000000000E+20
 24
1.0000000000E+20
 34
1.0000000000E+20
 15
-1.0000000000E+20
 25
-1.0000000000E+20
 35
-1.0000000000E+20
146
0.0
 13
0.0
 23
0.0
 33
0.0
 16
1.0
 26
0.0
 36
0.0
 17
0.0
 27
1.0
 37
0.0
 76
     0
330
1B
  0
LAYOUT
  5
26
102
{ACAD_REACTORS
330
1A
102
}
330
1A
100
AcDbPlotSettings
  1

  2
none_device
  4

  6

 40
0.0
 41
0.0
 42
0.0
 43
0.0
 44
0.0
 45
0.0
 46
0.0
 47
0.0
 48
0.0
 49
0.0
140
0.0
141
0.0
142
1.0
143
1.0
 70
   688
 72
     0
 73
     0
 74
     5
  7

 75
    16
 76
     0
 77
     2
 78
   300
147
1.0
148
0.0
149
0.0
100
AcDbLayout
  1
Layout2
 70
     1
 71
     2
 10
0.0
 20
0.0
 11
0.0
 21
0.0
 12
0.0
 22
0.0
 32
0.0
 14
0.0
 24
0.0
 34
0.0
 15
0.0
 25
0.0
 35
0.0
146
0.0
 13
0.0
 23
0.0
 33
0.0
 16
1.0
 26
0.0
 36
0.0
 17
0.0
 27
1.0
 37
0.0
 76
     0
330
23
  0
LAYOUT
  5
22
102
{ACAD_REACTORS
330
1A
102
}
330
1A
100
AcDbPlotSettings
  1

  2
none_device
  4

  6

 40
0.0
 41
0.0
 42
0.0
 43
0.0
 44
0.0
 45
0.0
 46
0.0
 47
0.0
 48
0.0
 49
0.0
140
0.0
141
0.0
142
1.0
143
1.0
 70
  1712
 72
     0
 73
     0
 74
     0
  7

 75
     0
 76
     0
 77
     2
 78
   300
147
1.0
148
0.0
149
0.0
100
AcDbLayout
  1
Model
 70
     1
 71
     0
 10
0.0
 20
0.0
 11
297.0
 21
210.0
 12
0.0
 22
0.0
 32
0.0
 14
0.0
 24
0.0
 34
0.0
 15
297.0
 25
210.0
 35
0.0
146
0.0
 13
0.0
 23
0.0
 33
0.0
 16
1.0
 26
0.0
 36
0.0
 17
0.0
 27
1.0
 37
0.0
 76
     0
330
1F
331
29
  0
MATERIAL
  5
3D
102
{ACAD_REACTORS
330
3B
102
}
330
3B
100
AcDbMaterial
  1
ByBlock
 72
     1
 94
      127
  0
MATERIAL
  5
3C
102
{ACAD_REACTORS
330
3B
102
}
330
3B
100
AcDbMaterial
  1
ByLayer
 72
     1
 94
      127
  0
MATERIAL
  5
3E
102
{ACAD_REACTORS
330
3B
102
}
330
3B
100
AcDbMaterial
  1
Global
 72
     1
 94
      127
  0
MLINESTYLE
  5
18
102
{ACAD_REACTORS
330
17
102
}
330
17
100
AcDbMlineStyle
  2
Standard
 70
     0
  3

 62
   256
 51
90.0
 52
90.0
 71
     2
 49
0.5
 62
   256
  6
BYLAYER
 49
-0.5
 62
   256
  6
BYLAYER
  0
ACDBPLACEHOLDER
  5
F
102
{ACAD_REACTORS
330
E
102
}
330
E
  0
VISUALSTYLE
  5
2F
102
{ACAD_REACTORS
330
2A
102
}
330
2A
100
AcDbVisualStyle
  2
2dWireframe
 70
     4
 71
     0
 72
     2
 73
     0
 90
        0
 40
-0.6
 41
-30.0
 62
     5
 63
     7
421
 16777215
 74
     1
 91
        4
 64
     7
 65
   257
 75
     1
175
     1
 42
1.0
 92
        0
 66
   257
 43
1.0
 76
     1
 77
     6
 78
     2
 67
     7
 79
     5
170
     0
171
     0
290
     0
174
     0
 93
        1
 44
0.0
173
     0
291
     0
 45
0.0
  0
VISUALSTYLE
  5
31
102
{ACAD_REACTORS
330
2A
102
}
330
2A
100
AcDbVisualStyle
  2
3D Hidden
 70
     6
 71
     1
 72
     2
 73
     2
 90
        0
 40
-0.6
 41
-30.0
 62
     5
 63
     7
421
 16777215
 74
     2
 91
        2
 64
     7
 65
   257
 75
     2
175
     1
 42
40.0
 92
        0
 66
   257
 43
1.0
 76
     1
 77
     6
 78
     2
 67
     7
 79
     3
170
     0
171
     0
290
     0
174
     0
 93
        1
 44
0.0
173
     0
291
     0
 45
0.0
  0
VISUALSTYLE
  5
30
102
{ACAD_REACTORS
330
2A
102
}
330
2A
100
AcDbVisualStyle
  2
3dWireframe
 70
     5
 71
     0
 72
     2
 73
     0
 90
        0
 40
-0.6
 41
-30.0
 62
     5
 63
     7
421
 16777215
 74
     1
 91
        4
 64
     7
 65
   257
 75
     1
175
     1
 42
1.0
 92
        0
 66
   257
 43
1.0
 76
     1
 77
     6
 78
     2
 67
     7
 79
     5
170
     0
171
     0
290
     0
174
     0
 93
        1
 44
0.0
173
     0
291
     0
 45
0.0
  0
VISUALSTYLE
  5
32
102
{ACAD_REACTORS
330
2A
102
}
330
2A
100
AcDbVisualStyle
  2
Basic
 70
     7
 71
     1
 72
     0
 73
     1
 90
        0
 40
-0.6
 41
-30.0
 62
     5
 63
     7
421
 16777215
 74
     0
 91
        4
 64
     7
 65
   257
 75
     1
175
     1
 42
1.0
 92
        8
 66
     7
 43
1.0
 76
     1
 77
     6
 78
     2
 67
     7
 79
     5
170
     0
171
     0
290
     0
174
     0
 93
        1
 44
0.0
173
     0
291
     1
 45
0.0
  0
VISUALSTYLE
  5
36
102
{ACAD_REACTORS
330
2A
102
}
330
2A
100
AcDbVisualStyle
  2
Brighten
 70
    12
 71
     2
 72
     2
 73
     0
 90
        0
 40
-0.6
 41
-30.0
 62
     5
 63
     7
421
 16777215
 74
     1
 91
        4
 64
     7
 65
   257
 75
     1
175
     1
 42
1.0
 92
        8
 66
     7
 43
1.0
 76
     1
 77
     6
 78
     2
 67
     7
 79
     5
170
     0
171
     0
290
     0
174
     0
 93
        1
 44
50.0
173
     0
291
     1
 45
0.0
  0
VISUALSTYLE
  5
3A
102
{ACAD_REACTORS
330
2A
102
}
330
2A
100
AcDbVisualStyle
  2
ColorChange
 70
    16
 71
     2
 72
     2
 73
     3
 90
        0
 40
-0.6
 41
-30.0
 62
     5
 63
     8
421
  8421504
 74
     1
 91
        4
 64
     7
 65
   257
 75
     1
175
     1
 42
1.0
 92
        8
 66
     8
424
  8421504
 43
1.0
 76
     1
 77
     6
 78
     2
 67
     7
 79
     5
170
     0
171
     0
290
     0
174
     0
 93
        1
 44
0.0
173
     0
291
     1
 45
0.0
  0
VISUALSTYLE
  5
34
102
{ACAD_REACTORS
330
2A
102
}
330
2A
100
AcDbVisualStyle
  2
Conceptual
 70
     9
 71
     3
 72
     2
 73
     0
 90
        0
 40
-0.6
 41
-30.0
 62
     5
 63
     7
421
 16777215
 74
     2
 91
        2
 64
     7
 65
   257
 75
     1
175
     1
 42
40.0
 92
        8
 66
     7
 43
1.0
 76
     1
 77
     6
 78
     2
 67
     7
 79
     3
170
     0
171
     0
290
     0
174
     0
 93
        1
 44
0.0
173
     0
291
     0
 45
0.0
  0
VISUALSTYLE
  5
35
102
{ACAD_REACTORS
330
2A
102
}
330
2A
100
AcDbVisualStyle
  2
Dim
 70
    11
 71
     2
 72
     2
 73
     0
 90
        0
 40
-0.6
 41
-30.0
 62
     5
 63
     7
421
 16777215
 74
     1
 91
        4
 64
     7
 65
   257
 75
     1
175
     1
 42
1.0
 92
        8
 66
     7
 43
1.0
 76
     1
 77
     6
 78
     2
 67
     7
 79
     5
170
     0
171
     0
290
     0
174
     0
 93
        1
 44
-50.0
173
     0
291
     1
 45
0.0
  0
VISUALSTYLE
  5
39
102
{ACAD_REACTORS
330
2A
102
}
330
2A
100
AcDbVisualStyle
  2
Facepattern
 70
    15
 71
     2
 72
     2
 73
     0
 90
        0
 40
-0.6
 41
-30.0
 62
     5
 63
     7
421
 16777215
 74
     1
 91
        4
 64
     7
 65
   257
 75
     1
175
     1
 42
1.0
 92
        8
 66
     7
 43
1.0
 76
     1
 77
     6
 78
     2
 67
     7
 79
     5
170
     0
171
     0
290
     0
174
     0
 93
        1
 44
0.0
173
     0
291
     1
 45
0.0
  0
VISUALSTYLE
  5
2B
102
{ACAD_REACTORS
330
2A
102
}
330
2A
100
AcDbVisualStyle
  2
Flat
 70
     0
 71
     2
 72
     1
 73
     1
 90
        2
 40
-0.6
 41
30.0
 62
     5
 63
     7
421
 16777215
 74
     0
 91
        4
 64
     7
 65
   257
 75
     1
175
     1
 42
1.0
 92
        8
 66
     7
 43
1.0
 76
     1
 77
     6
 78
     2
 67
     7
 79
     5
170
     0
171
     0
290
     0
174
     0
 93
       13
 44
0.0
173
     0
291
     1
 45
0.0
  0
VISUALSTYLE
  5
2C
102
{ACAD_REACTORS
330
2A
102
}
330
2A
100
AcDbVisualStyle
  2
FlatWithEdges
 70
     1
 71
     2
 72
     1
 73
     1
 90
        2
 40
-0.6
 41
30.0
 62
     5
 63
     7
421
 16777215
 74
     1
 91
        4
 64
     7
 65
   257
 75
     1
175
     1
 42
1.0
 92
        0
 66
   257
 43
1.0
 76
     1
 77
     6
 78
     2
 67
     7
 79
     5
170
     0
171
     0
290
     0
174
     0
 93
       13
 44
0.0
173
     0
291
     1
 45
0.0
  0
VISUALSTYLE
  5
2D
102
{ACAD_REACTORS
330
2A
102
}
330
2A
100
AcDbVisualStyle
  2
Gouraud
 70
     2
 71
     2
 72
     2
 73
     1
 90
        2
 40
-0.6
 41
30.0
 62
     5
 63
     7
421
 16777215
 74
     0
 91
        4
 64
     7
 65
   257
 75
     1
175
     1
 42
1.0
 92
        0
 66
     7
 43
1.0
 76
     1
 77
     6
 78
     2
 67
     7
 79
     5
170
     0
171
     0
290
     0
174
     0
 93
       13
 44
0.0
173
     0
291
     1
 45
0.0
  0
VISUALSTYLE
  5
2E
102
{ACAD_REACTORS
330
2A
102
}
330
2A
100
AcDbVisualStyle
  2
GouraudWithEdges
 70
     3
 71
     2
 72
     2
 73
     1
 90
        2
 40
-0.6
 41
30.0
 62
     5
 63
     7
421
 16777215
 74
     1
 91
        4
 64
     7
 65
   257
 75
     1
175
     1
 42
1.0
 92
        0
 66
   257
 43
1.0
 76
     1
 77
     6
 78
     2
 67
     7
 79
     5
170
     0
171
     0
290
     0
174
     0
 93
       13
 44
0.0
173
     0
291
     1
 45
0.0
  0
VISUALSTYLE
  5
38
102
{ACAD_REACTORS
330
2A
102
}
330
2A
100
AcDbVisualStyle
  2
Linepattern
 70
    14
 71
     2
 72
     2
 73
     0
 90
        0
 40
-0.6
 41
-30.0
 62
     5
 63
     7
421
 16777215
 74
     1
 91
        4
 64
     7
 65
   257
 75
     7
175
     7
 42
1.0
 92
        8
 66
     7
 43
1.0
 76
     1
 77
     6
 78
     2
 67
     7
 79
     5
170
     0
171
     0
290
     0
174
     0
 93
        1
 44
0.0
173
     0
291
     1
 45
0.0
  0
VISUALSTYLE
  5
33
102
{ACAD_REACTORS
330
2A
102
}
330
2A
100
AcDbVisualStyle
  2
Realistic
 70
     8
 71
     2
 72
     2
 73
     0
 90
        0
 40
-0.6
 41
-30.0
 62
     5
 63
     7
421
 16777215
 74
     1
 91
        0
 64
     7
 65
   257
 75
     1
175
     1
 42
1.0
 92
        8
 66
     8
424
  7895160
 43
1.0
 76
     1
 77
     6
 78
     2
 67
     7
 79
     5
170
     0
171
     0
290
     0
174
     0
 93
       13
 44
0.0
173
     0
291
     0
 45
0.0
  0
VISUALSTYLE
  5
37
102
{ACAD_REACTORS
330
2A
102
}
330
2A
100
AcDbVisualStyle
  2
Thicken
 70
    13
 71
     2
 72
     2
 73
     0
 90
        0
 40
-0.6
 41
-30.0
 62
     5
 63
     7
421
 16777215
 74
     1
 91
        4
 64
     7
 65
   257
 75
     1
175
     1
 42
1.0
 92
       12
 66
     7
 43
1.0
 76
     1
 77
     6
 78
     2
 67
     7
 79
     5
170
     0
171
     0
290
     0
174
     0
 93
        1
 44
0.0
173
     0
291
     1
 45
0.0
  0
ENDSEC
  0
EOF
