999
DXF file: 8419842593.dxf
999
Pro/ENGINEER 2021164 by Parametric Technology Corporation
  0
SECTION
  2
HEADER
  9
$ACADVER
  1
AC1021
  9
$DWGCODEPAGE
  3
ANSI_1252
  9
$EXTMAX
 10
420.0
 20
297.0
 30
0.0
  9
$EXTMIN
 10
0.0
 20
0.0
 30
0.0
  9
$LIMMIN
 10
0.0
 20
0.0
  9
$LIMMAX
 10
420.0
 20
297.0
  9
$VIEWCTR
 10
210.0
 20
148.5
  9
$VIEWSIZE
 40
297.0
  9
$CLAYER
  8
0
  9
$LTSCALE
 40
23.1
  9
$CELTYPE
  6
BYLAYER
  9
$DIMSCALE
 40
1.0
  9
$DIMASZ
 40
3.5
  9
$DIMEXO
 40
0.0
  9
$DIMDLI
 40
15.96
  9
$DIMEXE
 40
1.5
  9
$DIMCEN
 40
3.78
  9
$DIMLFAC
 40
1.0
  9
$DIMBLK
  1
_FILLED
  9
$DIMALT
 70
0
  9
$DIMALTF
 40
0.0393700787
  9
$DIMTXT
 40
3.5
  9
$DIMTOL
 70
1
  9
$DIMLIM
 70
0
  9
$DIMTFAC
 40
1.0
  9
$DIMTP
 40
0.05
  9
$DIMTM
 40
0.05
  9
$DIMGAP
 40
0.625
  9
$DIMDSEP
 70
46
  9
$AUNITS
 70
0
  9
$PDMODE
 70
3
  9
$PDSIZE
 40
0.3125
  9
$HANDSEED
  5
278
  9
$TILEMODE
 70
1
  9
$MEASUREMENT
 70
1
  9
$INSUNITS
 70
4
  0
ENDSEC
  0
SECTION
  2
CLASSES
  0
CLASS
  1
ACDBDICTIONARYWDFLT
  2
AcDbDictionaryWithDefault
  3
AutoCAD 2000
 90
0
 91
1
280
0
281
0
  0
CLASS
  1
ACDBPLACEHOLDER
  2
AcDbPlaceHolder
  3
AutoCAD 2000
 90
0
 91
1
280
0
281
0
  0
CLASS
  1
LAYOUT
  2
AcDbLayout
  3
AutoCAD 2000
 90
0
 91
0
280
0
281
0
  0
ENDSEC
  0
SECTION
  2
TABLES
  0
TABLE
  2
VPORT
  5
8
100
AcDbSymbolTable
 70
2
  0
VPORT
  5
1F4
100
AcDbSymbolTableRecord
100
AcDbViewportTableRecord
  2
*ACTIVE
 70
0
 10
0.0
 20
0.0
 11
1.0
 21
1.0
 12
210.0
 22
148.5
 13
0.0
 23
0.0
 14
1.0
 24
1.0
 15
0.0
 25
0.0
 16
0.0
 26
0.0
 36
1.0
 17
0.0
 27
0.0
 37
0.0
 40
297.0
 41
1.4141414141
 42
50.0
 43
0.0
 44
0.0
 50
0.0
 51
0.0
 71
0
 72
100
 73
1
 74
1
 75
0
 76
0
 77
0
 78
0
  0
ENDTAB
  0
TABLE
  2
LTYPE
  5
5
100
AcDbSymbolTable
 70
6
  0
LTYPE
  5
14
100
AcDbSymbolTableRecord
100
AcDbLinetypeTableRecord
  2
BYBLOCK
 70
0
  3

 72
65
 73
0
 40
0.0
  0
LTYPE
  5
15
100
AcDbSymbolTableRecord
100
AcDbLinetypeTableRecord
  2
BYLAYER
 70
0
  3

 72
65
 73
0
 40
0.0
  0
LTYPE
  5
16
100
AcDbSymbolTableRecord
100
AcDbLinetypeTableRecord
  2
CONTINUOUS
 70
64
  3
Solid line
 72
65
 73
0
 40
0.0
  0
LTYPE
  5
1F5
100
AcDbSymbolTableRecord
100
AcDbLinetypeTableRecord
  2
CENTER
 70
64
  3
____ _ ____ _ ____ _ ____ _ ____ _ ____ _ ____
 72
65
 73
4
 40
0.6
 49
0.375
 74
0
 49
-0.075
 74
0
 49
0.075
 74
0
 49
-0.075
 74
0
  0
LTYPE
  5
1F6
100
AcDbSymbolTableRecord
100
AcDbLinetypeTableRecord
  2
HIDDEN
 70
64
  3
- - - - - - - - - - - - - - - - - - - -
 72
65
 73
2
 40
0.2
 49
0.1
 74
0
 49
-0.1
 74
0
  0
LTYPE
  5
1F7
100
AcDbSymbolTableRecord
100
AcDbLinetypeTableRecord
  2
PHANTOM
 70
64
  3
_____ _ _ _____ _ _ _____ _ _ _____
 72
65
 73
6
 40
0.8
 49
0.45
 74
0
 49
-0.05
 74
0
 49
0.1
 74
0
 49
-0.05
 74
0
 49
0.1
 74
0
 49
-0.05
 74
0
  0
LTYPE
  5
1F8
100
AcDbSymbolTableRecord
100
AcDbLinetypeTableRecord
  2
DOT
 70
64
  3
. . . . . . . . . . . . . . . . . . . .
 72
65
 73
2
 40
0.2
 49
0.1
 74
0
 49
-0.1
 74
0
  0
LTYPE
  5
1F9
100
AcDbSymbolTableRecord
100
AcDbLinetypeTableRecord
  2
DASHED
 70
64
  3
- - - - - - - - - - - - - - - - - - - -
 72
65
 73
2
 40
0.2
 49
0.1
 74
0
 49
-0.1
 74
0
  0
ENDTAB
  0
TABLE
  2
LAYER
  5
2
100
AcDbSymbolTable
 70
36
  0
LAYER
  5
10
100
AcDbSymbolTableRecord
100
AcDbLayerTableRecord
  2
0
 70
0
 62
7
  6
CONTINUOUS
370
-3
390
F
  0
LAYER
  5
1FA
100
AcDbSymbolTableRecord
100
AcDbLayerTableRecord
  2
DEFAULT_1
 70
0
 62
7
  6
CENTER
370
-3
390
F
  0
LAYER
  5
1FB
100
AcDbSymbolTableRecord
100
AcDbLayerTableRecord
  2
DEFAULT_2
 70
0
 62
1
  6
HIDDEN
370
-3
390
F
  0
LAYER
  5
1FC
100
AcDbSymbolTableRecord
100
AcDbLayerTableRecord
  2
DEFAULT_3
 70
0
 62
7
  6
PHANTOM
370
-3
390
F
  0
LAYER
  5
1FD
100
AcDbSymbolTableRecord
100
AcDbLayerTableRecord
  2
1
 70
0
 62
7
  6
CONTINUOUS
370
-3
390
F
  0
LAYER
  5
1FE
100
AcDbSymbolTableRecord
100
AcDbLayerTableRecord
  2
2
 70
0
 62
7
  6
CONTINUOUS
370
-3
390
F
  0
LAYER
  5
1FF
100
AcDbSymbolTableRecord
100
AcDbLayerTableRecord
  2
4
 70
0
 62
7
  6
CONTINUOUS
370
-3
390
F
  0
LAYER
  5
200
100
AcDbSymbolTableRecord
100
AcDbLayerTableRecord
  2
NOCUT
 70
0
 62
7
  6
CONTINUOUS
370
-3
390
F
  0
LAYER
  5
201
100
AcDbSymbolTableRecord
100
AcDbLayerTableRecord
  2
_21_KURVEN
 70
0
 62
7
  6
CONTINUOUS
370
-3
390
F
  0
ENDTAB
  0
TABLE
  2
STYLE
  5
3
100
AcDbSymbolTable
 70
1
  0
STYLE
  5
11
100
AcDbSymbolTableRecord
100
AcDbTextStyleTableRecord
  2
STANDARD
 70
0
 40
0.0
 41
0.7
 50
0.0
 71
0
 42
0.2
  3
SIMPLEX.SHX
  4

  0
STYLE
  5
202
100
AcDbSymbolTableRecord
100
AcDbTextStyleTableRecord
  2
TEXTSTYLE_1
 70
0
 40
0.0
 41
0.8
 50
0.0
 71
0
 42
0.2
  3
gdt
  4

  0
STYLE
  5
203
100
AcDbSymbolTableRecord
100
AcDbTextStyleTableRecord
  2
TEXTSTYLE_2
 70
0
 40
0.0
 41
0.7
 50
0.0
 71
0
 42
0.2
  3
gdt
  4

  0
ENDTAB
  0
TABLE
  2
VIEW
  5
6
100
AcDbSymbolTable
 70
0
  0
ENDTAB
  0
TABLE
  2
UCS
  5
7
100
AcDbSymbolTable
 70
0
  0
ENDTAB
  0
TABLE
  2
APPID
  5
9
100
AcDbSymbolTable
 70
1
  0
APPID
  5
204
100
AcDbSymbolTableRecord
100
AcDbRegAppTableRecord
  2
ACAD
 70
0
  0
ENDTAB
  0
TABLE
  2
BLOCK_RECORD
  5
1
100
AcDbSymbolTable
 70
0
  0
BLOCK_RECORD
  5
205
100
AcDbSymbolTableRecord
100
AcDbBlockTableRecord
  2
*Model_Space
  0
BLOCK_RECORD
  5
206
100
AcDbSymbolTableRecord
100
AcDbBlockTableRecord
  2
*Paper_Space
  0
BLOCK_RECORD
  5
207
100
AcDbSymbolTableRecord
100
AcDbBlockTableRecord
  2
_FILLED
  0
BLOCK_RECORD
  5
208
100
AcDbSymbolTableRecord
100
AcDbBlockTableRecord
  2
*D0
  0
BLOCK_RECORD
  5
209
100
AcDbSymbolTableRecord
100
AcDbBlockTableRecord
  2
*D1
  0
BLOCK_RECORD
  5
20A
100
AcDbSymbolTableRecord
100
AcDbBlockTableRecord
  2
*D2
  0
BLOCK_RECORD
  5
20B
100
AcDbSymbolTableRecord
100
AcDbBlockTableRecord
  2
*D3
  0
BLOCK_RECORD
  5
20C
100
AcDbSymbolTableRecord
100
AcDbBlockTableRecord
  2
*D4
  0
ENDTAB
  0
TABLE
  2
DIMSTYLE
  5
A
100
AcDbSymbolTable
 70
1
100
AcDbDimStyleTable
 71
0
  0
DIMSTYLE
105
20D
100
AcDbSymbolTableRecord
100
AcDbDimStyleTableRecord
  2
STANDARD
 70
0
  3

  4

 40
1.0
 41
3.5
 42
0.0
 43
0.38
 44
1.5
 45
0.0
 46
0.0
 47
0.05
 48
0.05
140
3.5
141
0.09
142
0.0
143
25.4
144
1.0
145
0.0
146
1.0
147
0.625
 71
1
 72
0
 73
0
 74
0
 75
0
 76
0
 77
1
 78
8
 79
2
170
0
171
1
172
0
173
0
174
0
175
0
176
0
177
0
178
7
270
2
179
2
271
2
272
2
273
2
274
2
275
0
280
0
281
0
282
0
283
1
284
8
285
0
286
0
287
3
288
0
340
11
278
46
341
207
342
207
343
207
344
207
  0
DIMSTYLE
105
20E
100
AcDbSymbolTableRecord
100
AcDbDimStyleTableRecord
  2
DIMSTYLE_1
 70
0
  3

  4

 40
1.0
 41
3.5
 42
0.0
 43
0.38
 44
1.5
 45
0.0
 46
0.0
 47
0.2
 48
0.2
140
3.5
141
0.09
142
0.0
143
25.4
144
1.0
145
0.0
146
1.0
147
0.875
 71
0
 72
0
 73
0
 74
0
 75
0
 76
0
 77
1
 78
8
 79
2
170
0
171
1
172
0
173
0
174
0
175
0
176
0
177
0
178
7
270
2
179
2
271
2
272
2
273
2
274
2
275
0
280
0
281
0
282
0
283
1
284
8
285
0
286
0
287
3
288
0
340
11
278
46
341
207
342
207
343
207
344
207
  0
DIMSTYLE
105
20F
100
AcDbSymbolTableRecord
100
AcDbDimStyleTableRecord
  2
DIMSTYLE_2
 70
0
  3

  4

 40
1.0
 41
3.5
 42
0.0
 43
0.38
 44
1.5
 45
0.0
 46
0.0
 47
0.5
 48
0.5
140
3.5
141
0.09
142
0.0
143
25.4
144
1.0
145
0.0
146
1.0
147
0.875
 71
0
 72
0
 73
0
 74
0
 75
0
 76
0
 77
1
 78
8
 79
2
170
0
171
1
172
0
173
0
174
0
175
0
176
0
177
0
178
7
270
2
179
2
271
2
272
2
273
2
274
2
275
0
280
0
281
0
282
0
283
1
284
8
285
0
286
0
287
3
288
0
340
11
278
46
341
207
342
207
343
207
344
207
  0
DIMSTYLE
105
210
100
AcDbSymbolTableRecord
100
AcDbDimStyleTableRecord
  2
DIMSTYLE_3
 70
0
  3

  4

 40
1.0
 41
3.5
 42
0.0
 43
0.38
 44
1.5
 45
0.0
 46
0.0
 47
0.3
 48
0.3
140
3.5
141
0.09
142
0.0
143
25.4
144
1.0
145
0.0
146
1.0
147
0.875
 71
0
 72
0
 73
0
 74
0
 75
0
 76
0
 77
1
 78
8
 79
2
170
0
171
1
172
0
173
0
174
0
175
0
176
0
177
0
178
7
270
2
179
2
271
2
272
2
273
2
274
2
275
0
280
0
281
0
282
0
283
1
284
8
285
0
286
0
287
3
288
0
340
11
278
46
341
207
342
207
343
207
344
207
  0
ENDTAB
  0
ENDSEC
  0
SECTION
  2
BLOCKS
  0
BLOCK
  5
20
100
AcDbEntity
  8
0
100
AcDbBlockBegin
  2
*Model_Space
 70
0
 10
0.0
 20
0.0
 30
0.0
  3
*Model_Space
  1

  0
ENDBLK
  5
21
100
AcDbEntity
  8
0
100
AcDbBlockEnd
  0
BLOCK
  5
1C
100
AcDbEntity
  8
0
100
AcDbBlockBegin
  2
*Paper_Space
 70
0
 10
0.0
 20
0.0
 30
0.0
  3
*Paper_Space
  1

  0
ENDBLK
  5
1D
100
AcDbEntity
  8
0
100
AcDbBlockEnd
  0
BLOCK
  5
211
100
AcDbEntity
  8
0
100
AcDbBlockBegin
  2
_FILLED
 70
64
 10
0.0
 20
0.0
  3
_FILLED
  1

  0
SOLID
  5
212
100
AcDbEntity
  8
0
  6
BYBLOCK
 62
0
100
AcDbTrace
 10
0.0
 20
0.0
 11
-1.0
 21
0.125
 12
-1.0
 22
-0.125
 13
-1.0
 23
-0.125
  0
ENDBLK
  5
213
100
AcDbEntity
  8
0
  6
BYBLOCK
 62
0
100
AcDbBlockEnd
  0
BLOCK
  5
214
100
AcDbEntity
  8
2
100
AcDbBlockBegin
 62
7
  6
CONTINUOUS
  2
*D0
 70
65
 10
0.0
 20
0.0
  3
*D0
  1

  0
TEXT
  5
215
100
AcDbEntity
  8
2
100
AcDbText
 62
7
  6
CONTINUOUS
 10
188.125
 20
-4.9583333333
  7
TEXTSTYLE_2
 40
3.5
  1
n
 50
90.0
 41
1.0
 72
1
 11
188.125
 21
-2.625
100
AcDbText
  0
TEXT
  5
216
100
AcDbEntity
  8
2
100
AcDbText
 62
7
  6
CONTINUOUS
 10
188.125
 20
-0.2916666667
  7
STANDARD
 40
3.5
  1
25
 50
90.0
 41
0.75
 72
1
 11
188.125
 21
2.3333333333
100
AcDbText
  0
LINE
  5
217
100
AcDbEntity
  8
2
100
AcDbLine
 62
7
  6
CONTINUOUS
 10
180.0
 20
12.5
 11
190.5
 21
12.5
  0
LINE
  5
218
100
AcDbEntity
  8
2
100
AcDbLine
 62
7
  6
CONTINUOUS
 10
180.0
 20
-12.5
 11
190.5
 21
-12.5
  0
LINE
  5
219
100
AcDbEntity
  8
2
100
AcDbLine
 62
7
  6
CONTINUOUS
 10
189.0
 20
12.5
 11
189.0
 21
-0.0
  0
LINE
  5
21A
100
AcDbEntity
  8
2
100
AcDbLine
 62
7
  6
CONTINUOUS
 10
189.0
 20
-12.5
 11
189.0
 21
-0.0
  0
INSERT
  5
21B
100
AcDbEntity
  8
2
100
AcDbBlockReference
 62
7
  6
CONTINUOUS
  2
_FILLED
 10
189.0
 20
12.5
 41
3.5
 42
3.5
 43
3.5
 50
90.0
  0
INSERT
  5
21C
100
AcDbEntity
  8
2
100
AcDbBlockReference
 62
7
  6
CONTINUOUS
  2
_FILLED
 10
189.0
 20
-12.5
 41
3.5
 42
3.5
 43
3.5
 50
270.0
  0
ENDBLK
  5
21D
100
AcDbEntity
  8
0
  6
BYBLOCK
 62
0
100
AcDbBlockEnd
  0
BLOCK
  5
21E
100
AcDbEntity
  8
2
100
AcDbBlockBegin
 62
7
  6
CONTINUOUS
  2
*D1
 70
65
 10
0.0
 20
0.0
  3
*D1
  1

  0
TEXT
  5
21F
100
AcDbEntity
  8
2
100
AcDbText
 62
7
  6
CONTINUOUS
 10
86.25
 20
50.375
  7
STANDARD
 40
3.5
  1
180
 41
0.7142857143
 72
1
 11
90.0
 21
50.375
100
AcDbText
  0
LINE
  5
220
100
AcDbEntity
  8
2
100
AcDbLine
 62
7
  6
CONTINUOUS
 10
180.0
 20
12.5
 11
180.0
 21
51.0
  0
LINE
  5
221
100
AcDbEntity
  8
2
100
AcDbLine
 62
7
  6
CONTINUOUS
 10
0.0
 20
12.5
 11
0.0
 21
51.0
  0
LINE
  5
222
100
AcDbEntity
  8
2
100
AcDbLine
 62
7
  6
CONTINUOUS
 10
180.0
 20
49.5
 11
90.0
 21
49.5
  0
LINE
  5
223
100
AcDbEntity
  8
2
100
AcDbLine
 62
7
  6
CONTINUOUS
 10
0.0
 20
49.5
 11
90.0
 21
49.5
  0
INSERT
  5
224
100
AcDbEntity
  8
2
100
AcDbBlockReference
 62
7
  6
CONTINUOUS
  2
_FILLED
 10
180.0
 20
49.5
 41
3.5
 42
3.5
 43
3.5
  0
INSERT
  5
225
100
AcDbEntity
  8
2
100
AcDbBlockReference
 62
7
  6
CONTINUOUS
  2
_FILLED
 10
0.0
 20
49.5
 41
3.5
 42
3.5
 43
3.5
 50
180.0
  0
ENDBLK
  5
226
100
AcDbEntity
  8
0
  6
BYBLOCK
 62
0
100
AcDbBlockEnd
  0
BLOCK
  5
227
100
AcDbEntity
  8
2
100
AcDbBlockBegin
 62
7
  6
CONTINUOUS
  2
*D2
 70
65
 10
0.0
 20
0.0
  3
*D2
  1

  0
TEXT
  5
228
100
AcDbEntity
  8
2
100
AcDbText
 62
7
  6
CONTINUOUS
 10
-47.875
 20
-8.2083333333
  7
STANDARD
 40
3.5
  1
PSC 
 50
90.0
 41
0.7976190476
 72
1
 11
-47.875
 21
-2.625
100
AcDbText
  0
TEXT
  5
229
100
AcDbEntity
  8
2
100
AcDbText
 62
7
  6
CONTINUOUS
 10
-47.875
 20
2.9583333333
  7
STANDARD
 40
3.5
  1
63
 50
90.0
 41
0.75
 72
1
 11
-47.875
 21
5.5833333333
100
AcDbText
  0
LINE
  5
22A
100
AcDbEntity
  8
2
100
AcDbLine
 62
7
  6
CONTINUOUS
 10
0.3
 20
31.5
 11
-48.5
 21
31.5
  0
LINE
  5
22B
100
AcDbEntity
  8
2
100
AcDbLine
 62
7
  6
CONTINUOUS
 10
0.3
 20
-31.5
 11
-48.5
 21
-31.5
  0
LINE
  5
22C
100
AcDbEntity
  8
2
100
AcDbLine
 62
7
  6
CONTINUOUS
 10
-47.0
 20
31.5
 11
-47.0
 21
0.0
  0
LINE
  5
22D
100
AcDbEntity
  8
2
100
AcDbLine
 62
7
  6
CONTINUOUS
 10
-47.0
 20
-31.5
 11
-47.0
 21
0.0
  0
INSERT
  5
22E
100
AcDbEntity
  8
2
100
AcDbBlockReference
 62
7
  6
CONTINUOUS
  2
_FILLED
 10
-47.0
 20
31.5
 41
3.5
 42
3.5
 43
3.5
 50
90.0
  0
INSERT
  5
22F
100
AcDbEntity
  8
2
100
AcDbBlockReference
 62
7
  6
CONTINUOUS
  2
_FILLED
 10
-47.0
 20
-31.5
 41
3.5
 42
3.5
 43
3.5
 50
270.0
  0
ENDBLK
  5
230
100
AcDbEntity
  8
0
  6
BYBLOCK
 62
0
100
AcDbBlockEnd
  0
BLOCK
  5
231
100
AcDbEntity
  8
2
100
AcDbBlockBegin
 62
7
  6
CONTINUOUS
  2
*D3
 70
65
 10
0.0
 20
0.0
  3
*D3
  1

  0
TEXT
  5
232
100
AcDbEntity
  8
2
100
AcDbText
 62
7
  6
CONTINUOUS
 10
67.25
 20
59.375
  7
STANDARD
 40
3.5
  1
218
 41
0.7142857143
 72
1
 11
71.0
 21
59.375
100
AcDbText
  0
LINE
  5
233
100
AcDbEntity
  8
2
100
AcDbLine
 62
7
  6
CONTINUOUS
 10
-38.0
 20
21.2290945869
 11
-38.0
 21
60.0
  0
LINE
  5
234
100
AcDbEntity
  8
2
100
AcDbLine
 62
7
  6
CONTINUOUS
 10
180.0
 20
12.5
 11
180.0
 21
60.0
  0
LINE
  5
235
100
AcDbEntity
  8
2
100
AcDbLine
 62
7
  6
CONTINUOUS
 10
-38.0
 20
58.5
 11
71.0
 21
58.5
  0
LINE
  5
236
100
AcDbEntity
  8
2
100
AcDbLine
 62
7
  6
CONTINUOUS
 10
180.0
 20
58.5
 11
71.0
 21
58.5
  0
INSERT
  5
237
100
AcDbEntity
  8
2
100
AcDbBlockReference
 62
7
  6
CONTINUOUS
  2
_FILLED
 10
-38.0
 20
58.5
 41
3.5
 42
3.5
 43
3.5
 50
180.0
  0
INSERT
  5
238
100
AcDbEntity
  8
2
100
AcDbBlockReference
 62
7
  6
CONTINUOUS
  2
_FILLED
 10
180.0
 20
58.5
 41
3.5
 42
3.5
 43
3.5
  0
ENDBLK
  5
239
100
AcDbEntity
  8
0
  6
BYBLOCK
 62
0
100
AcDbBlockEnd
  0
BLOCK
  5
23A
100
AcDbEntity
  8
2
100
AcDbBlockBegin
 62
7
  6
CONTINUOUS
  2
*D4
 70
65
 10
0.0
 20
0.0
  3
*D4
  1

  0
TEXT
  5
23B
100
AcDbEntity
  8
2
100
AcDbText
 62
7
  6
CONTINUOUS
 10
97.375
 20
41.375
  7
STANDARD
 40
3.5
  1
158
 41
0.6904761905
 72
1
 11
101.0
 21
41.375
100
AcDbText
  0
LINE
  5
23C
100
AcDbEntity
  8
2
100
AcDbLine
 62
7
  6
CONTINUOUS
 10
22.0
 20
31.5
 11
22.0
 21
42.0
  0
LINE
  5
23D
100
AcDbEntity
  8
2
100
AcDbLine
 62
7
  6
CONTINUOUS
 10
180.0
 20
12.5
 11
180.0
 21
42.0
  0
LINE
  5
23E
100
AcDbEntity
  8
2
100
AcDbLine
 62
7
  6
CONTINUOUS
 10
22.0
 20
40.5
 11
101.0
 21
40.5
  0
LINE
  5
23F
100
AcDbEntity
  8
2
100
AcDbLine
 62
7
  6
CONTINUOUS
 10
180.0
 20
40.5
 11
101.0
 21
40.5
  0
INSERT
  5
240
100
AcDbEntity
  8
2
100
AcDbBlockReference
 62
7
  6
CONTINUOUS
  2
_FILLED
 10
22.0
 20
40.5
 41
3.5
 42
3.5
 43
3.5
 50
180.0
  0
INSERT
  5
241
100
AcDbEntity
  8
2
100
AcDbBlockReference
 62
7
  6
CONTINUOUS
  2
_FILLED
 10
180.0
 20
40.5
 41
3.5
 42
3.5
 43
3.5
 50
360.0
  0
ENDBLK
  5
242
100
AcDbEntity
  8
0
  6
BYBLOCK
 62
0
100
AcDbBlockEnd
  0
ENDSEC
  0
SECTION
  2
ENTITIES
  0
DIMENSION
  5
243
100
AcDbEntity
  8
2
100
AcDbDimension
 62
7
  6
CONTINUOUS
  2
*D0
 10
189.0
 20
-12.5
 11
189.0
 21
-0.0
 70
160
 71
2
 72
2
 41
0.9
 42
25.0
  1
%%c<>
  3
DIMSTYLE_1
100
AcDbAlignedDimension
 13
180.0
 23
12.5
 14
180.0
 24
-12.5
 50
270.0
100
AcDbRotatedDimension
  0
DIMENSION
  5
244
100
AcDbEntity
  8
2
100
AcDbDimension
 62
7
  6
CONTINUOUS
  2
*D1
 10
0.0
 20
49.5
 11
89.4999998474
 21
49.5
 70
160
 71
2
 72
2
 41
0.9
 42
180.0
  3
DIMSTYLE_2
100
AcDbAlignedDimension
 13
180.0
 23
12.5
 14
0.0
 24
12.5
 50
180.0
100
AcDbRotatedDimension
  0
DIMENSION
  5
245
100
AcDbEntity
  8
2
100
AcDbDimension
 62
7
  6
CONTINUOUS
  2
*D2
 10
-47.0
 20
-31.5
 11
-47.0
 21
-0.0
 70
160
 71
2
 72
2
 41
0.9
 42
63.0
  1
PSC <>
  3
DIMSTYLE_3
100
AcDbAlignedDimension
 13
0.3
 23
31.5
 14
0.3
 24
-31.5
 50
270.0
100
AcDbRotatedDimension
  0
DIMENSION
  5
246
100
AcDbEntity
  8
2
100
AcDbDimension
 62
7
  6
CONTINUOUS
  2
*D3
 10
180.0
 20
58.5
 11
70.5000018311
 21
58.5
 70
160
 71
2
 72
2
 41
0.9
 42
218.0
  3
DIMSTYLE_2
100
AcDbAlignedDimension
 13
-38.0
 23
21.2290945869
 14
180.0
 24
12.5
100
AcDbRotatedDimension
  0
DIMENSION
  5
247
100
AcDbEntity
  8
2
100
AcDbDimension
 62
7
  6
CONTINUOUS
  2
*D4
 10
180.0
 20
40.5
 11
100.5000027466
 21
40.5
 70
160
 71
2
 72
2
 41
0.9
 42
158.0
  3
DIMSTYLE_2
100
AcDbAlignedDimension
 13
22.0
 23
31.5
 14
180.0
 24
12.5
100
AcDbRotatedDimension
  0
LINE
  5
248
100
AcDbEntity
  8
NOCUT
100
AcDbLine
 62
7
  6
CONTINUOUS
 10
-38.0
 20
22.5207800503
 11
-38.0
 21
0.0
  0
LINE
  5
249
100
AcDbEntity
  8
1
100
AcDbLine
 62
4
  6
CONTINUOUS
 10
-38.0
 20
-21.231178618
 11
-38.0
 21
21.2311766478
  0
LINE
  5
24A
100
AcDbEntity
  8
1
100
AcDbLine
 62
4
  6
CONTINUOUS
 10
-31.55
 20
-3.7371878229
 11
-31.55
 21
3.7371878229
  0
LINE
  5
24B
100
AcDbEntity
  8
NOCUT
100
AcDbLine
 62
7
  6
CONTINUOUS
 10
0.0
 20
31.5
 11
0.0
 21
23.4753616411
  0
LINE
  5
24C
100
AcDbEntity
  8
1
100
AcDbLine
 62
4
  6
CONTINUOUS
 10
-0.0
 20
-31.2
 11
0.0
 21
31.2
  0
LINE
  5
24D
100
AcDbEntity
  8
1
100
AcDbLine
 62
4
  6
CONTINUOUS
 10
0.3
 20
-31.5
 11
0.3
 21
31.5
  0
LINE
  5
24E
100
AcDbEntity
  8
1
100
AcDbLine
 62
4
  6
CONTINUOUS
 10
-0.0000000003
 20
31.1999999997
 11
0.2999999997
 21
31.4999999997
  0
LINE
  5
24F
100
AcDbEntity
  8
1
100
AcDbLine
 62
4
  6
CONTINUOUS
 10
-0.0000000003
 20
-31.1999999997
 11
0.2999999997
 21
-31.4999999997
  0
LINE
  5
250
100
AcDbEntity
  8
1
100
AcDbLine
 62
4
  6
CONTINUOUS
 10
10.25
 20
30.0805927603
 11
10.25
 21
9.3492213145
  0
LINE
  5
251
100
AcDbEntity
  8
1
100
AcDbLine
 62
4
  6
CONTINUOUS
 10
10.25
 20
-9.3492213145
 11
10.25
 21
-30.0805927603
  0
LINE
  5
252
100
AcDbEntity
  8
1
100
AcDbLine
 62
4
  6
CONTINUOUS
 10
13.75
 20
30.0805927603
 11
13.75
 21
9.3492213145
  0
LINE
  5
253
100
AcDbEntity
  8
1
100
AcDbLine
 62
4
  6
CONTINUOUS
 10
13.75
 20
-9.3492213145
 11
13.75
 21
-30.0805927603
  0
LINE
  5
254
100
AcDbEntity
  8
1
100
AcDbLine
 62
4
  6
CONTINUOUS
 10
22.0
 20
31.5
 11
22.0
 21
-31.5
  0
LINE
  5
255
100
AcDbEntity
  8
1
100
AcDbLine
 62
7
  6
CONTINUOUS
 10
26.0498896376
 20
-16.8965697435
 11
26.0498896376
 21
16.8965697435
  0
LINE
  5
256
100
AcDbEntity
  8
1
100
AcDbLine
 62
7
  6
CONTINUOUS
 10
31.8316723568
 20
-12.5
 11
31.8316723568
 21
12.5
  0
LINE
  5
257
100
AcDbEntity
  8
1
100
AcDbLine
 62
4
  6
CONTINUOUS
 10
22.0
 20
-31.5
 11
26.0498896376
 21
-16.8965697435
  0
LINE
  5
258
100
AcDbEntity
  8
1
100
AcDbLine
 62
4
  6
CONTINUOUS
 10
22.0
 20
31.5
 11
26.0498896376
 21
16.8965697435
  0
LINE
  5
259
100
AcDbEntity
  8
NOCUT
100
AcDbLine
 62
7
  6
CONTINUOUS
 10
22.0
 20
31.5
 11
26.0498896376
 21
16.8965697435
  0
LINE
  5
25A
100
AcDbEntity
  8
1
100
AcDbLine
 62
4
  6
CONTINUOUS
 10
0.3
 20
-31.5
 11
22.0
 21
-31.5
  0
LINE
  5
25B
100
AcDbEntity
  8
1
100
AcDbLine
 62
4
  6
CONTINUOUS
 10
10.25
 20
-30.0805927603
 11
13.75
 21
-30.0805927603
  0
LINE
  5
25C
100
AcDbEntity
  8
1
100
AcDbLine
 62
4
  6
CONTINUOUS
 10
-38.0
 20
-21.2320686144
 11
-0.0
 21
-22.1809632303
  0
LINE
  5
25D
100
AcDbEntity
  8
1
100
AcDbLine
 62
4
  6
CONTINUOUS
 10
31.8316723568
 20
-12.5
 11
180.0
 21
-12.5
  0
LINE
  5
25E
100
AcDbEntity
  8
1
100
AcDbLine
 62
4
  6
CONTINUOUS
 10
10.25
 20
-9.3492213145
 11
13.75
 21
-9.3492213145
  0
LINE
  5
25F
100
AcDbEntity
  8
NOCUT
100
AcDbLine
 62
7
  6
CONTINUOUS
 10
-38.0
 20
0.0
 11
180.0
 21
-0.0
  0
LINE
  5
260
100
AcDbEntity
  8
4
100
AcDbLine
 62
2
  6
CENTER
 10
-38.0
 20
0.0
 11
180.0
 21
-0.0
  0
LINE
  5
261
100
AcDbEntity
  8
1
100
AcDbLine
 62
4
  6
CONTINUOUS
 10
10.25
 20
9.3492213145
 11
13.75
 21
9.3492213145
  0
LINE
  5
262
100
AcDbEntity
  8
1
100
AcDbLine
 62
4
  6
CONTINUOUS
 10
31.8316723568
 20
12.5
 11
180.0
 21
12.5
  0
LINE
  5
263
100
AcDbEntity
  8
NOCUT
100
AcDbLine
 62
7
  6
CONTINUOUS
 10
31.8316723568
 20
12.5
 11
180.0
 21
12.5
  0
LINE
  5
264
100
AcDbEntity
  8
NOCUT
100
AcDbLine
 62
7
  6
CONTINUOUS
 10
0.0
 20
23.4753616411
 11
-38.0
 21
22.5207800503
  0
LINE
  5
265
100
AcDbEntity
  8
1
100
AcDbLine
 62
4
  6
CONTINUOUS
 10
0.0
 20
22.1809632303
 11
-38.0
 21
21.2320686144
  0
LINE
  5
266
100
AcDbEntity
  8
1
100
AcDbLine
 62
4
  6
CONTINUOUS
 10
10.25
 20
30.0805927603
 11
13.75
 21
30.0805927603
  0
LINE
  5
267
100
AcDbEntity
  8
1
100
AcDbLine
 62
4
  6
CONTINUOUS
 10
0.3
 20
31.5
 11
22.0
 21
31.5
  0
LINE
  5
268
100
AcDbEntity
  8
NOCUT
100
AcDbLine
 62
7
  6
CONTINUOUS
 10
22.0
 20
31.5
 11
0.0
 21
31.5
  0
LINE
  5
269
100
AcDbEntity
  8
1
100
AcDbLine
 62
4
  6
CONTINUOUS
 10
180.0
 20
-12.4996592867
 11
180.0
 21
12.4996592867
  0
LINE
  5
26A
100
AcDbEntity
  8
NOCUT
100
AcDbLine
 62
7
  6
CONTINUOUS
 10
180.0
 20
-0.0
 11
180.0
 21
12.5
  0
ARC
  5
26B
100
AcDbEntity
  8
1
100
AcDbCircle
 62
4
  6
CONTINUOUS
 10
31.8316723568
 20
-18.5
 40
6.0
100
AcDbArc
 50
90.0
 51
164.5
  0
ARC
  5
26C
100
AcDbEntity
  8
1
100
AcDbCircle
 62
4
  6
CONTINUOUS
 10
31.8316723568
 20
18.5
 40
6.0
100
AcDbArc
 50
195.5
 51
270.0
  0
ARC
  5
26D
100
AcDbEntity
  8
NOCUT
100
AcDbCircle
 62
7
  6
CONTINUOUS
 10
31.8316723568
 20
18.5
 40
6.0
100
AcDbArc
 50
195.5
 51
270.0
  0
SPLINE
  5
26E
100
AcDbEntity
  8
1
100
AcDbSpline
 62
4
  6
CONTINUOUS
 70
0
 71
3
 72
8
 73
4
 74
0
 42
0.0000001
 43
0.0000001
 44
0.0000000001
 40
0.0
 40
0.0
 40
0.0
 40
0.0
 40
1.0
 40
1.0
 40
1.0
 40
1.0
 10
-38.0
 20
3.599628029
 30
0.0
 10
-35.8500386409
 20
3.6472586499
 30
0.0
 10
-33.7000359379
 20
3.6930518088
 30
0.0
 10
-31.55
 20
3.7371878229
 30
0.0
  0
SPLINE
  5
26F
100
AcDbEntity
  8
1
100
AcDbSpline
 62
4
  6
CONTINUOUS
 70
0
 71
3
 72
8
 73
4
 74
0
 42
0.0000001
 43
0.0000001
 44
0.0000000001
 40
0.0
 40
0.0
 40
0.0
 40
0.0
 40
1.0
 40
1.0
 40
1.0
 40
1.0
 10
-31.55
 20
-3.7371878229
 30
0.0
 10
-33.7000359379
 20
-3.6930518088
 30
0.0
 10
-35.8500386409
 20
-3.6472586499
 30
0.0
 10
-38.0
 20
-3.599628029
 30
0.0
  0
SPLINE
  5
270
100
AcDbEntity
  8
1
100
AcDbSpline
 62
4
  6
CONTINUOUS
 70
0
 71
3
 72
11
 73
7
 74
0
 42
0.0000001
 43
0.0000001
 44
0.0000000001
 40
0.0
 40
0.0
 40
0.0
 40
0.0
 40
0.2503150863
 40
0.5005671717
 40
0.7505207526
 40
1.0
 40
1.0
 40
1.0
 40
1.0
 10
-30.4013574172
 20
0.0
 30
0.0
 10
-30.4013574172
 20
-0.3289119236
 30
0.0
 10
-30.4744396699
 20
-0.9879428785
 30
0.0
 10
-30.7511956531
 20
-1.9372612391
 30
0.0
 10
-31.1217062346
 20
-2.8509894513
 30
0.0
 10
-31.403855948
 20
-3.4437535075
 30
0.0
 10
-31.55
 20
-3.7371878229
 30
0.0
  0
SPLINE
  5
271
100
AcDbEntity
  8
1
100
AcDbSpline
 62
4
  6
CONTINUOUS
 70
0
 71
3
 72
11
 73
7
 74
0
 42
0.0000001
 43
0.0000001
 44
0.0000000001
 40
0.0
 40
0.0
 40
0.0
 40
0.0
 40
0.2494507987
 40
0.4993863936
 40
0.7496490982
 40
1.0
 40
1.0
 40
1.0
 40
1.0
 10
-31.55
 20
3.7371878229
 30
0.0
 10
-31.4038726569
 20
3.4437870564
 30
0.0
 10
-31.121731326
 20
2.8510871695
 30
0.0
 10
-30.7512358763
 20
1.9374022389
 30
0.0
 10
-30.4744820774
 20
0.9880474859
 30
0.0
 10
-30.4013574172
 20
0.3289588863
 30
0.0
 10
-30.4013574172
 20
0.0
 30
0.0
  0
ELLIPSE
  5
272
100
AcDbEntity
  8
1
100
AcDbEllipse
 62
4
  6
CONTINUOUS
 10
-2.3471541894
 20
0.0
 30
0.0
 11
14.7536831607
 21
31.0932549156
 31
0.0
 40
0.3419987131
 41
-1.1085804372
 42
-0.1404653352
  0
ELLIPSE
  5
273
100
AcDbEntity
  8
1
100
AcDbEllipse
 62
4
  6
CONTINUOUS
 10
26.3471541894
 20
0.0
 30
0.0
 11
14.7536831607
 21
31.0932549156
 31
0.0
 40
0.3419987131
 41
-4.2501730908
 42
-3.2820579888
  0
ELLIPSE
  5
274
100
AcDbEntity
  8
1
100
AcDbEllipse
 62
4
  6
CONTINUOUS
 10
-2.3471541894
 20
0.0
 30
0.0
 11
-14.7536831607
 21
31.0932549156
 31
0.0
 40
0.3419987131
 41
-3.0011273184
 42
-2.0330122164
  0
ELLIPSE
  5
275
100
AcDbEntity
  8
1
100
AcDbEllipse
 62
4
  6
CONTINUOUS
 10
26.3471541894
 20
0.0
 30
0.0
 11
-14.7536831607
 21
31.0932549156
 31
0.0
 40
0.3419987131
 41
0.1404653352
 42
1.1085804372
  0
ENDSEC
  0
SECTION
  2
OBJECTS
  0
DICTIONARY
  5
C
100
AcDbDictionary
280
0
281
1
  3
ACAD_GROUP
350
D
  3
ACAD_MLINESTYLE
350
17
  3
ACAD_LAYOUT
350
1A
  3
ACAD_PLOTSETTINGS
350
19
  3
ACAD_PLOTSTYLENAME
350
E
  0
DICTIONARY
  5
D
102
{ACAD_REACTORS
330
C
102
}
100
AcDbDictionary
280
0
281
1
  0
ACDBDICTIONARYWDFLT
  5
E
102
{ACAD_REACTORS
330
C
102
}
100
AcDbDictionary
281
1
  3
Normal
350
F
100
AcDbDictionaryWithDefault
340
F
  0
DICTIONARY
  5
17
102
{ACAD_REACTORS
330
C
102
}
100
AcDbDictionary
280
0
281
1
  3
Standard
350
18
  0
DICTIONARY
  5
19
102
{ACAD_REACTORS
330
C
102
}
100
AcDbDictionary
281
1
  0
DICTIONARY
  5
1A
102
{ACAD_REACTORS
330
C
102
}
100
AcDbDictionary
281
1
  3
Model
350
276
  3
Layout1
350
277
  0
ACDBPLACEHOLDER
  5
F
102
{ACAD_REACTORS
330
E
102
}
  0
MLINESTYLE
  5
18
102
{ACAD_REACTORS
330
17
102
}
100
AcDbMlineStyle
  2
STANDARD
 70
0
  3

 62
256
 51
90.0
 52
90.0
 71
2
 49
0.5
 62
256
  6
BYLAYER
 49
-0.5
 62
256
  6
BYLAYER
  0
LAYOUT
  5
276
102
{ACAD_REACTORS
330
1A
102
}
100
AcDbPlotSettings
  1

  2
none_device
  4
ISO_A3_(420.00_x_297.00_MM)
  6

 40
0.0
 41
0.0
 42
0.0
 43
0.0
 44
420.0
 45
297.0
 46
0.0
 47
0.0
 48
0.0
 49
0.0
140
0.0
141
0.0
142
1.0
143
1.0
 70
1024
 72
1
 73
0
 74
0
  7

 75
0
147
1.0
148
0.0
149
0.0
100
AcDbLayout
  1
Model
 70
0
 71
0
 10
0.0
 20
0.0
 11
420.0
 21
297.0
 12
0.0
 22
0.0
 32
0.0
 14
0.0
 24
0.0
 34
0.0
 15
0.0
 25
0.0
 35
0.0
146
0.0
 13
0.0
 23
0.0
 33
0.0
 16
1.0
 26
0.0
 36
0.0
 17
0.0
 27
1.0
 37
0.0
 76
0
330
205
345
0
346
0
  0
LAYOUT
  5
277
102
{ACAD_REACTORS
330
1A
102
}
100
AcDbPlotSettings
  1

  2
none_device
  4
ISO_A3_(420.00_x_297.00_MM)
  6

 40
0.0
 41
0.0
 42
0.0
 43
0.0
 44
420.0
 45
297.0
 46
0.0
 47
0.0
 48
0.0
 49
0.0
140
0.0
141
0.0
142
1.0
143
1.0
 70
0
 72
1
 73
0
 74
0
  7

 75
0
147
1.0
148
0.0
149
0.0
100
AcDbLayout
  1
Layout1
 70
0
 71
1
 10
0.0
 20
0.0
 11
420.0
 21
297.0
 12
0.0
 22
0.0
 32
0.0
 14
0.0
 24
0.0
 34
0.0
 15
0.0
 25
0.0
 35
0.0
146
0.0
 13
0.0
 23
0.0
 33
0.0
 16
1.0
 26
0.0
 36
0.0
 17
0.0
 27
1.0
 37
0.0
 76
0
330
206
345
0
346
0
  0
ENDSEC
  0
EOF
