999
DXF file: 8420028055.dxf
999
Pro/ENGINEER 2021164 by Parametric Technology Corporation
  0
SECTION
  2
HEADER
  9
$ACADVER
  1
AC1021
  9
$DWGCODEPAGE
  3
ANSI_1252
  9
$EXTMAX
 10
420.0
 20
297.0
 30
0.0
  9
$EXTMIN
 10
0.0
 20
0.0
 30
0.0
  9
$LIMMIN
 10
0.0
 20
0.0
  9
$LIMMAX
 10
420.0
 20
297.0
  9
$VIEWCTR
 10
210.0
 20
148.5
  9
$VIEWSIZE
 40
297.0
  9
$CLAYER
  8
0
  9
$LTSCALE
 40
23.1
  9
$CELTYPE
  6
BYLAYER
  9
$DIMSCALE
 40
1.0
  9
$DIMASZ
 40
3.5
  9
$DIMEXO
 40
0.0
  9
$DIMDLI
 40
15.96
  9
$DIMEXE
 40
1.5
  9
$DIMCEN
 40
3.78
  9
$DIMLFAC
 40
1.0
  9
$DIMBLK
  1
_FILLED
  9
$DIMALT
 70
0
  9
$DIMALTF
 40
0.0393700787
  9
$DIMTXT
 40
3.5
  9
$DIMTOL
 70
1
  9
$DIMLIM
 70
0
  9
$DIMTFAC
 40
1.0
  9
$DIMTP
 40
0.05
  9
$DIMTM
 40
0.05
  9
$DIMGAP
 40
0.625
  9
$DIMDSEP
 70
46
  9
$AUNITS
 70
0
  9
$PDMODE
 70
3
  9
$PDSIZE
 40
0.3125
  9
$HANDSEED
  5
270
  9
$TILEMODE
 70
1
  9
$MEASUREMENT
 70
1
  9
$INSUNITS
 70
4
  0
ENDSEC
  0
SECTION
  2
CLASSES
  0
CLASS
  1
ACDBDICTIONARYWDFLT
  2
AcDbDictionaryWithDefault
  3
AutoCAD 2000
 90
0
 91
1
280
0
281
0
  0
CLASS
  1
ACDBPLACEHOLDER
  2
AcDbPlaceHolder
  3
AutoCAD 2000
 90
0
 91
1
280
0
281
0
  0
CLASS
  1
LAYOUT
  2
AcDbLayout
  3
AutoCAD 2000
 90
0
 91
0
280
0
281
0
  0
ENDSEC
  0
SECTION
  2
TABLES
  0
TABLE
  2
VPORT
  5
8
100
AcDbSymbolTable
 70
2
  0
VPORT
  5
1F4
100
AcDbSymbolTableRecord
100
AcDbViewportTableRecord
  2
*ACTIVE
 70
0
 10
0.0
 20
0.0
 11
1.0
 21
1.0
 12
210.0
 22
148.5
 13
0.0
 23
0.0
 14
1.0
 24
1.0
 15
0.0
 25
0.0
 16
0.0
 26
0.0
 36
1.0
 17
0.0
 27
0.0
 37
0.0
 40
297.0
 41
1.4141414141
 42
50.0
 43
0.0
 44
0.0
 50
0.0
 51
0.0
 71
0
 72
100
 73
1
 74
1
 75
0
 76
0
 77
0
 78
0
  0
ENDTAB
  0
TABLE
  2
LTYPE
  5
5
100
AcDbSymbolTable
 70
6
  0
LTYPE
  5
14
100
AcDbSymbolTableRecord
100
AcDbLinetypeTableRecord
  2
BYBLOCK
 70
0
  3

 72
65
 73
0
 40
0.0
  0
LTYPE
  5
15
100
AcDbSymbolTableRecord
100
AcDbLinetypeTableRecord
  2
BYLAYER
 70
0
  3

 72
65
 73
0
 40
0.0
  0
LTYPE
  5
16
100
AcDbSymbolTableRecord
100
AcDbLinetypeTableRecord
  2
CONTINUOUS
 70
64
  3
Solid line
 72
65
 73
0
 40
0.0
  0
LTYPE
  5
1F5
100
AcDbSymbolTableRecord
100
AcDbLinetypeTableRecord
  2
CENTER
 70
64
  3
____ _ ____ _ ____ _ ____ _ ____ _ ____ _ ____
 72
65
 73
4
 40
0.6
 49
0.375
 74
0
 49
-0.075
 74
0
 49
0.075
 74
0
 49
-0.075
 74
0
  0
LTYPE
  5
1F6
100
AcDbSymbolTableRecord
100
AcDbLinetypeTableRecord
  2
HIDDEN
 70
64
  3
- - - - - - - - - - - - - - - - - - - -
 72
65
 73
2
 40
0.2
 49
0.1
 74
0
 49
-0.1
 74
0
  0
LTYPE
  5
1F7
100
AcDbSymbolTableRecord
100
AcDbLinetypeTableRecord
  2
PHANTOM
 70
64
  3
_____ _ _ _____ _ _ _____ _ _ _____
 72
65
 73
6
 40
0.8
 49
0.45
 74
0
 49
-0.05
 74
0
 49
0.1
 74
0
 49
-0.05
 74
0
 49
0.1
 74
0
 49
-0.05
 74
0
  0
LTYPE
  5
1F8
100
AcDbSymbolTableRecord
100
AcDbLinetypeTableRecord
  2
DOT
 70
64
  3
. . . . . . . . . . . . . . . . . . . .
 72
65
 73
2
 40
0.2
 49
0.1
 74
0
 49
-0.1
 74
0
  0
LTYPE
  5
1F9
100
AcDbSymbolTableRecord
100
AcDbLinetypeTableRecord
  2
DASHED
 70
64
  3
- - - - - - - - - - - - - - - - - - - -
 72
65
 73
2
 40
0.2
 49
0.1
 74
0
 49
-0.1
 74
0
  0
ENDTAB
  0
TABLE
  2
LAYER
  5
2
100
AcDbSymbolTable
 70
36
  0
LAYER
  5
10
100
AcDbSymbolTableRecord
100
AcDbLayerTableRecord
  2
0
 70
0
 62
7
  6
CONTINUOUS
370
-3
390
F
  0
LAYER
  5
1FA
100
AcDbSymbolTableRecord
100
AcDbLayerTableRecord
  2
DEFAULT_1
 70
0
 62
7
  6
CENTER
370
-3
390
F
  0
LAYER
  5
1FB
100
AcDbSymbolTableRecord
100
AcDbLayerTableRecord
  2
DEFAULT_2
 70
0
 62
1
  6
HIDDEN
370
-3
390
F
  0
LAYER
  5
1FC
100
AcDbSymbolTableRecord
100
AcDbLayerTableRecord
  2
DEFAULT_3
 70
0
 62
7
  6
PHANTOM
370
-3
390
F
  0
LAYER
  5
1FD
100
AcDbSymbolTableRecord
100
AcDbLayerTableRecord
  2
2
 70
0
 62
7
  6
CONTINUOUS
370
-3
390
F
  0
LAYER
  5
1FE
100
AcDbSymbolTableRecord
100
AcDbLayerTableRecord
  2
HILFEN
 70
0
 62
7
  6
CONTINUOUS
370
-3
390
F
  0
LAYER
  5
1FF
100
AcDbSymbolTableRecord
100
AcDbLayerTableRecord
  2
NOCUT
 70
0
 62
7
  6
CONTINUOUS
370
-3
390
F
  0
LAYER
  5
200
100
AcDbSymbolTableRecord
100
AcDbLayerTableRecord
  2
PLATZIERUNG
 70
0
 62
7
  6
CONTINUOUS
370
-3
390
F
  0
LAYER
  5
201
100
AcDbSymbolTableRecord
100
AcDbLayerTableRecord
  2
T_STARTBEZUEGE
 70
0
 62
7
  6
CONTINUOUS
370
-3
390
F
  0
LAYER
  5
202
100
AcDbSymbolTableRecord
100
AcDbLayerTableRecord
  2
_04_NOTIZEN
 70
0
 62
7
  6
CONTINUOUS
370
-3
390
F
  0
LAYER
  5
203
100
AcDbSymbolTableRecord
100
AcDbLayerTableRecord
  2
_05_2D_ELEMENTE
 70
0
 62
7
  6
CONTINUOUS
370
-3
390
F
  0
LAYER
  5
204
100
AcDbSymbolTableRecord
100
AcDbLayerTableRecord
  2
_07_EINRASTLINIEN
 70
0
 62
7
  6
CONTINUOUS
370
-3
390
F
  0
LAYER
  5
205
100
AcDbSymbolTableRecord
100
AcDbLayerTableRecord
  2
_21_KURVEN
 70
0
 62
7
  6
CONTINUOUS
370
-3
390
F
  0
LAYER
  5
206
100
AcDbSymbolTableRecord
100
AcDbLayerTableRecord
  2
_26_BEZUGSACHSEN
 70
0
 62
7
  6
CONTINUOUS
370
-3
390
F
  0
LAYER
  5
207
100
AcDbSymbolTableRecord
100
AcDbLayerTableRecord
  2
_27_BEZUGSEBENEN
 70
0
 62
7
  6
CONTINUOUS
370
-3
390
F
  0
LAYER
  5
208
100
AcDbSymbolTableRecord
100
AcDbLayerTableRecord
  2
_28_BEZUGSPUNKTE
 70
0
 62
7
  6
CONTINUOUS
370
-3
390
F
  0
LAYER
  5
209
100
AcDbSymbolTableRecord
100
AcDbLayerTableRecord
  2
_29_KOORDINATENSYSTEME
 70
0
 62
7
  6
CONTINUOUS
370
-3
390
F
  0
LAYER
  5
20A
100
AcDbSymbolTableRecord
100
AcDbLayerTableRecord
  2
_30_VOLUMEN
 70
0
 62
7
  6
CONTINUOUS
370
-3
390
F
  0
ENDTAB
  0
TABLE
  2
STYLE
  5
3
100
AcDbSymbolTable
 70
1
  0
STYLE
  5
11
100
AcDbSymbolTableRecord
100
AcDbTextStyleTableRecord
  2
STANDARD
 70
0
 40
0.0
 41
0.7
 50
0.0
 71
0
 42
0.2
  3
SIMPLEX.SHX
  4

  0
STYLE
  5
20B
100
AcDbSymbolTableRecord
100
AcDbTextStyleTableRecord
  2
TEXTSTYLE_1
 70
0
 40
0.0
 41
0.8
 50
0.0
 71
0
 42
0.2
  3
gdt
  4

  0
STYLE
  5
20C
100
AcDbSymbolTableRecord
100
AcDbTextStyleTableRecord
  2
TEXTSTYLE_2
 70
0
 40
0.0
 41
0.7
 50
0.0
 71
0
 42
0.2
  3
gdt
  4

  0
ENDTAB
  0
TABLE
  2
VIEW
  5
6
100
AcDbSymbolTable
 70
0
  0
ENDTAB
  0
TABLE
  2
UCS
  5
7
100
AcDbSymbolTable
 70
0
  0
ENDTAB
  0
TABLE
  2
APPID
  5
9
100
AcDbSymbolTable
 70
1
  0
APPID
  5
20D
100
AcDbSymbolTableRecord
100
AcDbRegAppTableRecord
  2
ACAD
 70
0
  0
ENDTAB
  0
TABLE
  2
BLOCK_RECORD
  5
1
100
AcDbSymbolTable
 70
0
  0
BLOCK_RECORD
  5
20E
100
AcDbSymbolTableRecord
100
AcDbBlockTableRecord
  2
*Model_Space
  0
BLOCK_RECORD
  5
20F
100
AcDbSymbolTableRecord
100
AcDbBlockTableRecord
  2
*Paper_Space
  0
BLOCK_RECORD
  5
210
100
AcDbSymbolTableRecord
100
AcDbBlockTableRecord
  2
_FILLED
  0
BLOCK_RECORD
  5
211
100
AcDbSymbolTableRecord
100
AcDbBlockTableRecord
  2
*D0
  0
BLOCK_RECORD
  5
212
100
AcDbSymbolTableRecord
100
AcDbBlockTableRecord
  2
*D1
  0
BLOCK_RECORD
  5
213
100
AcDbSymbolTableRecord
100
AcDbBlockTableRecord
  2
*D2
  0
BLOCK_RECORD
  5
214
100
AcDbSymbolTableRecord
100
AcDbBlockTableRecord
  2
*D3
  0
ENDTAB
  0
TABLE
  2
DIMSTYLE
  5
A
100
AcDbSymbolTable
 70
1
100
AcDbDimStyleTable
 71
0
  0
DIMSTYLE
105
215
100
AcDbSymbolTableRecord
100
AcDbDimStyleTableRecord
  2
STANDARD
 70
0
  3

  4

 40
1.0
 41
3.5
 42
0.0
 43
0.38
 44
1.5
 45
0.0
 46
0.0
 47
0.05
 48
0.05
140
3.5
141
0.09
142
0.0
143
25.4
144
1.0
145
0.0
146
1.0
147
0.625
 71
1
 72
0
 73
0
 74
0
 75
0
 76
0
 77
1
 78
8
 79
2
170
0
171
1
172
0
173
0
174
0
175
0
176
0
177
0
178
7
270
2
179
2
271
2
272
2
273
2
274
2
275
0
280
0
281
0
282
0
283
1
284
8
285
0
286
0
287
3
288
0
340
11
278
46
341
210
342
210
343
210
344
210
  0
DIMSTYLE
105
216
100
AcDbSymbolTableRecord
100
AcDbDimStyleTableRecord
  2
DIMSTYLE_1
 70
0
  3

  4

 40
1.0
 41
3.5
 42
0.0
 43
0.38
 44
1.5
 45
0.0
 46
0.0
 47
0.3
 48
0.3
140
3.5
141
0.09
142
0.0
143
25.4
144
1.0
145
0.0
146
1.0
147
0.875
 71
0
 72
0
 73
0
 74
0
 75
0
 76
0
 77
1
 78
8
 79
2
170
0
171
1
172
0
173
0
174
0
175
0
176
0
177
0
178
7
270
2
179
2
271
2
272
2
273
2
274
2
275
0
280
0
281
0
282
0
283
1
284
8
285
0
286
0
287
3
288
0
340
11
278
46
341
210
342
210
343
210
344
210
  0
ENDTAB
  0
ENDSEC
  0
SECTION
  2
BLOCKS
  0
BLOCK
  5
20
100
AcDbEntity
  8
0
100
AcDbBlockBegin
  2
*Model_Space
 70
0
 10
0.0
 20
0.0
 30
0.0
  3
*Model_Space
  1

  0
ENDBLK
  5
21
100
AcDbEntity
  8
0
100
AcDbBlockEnd
  0
BLOCK
  5
1C
100
AcDbEntity
  8
0
100
AcDbBlockBegin
  2
*Paper_Space
 70
0
 10
0.0
 20
0.0
 30
0.0
  3
*Paper_Space
  1

  0
ENDBLK
  5
1D
100
AcDbEntity
  8
0
100
AcDbBlockEnd
  0
BLOCK
  5
217
100
AcDbEntity
  8
0
100
AcDbBlockBegin
  2
_FILLED
 70
64
 10
0.0
 20
0.0
  3
_FILLED
  1

  0
SOLID
  5
218
100
AcDbEntity
  8
0
  6
BYBLOCK
 62
0
100
AcDbTrace
 10
0.0
 20
0.0
 11
-1.0
 21
0.125
 12
-1.0
 22
-0.125
 13
-1.0
 23
-0.125
  0
ENDBLK
  5
219
100
AcDbEntity
  8
0
  6
BYBLOCK
 62
0
100
AcDbBlockEnd
  0
BLOCK
  5
21A
100
AcDbEntity
  8
2
100
AcDbBlockBegin
 62
7
  6
CONTINUOUS
  2
*D0
 70
65
 10
0.0
 20
0.0
  3
*D0
  1

  0
TEXT
  5
21B
100
AcDbEntity
  8
2
100
AcDbText
 62
7
  6
CONTINUOUS
 10
42.25
 20
68.875
  7
STANDARD
 40
3.5
  1
90
 41
0.7857142857
 72
1
 11
45.0
 21
68.875
100
AcDbText
  0
LINE
  5
21C
100
AcDbEntity
  8
2
100
AcDbLine
 62
7
  6
CONTINUOUS
 10
0.0
 20
50.0
 11
0.0
 21
69.5
  0
LINE
  5
21D
100
AcDbEntity
  8
2
100
AcDbLine
 62
7
  6
CONTINUOUS
 10
90.0
 20
40.0
 11
90.0
 21
69.5
  0
LINE
  5
21E
100
AcDbEntity
  8
2
100
AcDbLine
 62
7
  6
CONTINUOUS
 10
0.0
 20
68.0
 11
45.0
 21
68.0
  0
LINE
  5
21F
100
AcDbEntity
  8
2
100
AcDbLine
 62
7
  6
CONTINUOUS
 10
90.0
 20
68.0
 11
45.0
 21
68.0
  0
INSERT
  5
220
100
AcDbEntity
  8
2
100
AcDbBlockReference
 62
7
  6
CONTINUOUS
  2
_FILLED
 10
0.0
 20
68.0
 41
3.5
 42
3.5
 43
3.5
 50
180.0
  0
INSERT
  5
221
100
AcDbEntity
  8
2
100
AcDbBlockReference
 62
7
  6
CONTINUOUS
  2
_FILLED
 10
90.0
 20
68.0
 41
3.5
 42
3.5
 43
3.5
  0
ENDBLK
  5
222
100
AcDbEntity
  8
0
  6
BYBLOCK
 62
0
100
AcDbBlockEnd
  0
BLOCK
  5
223
100
AcDbEntity
  8
2
100
AcDbBlockBegin
 62
7
  6
CONTINUOUS
  2
*D1
 70
65
 10
0.0
 20
0.0
  3
*D1
  1

  0
TEXT
  5
224
100
AcDbEntity
  8
2
100
AcDbText
 62
7
  6
CONTINUOUS
 10
57.125
 20
59.875
  7
STANDARD
 40
3.5
  1
61
 41
0.6785714286
 72
1
 11
59.5
 21
59.875
100
AcDbText
  0
LINE
  5
225
100
AcDbEntity
  8
2
100
AcDbLine
 62
7
  6
CONTINUOUS
 10
29.0
 20
48.774993593
 11
29.0
 21
60.5
  0
LINE
  5
226
100
AcDbEntity
  8
2
100
AcDbLine
 62
7
  6
CONTINUOUS
 10
90.0
 20
40.0
 11
90.0
 21
60.5
  0
LINE
  5
227
100
AcDbEntity
  8
2
100
AcDbLine
 62
7
  6
CONTINUOUS
 10
29.0
 20
59.0
 11
59.5
 21
59.0
  0
LINE
  5
228
100
AcDbEntity
  8
2
100
AcDbLine
 62
7
  6
CONTINUOUS
 10
90.0
 20
59.0
 11
59.5
 21
59.0
  0
INSERT
  5
229
100
AcDbEntity
  8
2
100
AcDbBlockReference
 62
7
  6
CONTINUOUS
  2
_FILLED
 10
29.0
 20
59.0
 41
3.5
 42
3.5
 43
3.5
 50
180.0
  0
INSERT
  5
22A
100
AcDbEntity
  8
2
100
AcDbBlockReference
 62
7
  6
CONTINUOUS
  2
_FILLED
 10
90.0
 20
59.0
 41
3.5
 42
3.5
 43
3.5
  0
ENDBLK
  5
22B
100
AcDbEntity
  8
0
  6
BYBLOCK
 62
0
100
AcDbBlockEnd
  0
BLOCK
  5
22C
100
AcDbEntity
  8
2
100
AcDbBlockBegin
 62
7
  6
CONTINUOUS
  2
*D2
 70
65
 10
0.0
 20
0.0
  3
*D2
  1

  0
TEXT
  5
22D
100
AcDbEntity
  8
2
100
AcDbText
 62
7
  6
CONTINUOUS
 10
107.125
 20
-5.0833333333
  7
TEXTSTYLE_2
 40
3.5
  1
n
 50
90.0
 41
1.0
 72
1
 11
107.125
 21
-2.75
100
AcDbText
  0
TEXT
  5
22E
100
AcDbEntity
  8
2
100
AcDbText
 62
7
  6
CONTINUOUS
 10
107.125
 20
-0.4166666667
  7
STANDARD
 40
3.5
  1
80
 50
90.0
 41
0.7857142857
 72
1
 11
107.125
 21
2.3333333333
100
AcDbText
  0
LINE
  5
22F
100
AcDbEntity
  8
2
100
AcDbLine
 62
7
  6
CONTINUOUS
 10
90.0
 20
40.0
 11
109.5
 21
40.0
  0
LINE
  5
230
100
AcDbEntity
  8
2
100
AcDbLine
 62
7
  6
CONTINUOUS
 10
90.0
 20
-40.0
 11
109.5
 21
-40.0
  0
LINE
  5
231
100
AcDbEntity
  8
2
100
AcDbLine
 62
7
  6
CONTINUOUS
 10
108.0
 20
40.0
 11
108.0
 21
-0.0
  0
LINE
  5
232
100
AcDbEntity
  8
2
100
AcDbLine
 62
7
  6
CONTINUOUS
 10
108.0
 20
-40.0
 11
108.0
 21
-0.0
  0
INSERT
  5
233
100
AcDbEntity
  8
2
100
AcDbBlockReference
 62
7
  6
CONTINUOUS
  2
_FILLED
 10
108.0
 20
40.0
 41
3.5
 42
3.5
 43
3.5
 50
90.0
  0
INSERT
  5
234
100
AcDbEntity
  8
2
100
AcDbBlockReference
 62
7
  6
CONTINUOUS
  2
_FILLED
 10
108.0
 20
-40.0
 41
3.5
 42
3.5
 43
3.5
 50
270.0
  0
ENDBLK
  5
235
100
AcDbEntity
  8
0
  6
BYBLOCK
 62
0
100
AcDbBlockEnd
  0
BLOCK
  5
236
100
AcDbEntity
  8
2
100
AcDbBlockBegin
 62
7
  6
CONTINUOUS
  2
*D3
 70
65
 10
0.0
 20
0.0
  3
*D3
  1

  0
TEXT
  5
237
100
AcDbEntity
  8
2
100
AcDbText
 62
7
  6
CONTINUOUS
 10
98.125
 20
-5.0833333333
  7
TEXTSTYLE_2
 40
3.5
  1
n
 50
90.0
 41
1.0
 72
1
 11
98.125
 21
-2.75
100
AcDbText
  0
TEXT
  5
238
100
AcDbEntity
  8
2
100
AcDbText
 62
7
  6
CONTINUOUS
 10
98.125
 20
-0.4166666667
  7
STANDARD
 40
3.5
  1
46
 50
90.0
 41
0.7857142857
 72
1
 11
98.125
 21
2.3333333333
100
AcDbText
  0
LINE
  5
239
100
AcDbEntity
  8
2
100
AcDbLine
 62
7
  6
CONTINUOUS
 10
90.0
 20
23.0
 11
100.5
 21
23.0
  0
LINE
  5
23A
100
AcDbEntity
  8
2
100
AcDbLine
 62
7
  6
CONTINUOUS
 10
90.0
 20
-23.0
 11
100.5
 21
-23.0
  0
LINE
  5
23B
100
AcDbEntity
  8
2
100
AcDbLine
 62
7
  6
CONTINUOUS
 10
99.0
 20
23.0
 11
99.0
 21
-0.0
  0
LINE
  5
23C
100
AcDbEntity
  8
2
100
AcDbLine
 62
7
  6
CONTINUOUS
 10
99.0
 20
-23.0
 11
99.0
 21
-0.0
  0
INSERT
  5
23D
100
AcDbEntity
  8
2
100
AcDbBlockReference
 62
7
  6
CONTINUOUS
  2
_FILLED
 10
99.0
 20
23.0
 41
3.5
 42
3.5
 43
3.5
 50
90.0
  0
INSERT
  5
23E
100
AcDbEntity
  8
2
100
AcDbBlockReference
 62
7
  6
CONTINUOUS
  2
_FILLED
 10
99.0
 20
-23.0
 41
3.5
 42
3.5
 43
3.5
 50
270.0
  0
ENDBLK
  5
23F
100
AcDbEntity
  8
0
  6
BYBLOCK
 62
0
100
AcDbBlockEnd
  0
ENDSEC
  0
SECTION
  2
ENTITIES
  0
DIMENSION
  5
240
100
AcDbEntity
  8
2
100
AcDbDimension
 62
7
  6
CONTINUOUS
  2
*D0
 10
90.0
 20
68.0
 11
44.5000000763
 21
68.0
 70
160
 71
2
 72
2
 41
0.9
 42
90.0
  3
DIMSTYLE_1
100
AcDbAlignedDimension
 13
0.0
 23
50.0
 14
90.0
 24
40.0
100
AcDbRotatedDimension
  0
DIMENSION
  5
241
100
AcDbEntity
  8
2
100
AcDbDimension
 62
7
  6
CONTINUOUS
  2
*D1
 10
90.0
 20
59.0
 11
58.9999992371
 21
59.0
 70
160
 71
2
 72
2
 41
0.9
 42
61.0
  3
DIMSTYLE_1
100
AcDbAlignedDimension
 13
29.0
 23
48.774993593
 14
90.0
 24
40.0
100
AcDbRotatedDimension
  0
DIMENSION
  5
242
100
AcDbEntity
  8
2
100
AcDbDimension
 62
7
  6
CONTINUOUS
  2
*D2
 10
108.0
 20
-40.0
 11
108.0
 21
-0.0
 70
160
 71
2
 72
2
 41
0.9
 42
80.0
  1
%%c<>
  3
DIMSTYLE_1
100
AcDbAlignedDimension
 13
90.0
 23
40.0
 14
90.0
 24
-40.0
 50
270.0
100
AcDbRotatedDimension
  0
DIMENSION
  5
243
100
AcDbEntity
  8
2
100
AcDbDimension
 62
7
  6
CONTINUOUS
  2
*D3
 10
99.0
 20
-23.0
 11
99.0
 21
-0.0
 70
160
 71
2
 72
2
 41
0.9
 42
46.0
  1
%%c<>
  3
DIMSTYLE_1
100
AcDbAlignedDimension
 13
90.0
 23
23.0
 14
90.0
 24
-23.0
 50
270.0
100
AcDbRotatedDimension
  0
LINE
  5
244
100
AcDbEntity
  8
_30_VOLUMEN
100
AcDbLine
 62
4
  6
CONTINUOUS
 10
-50.0
 20
-35.5008953778
 11
-50.0
 21
35.5008953778
  0
LINE
  5
245
100
AcDbEntity
  8
NOCUT
100
AcDbLine
 62
7
  6
CONTINUOUS
 10
-50.0
 20
0.0
 11
-50.0
 21
35.5011845569
  0
LINE
  5
246
100
AcDbEntity
  8
_30_VOLUMEN
100
AcDbLine
 62
4
  6
CONTINUOUS
 10
-0.0
 20
-50.0
 11
5.0
 21
-50.0
  0
LINE
  5
247
100
AcDbEntity
  8
_30_VOLUMEN
100
AcDbLine
 62
4
  6
CONTINUOUS
 10
15.0
 20
-48.9897948557
 11
16.7524047358
 21
-48.9897948557
  0
LINE
  5
248
100
AcDbEntity
  8
_30_VOLUMEN
100
AcDbLine
 62
4
  6
CONTINUOUS
 10
23.2475952642
 20
-48.9897948557
 11
29.0
 21
-48.9897948557
  0
LINE
  5
249
100
AcDbEntity
  8
_30_VOLUMEN
100
AcDbLine
 62
4
  6
CONTINUOUS
 10
18.125
 20
-44.8998886413
 11
21.875
 21
-44.8998886413
  0
LINE
  5
24A
100
AcDbEntity
  8
_30_VOLUMEN
100
AcDbLine
 62
4
  6
CONTINUOUS
 10
90.0
 20
-40.0
 11
32.0
 21
-40.0
  0
LINE
  5
24B
100
AcDbEntity
  8
_30_VOLUMEN
100
AcDbLine
 62
4
  6
CONTINUOUS
 10
-10.0
 20
-37.5065
 11
0.0
 21
-37.5065
  0
LINE
  5
24C
100
AcDbEntity
  8
_30_VOLUMEN
100
AcDbLine
 62
4
  6
CONTINUOUS
 10
-50.0
 20
-35.5011845569
 11
-10.0
 21
-37.5065
  0
LINE
  5
24D
100
AcDbEntity
  8
_30_VOLUMEN
100
AcDbLine
 62
4
  6
CONTINUOUS
 10
-10.0
 20
-37.5065
 11
-10.0
 21
37.5065
  0
LINE
  5
24E
100
AcDbEntity
  8
_30_VOLUMEN
100
AcDbLine
 62
4
  6
CONTINUOUS
 10
-0.0
 20
-49.999708157
 11
0.0
 21
49.999708157
  0
LINE
  5
24F
100
AcDbEntity
  8
NOCUT
100
AcDbLine
 62
7
  6
CONTINUOUS
 10
0.0
 20
37.5065
 11
0.0
 21
50.0
  0
LINE
  5
250
100
AcDbEntity
  8
_30_VOLUMEN
100
AcDbLine
 62
4
  6
CONTINUOUS
 10
16.7524047358
 20
-48.9897948557
 11
16.7524047358
 21
48.774993593
  0
LINE
  5
251
100
AcDbEntity
  8
_30_VOLUMEN
100
AcDbLine
 62
4
  6
CONTINUOUS
 10
18.125
 20
46.3347772164
 11
18.125
 21
-46.5608374033
  0
LINE
  5
252
100
AcDbEntity
  8
NOCUT
100
AcDbLine
 62
7
  6
CONTINUOUS
 10
-50.0
 20
0.0
 11
90.0
 21
0.0
  0
LINE
  5
253
100
AcDbEntity
  8
_30_VOLUMEN
100
AcDbLine
 62
4
  6
CONTINUOUS
 10
21.875
 20
-46.5608374033
 11
21.875
 21
46.3347772164
  0
LINE
  5
254
100
AcDbEntity
  8
_30_VOLUMEN
100
AcDbLine
 62
4
  6
CONTINUOUS
 10
23.2475952642
 20
48.774993593
 11
23.2475952642
 21
-48.9897948557
  0
LINE
  5
255
100
AcDbEntity
  8
_30_VOLUMEN
100
AcDbLine
 62
4
  6
CONTINUOUS
 10
29.0
 20
48.774993593
 11
29.0
 21
-48.9897948557
  0
LINE
  5
256
100
AcDbEntity
  8
NOCUT
100
AcDbLine
 62
7
  6
CONTINUOUS
 10
29.0
 20
43.0
 11
29.0
 21
50.0
  0
LINE
  5
257
100
AcDbEntity
  8
_30_VOLUMEN
100
AcDbLine
 62
7
  6
CONTINUOUS
 10
32.0
 20
40.0
 11
32.0
 21
-40.0
  0
LINE
  5
258
100
AcDbEntity
  8
_30_VOLUMEN
100
AcDbLine
 62
4
  6
CONTINUOUS
 10
-50.0
 20
35.5011845569
 11
-10.0
 21
37.5065
  0
LINE
  5
259
100
AcDbEntity
  8
NOCUT
100
AcDbLine
 62
7
  6
CONTINUOUS
 10
-50.0
 20
35.5011845569
 11
-10.0
 21
37.5065
  0
LINE
  5
25A
100
AcDbEntity
  8
_30_VOLUMEN
100
AcDbLine
 62
4
  6
CONTINUOUS
 10
-10.0
 20
37.5065
 11
0.0
 21
37.5065
  0
LINE
  5
25B
100
AcDbEntity
  8
NOCUT
100
AcDbLine
 62
7
  6
CONTINUOUS
 10
-10.0
 20
37.5065
 11
0.0
 21
37.5065
  0
LINE
  5
25C
100
AcDbEntity
  8
_30_VOLUMEN
100
AcDbLine
 62
4
  6
CONTINUOUS
 10
90.0
 20
40.0
 11
32.0
 21
40.0
  0
LINE
  5
25D
100
AcDbEntity
  8
NOCUT
100
AcDbLine
 62
7
  6
CONTINUOUS
 10
90.0
 20
40.0
 11
32.0
 21
40.0
  0
LINE
  5
25E
100
AcDbEntity
  8
_30_VOLUMEN
100
AcDbLine
 62
4
  6
CONTINUOUS
 10
18.125
 20
44.6654228683
 11
21.875
 21
44.6654228683
  0
LINE
  5
25F
100
AcDbEntity
  8
_30_VOLUMEN
100
AcDbLine
 62
4
  6
CONTINUOUS
 10
15.0
 20
48.774993593
 11
16.7524047358
 21
48.774993593
  0
LINE
  5
260
100
AcDbEntity
  8
_30_VOLUMEN
100
AcDbLine
 62
4
  6
CONTINUOUS
 10
23.2475952642
 20
48.774993593
 11
29.0
 21
48.774993593
  0
LINE
  5
261
100
AcDbEntity
  8
_30_VOLUMEN
100
AcDbLine
 62
4
  6
CONTINUOUS
 10
0.0
 20
50.0
 11
5.0
 21
50.0
  0
LINE
  5
262
100
AcDbEntity
  8
NOCUT
100
AcDbLine
 62
7
  6
CONTINUOUS
 10
0.0
 20
50.0
 11
29.0
 21
50.0
  0
LINE
  5
263
100
AcDbEntity
  8
_30_VOLUMEN
100
AcDbLine
 62
4
  6
CONTINUOUS
 10
90.0
 20
-40.0
 11
90.0
 21
40.0
  0
LINE
  5
264
100
AcDbEntity
  8
NOCUT
100
AcDbLine
 62
7
  6
CONTINUOUS
 10
90.0
 20
0.0
 11
90.0
 21
40.0
  0
ARC
  5
265
100
AcDbEntity
  8
_30_VOLUMEN
100
AcDbCircle
 62
4
  6
CONTINUOUS
 10
32.0
 20
43.0
 40
3.0
100
AcDbArc
 50
180.0
 51
270.0
  0
ARC
  5
266
100
AcDbEntity
  8
_30_VOLUMEN
100
AcDbCircle
 62
4
  6
CONTINUOUS
 10
32.0
 20
-43.0
 40
3.0
100
AcDbArc
 50
90.0
 51
180.0
  0
ARC
  5
267
100
AcDbEntity
  8
NOCUT
100
AcDbCircle
 62
7
  6
CONTINUOUS
 10
32.0
 20
43.0
 40
3.0
100
AcDbArc
 50
180.0
 51
270.0
  0
SPLINE
  5
268
100
AcDbEntity
  8
_30_VOLUMEN
100
AcDbSpline
 62
4
  6
CONTINUOUS
 70
0
 71
3
 72
8
 73
4
 74
0
 42
0.0000001
 43
0.0000001
 44
0.0000000001
 40
0.0
 40
0.0
 40
0.0
 40
0.0
 40
1.0
 40
1.0
 40
1.0
 40
1.0
 10
18.125
 20
-46.5608374033
 30
0.0
 10
17.6678478756
 20
-47.3707042978
 30
0.0
 10
17.2102977898
 20
-48.1803466469
 30
0.0
 10
16.7524047358
 20
-48.9897948557
 30
0.0
  0
SPLINE
  5
269
100
AcDbEntity
  8
_30_VOLUMEN
100
AcDbSpline
 62
4
  6
CONTINUOUS
 70
0
 71
3
 72
8
 73
4
 74
0
 42
0.0000001
 43
0.0000001
 44
0.0000000001
 40
0.0
 40
0.0
 40
0.0
 40
0.0
 40
1.0
 40
1.0
 40
1.0
 40
1.0
 10
16.7524047358
 20
48.774993593
 30
0.0
 10
17.2103786772
 20
47.9618370177
 30
0.0
 10
17.6679329436
 20
47.1484438884
 30
0.0
 10
18.125
 20
46.3347772164
 30
0.0
  0
SPLINE
  5
26A
100
AcDbEntity
  8
_30_VOLUMEN
100
AcDbSpline
 62
4
  6
CONTINUOUS
 70
0
 71
3
 72
26
 73
22
 74
0
 42
0.0000001
 43
0.0000001
 44
0.0000000001
 40
0.0
 40
0.0
 40
0.0
 40
0.0
 40
0.1936905366
 40
0.3799281195
 40
0.4680478297
 40
0.5517310692
 40
0.6302119303
 40
0.7027679404
 40
0.7687214384
 40
0.8274405282
 40
0.8783412993
 40
0.9208944693
 40
0.9388925037
 40
0.9546370895
 40
0.9680824836
 40
0.9791896158
 40
0.9879307589
 40
0.9942843217
 40
0.9982554112
 40
0.9993757109
 40
1.0
 40
1.0
 40
1.0
 40
1.0
 10
15.0
 20
48.774993593
 30
0.0
 10
14.347455524
 20
48.774993593
 30
0.0
 10
13.0673042209
 20
48.8032702902
 30
0.0
 10
11.4933271118
 20
48.9062930739
 30
0.0
 10
10.2926537286
 20
49.0227715487
 30
0.0
 10
9.4551020984
 20
49.1207434848
 30
0.0
 10
8.6715103708
 20
49.22740287
 30
0.0
 10
7.9489959006
 20
49.3389815731
 30
0.0
 10
7.2941137779
 20
49.4516007665
 30
0.0
 10
6.7128594381
 20
49.561399373
 30
0.0
 10
6.2106771481
 20
49.6646824514
 30
0.0
 10
5.8441730027
 20
49.7463972174
 30
0.0
 10
5.5941521108
 20
49.8060886348
 30
0.0
 10
5.4399390164
 20
49.8447038765
 30
0.0
 10
5.3086642038
 20
49.8794069469
 30
0.0
 10
5.2007616577
 20
49.9098763827
 30
0.0
 10
5.1162629588
 20
49.9359181417
 30
0.0
 10
5.0559170575
 20
49.9570700949
 30
0.0
 10
5.0199237152
 20
49.9725160988
 30
0.0
 10
5.0041132117
 20
49.982741325
 30
0.0
 10
5.0
 20
49.9878957663
 30
0.0
 10
5.0
 20
49.9899989998
 30
0.0
  0
SPLINE
  5
26B
100
AcDbEntity
  8
_30_VOLUMEN
100
AcDbSpline
 62
4
  6
CONTINUOUS
 70
0
 71
3
 72
28
 73
24
 74
0
 42
0.0000001
 43
0.0000001
 44
0.0000000001
 40
0.0
 40
0.0
 40
0.0
 40
0.0
 40
0.0003072219
 40
0.0012278998
 40
0.0027605336
 40
0.0049036232
 40
0.0076556695
 40
0.0110151735
 40
0.019548469
 40
0.0304750305
 40
0.043760359
 40
0.059369185
 40
0.0772556297
 40
0.1196480826
 40
0.1704771739
 40
0.2292065333
 40
0.2952429987
 40
0.3679459543
 40
0.4466224672
 40
0.5305404107
 40
0.6189240956
 40
0.8057223374
 40
1.0
 40
1.0
 40
1.0
 40
1.0
 10
5.0000000001
 20
-49.9999999999
 30
0.0
 10
4.9991532667
 20
-50.0005881168
 30
0.0
 10
5.0077132685
 20
-49.9978514817
 30
0.0
 10
5.0124338801
 20
-49.9978910222
 30
0.0
 10
5.0300433447
 20
-49.9938115585
 30
0.0
 10
5.0501008992
 20
-49.9900647977
 30
0.0
 10
5.0776940619
 20
-49.9844869127
 30
0.0
 10
5.1256990349
 20
-49.9750232846
 30
0.0
 10
5.2009584068
 20
-49.9601502626
 30
0.0
 10
5.3087467055
 20
-49.9391142599
 30
0.0
 10
5.4399754526
 20
-49.9138006611
 30
0.0
 10
5.5941848396
 20
-49.8844701331
 30
0.0
 10
5.8445037553
 20
-49.8376547057
 30
0.0
 10
6.2113777246
 20
-49.7711891181
 30
0.0
 10
6.7138864768
 20
-49.6846363425
 30
0.0
 10
7.2955967009
 20
-49.5906502569
 30
0.0
 10
7.9509865557
 20
-49.4927502765
 30
0.0
 10
8.6739660834
 20
-49.3946510173
 30
0.0
 10
9.4578979269
 20
-49.3000781875
 30
0.0
 10
10.295593339
 20
-49.2126486731
 30
0.0
 10
11.4961435746
 20
-49.1082547419
 30
0.0
 10
13.069151721
 20
-49.0153461269
 30
0.0
 10
14.3480646831
 20
-48.9897948557
 30
0.0
 10
15.0
 20
-48.9897948557
 30
0.0
  0
SPLINE
  5
26C
100
AcDbEntity
  8
_30_VOLUMEN
100
AcDbSpline
 62
4
  6
CONTINUOUS
 70
0
 71
3
 72
8
 73
4
 74
0
 42
0.0000001
 43
0.0000001
 44
0.0000000001
 40
0.0
 40
0.0
 40
0.0
 40
0.0
 40
1.0
 40
1.0
 40
1.0
 40
1.0
 10
21.875
 20
-46.5608374033
 30
0.0
 10
22.3321521244
 20
-47.3707042978
 30
0.0
 10
22.7897022102
 20
-48.1803466469
 30
0.0
 10
23.2475952642
 20
-48.9897948557
 30
0.0
  0
SPLINE
  5
26D
100
AcDbEntity
  8
_30_VOLUMEN
100
AcDbSpline
 62
4
  6
CONTINUOUS
 70
0
 71
3
 72
8
 73
4
 74
0
 42
0.0000001
 43
0.0000001
 44
0.0000000001
 40
0.0
 40
0.0
 40
0.0
 40
0.0
 40
1.0
 40
1.0
 40
1.0
 40
1.0
 10
23.2475952642
 20
48.774993593
 30
0.0
 10
22.7896213228
 20
47.9618370177
 30
0.0
 10
22.3320670564
 20
47.1484438884
 30
0.0
 10
21.875
 20
46.3347772164
 30
0.0
  0
ENDSEC
  0
SECTION
  2
OBJECTS
  0
DICTIONARY
  5
C
100
AcDbDictionary
280
0
281
1
  3
ACAD_GROUP
350
D
  3
ACAD_MLINESTYLE
350
17
  3
ACAD_LAYOUT
350
1A
  3
ACAD_PLOTSETTINGS
350
19
  3
ACAD_PLOTSTYLENAME
350
E
  0
DICTIONARY
  5
D
102
{ACAD_REACTORS
330
C
102
}
100
AcDbDictionary
280
0
281
1
  0
ACDBDICTIONARYWDFLT
  5
E
102
{ACAD_REACTORS
330
C
102
}
100
AcDbDictionary
281
1
  3
Normal
350
F
100
AcDbDictionaryWithDefault
340
F
  0
DICTIONARY
  5
17
102
{ACAD_REACTORS
330
C
102
}
100
AcDbDictionary
280
0
281
1
  3
Standard
350
18
  0
DICTIONARY
  5
19
102
{ACAD_REACTORS
330
C
102
}
100
AcDbDictionary
281
1
  0
DICTIONARY
  5
1A
102
{ACAD_REACTORS
330
C
102
}
100
AcDbDictionary
281
1
  3
Model
350
26E
  3
Layout1
350
26F
  0
ACDBPLACEHOLDER
  5
F
102
{ACAD_REACTORS
330
E
102
}
  0
MLINESTYLE
  5
18
102
{ACAD_REACTORS
330
17
102
}
100
AcDbMlineStyle
  2
STANDARD
 70
0
  3

 62
256
 51
90.0
 52
90.0
 71
2
 49
0.5
 62
256
  6
BYLAYER
 49
-0.5
 62
256
  6
BYLAYER
  0
LAYOUT
  5
26E
102
{ACAD_REACTORS
330
1A
102
}
100
AcDbPlotSettings
  1

  2
none_device
  4
ISO_A3_(420.00_x_297.00_MM)
  6

 40
0.0
 41
0.0
 42
0.0
 43
0.0
 44
420.0
 45
297.0
 46
0.0
 47
0.0
 48
0.0
 49
0.0
140
0.0
141
0.0
142
1.0
143
1.0
 70
1024
 72
1
 73
0
 74
0
  7

 75
0
147
1.0
148
0.0
149
0.0
100
AcDbLayout
  1
Model
 70
0
 71
0
 10
0.0
 20
0.0
 11
420.0
 21
297.0
 12
0.0
 22
0.0
 32
0.0
 14
0.0
 24
0.0
 34
0.0
 15
0.0
 25
0.0
 35
0.0
146
0.0
 13
0.0
 23
0.0
 33
0.0
 16
1.0
 26
0.0
 36
0.0
 17
0.0
 27
1.0
 37
0.0
 76
0
330
20E
345
0
346
0
  0
LAYOUT
  5
26F
102
{ACAD_REACTORS
330
1A
102
}
100
AcDbPlotSettings
  1

  2
none_device
  4
ISO_A3_(420.00_x_297.00_MM)
  6

 40
0.0
 41
0.0
 42
0.0
 43
0.0
 44
420.0
 45
297.0
 46
0.0
 47
0.0
 48
0.0
 49
0.0
140
0.0
141
0.0
142
1.0
143
1.0
 70
0
 72
1
 73
0
 74
0
  7

 75
0
147
1.0
148
0.0
149
0.0
100
AcDbLayout
  1
Layout1
 70
0
 71
1
 10
0.0
 20
0.0
 11
420.0
 21
297.0
 12
0.0
 22
0.0
 32
0.0
 14
0.0
 24
0.0
 34
0.0
 15
0.0
 25
0.0
 35
0.0
146
0.0
 13
0.0
 23
0.0
 33
0.0
 16
1.0
 26
0.0
 36
0.0
 17
0.0
 27
1.0
 37
0.0
 76
0
330
20F
345
0
346
0
  0
ENDSEC
  0
EOF
