999
DXF file: 8432906369.dxf
999
Pro/ENGINEER 2021164 by Parametric Technology Corporation
  0
SECTION
  2
HEADER
  9
$ACADVER
  1
AC1021
  9
$DWGCODEPAGE
  3
ANSI_1252
  9
$EXTMAX
 10
420.0
 20
297.0
 30
0.0
  9
$EXTMIN
 10
0.0
 20
0.0
 30
0.0
  9
$LIMMIN
 10
0.0
 20
0.0
  9
$LIMMAX
 10
420.0
 20
297.0
  9
$VIEWCTR
 10
210.0
 20
148.5
  9
$VIEWSIZE
 40
297.0
  9
$CLAYER
  8
0
  9
$LTSCALE
 40
23.1
  9
$CELTYPE
  6
BYLAYER
  9
$DIMSCALE
 40
1.0
  9
$DIMASZ
 40
3.5
  9
$DIMEXO
 40
0.0
  9
$DIMDLI
 40
15.96
  9
$DIMEXE
 40
1.5
  9
$DIMCEN
 40
3.78
  9
$DIMLFAC
 40
1.0
  9
$DIMBLK
  1
_FILLED
  9
$DIMALT
 70
0
  9
$DIMALTF
 40
0.0393700787
  9
$DIMTXT
 40
3.5
  9
$DIMTOL
 70
1
  9
$DIMLIM
 70
0
  9
$DIMTFAC
 40
1.0
  9
$DIMTP
 40
0.05
  9
$DIMTM
 40
0.05
  9
$DIMGAP
 40
0.625
  9
$DIMDSEP
 70
46
  9
$AUNITS
 70
0
  9
$PDMODE
 70
3
  9
$PDSIZE
 40
0.3125
  9
$HANDSEED
  5
2DA
  9
$TILEMODE
 70
1
  9
$MEASUREMENT
 70
1
  9
$INSUNITS
 70
4
  0
ENDSEC
  0
SECTION
  2
CLASSES
  0
CLASS
  1
ACDBDICTIONARYWDFLT
  2
AcDbDictionaryWithDefault
  3
AutoCAD 2000
 90
0
 91
1
280
0
281
0
  0
CLASS
  1
ACDBPLACEHOLDER
  2
AcDbPlaceHolder
  3
AutoCAD 2000
 90
0
 91
1
280
0
281
0
  0
CLASS
  1
LAYOUT
  2
AcDbLayout
  3
AutoCAD 2000
 90
0
 91
0
280
0
281
0
  0
ENDSEC
  0
SECTION
  2
TABLES
  0
TABLE
  2
VPORT
  5
8
100
AcDbSymbolTable
 70
2
  0
VPORT
  5
1F4
100
AcDbSymbolTableRecord
100
AcDbViewportTableRecord
  2
*ACTIVE
 70
0
 10
0.0
 20
0.0
 11
1.0
 21
1.0
 12
210.0
 22
148.5
 13
0.0
 23
0.0
 14
1.0
 24
1.0
 15
0.0
 25
0.0
 16
0.0
 26
0.0
 36
1.0
 17
0.0
 27
0.0
 37
0.0
 40
297.0
 41
1.4141414141
 42
50.0
 43
0.0
 44
0.0
 50
0.0
 51
0.0
 71
0
 72
100
 73
1
 74
1
 75
0
 76
0
 77
0
 78
0
  0
ENDTAB
  0
TABLE
  2
LTYPE
  5
5
100
AcDbSymbolTable
 70
6
  0
LTYPE
  5
14
100
AcDbSymbolTableRecord
100
AcDbLinetypeTableRecord
  2
BYBLOCK
 70
0
  3

 72
65
 73
0
 40
0.0
  0
LTYPE
  5
15
100
AcDbSymbolTableRecord
100
AcDbLinetypeTableRecord
  2
BYLAYER
 70
0
  3

 72
65
 73
0
 40
0.0
  0
LTYPE
  5
16
100
AcDbSymbolTableRecord
100
AcDbLinetypeTableRecord
  2
CONTINUOUS
 70
64
  3
Solid line
 72
65
 73
0
 40
0.0
  0
LTYPE
  5
1F5
100
AcDbSymbolTableRecord
100
AcDbLinetypeTableRecord
  2
CENTER
 70
64
  3
____ _ ____ _ ____ _ ____ _ ____ _ ____ _ ____
 72
65
 73
4
 40
0.6
 49
0.375
 74
0
 49
-0.075
 74
0
 49
0.075
 74
0
 49
-0.075
 74
0
  0
LTYPE
  5
1F6
100
AcDbSymbolTableRecord
100
AcDbLinetypeTableRecord
  2
HIDDEN
 70
64
  3
- - - - - - - - - - - - - - - - - - - -
 72
65
 73
2
 40
0.2
 49
0.1
 74
0
 49
-0.1
 74
0
  0
LTYPE
  5
1F7
100
AcDbSymbolTableRecord
100
AcDbLinetypeTableRecord
  2
PHANTOM
 70
64
  3
_____ _ _ _____ _ _ _____ _ _ _____
 72
65
 73
6
 40
0.8
 49
0.45
 74
0
 49
-0.05
 74
0
 49
0.1
 74
0
 49
-0.05
 74
0
 49
0.1
 74
0
 49
-0.05
 74
0
  0
LTYPE
  5
1F8
100
AcDbSymbolTableRecord
100
AcDbLinetypeTableRecord
  2
DOT
 70
64
  3
. . . . . . . . . . . . . . . . . . . .
 72
65
 73
2
 40
0.2
 49
0.1
 74
0
 49
-0.1
 74
0
  0
LTYPE
  5
1F9
100
AcDbSymbolTableRecord
100
AcDbLinetypeTableRecord
  2
DASHED
 70
64
  3
- - - - - - - - - - - - - - - - - - - -
 72
65
 73
2
 40
0.2
 49
0.1
 74
0
 49
-0.1
 74
0
  0
ENDTAB
  0
TABLE
  2
LAYER
  5
2
100
AcDbSymbolTable
 70
36
  0
LAYER
  5
10
100
AcDbSymbolTableRecord
100
AcDbLayerTableRecord
  2
0
 70
0
 62
7
  6
CONTINUOUS
370
-3
390
F
  0
LAYER
  5
1FA
100
AcDbSymbolTableRecord
100
AcDbLayerTableRecord
  2
DEFAULT_1
 70
0
 62
7
  6
CENTER
370
-3
390
F
  0
LAYER
  5
1FB
100
AcDbSymbolTableRecord
100
AcDbLayerTableRecord
  2
DEFAULT_2
 70
0
 62
1
  6
HIDDEN
370
-3
390
F
  0
LAYER
  5
1FC
100
AcDbSymbolTableRecord
100
AcDbLayerTableRecord
  2
DEFAULT_3
 70
0
 62
7
  6
PHANTOM
370
-3
390
F
  0
LAYER
  5
1FD
100
AcDbSymbolTableRecord
100
AcDbLayerTableRecord
  2
2
 70
0
 62
7
  6
CONTINUOUS
370
-3
390
F
  0
LAYER
  5
1FE
100
AcDbSymbolTableRecord
100
AcDbLayerTableRecord
  2
HILFEN
 70
0
 62
7
  6
CONTINUOUS
370
-3
390
F
  0
LAYER
  5
1FF
100
AcDbSymbolTableRecord
100
AcDbLayerTableRecord
  2
NOCUT
 70
0
 62
7
  6
CONTINUOUS
370
-3
390
F
  0
LAYER
  5
200
100
AcDbSymbolTableRecord
100
AcDbLayerTableRecord
  2
PLATZIERUNG
 70
0
 62
7
  6
CONTINUOUS
370
-3
390
F
  0
LAYER
  5
201
100
AcDbSymbolTableRecord
100
AcDbLayerTableRecord
  2
T_STARTBEZUEGE
 70
0
 62
7
  6
CONTINUOUS
370
-3
390
F
  0
LAYER
  5
202
100
AcDbSymbolTableRecord
100
AcDbLayerTableRecord
  2
_04_NOTIZEN
 70
0
 62
7
  6
CONTINUOUS
370
-3
390
F
  0
LAYER
  5
203
100
AcDbSymbolTableRecord
100
AcDbLayerTableRecord
  2
_05_2D_ELEMENTE
 70
0
 62
7
  6
CONTINUOUS
370
-3
390
F
  0
LAYER
  5
204
100
AcDbSymbolTableRecord
100
AcDbLayerTableRecord
  2
_07_EINRASTLINIEN
 70
0
 62
7
  6
CONTINUOUS
370
-3
390
F
  0
LAYER
  5
205
100
AcDbSymbolTableRecord
100
AcDbLayerTableRecord
  2
_26_BEZUGSACHSEN
 70
0
 62
7
  6
CONTINUOUS
370
-3
390
F
  0
LAYER
  5
206
100
AcDbSymbolTableRecord
100
AcDbLayerTableRecord
  2
_27_BEZUGSEBENEN
 70
0
 62
7
  6
CONTINUOUS
370
-3
390
F
  0
LAYER
  5
207
100
AcDbSymbolTableRecord
100
AcDbLayerTableRecord
  2
_28_BEZUGSPUNKTE
 70
0
 62
7
  6
CONTINUOUS
370
-3
390
F
  0
LAYER
  5
208
100
AcDbSymbolTableRecord
100
AcDbLayerTableRecord
  2
_29_KOORDINATENSYSTEME
 70
0
 62
7
  6
CONTINUOUS
370
-3
390
F
  0
LAYER
  5
209
100
AcDbSymbolTableRecord
100
AcDbLayerTableRecord
  2
_30_VOLUMEN
 70
0
 62
7
  6
CONTINUOUS
370
-3
390
F
  0
ENDTAB
  0
TABLE
  2
STYLE
  5
3
100
AcDbSymbolTable
 70
1
  0
STYLE
  5
11
100
AcDbSymbolTableRecord
100
AcDbTextStyleTableRecord
  2
STANDARD
 70
0
 40
0.0
 41
0.7
 50
0.0
 71
0
 42
0.2
  3
SIMPLEX.SHX
  4

  0
STYLE
  5
20A
100
AcDbSymbolTableRecord
100
AcDbTextStyleTableRecord
  2
TEXTSTYLE_1
 70
0
 40
0.0
 41
0.8
 50
0.0
 71
0
 42
0.2
  3
gdt
  4

  0
STYLE
  5
20B
100
AcDbSymbolTableRecord
100
AcDbTextStyleTableRecord
  2
TEXTSTYLE_2
 70
0
 40
0.0
 41
0.7
 50
0.0
 71
0
 42
0.2
  3
gdt
  4

  0
ENDTAB
  0
TABLE
  2
VIEW
  5
6
100
AcDbSymbolTable
 70
0
  0
ENDTAB
  0
TABLE
  2
UCS
  5
7
100
AcDbSymbolTable
 70
0
  0
ENDTAB
  0
TABLE
  2
APPID
  5
9
100
AcDbSymbolTable
 70
1
  0
APPID
  5
20C
100
AcDbSymbolTableRecord
100
AcDbRegAppTableRecord
  2
ACAD
 70
0
  0
ENDTAB
  0
TABLE
  2
BLOCK_RECORD
  5
1
100
AcDbSymbolTable
 70
0
  0
BLOCK_RECORD
  5
20D
100
AcDbSymbolTableRecord
100
AcDbBlockTableRecord
  2
*Model_Space
  0
BLOCK_RECORD
  5
20E
100
AcDbSymbolTableRecord
100
AcDbBlockTableRecord
  2
*Paper_Space
  0
BLOCK_RECORD
  5
20F
100
AcDbSymbolTableRecord
100
AcDbBlockTableRecord
  2
_FILLED
  0
BLOCK_RECORD
  5
210
100
AcDbSymbolTableRecord
100
AcDbBlockTableRecord
  2
*D0
  0
BLOCK_RECORD
  5
211
100
AcDbSymbolTableRecord
100
AcDbBlockTableRecord
  2
*D1
  0
BLOCK_RECORD
  5
212
100
AcDbSymbolTableRecord
100
AcDbBlockTableRecord
  2
*D2
  0
BLOCK_RECORD
  5
213
100
AcDbSymbolTableRecord
100
AcDbBlockTableRecord
  2
*D3
  0
BLOCK_RECORD
  5
214
100
AcDbSymbolTableRecord
100
AcDbBlockTableRecord
  2
*D4
  0
BLOCK_RECORD
  5
215
100
AcDbSymbolTableRecord
100
AcDbBlockTableRecord
  2
*D5
  0
BLOCK_RECORD
  5
216
100
AcDbSymbolTableRecord
100
AcDbBlockTableRecord
  2
*D6
  0
ENDTAB
  0
TABLE
  2
DIMSTYLE
  5
A
100
AcDbSymbolTable
 70
1
100
AcDbDimStyleTable
 71
0
  0
DIMSTYLE
105
217
100
AcDbSymbolTableRecord
100
AcDbDimStyleTableRecord
  2
STANDARD
 70
0
  3

  4

 40
1.0
 41
3.5
 42
0.0
 43
0.38
 44
1.5
 45
0.0
 46
0.0
 47
0.05
 48
0.05
140
3.5
141
0.09
142
0.0
143
25.4
144
1.0
145
0.0
146
1.0
147
0.625
 71
1
 72
0
 73
0
 74
0
 75
0
 76
0
 77
1
 78
8
 79
2
170
0
171
1
172
0
173
0
174
0
175
0
176
0
177
0
178
7
270
2
179
2
271
2
272
2
273
2
274
2
275
0
280
0
281
0
282
0
283
1
284
8
285
0
286
0
287
3
288
0
340
11
278
46
341
20F
342
20F
343
20F
344
20F
  0
DIMSTYLE
105
218
100
AcDbSymbolTableRecord
100
AcDbDimStyleTableRecord
  2
DIMSTYLE_1
 70
0
  3

  4

 40
1.0
 41
3.5
 42
0.0
 43
0.38
 44
1.5
 45
0.0
 46
0.0
 47
0.3
 48
0.3
140
3.5
141
0.09
142
0.0
143
25.4
144
1.0
145
0.0
146
1.0
147
0.875
 71
0
 72
0
 73
0
 74
0
 75
0
 76
0
 77
1
 78
8
 79
2
170
0
171
1
172
0
173
0
174
0
175
0
176
0
177
0
178
7
270
2
179
2
271
2
272
2
273
2
274
2
275
0
280
0
281
0
282
0
283
1
284
8
285
0
286
0
287
3
288
0
340
11
278
46
341
20F
342
20F
343
20F
344
20F
  0
DIMSTYLE
105
219
100
AcDbSymbolTableRecord
100
AcDbDimStyleTableRecord
  2
DIMSTYLE_2
 70
0
  3

  4

 40
1.0
 41
3.5
 42
0.0
 43
0.38
 44
1.5
 45
0.0
 46
0.0
 47
0.5
 48
0.5
140
3.5
141
0.09
142
0.0
143
25.4
144
1.0
145
0.0
146
1.0
147
0.875
 71
0
 72
0
 73
0
 74
0
 75
0
 76
0
 77
1
 78
8
 79
2
170
0
171
1
172
0
173
0
174
0
175
0
176
0
177
0
178
7
270
2
179
2
271
2
272
2
273
2
274
2
275
0
280
0
281
0
282
0
283
1
284
8
285
0
286
0
287
3
288
0
340
11
278
46
341
20F
342
20F
343
20F
344
20F
  0
DIMSTYLE
105
21A
100
AcDbSymbolTableRecord
100
AcDbDimStyleTableRecord
  2
DIMSTYLE_3
 70
0
  3

  4

 40
1.0
 41
3.5
 42
0.0
 43
0.38
 44
1.5
 45
0.0
 46
0.0
 47
0.2
 48
0.2
140
3.5
141
0.09
142
0.0
143
25.4
144
1.0
145
0.0
146
1.0
147
0.875
 71
0
 72
0
 73
0
 74
0
 75
0
 76
0
 77
1
 78
8
 79
2
170
0
171
1
172
0
173
0
174
0
175
0
176
0
177
0
178
7
270
2
179
2
271
2
272
2
273
2
274
2
275
0
280
0
281
0
282
0
283
1
284
8
285
0
286
0
287
3
288
0
340
11
278
46
341
20F
342
20F
343
20F
344
20F
  0
ENDTAB
  0
ENDSEC
  0
SECTION
  2
BLOCKS
  0
BLOCK
  5
20
100
AcDbEntity
  8
0
100
AcDbBlockBegin
  2
*Model_Space
 70
0
 10
0.0
 20
0.0
 30
0.0
  3
*Model_Space
  1

  0
ENDBLK
  5
21
100
AcDbEntity
  8
0
100
AcDbBlockEnd
  0
BLOCK
  5
1C
100
AcDbEntity
  8
0
100
AcDbBlockBegin
  2
*Paper_Space
 70
0
 10
0.0
 20
0.0
 30
0.0
  3
*Paper_Space
  1

  0
ENDBLK
  5
1D
100
AcDbEntity
  8
0
100
AcDbBlockEnd
  0
BLOCK
  5
21B
100
AcDbEntity
  8
0
100
AcDbBlockBegin
  2
_FILLED
 70
64
 10
0.0
 20
0.0
  3
_FILLED
  1

  0
SOLID
  5
21C
100
AcDbEntity
  8
0
  6
BYBLOCK
 62
0
100
AcDbTrace
 10
0.0
 20
0.0
 11
-1.0
 21
0.125
 12
-1.0
 22
-0.125
 13
-1.0
 23
-0.125
  0
ENDBLK
  5
21D
100
AcDbEntity
  8
0
  6
BYBLOCK
 62
0
100
AcDbBlockEnd
  0
BLOCK
  5
21E
100
AcDbEntity
  8
2
100
AcDbBlockBegin
 62
7
  6
CONTINUOUS
  2
*D0
 70
65
 10
0.0
 20
0.0
  3
*D0
  1

  0
TEXT
  5
21F
100
AcDbEntity
  8
2
100
AcDbText
 62
7
  6
CONTINUOUS
 10
33.125
 20
50.375
  7
STANDARD
 40
3.5
  1
71
 41
0.6785714286
 72
1
 11
35.5
 21
50.375
100
AcDbText
  0
LINE
  5
220
100
AcDbEntity
  8
2
100
AcDbLine
 62
7
  6
CONTINUOUS
 10
71.0
 20
30.5
 11
71.0
 21
51.0
  0
LINE
  5
221
100
AcDbEntity
  8
2
100
AcDbLine
 62
7
  6
CONTINUOUS
 10
0.0
 20
22.225
 11
0.0
 21
51.0
  0
LINE
  5
222
100
AcDbEntity
  8
2
100
AcDbLine
 62
7
  6
CONTINUOUS
 10
71.0
 20
49.5
 11
35.5
 21
49.5
  0
LINE
  5
223
100
AcDbEntity
  8
2
100
AcDbLine
 62
7
  6
CONTINUOUS
 10
0.0
 20
49.5
 11
35.5
 21
49.5
  0
INSERT
  5
224
100
AcDbEntity
  8
2
100
AcDbBlockReference
 62
7
  6
CONTINUOUS
  2
_FILLED
 10
71.0
 20
49.5
 41
3.5
 42
3.5
 43
3.5
  0
INSERT
  5
225
100
AcDbEntity
  8
2
100
AcDbBlockReference
 62
7
  6
CONTINUOUS
  2
_FILLED
 10
0.0
 20
49.5
 41
3.5
 42
3.5
 43
3.5
 50
180.0
  0
ENDBLK
  5
226
100
AcDbEntity
  8
0
  6
BYBLOCK
 62
0
100
AcDbBlockEnd
  0
BLOCK
  5
227
100
AcDbEntity
  8
2
100
AcDbBlockBegin
 62
7
  6
CONTINUOUS
  2
*D1
 70
65
 10
0.0
 20
0.0
  3
*D1
  1

  0
TEXT
  5
228
100
AcDbEntity
  8
2
100
AcDbText
 62
7
  6
CONTINUOUS
 10
-3.2
 20
59.375
  7
STANDARD
 40
3.5
  1
136.4
 41
0.6857142857
 72
1
 11
2.8
 21
59.375
100
AcDbText
  0
LINE
  5
229
100
AcDbEntity
  8
2
100
AcDbLine
 62
7
  6
CONTINUOUS
 10
-65.4
 20
12.8822620731
 11
-65.4
 21
60.0
  0
LINE
  5
22A
100
AcDbEntity
  8
2
100
AcDbLine
 62
7
  6
CONTINUOUS
 10
71.0
 20
30.5
 11
71.0
 21
60.0
  0
LINE
  5
22B
100
AcDbEntity
  8
2
100
AcDbLine
 62
7
  6
CONTINUOUS
 10
-65.4
 20
58.5
 11
2.8
 21
58.5
  0
LINE
  5
22C
100
AcDbEntity
  8
2
100
AcDbLine
 62
7
  6
CONTINUOUS
 10
71.0
 20
58.5
 11
2.8
 21
58.5
  0
INSERT
  5
22D
100
AcDbEntity
  8
2
100
AcDbBlockReference
 62
7
  6
CONTINUOUS
  2
_FILLED
 10
-65.4
 20
58.5
 41
3.5
 42
3.5
 43
3.5
 50
180.0
  0
INSERT
  5
22E
100
AcDbEntity
  8
2
100
AcDbBlockReference
 62
7
  6
CONTINUOUS
  2
_FILLED
 10
71.0
 20
58.5
 41
3.5
 42
3.5
 43
3.5
  0
ENDBLK
  5
22F
100
AcDbEntity
  8
0
  6
BYBLOCK
 62
0
100
AcDbBlockEnd
  0
BLOCK
  5
230
100
AcDbEntity
  8
2
100
AcDbBlockBegin
 62
7
  6
CONTINUOUS
  2
*D2
 70
65
 10
0.0
 20
0.0
  3
*D2
  1

  0
TEXT
  5
231
100
AcDbEntity
  8
2
100
AcDbText
 62
7
  6
CONTINUOUS
 10
-75.275
 20
-7.0
  7
STANDARD
 40
3.5
  1
BT 40
 50
90.0
 41
0.8
 72
1
 11
-75.275
 21
-0.0
100
AcDbText
  0
LINE
  5
232
100
AcDbEntity
  8
2
100
AcDbLine
 62
7
  6
CONTINUOUS
 10
0.0
 20
22.225
 11
-75.275
 21
22.225
  0
LINE
  5
233
100
AcDbEntity
  8
2
100
AcDbLine
 62
7
  6
CONTINUOUS
 10
-75.275
 20
22.225
 11
-75.9
 21
22.225
  0
LINE
  5
234
100
AcDbEntity
  8
2
100
AcDbLine
 62
7
  6
CONTINUOUS
 10
0.0
 20
-22.225
 11
-75.275
 21
-22.225
  0
LINE
  5
235
100
AcDbEntity
  8
2
100
AcDbLine
 62
7
  6
CONTINUOUS
 10
-75.275
 20
-22.225
 11
-75.9
 21
-22.225
  0
LINE
  5
236
100
AcDbEntity
  8
2
100
AcDbLine
 62
7
  6
CONTINUOUS
 10
-74.4
 20
22.225
 11
-74.4
 21
-0.0
  0
LINE
  5
237
100
AcDbEntity
  8
2
100
AcDbLine
 62
7
  6
CONTINUOUS
 10
-74.4
 20
-22.225
 11
-74.4
 21
-0.0
  0
INSERT
  5
238
100
AcDbEntity
  8
2
100
AcDbBlockReference
 62
7
  6
CONTINUOUS
  2
_FILLED
 10
-74.4
 20
22.225
 41
3.5
 42
3.5
 43
3.5
 50
90.0
  0
INSERT
  5
239
100
AcDbEntity
  8
2
100
AcDbBlockReference
 62
7
  6
CONTINUOUS
  2
_FILLED
 10
-74.4
 20
-22.225
 41
3.5
 42
3.5
 43
3.5
 50
270.0
  0
ENDBLK
  5
23A
100
AcDbEntity
  8
0
  6
BYBLOCK
 62
0
100
AcDbBlockEnd
  0
BLOCK
  5
23B
100
AcDbEntity
  8
2
100
AcDbBlockBegin
 62
7
  6
CONTINUOUS
  2
*D3
 70
65
 10
0.0
 20
0.0
  3
*D3
  1

  0
TEXT
  5
23C
100
AcDbEntity
  8
2
100
AcDbText
 62
7
  6
CONTINUOUS
 10
79.125
 20
-4.9583333333
  7
TEXTSTYLE_2
 40
3.5
  1
n
 50
90.0
 41
1.0
 72
1
 11
79.125
 21
-2.625
100
AcDbText
  0
TEXT
  5
23D
100
AcDbEntity
  8
2
100
AcDbText
 62
7
  6
CONTINUOUS
 10
79.125
 20
-0.2916666667
  7
STANDARD
 40
3.5
  1
50
 50
90.0
 41
0.75
 72
1
 11
79.125
 21
2.3333333333
100
AcDbText
  0
LINE
  5
23E
100
AcDbEntity
  8
2
100
AcDbLine
 62
7
  6
CONTINUOUS
 10
71.0
 20
25.0
 11
81.5
 21
25.0
  0
LINE
  5
23F
100
AcDbEntity
  8
2
100
AcDbLine
 62
7
  6
CONTINUOUS
 10
71.0
 20
-25.0
 11
81.5
 21
-25.0
  0
LINE
  5
240
100
AcDbEntity
  8
2
100
AcDbLine
 62
7
  6
CONTINUOUS
 10
80.0
 20
25.0
 11
80.0
 21
-0.0
  0
LINE
  5
241
100
AcDbEntity
  8
2
100
AcDbLine
 62
7
  6
CONTINUOUS
 10
80.0
 20
-25.0
 11
80.0
 21
-0.0
  0
INSERT
  5
242
100
AcDbEntity
  8
2
100
AcDbBlockReference
 62
7
  6
CONTINUOUS
  2
_FILLED
 10
80.0
 20
25.0
 41
3.5
 42
3.5
 43
3.5
 50
90.0
  0
INSERT
  5
243
100
AcDbEntity
  8
2
100
AcDbBlockReference
 62
7
  6
CONTINUOUS
  2
_FILLED
 10
80.0
 20
-25.0
 41
3.5
 42
3.5
 43
3.5
 50
270.0
  0
ENDBLK
  5
244
100
AcDbEntity
  8
0
  6
BYBLOCK
 62
0
100
AcDbBlockEnd
  0
BLOCK
  5
245
100
AcDbEntity
  8
2
100
AcDbBlockBegin
 62
7
  6
CONTINUOUS
  2
*D4
 70
65
 10
0.0
 20
0.0
  3
*D4
  1

  0
TEXT
  5
246
100
AcDbEntity
  8
2
100
AcDbText
 62
7
  6
CONTINUOUS
 10
88.125
 20
-4.9583333333
  7
TEXTSTYLE_2
 40
3.5
  1
n
 50
90.0
 41
1.0
 72
1
 11
88.125
 21
-2.625
100
AcDbText
  0
TEXT
  5
247
100
AcDbEntity
  8
2
100
AcDbText
 62
7
  6
CONTINUOUS
 10
88.125
 20
-0.2916666667
  7
STANDARD
 40
3.5
  1
63
 50
90.0
 41
0.75
 72
1
 11
88.125
 21
2.3333333333
100
AcDbText
  0
LINE
  5
248
100
AcDbEntity
  8
2
100
AcDbLine
 62
7
  6
CONTINUOUS
 10
70.0
 20
31.5
 11
90.5
 21
31.5
  0
LINE
  5
249
100
AcDbEntity
  8
2
100
AcDbLine
 62
7
  6
CONTINUOUS
 10
70.0
 20
-31.5
 11
90.5
 21
-31.5
  0
LINE
  5
24A
100
AcDbEntity
  8
2
100
AcDbLine
 62
7
  6
CONTINUOUS
 10
89.0
 20
31.5
 11
89.0
 21
-0.0
  0
LINE
  5
24B
100
AcDbEntity
  8
2
100
AcDbLine
 62
7
  6
CONTINUOUS
 10
89.0
 20
-31.5
 11
89.0
 21
-0.0
  0
INSERT
  5
24C
100
AcDbEntity
  8
2
100
AcDbBlockReference
 62
7
  6
CONTINUOUS
  2
_FILLED
 10
89.0
 20
31.5
 41
3.5
 42
3.5
 43
3.5
 50
90.0
  0
INSERT
  5
24D
100
AcDbEntity
  8
2
100
AcDbBlockReference
 62
7
  6
CONTINUOUS
  2
_FILLED
 10
89.0
 20
-31.5
 41
3.5
 42
3.5
 43
3.5
 50
270.0
  0
ENDBLK
  5
24E
100
AcDbEntity
  8
0
  6
BYBLOCK
 62
0
100
AcDbBlockEnd
  0
BLOCK
  5
24F
100
AcDbEntity
  8
2
100
AcDbBlockBegin
 62
7
  6
CONTINUOUS
  2
*D5
 70
65
 10
0.0
 20
0.0
  3
*D5
  1

  0
TEXT
  5
250
100
AcDbEntity
  8
2
100
AcDbText
 62
7
  6
CONTINUOUS
 10
56.25
 20
-39.625
  7
STANDARD
 40
3.5
  1
24
 41
0.7857142857
 72
1
 11
59.0
 21
-39.625
100
AcDbText
  0
LINE
  5
251
100
AcDbEntity
  8
2
100
AcDbLine
 62
7
  6
CONTINUOUS
 10
47.0
 20
-30.5
 11
47.0
 21
-42.0
  0
LINE
  5
252
100
AcDbEntity
  8
2
100
AcDbLine
 62
7
  6
CONTINUOUS
 10
71.0
 20
-30.5
 11
71.0
 21
-42.0
  0
LINE
  5
253
100
AcDbEntity
  8
2
100
AcDbLine
 62
7
  6
CONTINUOUS
 10
47.0
 20
-40.5
 11
59.0
 21
-40.5
  0
LINE
  5
254
100
AcDbEntity
  8
2
100
AcDbLine
 62
7
  6
CONTINUOUS
 10
71.0
 20
-40.5
 11
59.0
 21
-40.5
  0
INSERT
  5
255
100
AcDbEntity
  8
2
100
AcDbBlockReference
 62
7
  6
CONTINUOUS
  2
_FILLED
 10
47.0
 20
-40.5
 41
3.5
 42
3.5
 43
3.5
 50
180.0
  0
INSERT
  5
256
100
AcDbEntity
  8
2
100
AcDbBlockReference
 62
7
  6
CONTINUOUS
  2
_FILLED
 10
71.0
 20
-40.5
 41
3.5
 42
3.5
 43
3.5
  0
ENDBLK
  5
257
100
AcDbEntity
  8
0
  6
BYBLOCK
 62
0
100
AcDbBlockEnd
  0
BLOCK
  5
258
100
AcDbEntity
  8
2
100
AcDbBlockBegin
 62
7
  6
CONTINUOUS
  2
*D6
 70
65
 10
0.0
 20
0.0
  3
*D6
  1

  0
TEXT
  5
259
100
AcDbEntity
  8
2
100
AcDbText
 62
7
  6
CONTINUOUS
 10
26.875
 20
41.375
  7
STANDARD
 40
3.5
  1
59
 41
0.75
 72
1
 11
29.5
 21
41.375
100
AcDbText
  0
LINE
  5
25A
100
AcDbEntity
  8
2
100
AcDbLine
 62
7
  6
CONTINUOUS
 10
59.0
 20
25.0
 11
59.0
 21
42.0
  0
LINE
  5
25B
100
AcDbEntity
  8
2
100
AcDbLine
 62
7
  6
CONTINUOUS
 10
0.0
 20
22.225
 11
0.0
 21
42.0
  0
LINE
  5
25C
100
AcDbEntity
  8
2
100
AcDbLine
 62
7
  6
CONTINUOUS
 10
59.0
 20
40.5
 11
29.5
 21
40.5
  0
LINE
  5
25D
100
AcDbEntity
  8
2
100
AcDbLine
 62
7
  6
CONTINUOUS
 10
0.0
 20
40.5
 11
29.5
 21
40.5
  0
INSERT
  5
25E
100
AcDbEntity
  8
2
100
AcDbBlockReference
 62
7
  6
CONTINUOUS
  2
_FILLED
 10
59.0
 20
40.5
 41
3.5
 42
3.5
 43
3.5
  0
INSERT
  5
25F
100
AcDbEntity
  8
2
100
AcDbBlockReference
 62
7
  6
CONTINUOUS
  2
_FILLED
 10
0.0
 20
40.5
 41
3.5
 42
3.5
 43
3.5
 50
180.0
  0
ENDBLK
  5
260
100
AcDbEntity
  8
0
  6
BYBLOCK
 62
0
100
AcDbBlockEnd
  0
ENDSEC
  0
SECTION
  2
ENTITIES
  0
DIMENSION
  5
261
100
AcDbEntity
  8
2
100
AcDbDimension
 62
7
  6
CONTINUOUS
  2
*D0
 10
0.0
 20
49.5
 11
35.0000010681
 21
49.5
 70
160
 71
2
 72
2
 41
0.9
 42
71.0
  3
DIMSTYLE_1
100
AcDbAlignedDimension
 13
71.0
 23
30.5
 14
0.0
 24
22.225
 50
180.0
100
AcDbRotatedDimension
  0
DIMENSION
  5
262
100
AcDbEntity
  8
2
100
AcDbDimension
 62
7
  6
CONTINUOUS
  2
*D1
 10
71.0
 20
58.5
 11
2.299999938
 21
58.5
 70
160
 71
2
 72
2
 41
0.9
 42
136.4
  3
DIMSTYLE_2
100
AcDbAlignedDimension
 13
-65.4
 23
12.8822620731
 14
71.0
 24
30.5
100
AcDbRotatedDimension
  0
DIMENSION
  5
263
100
AcDbEntity
  8
2
100
AcDbDimension
 62
7
  6
CONTINUOUS
  2
*D2
 10
-74.4
 20
-22.225
 11
-74.4
 21
-0.5
 70
160
 71
2
 72
2
 41
0.9
 42
44.45
  1
BT 40<>
  3
DIMSTYLE_1
100
AcDbAlignedDimension
 13
0.0
 23
22.225
 14
0.0
 24
-22.225
 50
270.0
100
AcDbRotatedDimension
  0
DIMENSION
  5
264
100
AcDbEntity
  8
2
100
AcDbDimension
 62
7
  6
CONTINUOUS
  2
*D3
 10
80.0
 20
-25.0
 11
80.0
 21
-0.0
 70
160
 71
2
 72
2
 41
0.9
 42
50.0
  1
%%c<>
  3
DIMSTYLE_1
100
AcDbAlignedDimension
 13
71.0
 23
25.0
 14
71.0
 24
-25.0
 50
270.0
100
AcDbRotatedDimension
  0
DIMENSION
  5
265
100
AcDbEntity
  8
2
100
AcDbDimension
 62
7
  6
CONTINUOUS
  2
*D4
 10
89.0
 20
-31.5
 11
89.0
 21
-0.0
 70
160
 71
2
 72
2
 41
0.9
 42
63.0
  1
%%c<>
  3
DIMSTYLE_1
100
AcDbAlignedDimension
 13
70.0
 23
31.5
 14
70.0
 24
-31.5
 50
270.0
100
AcDbRotatedDimension
  0
DIMENSION
  5
266
100
AcDbEntity
  8
2
100
AcDbDimension
 62
7
  6
CONTINUOUS
  2
*D5
 10
71.0
 20
-40.5
 11
58.4999995422
 21
-40.5
 70
160
 71
2
 72
2
 41
0.9
 42
24.0
  3
DIMSTYLE_3
100
AcDbAlignedDimension
 13
47.0
 23
-30.5
 14
71.0
 24
-30.5
100
AcDbRotatedDimension
  0
DIMENSION
  5
267
100
AcDbEntity
  8
2
100
AcDbDimension
 62
7
  6
CONTINUOUS
  2
*D6
 10
0.0
 20
40.5
 11
28.9999991226
 21
40.5
 70
160
 71
2
 72
2
 41
0.9
 42
59.0
  3
DIMSTYLE_1
100
AcDbAlignedDimension
 13
59.0
 23
25.0
 14
0.0
 24
22.225
 50
180.0
100
AcDbRotatedDimension
  0
LINE
  5
268
100
AcDbEntity
  8
NOCUT
100
AcDbLine
 62
7
  6
CONTINUOUS
 10
-65.4
 20
12.8822620731
 11
-65.4
 21
0.0
  0
LINE
  5
269
100
AcDbEntity
  8
_30_VOLUMEN
100
AcDbLine
 62
4
  6
CONTINUOUS
 10
-65.4
 20
-12.8822620731
 11
-65.4
 21
12.8822620731
  0
LINE
  5
26A
100
AcDbEntity
  8
_30_VOLUMEN
100
AcDbLine
 62
4
  6
CONTINUOUS
 10
70.0
 20
-31.5
 11
48.0
 21
-31.5
  0
LINE
  5
26B
100
AcDbEntity
  8
_30_VOLUMEN
100
AcDbLine
 62
4
  6
CONTINUOUS
 10
23.0
 20
-31.5
 11
27.0
 21
-31.5
  0
LINE
  5
26C
100
AcDbEntity
  8
_30_VOLUMEN
100
AcDbLine
 62
4
  6
CONTINUOUS
 10
2.0
 20
-30.4540227228
 11
11.5998579937
 21
-30.4540227228
  0
LINE
  5
26D
100
AcDbEntity
  8
_30_VOLUMEN
100
AcDbLine
 62
4
  6
CONTINUOUS
 10
14.1
 20
-25.2477226696
 11
14.95
 21
-25.2477226696
  0
LINE
  5
26E
100
AcDbEntity
  8
_30_VOLUMEN
100
AcDbLine
 62
1
  6
HIDDEN
 10
71.0
 20
-25.0
 11
59.0
 21
-25.0
  0
LINE
  5
26F
100
AcDbEntity
  8
_30_VOLUMEN
100
AcDbLine
 62
1
  6
HIDDEN
 10
2.0
 20
-22.6
 11
23.0
 21
-22.6
  0
LINE
  5
270
100
AcDbEntity
  8
_30_VOLUMEN
100
AcDbLine
 62
4
  6
CONTINUOUS
 10
0.4
 20
-22.162142128
 11
2.0
 21
-22.162142128
  0
LINE
  5
271
100
AcDbEntity
  8
_30_VOLUMEN
100
AcDbLine
 62
4
  6
CONTINUOUS
 10
44.0
 20
-21.5
 11
28.0
 21
-21.5
  0
LINE
  5
272
100
AcDbEntity
  8
_30_VOLUMEN
100
AcDbLine
 62
4
  6
CONTINUOUS
 10
-65.4
 20
-12.8822620731
 11
0.4
 21
-22.282142128
  0
LINE
  5
273
100
AcDbEntity
  8
_30_VOLUMEN
100
AcDbLine
 62
1
  6
HIDDEN
 10
-65.4
 20
-7.0
 11
59.0
 21
-7.0
  0
LINE
  5
274
100
AcDbEntity
  8
_30_VOLUMEN
100
AcDbLine
 62
4
  6
CONTINUOUS
 10
0.4
 20
-22.282142128
 11
0.4
 21
22.282142128
  0
LINE
  5
275
100
AcDbEntity
  8
NOCUT
100
AcDbLine
 62
7
  6
CONTINUOUS
 10
2.0
 20
31.5
 11
2.0
 21
22.282142128
  0
LINE
  5
276
100
AcDbEntity
  8
_30_VOLUMEN
100
AcDbLine
 62
4
  6
CONTINUOUS
 10
2.0
 20
-30.4540227228
 11
2.0
 21
30.4540227228
  0
LINE
  5
277
100
AcDbEntity
  8
NOCUT
100
AcDbLine
 62
7
  6
CONTINUOUS
 10
-65.4
 20
0.0
 11
71.0
 21
0.0
  0
LINE
  5
278
100
AcDbEntity
  8
_30_VOLUMEN
100
AcDbLine
 62
4
  6
CONTINUOUS
 10
11.5998579937
 20
30.4540227228
 11
11.5998579937
 21
-30.4540227228
  0
LINE
  5
279
100
AcDbEntity
  8
_30_VOLUMEN
100
AcDbLine
 62
4
  6
CONTINUOUS
 10
48.0
 20
31.5
 11
47.0
 21
30.5
  0
LINE
  5
27A
100
AcDbEntity
  8
NOCUT
100
AcDbLine
 62
7
  6
CONTINUOUS
 10
48.0
 20
31.5
 11
47.0
 21
30.5
  0
LINE
  5
27B
100
AcDbEntity
  8
_30_VOLUMEN
100
AcDbLine
 62
1
  6
HIDDEN
 10
-65.4
 20
7.0
 11
59.0
 21
7.0
  0
LINE
  5
27C
100
AcDbEntity
  8
_30_VOLUMEN
100
AcDbLine
 62
4
  6
CONTINUOUS
 10
48.0
 20
-31.5
 11
47.0
 21
-30.5
  0
LINE
  5
27D
100
AcDbEntity
  8
_30_VOLUMEN
100
AcDbLine
 62
4
  6
CONTINUOUS
 10
14.1
 20
25.9496846291
 11
14.1
 21
-25.9496846291
  0
LINE
  5
27E
100
AcDbEntity
  8
_30_VOLUMEN
100
AcDbLine
 62
1
  6
DOT
 10
14.95
 20
25.2477226696
 11
14.95
 21
22.6
  0
LINE
  5
27F
100
AcDbEntity
  8
_30_VOLUMEN
100
AcDbLine
 62
1
  6
DOT
 10
14.95
 20
-22.6
 11
14.95
 21
-25.2477226696
  0
LINE
  5
280
100
AcDbEntity
  8
_30_VOLUMEN
100
AcDbLine
 62
4
  6
CONTINUOUS
 10
19.1
 20
-26.2794336383
 11
19.1
 21
26.2794336383
  0
LINE
  5
281
100
AcDbEntity
  8
_30_VOLUMEN
100
AcDbLine
 62
4
  6
CONTINUOUS
 10
21.6001420063
 20
-31.1716520047
 11
21.6001420063
 21
31.1716520047
  0
LINE
  5
282
100
AcDbEntity
  8
_30_VOLUMEN
100
AcDbLine
 62
1
  6
HIDDEN
 10
23.0
 20
-31.5
 11
23.0
 21
-22.6
  0
LINE
  5
283
100
AcDbEntity
  8
_30_VOLUMEN
100
AcDbLine
 62
1
  6
HIDDEN
 10
23.0
 20
22.6
 11
23.0
 21
31.5
  0
LINE
  5
284
100
AcDbEntity
  8
_30_VOLUMEN
100
AcDbLine
 62
4
  6
CONTINUOUS
 10
27.0
 20
-31.5
 11
27.0
 21
31.5
  0
LINE
  5
285
100
AcDbEntity
  8
NOCUT
100
AcDbLine
 62
7
  6
CONTINUOUS
 10
27.0
 20
22.5
 11
27.0
 21
31.5
  0
LINE
  5
286
100
AcDbEntity
  8
_30_VOLUMEN
100
AcDbLine
 62
4
  6
CONTINUOUS
 10
28.0
 20
-21.5
 11
28.0
 21
21.5
  0
LINE
  5
287
100
AcDbEntity
  8
_30_VOLUMEN
100
AcDbLine
 62
4
  6
CONTINUOUS
 10
-65.4
 20
12.8822620731
 11
0.4
 21
22.282142128
  0
LINE
  5
288
100
AcDbEntity
  8
NOCUT
100
AcDbLine
 62
7
  6
CONTINUOUS
 10
0.4
 20
22.282142128
 11
-65.4
 21
12.8822620731
  0
LINE
  5
289
100
AcDbEntity
  8
_30_VOLUMEN
100
AcDbLine
 62
4
  6
CONTINUOUS
 10
44.0
 20
21.5
 11
28.0
 21
21.5
  0
LINE
  5
28A
100
AcDbEntity
  8
NOCUT
100
AcDbLine
 62
7
  6
CONTINUOUS
 10
44.0
 20
21.5
 11
28.0
 21
21.5
  0
LINE
  5
28B
100
AcDbEntity
  8
_30_VOLUMEN
100
AcDbLine
 62
4
  6
CONTINUOUS
 10
0.4
 20
22.162142128
 11
2.0
 21
22.162142128
  0
LINE
  5
28C
100
AcDbEntity
  8
NOCUT
100
AcDbLine
 62
7
  6
CONTINUOUS
 10
2.0
 20
22.282142128
 11
0.4
 21
22.282142128
  0
LINE
  5
28D
100
AcDbEntity
  8
_30_VOLUMEN
100
AcDbLine
 62
1
  6
HIDDEN
 10
23.0
 20
22.6
 11
2.0
 21
22.6
  0
LINE
  5
28E
100
AcDbEntity
  8
_30_VOLUMEN
100
AcDbLine
 62
1
  6
HIDDEN
 10
71.0
 20
25.0
 11
59.0
 21
25.0
  0
LINE
  5
28F
100
AcDbEntity
  8
_30_VOLUMEN
100
AcDbLine
 62
4
  6
CONTINUOUS
 10
14.1
 20
25.2477226696
 11
14.95
 21
25.2477226696
  0
LINE
  5
290
100
AcDbEntity
  8
_30_VOLUMEN
100
AcDbLine
 62
4
  6
CONTINUOUS
 10
2.0
 20
30.4540227228
 11
11.5998579937
 21
30.4540227228
  0
LINE
  5
291
100
AcDbEntity
  8
_30_VOLUMEN
100
AcDbLine
 62
4
  6
CONTINUOUS
 10
28.0
 20
-21.5
 11
27.0
 21
-22.5
  0
LINE
  5
292
100
AcDbEntity
  8
_30_VOLUMEN
100
AcDbLine
 62
4
  6
CONTINUOUS
 10
70.0
 20
31.5
 11
48.0
 21
31.5
  0
LINE
  5
293
100
AcDbEntity
  8
NOCUT
100
AcDbLine
 62
7
  6
CONTINUOUS
 10
70.0
 20
31.5
 11
48.0
 21
31.5
  0
LINE
  5
294
100
AcDbEntity
  8
NOCUT
100
AcDbLine
 62
7
  6
CONTINUOUS
 10
27.0
 20
31.5
 11
2.0
 21
31.5
  0
LINE
  5
295
100
AcDbEntity
  8
_30_VOLUMEN
100
AcDbLine
 62
4
  6
CONTINUOUS
 10
23.0
 20
31.5
 11
27.0
 21
31.5
  0
LINE
  5
296
100
AcDbEntity
  8
_30_VOLUMEN
100
AcDbLine
 62
4
  6
CONTINUOUS
 10
28.0
 20
21.5
 11
27.0
 21
22.5
  0
LINE
  5
297
100
AcDbEntity
  8
NOCUT
100
AcDbLine
 62
7
  6
CONTINUOUS
 10
28.0
 20
21.5
 11
27.0
 21
22.5
  0
LINE
  5
298
100
AcDbEntity
  8
_30_VOLUMEN
100
AcDbLine
 62
7
  6
CONTINUOUS
 10
44.0
 20
-21.5
 11
44.0
 21
21.5
  0
LINE
  5
299
100
AcDbEntity
  8
_30_VOLUMEN
100
AcDbLine
 62
4
  6
CONTINUOUS
 10
47.0
 20
-30.4997515586
 11
47.0
 21
30.4997515586
  0
LINE
  5
29A
100
AcDbEntity
  8
NOCUT
100
AcDbLine
 62
7
  6
CONTINUOUS
 10
47.0
 20
24.5
 11
47.0
 21
30.5
  0
LINE
  5
29B
100
AcDbEntity
  8
_30_VOLUMEN
100
AcDbLine
 62
4
  6
CONTINUOUS
 10
48.0
 20
-31.5
 11
48.0
 21
31.5
  0
LINE
  5
29C
100
AcDbEntity
  8
_30_VOLUMEN
100
AcDbLine
 62
1
  6
HIDDEN
 10
59.0
 20
-25.0
 11
59.0
 21
25.0
  0
LINE
  5
29D
100
AcDbEntity
  8
_30_VOLUMEN
100
AcDbLine
 62
4
  6
CONTINUOUS
 10
70.0
 20
-31.5
 11
70.0
 21
31.5
  0
LINE
  5
29E
100
AcDbEntity
  8
_30_VOLUMEN
100
AcDbLine
 62
4
  6
CONTINUOUS
 10
71.0
 20
-30.4997515586
 11
71.0
 21
30.4997515586
  0
LINE
  5
29F
100
AcDbEntity
  8
NOCUT
100
AcDbLine
 62
7
  6
CONTINUOUS
 10
71.0
 20
0.0
 11
71.0
 21
30.5
  0
LINE
  5
2A0
100
AcDbEntity
  8
_30_VOLUMEN
100
AcDbLine
 62
4
  6
CONTINUOUS
 10
71.0
 20
-30.5
 11
70.0
 21
-31.5
  0
LINE
  5
2A1
100
AcDbEntity
  8
_30_VOLUMEN
100
AcDbLine
 62
4
  6
CONTINUOUS
 10
71.0
 20
30.5
 11
70.0
 21
31.5
  0
LINE
  5
2A2
100
AcDbEntity
  8
NOCUT
100
AcDbLine
 62
7
  6
CONTINUOUS
 10
71.0
 20
30.5
 11
70.0
 21
31.5
  0
ARC
  5
2A3
100
AcDbEntity
  8
_30_VOLUMEN
100
AcDbCircle
 62
4
  6
CONTINUOUS
 10
-1640.8071765904
 20
877.6510614088
 40
1865.5094434146
100
AcDbArc
 50
332.8465693378
 51
333.0153090899
  0
ARC
  5
2A4
100
AcDbEntity
  8
_30_VOLUMEN
100
AcDbCircle
 62
1
  6
HIDDEN
 10
-1622.1322472677
 20
-868.0445696526
 40
1844.5086791002
100
AcDbArc
 50
27.0050276358
 51
27.1313379352
  0
ARC
  5
2A5
100
AcDbEntity
  8
_30_VOLUMEN
100
AcDbCircle
 62
1
  6
HIDDEN
 10
-1526.7109500027
 20
819.2838913383
 40
1737.3507958512
100
AcDbArc
 50
332.8664520197
 51
333.0009204404
  0
ARC
  5
2A6
100
AcDbEntity
  8
_30_VOLUMEN
100
AcDbCircle
 62
4
  6
CONTINUOUS
 10
-1499.9768090594
 20
-805.6804559996
 40
1707.3547684884
100
AcDbArc
 50
26.9768756033
 51
27.161245969
  0
ARC
  5
2A7
100
AcDbEntity
  8
_30_VOLUMEN
100
AcDbCircle
 62
4
  6
CONTINUOUS
 10
-859.5632223225
 20
456.0328376567
 40
997.7948575874
100
AcDbArc
 50
330.8195352567
 51
331.1153572404
  0
ARC
  5
2A8
100
AcDbEntity
  8
_30_VOLUMEN
100
AcDbCircle
 62
4
  6
CONTINUOUS
 10
-859.5632223222
 20
-456.0328376565
 40
997.794857587
100
AcDbArc
 50
28.8846427596
 51
29.1804647433
  0
ARC
  5
2A9
100
AcDbEntity
  8
_30_VOLUMEN
100
AcDbCircle
 62
1
  6
HIDDEN
 10
13.6089538531
 20
-68.2783173335
 40
37.9583774275
100
AcDbArc
 50
76.0765251907
 51
76.2343398294
  0
ARC
  5
2AA
100
AcDbEntity
  8
_30_VOLUMEN
100
AcDbCircle
 62
1
  6
HIDDEN
 10
13.7868668955
 20
67.556421921
 40
37.2148823215
100
AcDbArc
 50
283.7641078451
 51
283.9250656659
  0
ARC
  5
2AB
100
AcDbEntity
  8
_30_VOLUMEN
100
AcDbCircle
 62
1
  6
HIDDEN
 10
14.1599503894
 20
66.0374015718
 40
35.6507174914
100
AcDbArc
 50
283.2665104185
 51
283.7184695934
  0
ARC
  5
2AC
100
AcDbEntity
  8
_30_VOLUMEN
100
AcDbCircle
 62
1
  6
HIDDEN
 10
14.1986708974
 20
-65.8760296102
 40
35.4847664263
100
AcDbArc
 50
76.2805130353
 51
76.7346607165
  0
ARC
  5
2AD
100
AcDbEntity
  8
_30_VOLUMEN
100
AcDbCircle
 62
1
  6
HIDDEN
 10
14.2191446439
 20
-65.7618596531
 40
35.3689353419
100
AcDbArc
 50
76.9050008938
 51
77.9546474848
  0
ARC
  5
2AE
100
AcDbEntity
  8
_30_VOLUMEN
100
AcDbCircle
 62
1
  6
HIDDEN
 10
14.2497406069
 20
65.6246436821
 40
35.2283555712
100
AcDbArc
 50
282.0432588566
 51
283.0969089661
  0
ARC
  5
2AF
100
AcDbEntity
  8
_30_VOLUMEN
100
AcDbCircle
 62
1
  6
HIDDEN
 10
14.7514030514
 20
-52.3962324558
 40
27.1600991045
100
AcDbArc
 50
80.786732862
 51
81.6582232544
  0
ARC
  5
2B0
100
AcDbEntity
  8
_30_VOLUMEN
100
AcDbCircle
 62
1
  6
HIDDEN
 10
14.760476954
 20
52.3374541204
 40
27.1006262391
100
AcDbArc
 50
278.3467082323
 51
279.2142272811
  0
ARC
  5
2B1
100
AcDbEntity
  8
_30_VOLUMEN
100
AcDbCircle
 62
1
  6
HIDDEN
 10
14.9155110712
 20
-51.2043007653
 40
25.9569714653
100
AcDbArc
 50
81.6349339347
 51
89.2145196647
  0
ARC
  5
2B2
100
AcDbEntity
  8
_30_VOLUMEN
100
AcDbCircle
 62
1
  6
HIDDEN
 10
14.9349020579
 20
50.9577638369
 40
25.7102448226
100
AcDbArc
 50
271.0929642395
 51
278.4084431051
  0
ARC
  5
2B3
100
AcDbEntity
  8
_30_VOLUMEN
100
AcDbCircle
 62
1
  6
HIDDEN
 10
14.9498829009
 20
50.5110496339
 40
25.2633269646
100
AcDbArc
 50
270.000265574
 51
271.0783196963
  0
ARC
  5
2B4
100
AcDbEntity
  8
_30_VOLUMEN
100
AcDbCircle
 62
1
  6
HIDDEN
 10
14.9498971843
 20
-50.5033018332
 40
25.2555791638
100
AcDbArc
 50
89.2707207364
 51
89.9997667484
  0
ARC
  5
2B5
100
AcDbEntity
  8
_30_VOLUMEN
100
AcDbCircle
 62
4
  6
CONTINUOUS
 10
44.0
 20
24.5
 40
3.0
100
AcDbArc
 50
270.0
 51
360.0
  0
ARC
  5
2B6
100
AcDbEntity
  8
_30_VOLUMEN
100
AcDbCircle
 62
4
  6
CONTINUOUS
 10
44.0
 20
-24.5
 40
3.0
100
AcDbArc
 50
0.0
 51
90.0
  0
ARC
  5
2B7
100
AcDbEntity
  8
NOCUT
100
AcDbCircle
 62
7
  6
CONTINUOUS
 10
44.0
 20
24.5
 40
3.0
100
AcDbArc
 50
270.0
 51
360.0
  0
LINE
  5
2B8
100
AcDbEntity
  8
_30_VOLUMEN
100
AcDbLine
 62
1
  6
HIDDEN
 10
11.5998579937
 20
-30.4540227228
 11
12.4646610746
 21
-28.9019814546
  0
LINE
  5
2B9
100
AcDbEntity
  8
_30_VOLUMEN
100
AcDbLine
 62
1
  6
HIDDEN
 10
12.4646610746
 20
-28.9019814546
 11
12.6108401032
 21
-28.6390677982
  0
LINE
  5
2BA
100
AcDbEntity
  8
_30_VOLUMEN
100
AcDbLine
 62
1
  6
HIDDEN
 10
12.6108401032
 20
-28.6390677982
 11
12.7458487735
 21
-28.3960879044
  0
LINE
  5
2BB
100
AcDbEntity
  8
_30_VOLUMEN
100
AcDbLine
 62
1
  6
HIDDEN
 10
12.7458487735
 20
-28.3960879044
 11
12.8767805963
 21
-28.1602973404
  0
LINE
  5
2BC
100
AcDbEntity
  8
_30_VOLUMEN
100
AcDbLine
 62
1
  6
HIDDEN
 10
12.8767805963
 20
-28.1602973404
 11
13.0237540238
 21
-27.8954398135
  0
LINE
  5
2BD
100
AcDbEntity
  8
_30_VOLUMEN
100
AcDbLine
 62
1
  6
HIDDEN
 10
13.0237540238
 20
-27.8954398135
 11
13.1505599192
 21
-27.666770362
  0
LINE
  5
2BE
100
AcDbEntity
  8
_30_VOLUMEN
100
AcDbLine
 62
1
  6
HIDDEN
 10
13.1505599192
 20
-27.666770362
 11
13.2979130949
 21
-27.4008623532
  0
LINE
  5
2BF
100
AcDbEntity
  8
_30_VOLUMEN
100
AcDbLine
 62
1
  6
HIDDEN
 10
13.2979130949
 20
-27.4008623532
 11
14.1
 21
-25.9496846291
  0
LINE
  5
2C0
100
AcDbEntity
  8
_30_VOLUMEN
100
AcDbLine
 62
1
  6
HIDDEN
 10
14.1
 20
25.9496846291
 11
13.2979137016
 21
27.4008612577
  0
LINE
  5
2C1
100
AcDbEntity
  8
_30_VOLUMEN
100
AcDbLine
 62
1
  6
HIDDEN
 10
13.2979137016
 20
27.4008612577
 11
13.1503906424
 21
27.6670757186
  0
LINE
  5
2C2
100
AcDbEntity
  8
_30_VOLUMEN
100
AcDbLine
 62
1
  6
HIDDEN
 10
13.1503906424
 20
27.6670757186
 11
13.0237556853
 21
27.8954368197
  0
LINE
  5
2C3
100
AcDbEntity
  8
_30_VOLUMEN
100
AcDbLine
 62
1
  6
HIDDEN
 10
13.0237556853
 20
27.8954368197
 11
12.876554329
 21
28.1607049454
  0
LINE
  5
2C4
100
AcDbEntity
  8
_30_VOLUMEN
100
AcDbLine
 62
1
  6
HIDDEN
 10
12.876554329
 20
28.1607049454
 11
12.7458504688
 21
28.3960848515
  0
LINE
  5
2C5
100
AcDbEntity
  8
_30_VOLUMEN
100
AcDbLine
 62
1
  6
HIDDEN
 10
12.7458504688
 20
28.3960848515
 11
12.6106714572
 21
28.6393712199
  0
LINE
  5
2C6
100
AcDbEntity
  8
_30_VOLUMEN
100
AcDbLine
 62
1
  6
HIDDEN
 10
12.6106714572
 20
28.6393712199
 11
12.4646620987
 21
28.9019796132
  0
LINE
  5
2C7
100
AcDbEntity
  8
_30_VOLUMEN
100
AcDbLine
 62
1
  6
HIDDEN
 10
12.4646620987
 20
28.9019796132
 11
11.5998579937
 21
30.4540227228
  0
LINE
  5
2C8
100
AcDbEntity
  8
_30_VOLUMEN
100
AcDbLine
 62
1
  6
HIDDEN
 10
22.6145650188
 20
31.4037019553
 11
22.6412198958
 21
31.410220196
  0
LINE
  5
2C9
100
AcDbEntity
  8
_30_VOLUMEN
100
AcDbLine
 62
1
  6
HIDDEN
 10
22.7427283214
 20
31.4352368308
 11
22.7567469867
 21
31.4387145922
  0
LINE
  5
2CA
100
AcDbEntity
  8
_30_VOLUMEN
100
AcDbLine
 62
1
  6
HIDDEN
 10
22.7567469867
 20
31.4387145922
 11
22.9853959369
 21
31.4962681367
  0
LINE
  5
2CB
100
AcDbEntity
  8
_30_VOLUMEN
100
AcDbLine
 62
1
  6
HIDDEN
 10
21.6001420063
 20
-31.1716520047
 11
21.26353349
 21
-30.510943424
  0
LINE
  5
2CC
100
AcDbEntity
  8
_30_VOLUMEN
100
AcDbLine
 62
1
  6
HIDDEN
 10
19.4131730624
 20
-26.8900652545
 11
19.1
 21
-26.2794336383
  0
LINE
  5
2CD
100
AcDbEntity
  8
_30_VOLUMEN
100
AcDbLine
 62
1
  6
HIDDEN
 10
19.1
 20
26.2794336383
 11
19.437302612
 21
26.9371435181
  0
LINE
  5
2CE
100
AcDbEntity
  8
_30_VOLUMEN
100
AcDbLine
 62
1
  6
HIDDEN
 10
21.2926146013
 20
30.5680034433
 11
21.6001420063
 21
31.1716520047
  0
LINE
  5
2CF
100
AcDbEntity
  8
_30_VOLUMEN
100
AcDbLine
 62
1
  6
HIDDEN
 10
22.9854008737
 20
-31.4962694046
 11
22.7567304798
 21
-31.4387104965
  0
LINE
  5
2D0
100
AcDbEntity
  8
_30_VOLUMEN
100
AcDbLine
 62
1
  6
HIDDEN
 10
22.7567304798
 20
-31.4387104965
 11
22.742716404
 21
-31.4352338769
  0
LINE
  5
2D1
100
AcDbEntity
  8
_30_VOLUMEN
100
AcDbLine
 62
1
  6
HIDDEN
 10
22.6412018467
 20
-31.4102157672
 11
22.6145421216
 21
-31.4036963577
  0
LINE
  5
2D2
100
AcDbEntity
  8
_30_VOLUMEN
100
AcDbLine
 62
4
  6
CONTINUOUS
 10
22.9853959369
 20
31.4962681367
 11
22.9999855286
 21
31.4999842931
  0
SPLINE
  5
2D3
100
AcDbEntity
  8
_30_VOLUMEN
100
AcDbSpline
 62
4
  6
CONTINUOUS
 70
0
 71
3
 72
9
 73
5
 74
0
 42
0.0000001
 43
0.0000001
 44
0.0000000001
 40
0.0
 40
0.0
 40
0.0
 40
0.0
 40
0.2339725035
 40
1.0
 40
1.0
 40
1.0
 40
1.0
 10
19.1
 20
25.5865198884
 30
0.0
 10
18.7792663374
 20
25.5344985621
 30
0.0
 10
17.4046689219
 20
25.3365442511
 30
0.0
 10
16.013806788
 20
25.2477226696
 30
0.0
 10
14.95
 20
25.2477226696
 30
0.0
  0
SPLINE
  5
2D4
100
AcDbEntity
  8
_30_VOLUMEN
100
AcDbSpline
 62
4
  6
CONTINUOUS
 70
0
 71
3
 72
9
 73
5
 74
0
 42
0.0000001
 43
0.0000001
 44
0.0000000001
 40
0.0
 40
0.0
 40
0.0
 40
0.0
 40
0.2618007367
 40
1.0
 40
1.0
 40
1.0
 40
1.0
 10
14.95
 20
-25.2477226696
 30
0.0
 10
15.3135935422
 20
-25.2477226696
 30
0.0
 10
16.702326656
 20
-25.2776556138
 30
0.0
 10
18.0880006638
 20
-25.4223788773
 30
0.0
 10
19.1
 20
-25.5865198884
 30
0.0
  0
SPLINE
  5
2D5
100
AcDbEntity
  8
_30_VOLUMEN
100
AcDbSpline
 62
4
  6
CONTINUOUS
 70
0
 71
3
 72
21
 73
17
 74
0
 42
0.0000001
 43
0.0000001
 44
0.0000000001
 40
0.0
 40
0.0
 40
0.0
 40
0.0
 40
0.2272211921
 40
0.4276908489
 40
0.599820877
 40
0.7423927771
 40
0.8022845941
 40
0.8544186844
 40
0.8987058828
 40
0.9350726764
 40
0.9634455671
 40
0.9837511021
 40
0.9908600172
 40
0.9959378011
 40
0.9989844599
 40
1.0
 40
1.0
 40
1.0
 40
1.0
 10
21.6001420063
 20
-31.1716520047
 30
0.0
 10
21.7066541939
 20
-31.1943752525
 30
0.0
 10
21.9069412798
 20
-31.2380771613
 30
0.0
 10
22.1872861347
 20
-31.301831347
 30
0.0
 10
22.4276549342
 20
-31.3583619244
 30
0.0
 10
22.6021734318
 20
-31.4005712898
 30
0.0
 10
22.7206605749
 20
-31.4297442245
 30
0.0
 10
22.7933851058
 20
-31.4478103296
 30
0.0
 10
22.8550932463
 20
-31.4632457835
 30
0.0
 10
22.9058594831
 20
-31.4760699617
 30
0.0
 10
22.9451290895
 20
-31.4859632848
 30
0.0
 10
22.9715439837
 20
-31.492831258
 30
0.0
 10
22.9859593663
 20
-31.4963157024
 30
0.0
 10
22.9941469507
 20
-31.4987090117
 30
0.0
 10
22.9964285651
 20
-31.4987465464
 30
0.0
 10
23.0003489878
 20
-31.5003080746
 30
0.0
 10
22.9999855323
 20
-31.4999842958
 30
0.0
  0
LINE
  5
2D6
100
AcDbEntity
  8
_30_VOLUMEN
100
AcDbLine
 62
4
  6
CONTINUOUS
 10
22.9999855323
 20
-31.4999842958
 11
22.9854008737
 21
-31.4962694046
  0
SPLINE
  5
2D7
100
AcDbEntity
  8
_30_VOLUMEN
100
AcDbSpline
 62
4
  6
CONTINUOUS
 70
0
 71
3
 72
21
 73
17
 74
0
 42
0.0000001
 43
0.0000001
 44
0.0000000001
 40
0.0
 40
0.0
 40
0.0
 40
0.0
 40
0.0010155322
 40
0.0040621852
 40
0.0091399684
 40
0.0162488909
 40
0.0365544511
 40
0.0649273462
 40
0.1012941336
 40
0.145581327
 40
0.1977154249
 40
0.2576072519
 40
0.4001791643
 40
0.5723092045
 40
0.7727788474
 40
1.0
 40
1.0
 40
1.0
 40
1.0
 10
22.9999855286
 20
31.4999842931
 30
0.0
 10
23.0003489825
 20
31.500308068
 30
0.0
 10
22.9964285684
 20
31.4987465625
 30
0.0
 10
22.9941469641
 20
31.4987090196
 30
0.0
 10
22.9859593743
 20
31.4963157164
 30
0.0
 10
22.971543983
 20
31.4928312571
 30
0.0
 10
22.945129073
 20
31.4859632648
 30
0.0
 10
22.9058594554
 20
31.4760699438
 30
0.0
 10
22.8550932198
 20
31.4632457736
 30
0.0
 10
22.7933850795
 20
31.4478103277
 30
0.0
 10
22.7206605446
 20
31.4297442144
 30
0.0
 10
22.6021733889
 20
31.4005712724
 30
0.0
 10
22.4276548739
 20
31.358361911
 30
0.0
 10
22.1872860703
 20
31.301831332
 30
0.0
 10
21.9069412355
 20
31.238077151
 30
0.0
 10
21.7066541751
 20
31.1943752485
 30
0.0
 10
21.6001420063
 20
31.1716520047
 30
0.0
  0
ENDSEC
  0
SECTION
  2
OBJECTS
  0
DICTIONARY
  5
C
100
AcDbDictionary
280
0
281
1
  3
ACAD_GROUP
350
D
  3
ACAD_MLINESTYLE
350
17
  3
ACAD_LAYOUT
350
1A
  3
ACAD_PLOTSETTINGS
350
19
  3
ACAD_PLOTSTYLENAME
350
E
  0
DICTIONARY
  5
D
102
{ACAD_REACTORS
330
C
102
}
100
AcDbDictionary
280
0
281
1
  0
ACDBDICTIONARYWDFLT
  5
E
102
{ACAD_REACTORS
330
C
102
}
100
AcDbDictionary
281
1
  3
Normal
350
F
100
AcDbDictionaryWithDefault
340
F
  0
DICTIONARY
  5
17
102
{ACAD_REACTORS
330
C
102
}
100
AcDbDictionary
280
0
281
1
  3
Standard
350
18
  0
DICTIONARY
  5
19
102
{ACAD_REACTORS
330
C
102
}
100
AcDbDictionary
281
1
  0
DICTIONARY
  5
1A
102
{ACAD_REACTORS
330
C
102
}
100
AcDbDictionary
281
1
  3
Model
350
2D8
  3
Layout1
350
2D9
  0
ACDBPLACEHOLDER
  5
F
102
{ACAD_REACTORS
330
E
102
}
  0
MLINESTYLE
  5
18
102
{ACAD_REACTORS
330
17
102
}
100
AcDbMlineStyle
  2
STANDARD
 70
0
  3

 62
256
 51
90.0
 52
90.0
 71
2
 49
0.5
 62
256
  6
BYLAYER
 49
-0.5
 62
256
  6
BYLAYER
  0
LAYOUT
  5
2D8
102
{ACAD_REACTORS
330
1A
102
}
100
AcDbPlotSettings
  1

  2
none_device
  4
ISO_A3_(420.00_x_297.00_MM)
  6

 40
0.0
 41
0.0
 42
0.0
 43
0.0
 44
420.0
 45
297.0
 46
0.0
 47
0.0
 48
0.0
 49
0.0
140
0.0
141
0.0
142
1.0
143
1.0
 70
1024
 72
1
 73
0
 74
0
  7

 75
0
147
1.0
148
0.0
149
0.0
100
AcDbLayout
  1
Model
 70
0
 71
0
 10
0.0
 20
0.0
 11
420.0
 21
297.0
 12
0.0
 22
0.0
 32
0.0
 14
0.0
 24
0.0
 34
0.0
 15
0.0
 25
0.0
 35
0.0
146
0.0
 13
0.0
 23
0.0
 33
0.0
 16
1.0
 26
0.0
 36
0.0
 17
0.0
 27
1.0
 37
0.0
 76
0
330
20D
345
0
346
0
  0
LAYOUT
  5
2D9
102
{ACAD_REACTORS
330
1A
102
}
100
AcDbPlotSettings
  1

  2
none_device
  4
ISO_A3_(420.00_x_297.00_MM)
  6

 40
0.0
 41
0.0
 42
0.0
 43
0.0
 44
420.0
 45
297.0
 46
0.0
 47
0.0
 48
0.0
 49
0.0
140
0.0
141
0.0
142
1.0
143
1.0
 70
0
 72
1
 73
0
 74
0
  7

 75
0
147
1.0
148
0.0
149
0.0
100
AcDbLayout
  1
Layout1
 70
0
 71
1
 10
0.0
 20
0.0
 11
420.0
 21
297.0
 12
0.0
 22
0.0
 32
0.0
 14
0.0
 24
0.0
 34
0.0
 15
0.0
 25
0.0
 35
0.0
146
0.0
 13
0.0
 23
0.0
 33
0.0
 16
1.0
 26
0.0
 36
0.0
 17
0.0
 27
1.0
 37
0.0
 76
0
330
20E
345
0
346
0
  0
ENDSEC
  0
EOF
