999
DXF file: 8432908156.dxf
999
Pro/ENGINEER 2021164 by Parametric Technology Corporation
  0
SECTION
  2
HEADER
  9
$ACADVER
  1
AC1021
  9
$DWGCODEPAGE
  3
ANSI_1252
  9
$EXTMAX
 10
420.0
 20
297.0
 30
0.0
  9
$EXTMIN
 10
0.0
 20
0.0
 30
0.0
  9
$LIMMIN
 10
0.0
 20
0.0
  9
$LIMMAX
 10
420.0
 20
297.0
  9
$VIEWCTR
 10
210.0
 20
148.5
  9
$VIEWSIZE
 40
297.0
  9
$CLAYER
  8
0
  9
$LTSCALE
 40
23.1
  9
$CELTYPE
  6
BYLAYER
  9
$DIMSCALE
 40
1.0
  9
$DIMASZ
 40
3.5
  9
$DIMEXO
 40
0.0
  9
$DIMDLI
 40
15.96
  9
$DIMEXE
 40
1.5
  9
$DIMCEN
 40
3.78
  9
$DIMLFAC
 40
1.0
  9
$DIMBLK
  1
_FILLED
  9
$DIMALT
 70
0
  9
$DIMALTF
 40
0.0393700787
  9
$DIMTXT
 40
3.5
  9
$DIMTOL
 70
1
  9
$DIMLIM
 70
0
  9
$DIMTFAC
 40
1.0
  9
$DIMTP
 40
0.05
  9
$DIMTM
 40
0.05
  9
$DIMGAP
 40
0.625
  9
$DIMDSEP
 70
46
  9
$AUNITS
 70
0
  9
$PDMODE
 70
3
  9
$PDSIZE
 40
0.3125
  9
$HANDSEED
  5
2E2
  9
$TILEMODE
 70
1
  9
$MEASUREMENT
 70
1
  9
$INSUNITS
 70
4
  0
ENDSEC
  0
SECTION
  2
CLASSES
  0
CLASS
  1
ACDBDICTIONARYWDFLT
  2
AcDbDictionaryWithDefault
  3
AutoCAD 2000
 90
0
 91
1
280
0
281
0
  0
CLASS
  1
ACDBPLACEHOLDER
  2
AcDbPlaceHolder
  3
AutoCAD 2000
 90
0
 91
1
280
0
281
0
  0
CLASS
  1
LAYOUT
  2
AcDbLayout
  3
AutoCAD 2000
 90
0
 91
0
280
0
281
0
  0
ENDSEC
  0
SECTION
  2
TABLES
  0
TABLE
  2
VPORT
  5
8
100
AcDbSymbolTable
 70
2
  0
VPORT
  5
1F4
100
AcDbSymbolTableRecord
100
AcDbViewportTableRecord
  2
*ACTIVE
 70
0
 10
0.0
 20
0.0
 11
1.0
 21
1.0
 12
210.0
 22
148.5
 13
0.0
 23
0.0
 14
1.0
 24
1.0
 15
0.0
 25
0.0
 16
0.0
 26
0.0
 36
1.0
 17
0.0
 27
0.0
 37
0.0
 40
297.0
 41
1.4141414141
 42
50.0
 43
0.0
 44
0.0
 50
0.0
 51
0.0
 71
0
 72
100
 73
1
 74
1
 75
0
 76
0
 77
0
 78
0
  0
ENDTAB
  0
TABLE
  2
LTYPE
  5
5
100
AcDbSymbolTable
 70
6
  0
LTYPE
  5
14
100
AcDbSymbolTableRecord
100
AcDbLinetypeTableRecord
  2
BYBLOCK
 70
0
  3

 72
65
 73
0
 40
0.0
  0
LTYPE
  5
15
100
AcDbSymbolTableRecord
100
AcDbLinetypeTableRecord
  2
BYLAYER
 70
0
  3

 72
65
 73
0
 40
0.0
  0
LTYPE
  5
16
100
AcDbSymbolTableRecord
100
AcDbLinetypeTableRecord
  2
CONTINUOUS
 70
64
  3
Solid line
 72
65
 73
0
 40
0.0
  0
LTYPE
  5
1F5
100
AcDbSymbolTableRecord
100
AcDbLinetypeTableRecord
  2
CENTER
 70
64
  3
____ _ ____ _ ____ _ ____ _ ____ _ ____ _ ____
 72
65
 73
4
 40
0.6
 49
0.375
 74
0
 49
-0.075
 74
0
 49
0.075
 74
0
 49
-0.075
 74
0
  0
LTYPE
  5
1F6
100
AcDbSymbolTableRecord
100
AcDbLinetypeTableRecord
  2
HIDDEN
 70
64
  3
- - - - - - - - - - - - - - - - - - - -
 72
65
 73
2
 40
0.2
 49
0.1
 74
0
 49
-0.1
 74
0
  0
LTYPE
  5
1F7
100
AcDbSymbolTableRecord
100
AcDbLinetypeTableRecord
  2
PHANTOM
 70
64
  3
_____ _ _ _____ _ _ _____ _ _ _____
 72
65
 73
6
 40
0.8
 49
0.45
 74
0
 49
-0.05
 74
0
 49
0.1
 74
0
 49
-0.05
 74
0
 49
0.1
 74
0
 49
-0.05
 74
0
  0
LTYPE
  5
1F8
100
AcDbSymbolTableRecord
100
AcDbLinetypeTableRecord
  2
DOT
 70
64
  3
. . . . . . . . . . . . . . . . . . . .
 72
65
 73
2
 40
0.2
 49
0.1
 74
0
 49
-0.1
 74
0
  0
LTYPE
  5
1F9
100
AcDbSymbolTableRecord
100
AcDbLinetypeTableRecord
  2
DASHED
 70
64
  3
- - - - - - - - - - - - - - - - - - - -
 72
65
 73
2
 40
0.2
 49
0.1
 74
0
 49
-0.1
 74
0
  0
ENDTAB
  0
TABLE
  2
LAYER
  5
2
100
AcDbSymbolTable
 70
36
  0
LAYER
  5
10
100
AcDbSymbolTableRecord
100
AcDbLayerTableRecord
  2
0
 70
0
 62
7
  6
CONTINUOUS
370
-3
390
F
  0
LAYER
  5
1FA
100
AcDbSymbolTableRecord
100
AcDbLayerTableRecord
  2
DEFAULT_1
 70
0
 62
7
  6
CENTER
370
-3
390
F
  0
LAYER
  5
1FB
100
AcDbSymbolTableRecord
100
AcDbLayerTableRecord
  2
DEFAULT_2
 70
0
 62
1
  6
HIDDEN
370
-3
390
F
  0
LAYER
  5
1FC
100
AcDbSymbolTableRecord
100
AcDbLayerTableRecord
  2
DEFAULT_3
 70
0
 62
7
  6
PHANTOM
370
-3
390
F
  0
LAYER
  5
1FD
100
AcDbSymbolTableRecord
100
AcDbLayerTableRecord
  2
2
 70
0
 62
7
  6
CONTINUOUS
370
-3
390
F
  0
LAYER
  5
1FE
100
AcDbSymbolTableRecord
100
AcDbLayerTableRecord
  2
HILFEN
 70
0
 62
7
  6
CONTINUOUS
370
-3
390
F
  0
LAYER
  5
1FF
100
AcDbSymbolTableRecord
100
AcDbLayerTableRecord
  2
NOCUT
 70
0
 62
7
  6
CONTINUOUS
370
-3
390
F
  0
LAYER
  5
200
100
AcDbSymbolTableRecord
100
AcDbLayerTableRecord
  2
PLATZIERUNG
 70
0
 62
7
  6
CONTINUOUS
370
-3
390
F
  0
LAYER
  5
201
100
AcDbSymbolTableRecord
100
AcDbLayerTableRecord
  2
T_STARTBEZUEGE
 70
0
 62
7
  6
CONTINUOUS
370
-3
390
F
  0
LAYER
  5
202
100
AcDbSymbolTableRecord
100
AcDbLayerTableRecord
  2
_04_NOTIZEN
 70
0
 62
7
  6
CONTINUOUS
370
-3
390
F
  0
LAYER
  5
203
100
AcDbSymbolTableRecord
100
AcDbLayerTableRecord
  2
_05_2D_ELEMENTE
 70
0
 62
7
  6
CONTINUOUS
370
-3
390
F
  0
LAYER
  5
204
100
AcDbSymbolTableRecord
100
AcDbLayerTableRecord
  2
_07_EINRASTLINIEN
 70
0
 62
7
  6
CONTINUOUS
370
-3
390
F
  0
LAYER
  5
205
100
AcDbSymbolTableRecord
100
AcDbLayerTableRecord
  2
_26_BEZUGSACHSEN
 70
0
 62
7
  6
CONTINUOUS
370
-3
390
F
  0
LAYER
  5
206
100
AcDbSymbolTableRecord
100
AcDbLayerTableRecord
  2
_27_BEZUGSEBENEN
 70
0
 62
7
  6
CONTINUOUS
370
-3
390
F
  0
LAYER
  5
207
100
AcDbSymbolTableRecord
100
AcDbLayerTableRecord
  2
_28_BEZUGSPUNKTE
 70
0
 62
7
  6
CONTINUOUS
370
-3
390
F
  0
LAYER
  5
208
100
AcDbSymbolTableRecord
100
AcDbLayerTableRecord
  2
_29_KOORDINATENSYSTEME
 70
0
 62
7
  6
CONTINUOUS
370
-3
390
F
  0
LAYER
  5
209
100
AcDbSymbolTableRecord
100
AcDbLayerTableRecord
  2
_30_VOLUMEN
 70
0
 62
7
  6
CONTINUOUS
370
-3
390
F
  0
ENDTAB
  0
TABLE
  2
STYLE
  5
3
100
AcDbSymbolTable
 70
1
  0
STYLE
  5
11
100
AcDbSymbolTableRecord
100
AcDbTextStyleTableRecord
  2
STANDARD
 70
0
 40
0.0
 41
0.7
 50
0.0
 71
0
 42
0.2
  3
SIMPLEX.SHX
  4

  0
STYLE
  5
20A
100
AcDbSymbolTableRecord
100
AcDbTextStyleTableRecord
  2
TEXTSTYLE_1
 70
0
 40
0.0
 41
0.8
 50
0.0
 71
0
 42
0.2
  3
gdt
  4

  0
STYLE
  5
20B
100
AcDbSymbolTableRecord
100
AcDbTextStyleTableRecord
  2
TEXTSTYLE_2
 70
0
 40
0.0
 41
0.7
 50
0.0
 71
0
 42
0.2
  3
gdt
  4

  0
ENDTAB
  0
TABLE
  2
VIEW
  5
6
100
AcDbSymbolTable
 70
0
  0
ENDTAB
  0
TABLE
  2
UCS
  5
7
100
AcDbSymbolTable
 70
0
  0
ENDTAB
  0
TABLE
  2
APPID
  5
9
100
AcDbSymbolTable
 70
1
  0
APPID
  5
20C
100
AcDbSymbolTableRecord
100
AcDbRegAppTableRecord
  2
ACAD
 70
0
  0
ENDTAB
  0
TABLE
  2
BLOCK_RECORD
  5
1
100
AcDbSymbolTable
 70
0
  0
BLOCK_RECORD
  5
20D
100
AcDbSymbolTableRecord
100
AcDbBlockTableRecord
  2
*Model_Space
  0
BLOCK_RECORD
  5
20E
100
AcDbSymbolTableRecord
100
AcDbBlockTableRecord
  2
*Paper_Space
  0
BLOCK_RECORD
  5
20F
100
AcDbSymbolTableRecord
100
AcDbBlockTableRecord
  2
_FILLED
  0
BLOCK_RECORD
  5
210
100
AcDbSymbolTableRecord
100
AcDbBlockTableRecord
  2
*D0
  0
BLOCK_RECORD
  5
211
100
AcDbSymbolTableRecord
100
AcDbBlockTableRecord
  2
*D1
  0
BLOCK_RECORD
  5
212
100
AcDbSymbolTableRecord
100
AcDbBlockTableRecord
  2
*D2
  0
BLOCK_RECORD
  5
213
100
AcDbSymbolTableRecord
100
AcDbBlockTableRecord
  2
*D3
  0
BLOCK_RECORD
  5
214
100
AcDbSymbolTableRecord
100
AcDbBlockTableRecord
  2
*D4
  0
BLOCK_RECORD
  5
215
100
AcDbSymbolTableRecord
100
AcDbBlockTableRecord
  2
*D5
  0
BLOCK_RECORD
  5
216
100
AcDbSymbolTableRecord
100
AcDbBlockTableRecord
  2
*D6
  0
ENDTAB
  0
TABLE
  2
DIMSTYLE
  5
A
100
AcDbSymbolTable
 70
1
100
AcDbDimStyleTable
 71
0
  0
DIMSTYLE
105
217
100
AcDbSymbolTableRecord
100
AcDbDimStyleTableRecord
  2
STANDARD
 70
0
  3

  4

 40
1.0
 41
3.5
 42
0.0
 43
0.38
 44
1.5
 45
0.0
 46
0.0
 47
0.05
 48
0.05
140
3.5
141
0.09
142
0.0
143
25.4
144
1.0
145
0.0
146
1.0
147
0.625
 71
1
 72
0
 73
0
 74
0
 75
0
 76
0
 77
1
 78
8
 79
2
170
0
171
1
172
0
173
0
174
0
175
0
176
0
177
0
178
7
270
2
179
2
271
2
272
2
273
2
274
2
275
0
280
0
281
0
282
0
283
1
284
8
285
0
286
0
287
3
288
0
340
11
278
46
341
20F
342
20F
343
20F
344
20F
  0
DIMSTYLE
105
218
100
AcDbSymbolTableRecord
100
AcDbDimStyleTableRecord
  2
DIMSTYLE_1
 70
0
  3

  4

 40
1.0
 41
3.5
 42
0.0
 43
0.38
 44
1.5
 45
0.0
 46
0.0
 47
0.3
 48
0.3
140
3.5
141
0.09
142
0.0
143
25.4
144
1.0
145
0.0
146
1.0
147
0.875
 71
0
 72
0
 73
0
 74
0
 75
0
 76
0
 77
1
 78
8
 79
2
170
0
171
1
172
0
173
0
174
0
175
0
176
0
177
0
178
7
270
2
179
2
271
2
272
2
273
2
274
2
275
0
280
0
281
0
282
0
283
1
284
8
285
0
286
0
287
3
288
0
340
11
278
46
341
20F
342
20F
343
20F
344
20F
  0
DIMSTYLE
105
219
100
AcDbSymbolTableRecord
100
AcDbDimStyleTableRecord
  2
DIMSTYLE_2
 70
0
  3

  4

 40
1.0
 41
3.5
 42
0.0
 43
0.38
 44
1.5
 45
0.0
 46
0.0
 47
0.2
 48
0.2
140
3.5
141
0.09
142
0.0
143
25.4
144
1.0
145
0.0
146
1.0
147
0.875
 71
0
 72
0
 73
0
 74
0
 75
0
 76
0
 77
1
 78
8
 79
2
170
0
171
1
172
0
173
0
174
0
175
0
176
0
177
0
178
7
270
2
179
2
271
2
272
2
273
2
274
2
275
0
280
0
281
0
282
0
283
1
284
8
285
0
286
0
287
3
288
0
340
11
278
46
341
20F
342
20F
343
20F
344
20F
  0
DIMSTYLE
105
21A
100
AcDbSymbolTableRecord
100
AcDbDimStyleTableRecord
  2
DIMSTYLE_3
 70
0
  3

  4

 40
1.0
 41
3.5
 42
0.0
 43
0.38
 44
1.5
 45
0.0
 46
0.0
 47
0.5
 48
0.5
140
3.5
141
0.09
142
0.0
143
25.4
144
1.0
145
0.0
146
1.0
147
0.875
 71
0
 72
0
 73
0
 74
0
 75
0
 76
0
 77
1
 78
8
 79
2
170
0
171
1
172
0
173
0
174
0
175
0
176
0
177
0
178
7
270
2
179
2
271
2
272
2
273
2
274
2
275
0
280
0
281
0
282
0
283
1
284
8
285
0
286
0
287
3
288
0
340
11
278
46
341
20F
342
20F
343
20F
344
20F
  0
ENDTAB
  0
ENDSEC
  0
SECTION
  2
BLOCKS
  0
BLOCK
  5
20
100
AcDbEntity
  8
0
100
AcDbBlockBegin
  2
*Model_Space
 70
0
 10
0.0
 20
0.0
 30
0.0
  3
*Model_Space
  1

  0
ENDBLK
  5
21
100
AcDbEntity
  8
0
100
AcDbBlockEnd
  0
BLOCK
  5
1C
100
AcDbEntity
  8
0
100
AcDbBlockBegin
  2
*Paper_Space
 70
0
 10
0.0
 20
0.0
 30
0.0
  3
*Paper_Space
  1

  0
ENDBLK
  5
1D
100
AcDbEntity
  8
0
100
AcDbBlockEnd
  0
BLOCK
  5
21B
100
AcDbEntity
  8
0
100
AcDbBlockBegin
  2
_FILLED
 70
64
 10
0.0
 20
0.0
  3
_FILLED
  1

  0
SOLID
  5
21C
100
AcDbEntity
  8
0
  6
BYBLOCK
 62
0
100
AcDbTrace
 10
0.0
 20
0.0
 11
-1.0
 21
0.125
 12
-1.0
 22
-0.125
 13
-1.0
 23
-0.125
  0
ENDBLK
  5
21D
100
AcDbEntity
  8
0
  6
BYBLOCK
 62
0
100
AcDbBlockEnd
  0
BLOCK
  5
21E
100
AcDbEntity
  8
2
100
AcDbBlockBegin
 62
7
  6
CONTINUOUS
  2
*D0
 70
65
 10
0.0
 20
0.0
  3
*D0
  1

  0
TEXT
  5
21F
100
AcDbEntity
  8
2
100
AcDbText
 62
7
  6
CONTINUOUS
 10
-49.875
 20
-11.0
  7
STANDARD
 40
3.5
  1
HSK-A 
 50
90.0
 41
0.7857142857
 72
1
 11
-49.875
 21
-2.75
100
AcDbText
  0
TEXT
  5
220
100
AcDbEntity
  8
2
100
AcDbText
 62
7
  6
CONTINUOUS
 10
-49.875
 20
5.5
  7
STANDARD
 40
3.5
  1
80
 50
90.0
 41
0.7857142857
 72
1
 11
-49.875
 21
8.25
100
AcDbText
  0
LINE
  5
221
100
AcDbEntity
  8
2
100
AcDbLine
 62
7
  6
CONTINUOUS
 10
-0.0
 20
-40.0
 11
-50.5
 21
-40.0
  0
LINE
  5
222
100
AcDbEntity
  8
2
100
AcDbLine
 62
7
  6
CONTINUOUS
 10
0.0
 20
40.0
 11
-50.5
 21
40.0
  0
LINE
  5
223
100
AcDbEntity
  8
2
100
AcDbLine
 62
7
  6
CONTINUOUS
 10
-49.0
 20
-40.0
 11
-49.0
 21
0.0
  0
LINE
  5
224
100
AcDbEntity
  8
2
100
AcDbLine
 62
7
  6
CONTINUOUS
 10
-49.0
 20
40.0
 11
-49.0
 21
0.0
  0
INSERT
  5
225
100
AcDbEntity
  8
2
100
AcDbBlockReference
 62
7
  6
CONTINUOUS
  2
_FILLED
 10
-49.0
 20
-40.0
 41
3.5
 42
3.5
 43
3.5
 50
270.0
  0
INSERT
  5
226
100
AcDbEntity
  8
2
100
AcDbBlockReference
 62
7
  6
CONTINUOUS
  2
_FILLED
 10
-49.0
 20
40.0
 41
3.5
 42
3.5
 43
3.5
 50
90.0
  0
ENDBLK
  5
227
100
AcDbEntity
  8
0
  6
BYBLOCK
 62
0
100
AcDbBlockEnd
  0
BLOCK
  5
228
100
AcDbEntity
  8
2
100
AcDbBlockBegin
 62
7
  6
CONTINUOUS
  2
*D1
 70
65
 10
0.0
 20
0.0
  3
*D1
  1

  0
TEXT
  5
229
100
AcDbEntity
  8
2
100
AcDbText
 62
7
  6
CONTINUOUS
 10
96.125
 20
-4.9583333333
  7
TEXTSTYLE_2
 40
3.5
  1
n
 50
90.0
 41
1.0
 72
1
 11
96.125
 21
-2.625
100
AcDbText
  0
TEXT
  5
22A
100
AcDbEntity
  8
2
100
AcDbText
 62
7
  6
CONTINUOUS
 10
96.125
 20
-0.2916666667
  7
STANDARD
 40
3.5
  1
65
 50
90.0
 41
0.75
 72
1
 11
96.125
 21
2.3333333333
100
AcDbText
  0
LINE
  5
22B
100
AcDbEntity
  8
2
100
AcDbLine
 62
7
  6
CONTINUOUS
 10
88.0
 20
32.5
 11
98.5
 21
32.5
  0
LINE
  5
22C
100
AcDbEntity
  8
2
100
AcDbLine
 62
7
  6
CONTINUOUS
 10
88.0
 20
-32.5
 11
98.5
 21
-32.5
  0
LINE
  5
22D
100
AcDbEntity
  8
2
100
AcDbLine
 62
7
  6
CONTINUOUS
 10
97.0
 20
32.5
 11
97.0
 21
-0.0
  0
LINE
  5
22E
100
AcDbEntity
  8
2
100
AcDbLine
 62
7
  6
CONTINUOUS
 10
97.0
 20
-32.5
 11
97.0
 21
-0.0
  0
INSERT
  5
22F
100
AcDbEntity
  8
2
100
AcDbBlockReference
 62
7
  6
CONTINUOUS
  2
_FILLED
 10
97.0
 20
32.5
 41
3.5
 42
3.5
 43
3.5
 50
90.0
  0
INSERT
  5
230
100
AcDbEntity
  8
2
100
AcDbBlockReference
 62
7
  6
CONTINUOUS
  2
_FILLED
 10
97.0
 20
-32.5
 41
3.5
 42
3.5
 43
3.5
 50
270.0
  0
ENDBLK
  5
231
100
AcDbEntity
  8
0
  6
BYBLOCK
 62
0
100
AcDbBlockEnd
  0
BLOCK
  5
232
100
AcDbEntity
  8
2
100
AcDbBlockBegin
 62
7
  6
CONTINUOUS
  2
*D2
 70
65
 10
0.0
 20
0.0
  3
*D2
  1

  0
TEXT
  5
233
100
AcDbEntity
  8
2
100
AcDbText
 62
7
  6
CONTINUOUS
 10
105.125
 20
-4.7083333333
  7
TEXTSTYLE_2
 40
3.5
  1
n
 50
90.0
 41
1.0
 72
1
 11
105.125
 21
-2.375
100
AcDbText
  0
TEXT
  5
234
100
AcDbEntity
  8
2
100
AcDbText
 62
7
  6
CONTINUOUS
 10
105.125
 20
-0.0416666667
  7
STANDARD
 40
3.5
  1
81
 50
90.0
 41
0.6785714286
 72
1
 11
105.125
 21
2.3333333333
100
AcDbText
  0
LINE
  5
235
100
AcDbEntity
  8
2
100
AcDbLine
 62
7
  6
CONTINUOUS
 10
87.0
 20
40.5
 11
107.5
 21
40.5
  0
LINE
  5
236
100
AcDbEntity
  8
2
100
AcDbLine
 62
7
  6
CONTINUOUS
 10
87.0
 20
-40.5
 11
107.5
 21
-40.5
  0
LINE
  5
237
100
AcDbEntity
  8
2
100
AcDbLine
 62
7
  6
CONTINUOUS
 10
106.0
 20
40.5
 11
106.0
 21
-0.0
  0
LINE
  5
238
100
AcDbEntity
  8
2
100
AcDbLine
 62
7
  6
CONTINUOUS
 10
106.0
 20
-40.5
 11
106.0
 21
-0.0
  0
INSERT
  5
239
100
AcDbEntity
  8
2
100
AcDbBlockReference
 62
7
  6
CONTINUOUS
  2
_FILLED
 10
106.0
 20
40.5
 41
3.5
 42
3.5
 43
3.5
 50
90.0
  0
INSERT
  5
23A
100
AcDbEntity
  8
2
100
AcDbBlockReference
 62
7
  6
CONTINUOUS
  2
_FILLED
 10
106.0
 20
-40.5
 41
3.5
 42
3.5
 43
3.5
 50
270.0
  0
ENDBLK
  5
23B
100
AcDbEntity
  8
0
  6
BYBLOCK
 62
0
100
AcDbBlockEnd
  0
BLOCK
  5
23C
100
AcDbEntity
  8
2
100
AcDbBlockBegin
 62
7
  6
CONTINUOUS
  2
*D3
 70
65
 10
0.0
 20
0.0
  3
*D3
  1

  0
TEXT
  5
23D
100
AcDbEntity
  8
2
100
AcDbText
 62
7
  6
CONTINUOUS
 10
73.25
 20
-46.5405411615
  7
STANDARD
 40
3.5
  1
24
 41
0.7857142857
 72
1
 11
76.0
 21
-46.5405411615
100
AcDbText
  0
LINE
  5
23E
100
AcDbEntity
  8
2
100
AcDbLine
 62
7
  6
CONTINUOUS
 10
64.0
 20
-39.5
 11
64.0
 21
-48.9155411615
  0
LINE
  5
23F
100
AcDbEntity
  8
2
100
AcDbLine
 62
7
  6
CONTINUOUS
 10
88.0
 20
-39.5
 11
88.0
 21
-48.9155411615
  0
LINE
  5
240
100
AcDbEntity
  8
2
100
AcDbLine
 62
7
  6
CONTINUOUS
 10
64.0
 20
-47.4155411615
 11
76.0
 21
-47.4155411615
  0
LINE
  5
241
100
AcDbEntity
  8
2
100
AcDbLine
 62
7
  6
CONTINUOUS
 10
88.0
 20
-47.4155411615
 11
76.0
 21
-47.4155411615
  0
INSERT
  5
242
100
AcDbEntity
  8
2
100
AcDbBlockReference
 62
7
  6
CONTINUOUS
  2
_FILLED
 10
64.0
 20
-47.4155411615
 41
3.5
 42
3.5
 43
3.5
 50
180.0
  0
INSERT
  5
243
100
AcDbEntity
  8
2
100
AcDbBlockReference
 62
7
  6
CONTINUOUS
  2
_FILLED
 10
88.0
 20
-47.4155411615
 41
3.5
 42
3.5
 43
3.5
  0
ENDBLK
  5
244
100
AcDbEntity
  8
0
  6
BYBLOCK
 62
0
100
AcDbBlockEnd
  0
BLOCK
  5
245
100
AcDbEntity
  8
2
100
AcDbBlockBegin
 62
7
  6
CONTINUOUS
  2
*D4
 70
65
 10
0.0
 20
0.0
  3
*D4
  1

  0
TEXT
  5
246
100
AcDbEntity
  8
2
100
AcDbText
 62
7
  6
CONTINUOUS
 10
35.25
 20
50.375
  7
STANDARD
 40
3.5
  1
76
 41
0.7857142857
 72
1
 11
38.0
 21
50.375
100
AcDbText
  0
LINE
  5
247
100
AcDbEntity
  8
2
100
AcDbLine
 62
7
  6
CONTINUOUS
 10
-0.0
 20
40.0
 11
-0.0
 21
51.0
  0
LINE
  5
248
100
AcDbEntity
  8
2
100
AcDbLine
 62
7
  6
CONTINUOUS
 10
76.0
 20
32.5
 11
76.0
 21
51.0
  0
LINE
  5
249
100
AcDbEntity
  8
2
100
AcDbLine
 62
7
  6
CONTINUOUS
 10
-0.0
 20
49.5
 11
38.0
 21
49.5
  0
LINE
  5
24A
100
AcDbEntity
  8
2
100
AcDbLine
 62
7
  6
CONTINUOUS
 10
76.0
 20
49.5
 11
38.0
 21
49.5
  0
INSERT
  5
24B
100
AcDbEntity
  8
2
100
AcDbBlockReference
 62
7
  6
CONTINUOUS
  2
_FILLED
 10
-0.0
 20
49.5
 41
3.5
 42
3.5
 43
3.5
 50
180.0
  0
INSERT
  5
24C
100
AcDbEntity
  8
2
100
AcDbBlockReference
 62
7
  6
CONTINUOUS
  2
_FILLED
 10
76.0
 20
49.5
 41
3.5
 42
3.5
 43
3.5
  0
ENDBLK
  5
24D
100
AcDbEntity
  8
0
  6
BYBLOCK
 62
0
100
AcDbBlockEnd
  0
BLOCK
  5
24E
100
AcDbEntity
  8
2
100
AcDbBlockBegin
 62
7
  6
CONTINUOUS
  2
*D5
 70
65
 10
0.0
 20
0.0
  3
*D5
  1

  0
TEXT
  5
24F
100
AcDbEntity
  8
2
100
AcDbText
 62
7
  6
CONTINUOUS
 10
41.25
 20
59.375
  7
STANDARD
 40
3.5
  1
88
 41
0.7857142857
 72
1
 11
44.0
 21
59.375
100
AcDbText
  0
LINE
  5
250
100
AcDbEntity
  8
2
100
AcDbLine
 62
7
  6
CONTINUOUS
 10
-0.0
 20
40.0
 11
-0.0
 21
60.0
  0
LINE
  5
251
100
AcDbEntity
  8
2
100
AcDbLine
 62
7
  6
CONTINUOUS
 10
88.0
 20
39.5
 11
88.0
 21
60.0
  0
LINE
  5
252
100
AcDbEntity
  8
2
100
AcDbLine
 62
7
  6
CONTINUOUS
 10
-0.0
 20
58.5
 11
44.0
 21
58.5
  0
LINE
  5
253
100
AcDbEntity
  8
2
100
AcDbLine
 62
7
  6
CONTINUOUS
 10
88.0
 20
58.5
 11
44.0
 21
58.5
  0
INSERT
  5
254
100
AcDbEntity
  8
2
100
AcDbBlockReference
 62
7
  6
CONTINUOUS
  2
_FILLED
 10
-0.0
 20
58.5
 41
3.5
 42
3.5
 43
3.5
 50
180.0
  0
INSERT
  5
255
100
AcDbEntity
  8
2
100
AcDbBlockReference
 62
7
  6
CONTINUOUS
  2
_FILLED
 10
88.0
 20
58.5
 41
3.5
 42
3.5
 43
3.5
  0
ENDBLK
  5
256
100
AcDbEntity
  8
0
  6
BYBLOCK
 62
0
100
AcDbBlockEnd
  0
BLOCK
  5
257
100
AcDbEntity
  8
2
100
AcDbBlockBegin
 62
7
  6
CONTINUOUS
  2
*D6
 70
65
 10
0.0
 20
0.0
  3
*D6
  1

  0
TEXT
  5
258
100
AcDbEntity
  8
2
100
AcDbText
 62
7
  6
CONTINUOUS
 10
20.25
 20
68.375
  7
STANDARD
 40
3.5
  1
128
 41
0.7142857143
 72
1
 11
24.0
 21
68.375
100
AcDbText
  0
LINE
  5
259
100
AcDbEntity
  8
2
100
AcDbLine
 62
7
  6
CONTINUOUS
 10
-40.0
 20
28.4017476456
 11
-40.0
 21
69.0
  0
LINE
  5
25A
100
AcDbEntity
  8
2
100
AcDbLine
 62
7
  6
CONTINUOUS
 10
88.0
 20
39.5
 11
88.0
 21
69.0
  0
LINE
  5
25B
100
AcDbEntity
  8
2
100
AcDbLine
 62
7
  6
CONTINUOUS
 10
-40.0
 20
67.5
 11
24.0
 21
67.5
  0
LINE
  5
25C
100
AcDbEntity
  8
2
100
AcDbLine
 62
7
  6
CONTINUOUS
 10
88.0
 20
67.5
 11
24.0
 21
67.5
  0
INSERT
  5
25D
100
AcDbEntity
  8
2
100
AcDbBlockReference
 62
7
  6
CONTINUOUS
  2
_FILLED
 10
-40.0
 20
67.5
 41
3.5
 42
3.5
 43
3.5
 50
180.0
  0
INSERT
  5
25E
100
AcDbEntity
  8
2
100
AcDbBlockReference
 62
7
  6
CONTINUOUS
  2
_FILLED
 10
88.0
 20
67.5
 41
3.5
 42
3.5
 43
3.5
  0
ENDBLK
  5
25F
100
AcDbEntity
  8
0
  6
BYBLOCK
 62
0
100
AcDbBlockEnd
  0
ENDSEC
  0
SECTION
  2
ENTITIES
  0
DIMENSION
  5
260
100
AcDbEntity
  8
2
100
AcDbDimension
 62
7
  6
CONTINUOUS
  2
*D0
 10
-49.0
 20
40.0
 11
-49.0
 21
0.0
 70
160
 71
2
 72
2
 41
0.9
 42
80.0
  1
HSK-A <>
  3
DIMSTYLE_1
100
AcDbAlignedDimension
 13
-0.0
 23
-40.0
 14
0.0
 24
40.0
 50
90.0
100
AcDbRotatedDimension
  0
DIMENSION
  5
261
100
AcDbEntity
  8
2
100
AcDbDimension
 62
7
  6
CONTINUOUS
  2
*D1
 10
97.0
 20
-32.5
 11
97.0
 21
-0.0
 70
160
 71
2
 72
2
 41
0.9
 42
65.0
  1
%%c<>
  3
DIMSTYLE_1
100
AcDbAlignedDimension
 13
88.0
 23
32.5
 14
88.0
 24
-32.5
 50
270.0
100
AcDbRotatedDimension
  0
DIMENSION
  5
262
100
AcDbEntity
  8
2
100
AcDbDimension
 62
7
  6
CONTINUOUS
  2
*D2
 10
106.0
 20
-40.5
 11
106.0
 21
-0.0
 70
160
 71
2
 72
2
 41
0.9
 42
81.0
  1
%%c<>
  3
DIMSTYLE_1
100
AcDbAlignedDimension
 13
87.0
 23
40.5
 14
87.0
 24
-40.5
 50
270.0
100
AcDbRotatedDimension
  0
DIMENSION
  5
263
100
AcDbEntity
  8
2
100
AcDbDimension
 62
7
  6
CONTINUOUS
  2
*D3
 10
88.0
 20
-47.4155411615
 11
75.4999987793
 21
-47.4155411615
 70
160
 71
2
 72
2
 41
0.9
 42
24.0
  3
DIMSTYLE_2
100
AcDbAlignedDimension
 13
64.0
 23
-39.5
 14
88.0
 24
-39.5
100
AcDbRotatedDimension
  0
DIMENSION
  5
264
100
AcDbEntity
  8
2
100
AcDbDimension
 62
7
  6
CONTINUOUS
  2
*D4
 10
76.0
 20
49.5
 11
37.5000011444
 21
49.5
 70
160
 71
2
 72
2
 41
0.9
 42
76.0
  3
DIMSTYLE_1
100
AcDbAlignedDimension
 13
-0.0
 23
40.0
 14
76.0
 24
32.5
100
AcDbRotatedDimension
  0
DIMENSION
  5
265
100
AcDbEntity
  8
2
100
AcDbDimension
 62
7
  6
CONTINUOUS
  2
*D5
 10
88.0
 20
58.5
 11
43.5000006866
 21
58.5
 70
160
 71
2
 72
2
 41
0.9
 42
88.0
  3
DIMSTYLE_1
100
AcDbAlignedDimension
 13
-0.0
 23
40.0
 14
88.0
 24
39.5
100
AcDbRotatedDimension
  0
DIMENSION
  5
266
100
AcDbEntity
  8
2
100
AcDbDimension
 62
7
  6
CONTINUOUS
  2
*D6
 10
88.0
 20
67.5
 11
23.5000000763
 21
67.5
 70
160
 71
2
 72
2
 41
0.9
 42
128.0
  3
DIMSTYLE_3
100
AcDbAlignedDimension
 13
-40.0
 23
28.4017476456
 14
88.0
 24
39.5
100
AcDbRotatedDimension
  0
LINE
  5
267
100
AcDbEntity
  8
NOCUT
100
AcDbLine
 62
7
  6
CONTINUOUS
 10
-40.0
 20
28.4017476456
 11
-40.0
 21
0.0
  0
LINE
  5
268
100
AcDbEntity
  8
_30_VOLUMEN
100
AcDbLine
 62
4
  6
CONTINUOUS
 10
-40.0
 20
-28.4014148568
 11
-40.0
 21
28.4014148568
  0
LINE
  5
269
100
AcDbEntity
  8
_30_VOLUMEN
100
AcDbLine
 62
4
  6
CONTINUOUS
 10
65.0
 20
-40.5
 11
87.0
 21
-40.5
  0
LINE
  5
26A
100
AcDbEntity
  8
_30_VOLUMEN
100
AcDbLine
 62
4
  6
CONTINUOUS
 10
-0.0
 20
-40.0
 11
4.0
 21
-40.0
  0
LINE
  5
26B
100
AcDbEntity
  8
_30_VOLUMEN
100
AcDbLine
 62
4
  6
CONTINUOUS
 10
13.0
 20
-38.9743505398
 11
14.4781633579
 21
-38.9743505398
  0
LINE
  5
26C
100
AcDbEntity
  8
_30_VOLUMEN
100
AcDbLine
 62
4
  6
CONTINUOUS
 10
21.5218366421
 20
-38.9743505398
 11
26.0
 21
-38.9743505398
  0
LINE
  5
26D
100
AcDbEntity
  8
_30_VOLUMEN
100
AcDbLine
 62
4
  6
CONTINUOUS
 10
-8.0
 20
-30.006
 11
-8.0
 21
30.006
  0
LINE
  5
26E
100
AcDbEntity
  8
_30_VOLUMEN
100
AcDbLine
 62
1
  6
HIDDEN
 10
4.0
 20
-34.0
 11
16.125
 21
-34.0
  0
LINE
  5
26F
100
AcDbEntity
  8
_30_VOLUMEN
100
AcDbLine
 62
4
  6
CONTINUOUS
 10
16.125
 20
-34.0
 11
19.875
 21
-34.0
  0
LINE
  5
270
100
AcDbEntity
  8
_30_VOLUMEN
100
AcDbLine
 62
1
  6
HIDDEN
 10
19.875
 20
-34.0
 11
26.0
 21
-34.0
  0
LINE
  5
271
100
AcDbEntity
  8
_30_VOLUMEN
100
AcDbLine
 62
4
  6
CONTINUOUS
 10
26.0
 20
-34.0
 11
26.1010205106
 21
-34.0
  0
LINE
  5
272
100
AcDbEntity
  8
_30_VOLUMEN
100
AcDbLine
 62
1
  6
HIDDEN
 10
76.0
 20
-32.5
 11
88.0
 21
-32.5
  0
LINE
  5
273
100
AcDbEntity
  8
_30_VOLUMEN
100
AcDbLine
 62
1
  6
HIDDEN
 10
13.0
 20
-31.224989992
 11
14.4781633579
 21
-31.224989992
  0
LINE
  5
274
100
AcDbEntity
  8
_30_VOLUMEN
100
AcDbLine
 62
1
  6
HIDDEN
 10
21.5218366421
 20
-31.224989992
 11
26.0
 21
-31.224989992
  0
LINE
  5
275
100
AcDbEntity
  8
_30_VOLUMEN
100
AcDbLine
 62
4
  6
CONTINUOUS
 10
-8.0
 20
-30.006
 11
-0.0
 21
-30.006
  0
LINE
  5
276
100
AcDbEntity
  8
_30_VOLUMEN
100
AcDbLine
 62
4
  6
CONTINUOUS
 10
31.0
 20
-30.0
 11
64.0
 21
-30.0
  0
LINE
  5
277
100
AcDbEntity
  8
_30_VOLUMEN
100
AcDbLine
 62
4
  6
CONTINUOUS
 10
-40.0
 20
-28.4017476456
 11
-8.0
 21
-30.006
  0
LINE
  5
278
100
AcDbEntity
  8
_30_VOLUMEN
100
AcDbLine
 62
1
  6
HIDDEN
 10
4.4384978272
 20
-25.0
 11
16.125
 21
-25.0
  0
LINE
  5
279
100
AcDbEntity
  8
_30_VOLUMEN
100
AcDbLine
 62
1
  6
HIDDEN
 10
19.875
 20
-25.0
 11
26.0
 21
-25.0
  0
LINE
  5
27A
100
AcDbEntity
  8
NOCUT
100
AcDbLine
 62
7
  6
CONTINUOUS
 10
0.0
 20
40.0
 11
0.0
 21
30.006
  0
LINE
  5
27B
100
AcDbEntity
  8
_30_VOLUMEN
100
AcDbLine
 62
4
  6
CONTINUOUS
 10
-0.0
 20
-39.9996741752
 11
0.0
 21
39.9996741752
  0
LINE
  5
27C
100
AcDbEntity
  8
_30_VOLUMEN
100
AcDbLine
 62
4
  6
CONTINUOUS
 10
4.0
 20
40.0
 11
4.0
 21
39.9874980463
  0
LINE
  5
27D
100
AcDbEntity
  8
_30_VOLUMEN
100
AcDbLine
 62
1
  6
HIDDEN
 10
4.0
 20
-40.0
 11
4.0
 21
-34.0
  0
LINE
  5
27E
100
AcDbEntity
  8
_30_VOLUMEN
100
AcDbLine
 62
1
  6
HIDDEN
 10
4.0
 20
34.0
 11
4.0
 21
39.9874980463
  0
LINE
  5
27F
100
AcDbEntity
  8
_30_VOLUMEN
100
AcDbLine
 62
1
  6
HIDDEN
 10
-40.0
 20
-21.0
 11
-0.0
 21
-21.0
  0
LINE
  5
280
100
AcDbEntity
  8
_30_VOLUMEN
100
AcDbLine
 62
7
  6
DOT
 10
13.0
 20
-25.0
 11
13.0
 21
-31.224989992
  0
LINE
  5
281
100
AcDbEntity
  8
_30_VOLUMEN
100
AcDbLine
 62
1
  6
DOT
 10
13.0
 20
-34.0
 11
13.0
 21
-38.9743505398
  0
LINE
  5
282
100
AcDbEntity
  8
_30_VOLUMEN
100
AcDbLine
 62
1
  6
DOT
 10
13.0
 20
34.0
 11
13.0
 21
38.7298334621
  0
LINE
  5
283
100
AcDbEntity
  8
_30_VOLUMEN
100
AcDbLine
 62
4
  6
CONTINUOUS
 10
14.4781633579
 20
-38.9743505398
 11
14.4781633579
 21
38.7298334621
  0
LINE
  5
284
100
AcDbEntity
  8
_30_VOLUMEN
100
AcDbLine
 62
4
  6
CONTINUOUS
 10
16.125
 20
35.7763026864
 11
16.125
 21
-36.0408633902
  0
LINE
  5
285
100
AcDbEntity
  8
_30_VOLUMEN
100
AcDbLine
 62
1
  6
HIDDEN
 10
26.0
 20
-6.3
 11
76.0
 21
-6.3
  0
LINE
  5
286
100
AcDbEntity
  8
_30_VOLUMEN
100
AcDbLine
 62
1
  6
HIDDEN
 10
-0.0
 20
-5.1
 11
26.0
 21
-5.1
  0
LINE
  5
287
100
AcDbEntity
  8
_30_VOLUMEN
100
AcDbLine
 62
4
  6
CONTINUOUS
 10
19.875
 20
-36.0408633902
 11
19.875
 21
35.7763026864
  0
LINE
  5
288
100
AcDbEntity
  8
_30_VOLUMEN
100
AcDbLine
 62
4
  6
CONTINUOUS
 10
21.5218366421
 20
38.7298334621
 11
21.5218366421
 21
-38.9743505398
  0
LINE
  5
289
100
AcDbEntity
  8
_30_VOLUMEN
100
AcDbLine
 62
4
  6
CONTINUOUS
 10
64.0
 20
39.5
 11
65.0
 21
40.5
  0
LINE
  5
28A
100
AcDbEntity
  8
NOCUT
100
AcDbLine
 62
7
  6
CONTINUOUS
 10
64.0
 20
39.5
 11
65.0
 21
40.5
  0
LINE
  5
28B
100
AcDbEntity
  8
NOCUT
100
AcDbLine
 62
7
  6
CONTINUOUS
 10
-40.0
 20
0.0
 11
88.0
 21
-0.0
  0
LINE
  5
28C
100
AcDbEntity
  8
_30_VOLUMEN
100
AcDbLine
 62
4
  6
CONTINUOUS
 10
64.0
 20
-39.5
 11
65.0
 21
-40.5
  0
LINE
  5
28D
100
AcDbEntity
  8
_30_VOLUMEN
100
AcDbLine
 62
4
  6
CONTINUOUS
 10
26.0
 20
38.7298334621
 11
26.0
 21
-38.9743505398
  0
LINE
  5
28E
100
AcDbEntity
  8
NOCUT
100
AcDbLine
 62
7
  6
CONTINUOUS
 10
26.0
 20
35.0
 11
26.0
 21
40.0
  0
LINE
  5
28F
100
AcDbEntity
  8
_30_VOLUMEN
100
AcDbLine
 62
1
  6
HIDDEN
 10
0.0
 20
5.1
 11
26.0
 21
5.1
  0
LINE
  5
290
100
AcDbEntity
  8
_30_VOLUMEN
100
AcDbLine
 62
7
  6
CONTINUOUS
 10
31.0
 20
-30.0
 11
31.0
 21
30.0
  0
LINE
  5
291
100
AcDbEntity
  8
_30_VOLUMEN
100
AcDbLine
 62
1
  6
HIDDEN
 10
26.0
 20
6.3
 11
76.0
 21
6.3
  0
LINE
  5
292
100
AcDbEntity
  8
_30_VOLUMEN
100
AcDbLine
 62
1
  6
HIDDEN
 10
-40.0
 20
21.0
 11
0.0
 21
21.0
  0
LINE
  5
293
100
AcDbEntity
  8
_30_VOLUMEN
100
AcDbLine
 62
4
  6
CONTINUOUS
 10
31.0
 20
30.0
 11
64.0
 21
30.0
  0
LINE
  5
294
100
AcDbEntity
  8
NOCUT
100
AcDbLine
 62
7
  6
CONTINUOUS
 10
31.0
 20
30.0
 11
64.0
 21
30.0
  0
LINE
  5
295
100
AcDbEntity
  8
_30_VOLUMEN
100
AcDbLine
 62
4
  6
CONTINUOUS
 10
-8.0
 20
30.006
 11
0.0
 21
30.006
  0
LINE
  5
296
100
AcDbEntity
  8
NOCUT
100
AcDbLine
 62
7
  6
CONTINUOUS
 10
0.0
 20
30.006
 11
-8.0
 21
30.006
  0
LINE
  5
297
100
AcDbEntity
  8
_30_VOLUMEN
100
AcDbLine
 62
4
  6
CONTINUOUS
 10
-40.0
 20
28.4017476456
 11
-8.0
 21
30.006
  0
LINE
  5
298
100
AcDbEntity
  8
NOCUT
100
AcDbLine
 62
7
  6
CONTINUOUS
 10
-8.0
 20
30.006
 11
-40.0
 21
28.4017476456
  0
LINE
  5
299
100
AcDbEntity
  8
_30_VOLUMEN
100
AcDbLine
 62
1
  6
HIDDEN
 10
76.0
 20
32.5
 11
88.0
 21
32.5
  0
LINE
  5
29A
100
AcDbEntity
  8
_30_VOLUMEN
100
AcDbLine
 62
4
  6
CONTINUOUS
 10
26.1010205106
 20
34.0
 11
26.0
 21
34.0
  0
LINE
  5
29B
100
AcDbEntity
  8
_30_VOLUMEN
100
AcDbLine
 62
1
  6
HIDDEN
 10
4.0
 20
34.0
 11
16.125
 21
34.0
  0
LINE
  5
29C
100
AcDbEntity
  8
_30_VOLUMEN
100
AcDbLine
 62
4
  6
CONTINUOUS
 10
16.125
 20
34.0
 11
19.875
 21
34.0
  0
LINE
  5
29D
100
AcDbEntity
  8
_30_VOLUMEN
100
AcDbLine
 62
1
  6
HIDDEN
 10
19.875
 20
34.0
 11
26.0
 21
34.0
  0
LINE
  5
29E
100
AcDbEntity
  8
_30_VOLUMEN
100
AcDbLine
 62
4
  6
CONTINUOUS
 10
64.0
 20
-39.4997694441
 11
64.0
 21
39.4997694441
  0
LINE
  5
29F
100
AcDbEntity
  8
NOCUT
100
AcDbLine
 62
7
  6
CONTINUOUS
 10
64.0
 20
30.0
 11
64.0
 21
39.5
  0
LINE
  5
2A0
100
AcDbEntity
  8
_30_VOLUMEN
100
AcDbLine
 62
4
  6
CONTINUOUS
 10
65.0
 20
-40.5
 11
65.0
 21
40.5
  0
LINE
  5
2A1
100
AcDbEntity
  8
_30_VOLUMEN
100
AcDbLine
 62
4
  6
CONTINUOUS
 10
13.0
 20
38.7298334621
 11
14.4781633579
 21
38.7298334621
  0
LINE
  5
2A2
100
AcDbEntity
  8
_30_VOLUMEN
100
AcDbLine
 62
4
  6
CONTINUOUS
 10
21.5218366421
 20
38.7298334621
 11
26.0
 21
38.7298334621
  0
LINE
  5
2A3
100
AcDbEntity
  8
_30_VOLUMEN
100
AcDbLine
 62
4
  6
CONTINUOUS
 10
0.0
 20
40.0
 11
4.0
 21
40.0
  0
LINE
  5
2A4
100
AcDbEntity
  8
NOCUT
100
AcDbLine
 62
7
  6
CONTINUOUS
 10
26.0
 20
40.0
 11
0.0
 21
40.0
  0
LINE
  5
2A5
100
AcDbEntity
  8
_30_VOLUMEN
100
AcDbLine
 62
4
  6
CONTINUOUS
 10
65.0
 20
40.5
 11
87.0
 21
40.5
  0
LINE
  5
2A6
100
AcDbEntity
  8
NOCUT
100
AcDbLine
 62
7
  6
CONTINUOUS
 10
65.0
 20
40.5
 11
87.0
 21
40.5
  0
LINE
  5
2A7
100
AcDbEntity
  8
_30_VOLUMEN
100
AcDbLine
 62
1
  6
HIDDEN
 10
76.0
 20
-32.4997352673
 11
76.0
 21
32.4997352673
  0
LINE
  5
2A8
100
AcDbEntity
  8
_30_VOLUMEN
100
AcDbLine
 62
4
  6
CONTINUOUS
 10
87.0
 20
-40.5
 11
87.0
 21
40.5
  0
LINE
  5
2A9
100
AcDbEntity
  8
_30_VOLUMEN
100
AcDbLine
 62
4
  6
CONTINUOUS
 10
88.0
 20
-39.4997694441
 11
88.0
 21
39.4997694441
  0
LINE
  5
2AA
100
AcDbEntity
  8
NOCUT
100
AcDbLine
 62
7
  6
CONTINUOUS
 10
88.0
 20
-0.0
 11
88.0
 21
39.5
  0
LINE
  5
2AB
100
AcDbEntity
  8
_30_VOLUMEN
100
AcDbLine
 62
4
  6
CONTINUOUS
 10
87.0
 20
-40.5
 11
88.0
 21
-39.5
  0
LINE
  5
2AC
100
AcDbEntity
  8
_30_VOLUMEN
100
AcDbLine
 62
4
  6
CONTINUOUS
 10
87.0
 20
40.5
 11
88.0
 21
39.5
  0
LINE
  5
2AD
100
AcDbEntity
  8
NOCUT
100
AcDbLine
 62
7
  6
CONTINUOUS
 10
87.0
 20
40.5
 11
88.0
 21
39.5
  0
ARC
  5
2AE
100
AcDbEntity
  8
_30_VOLUMEN
100
AcDbCircle
 62
4
  6
CONTINUOUS
 10
1320.1355260227
 20
-687.290133124
 40
1487.7844286483
100
AcDbArc
 50
150.7916190656
 51
150.9218483581
  0
ARC
  5
2AF
100
AcDbEntity
  8
_30_VOLUMEN
100
AcDbCircle
 62
4
  6
CONTINUOUS
 10
-1284.1355260186
 20
-687.2901331217
 40
1487.7844286436
100
AcDbArc
 50
29.0781516419
 51
29.2083809344
  0
ARC
  5
2B0
100
AcDbEntity
  8
_30_VOLUMEN
100
AcDbCircle
 62
1
  6
HIDDEN
 10
209.6869578798
 20
53.6726207453
 40
206.4309016579
100
AcDbArc
 50
203.1477924945
 51
204.2842658438
  0
ARC
  5
2B1
100
AcDbEntity
  8
_30_VOLUMEN
100
AcDbCircle
 62
1
  6
HIDDEN
 10
-173.6869578797
 20
53.6726207453
 40
206.4309016579
100
AcDbArc
 50
335.7157341562
 51
336.8522075055
  0
ARC
  5
2B2
100
AcDbEntity
  8
_30_VOLUMEN
100
AcDbCircle
 62
1
  6
HIDDEN
 10
13.0016263011
 20
-78.0594157251
 40
39.0850652191
100
AcDbArc
 50
90.0023840357
 51
91.8817391185
  0
ARC
  5
2B3
100
AcDbEntity
  8
_30_VOLUMEN
100
AcDbCircle
 62
1
  6
HIDDEN
 10
13.000595163
 20
73.6031476988
 40
34.8733142418
100
AcDbArc
 50
268.9061060603
 51
269.9990221656
  0
ARC
  5
2B4
100
AcDbEntity
  8
_30_VOLUMEN
100
AcDbCircle
 62
4
  6
CONTINUOUS
 10
31.0
 20
-35.0
 40
5.0
100
AcDbArc
 50
90.0
 51
168.4630409672
  0
ARC
  5
2B5
100
AcDbEntity
  8
_30_VOLUMEN
100
AcDbCircle
 62
4
  6
CONTINUOUS
 10
31.0
 20
35.0
 40
5.0
100
AcDbArc
 50
191.5369590328
 51
270.0
  0
ARC
  5
2B6
100
AcDbEntity
  8
NOCUT
100
AcDbCircle
 62
7
  6
CONTINUOUS
 10
31.0
 20
35.0
 40
5.0
100
AcDbArc
 50
180.0
 51
270.0
  0
SPLINE
  5
2B7
100
AcDbEntity
  8
_30_VOLUMEN
100
AcDbSpline
 62
1
  6
HIDDEN
 70
0
 71
3
 72
15
 73
11
 74
0
 42
0.0000001
 43
0.0000001
 44
0.0000000001
 40
0.0
 40
0.0
 40
0.0
 40
0.0
 40
0.1138446109
 40
0.2267761595
 40
0.3408574782
 40
0.4587675376
 40
0.5831536354
 40
0.7155831592
 40
0.8555042123
 40
1.0
 40
1.0
 40
1.0
 40
1.0
 10
4.4384978272
 20
-25.0
 30
0.0
 10
4.5478578987
 20
-25.4214116157
 30
0.0
 10
4.8157117083
 20
-26.249298885
 30
0.0
 10
5.3946354374
 20
-27.4230795916
 30
0.0
 10
6.1738225199
 20
-28.4962350296
 30
0.0
 10
7.1708976484
 20
-29.4373067038
 30
0.0
 10
8.3863125923
 20
-30.2119314411
 30
0.0
 10
9.7976560723
 20
-30.7890190305
 30
0.0
 10
11.3579117017
 20
-31.1451646993
 30
0.0
 10
12.4474118125
 20
-31.224989992
 30
0.0
 10
13.0
 20
-31.224989992
 30
0.0
  0
LINE
  5
2B8
100
AcDbEntity
  8
_30_VOLUMEN
100
AcDbLine
 62
1
  6
HIDDEN
 10
19.875
 20
35.7763026864
 11
20.4128428622
 21
36.7426579857
  0
LINE
  5
2B9
100
AcDbEntity
  8
_30_VOLUMEN
100
AcDbLine
 62
1
  6
HIDDEN
 10
20.4128428622
 20
36.7426579857
 11
20.509865998
 21
36.9167914215
  0
LINE
  5
2BA
100
AcDbEntity
  8
_30_VOLUMEN
100
AcDbLine
 62
1
  6
HIDDEN
 10
20.509865998
 20
36.9167914215
 11
20.5945653222
 21
37.0687606373
  0
LINE
  5
2BB
100
AcDbEntity
  8
_30_VOLUMEN
100
AcDbLine
 62
1
  6
HIDDEN
 10
20.5945653222
 20
37.0687606373
 11
20.6884217268
 21
37.2371103288
  0
LINE
  5
2BC
100
AcDbEntity
  8
_30_VOLUMEN
100
AcDbLine
 62
1
  6
HIDDEN
 10
20.6884217268
 20
37.2371103288
 11
20.7775588458
 21
37.3969476524
  0
LINE
  5
2BD
100
AcDbEntity
  8
_30_VOLUMEN
100
AcDbLine
 62
1
  6
HIDDEN
 10
20.7775588458
 20
37.3969476524
 11
20.8651118423
 21
37.5539000065
  0
LINE
  5
2BE
100
AcDbEntity
  8
_30_VOLUMEN
100
AcDbLine
 62
1
  6
HIDDEN
 10
20.8651118423
 20
37.5539000065
 11
20.9617561615
 21
37.7270995777
  0
LINE
  5
2BF
100
AcDbEntity
  8
_30_VOLUMEN
100
AcDbLine
 62
1
  6
HIDDEN
 10
20.9617561615
 20
37.7270995777
 11
21.5218366421
 21
38.7298334621
  0
LINE
  5
2C0
100
AcDbEntity
  8
_30_VOLUMEN
100
AcDbLine
 62
1
  6
HIDDEN
 10
21.5218366421
 20
-38.9743505398
 11
20.9624750896
 21
-37.9793528874
  0
LINE
  5
2C1
100
AcDbEntity
  8
_30_VOLUMEN
100
AcDbLine
 62
1
  6
HIDDEN
 10
20.9624750896
 20
-37.9793528874
 11
20.8658704993
 21
-37.8073741546
  0
LINE
  5
2C2
100
AcDbEntity
  8
_30_VOLUMEN
100
AcDbLine
 62
1
  6
HIDDEN
 10
20.8658704993
 20
-37.8073741546
 11
20.7783547186
 21
-37.651539417
  0
LINE
  5
2C3
100
AcDbEntity
  8
_30_VOLUMEN
100
AcDbLine
 62
1
  6
HIDDEN
 10
20.7783547186
 20
-37.651539417
 11
20.6893937726
 21
-37.4930956026
  0
LINE
  5
2C4
100
AcDbEntity
  8
_30_VOLUMEN
100
AcDbLine
 62
1
  6
HIDDEN
 10
20.6893937726
 20
-37.4930956026
 11
20.5953592617
 21
-37.3255758291
  0
LINE
  5
2C5
100
AcDbEntity
  8
_30_VOLUMEN
100
AcDbLine
 62
1
  6
HIDDEN
 10
20.5953592617
 20
-37.3255758291
 11
20.5106078528
 21
-37.1745582401
  0
LINE
  5
2C6
100
AcDbEntity
  8
_30_VOLUMEN
100
AcDbLine
 62
1
  6
HIDDEN
 10
20.5106078528
 20
-37.1745582401
 11
20.413554907
 21
-37.0015789294
  0
LINE
  5
2C7
100
AcDbEntity
  8
_30_VOLUMEN
100
AcDbLine
 62
1
  6
HIDDEN
 10
20.413554907
 20
-37.0015789294
 11
19.875
 21
-36.0408633902
  0
LINE
  5
2C8
100
AcDbEntity
  8
_30_VOLUMEN
100
AcDbLine
 62
1
  6
HIDDEN
 10
16.125
 20
35.7763026864
 11
15.5871571378
 21
36.7426579857
  0
LINE
  5
2C9
100
AcDbEntity
  8
_30_VOLUMEN
100
AcDbLine
 62
1
  6
HIDDEN
 10
15.5871571378
 20
36.7426579857
 11
15.4901339971
 21
36.9167914304
  0
LINE
  5
2CA
100
AcDbEntity
  8
_30_VOLUMEN
100
AcDbLine
 62
1
  6
HIDDEN
 10
15.4901339971
 20
36.9167914304
 11
15.4054346778
 21
37.0687606373
  0
LINE
  5
2CB
100
AcDbEntity
  8
_30_VOLUMEN
100
AcDbLine
 62
1
  6
HIDDEN
 10
15.4054346778
 20
37.0687606373
 11
15.3115782753
 21
37.2371103249
  0
LINE
  5
2CC
100
AcDbEntity
  8
_30_VOLUMEN
100
AcDbLine
 62
1
  6
HIDDEN
 10
15.3115782753
 20
37.2371103249
 11
15.2224411542
 21
37.3969476524
  0
LINE
  5
2CD
100
AcDbEntity
  8
_30_VOLUMEN
100
AcDbLine
 62
1
  6
HIDDEN
 10
15.2224411542
 20
37.3969476524
 11
15.1348881646
 21
37.5538999942
  0
LINE
  5
2CE
100
AcDbEntity
  8
_30_VOLUMEN
100
AcDbLine
 62
1
  6
HIDDEN
 10
15.1348881646
 20
37.5538999942
 11
15.0382438385
 21
37.7270995777
  0
LINE
  5
2CF
100
AcDbEntity
  8
_30_VOLUMEN
100
AcDbLine
 62
1
  6
HIDDEN
 10
15.0382438385
 20
37.7270995777
 11
14.4781633579
 21
38.7298334621
  0
LINE
  5
2D0
100
AcDbEntity
  8
_30_VOLUMEN
100
AcDbLine
 62
1
  6
HIDDEN
 10
14.4781633579
 20
-38.9743505398
 11
15.0375249104
 21
-37.9793528874
  0
LINE
  5
2D1
100
AcDbEntity
  8
_30_VOLUMEN
100
AcDbLine
 62
1
  6
HIDDEN
 10
15.0375249104
 20
-37.9793528874
 11
15.1341295013
 21
-37.8073741536
  0
LINE
  5
2D2
100
AcDbEntity
  8
_30_VOLUMEN
100
AcDbLine
 62
1
  6
HIDDEN
 10
15.1341295013
 20
-37.8073741536
 11
15.2216452814
 21
-37.6515394171
  0
LINE
  5
2D3
100
AcDbEntity
  8
_30_VOLUMEN
100
AcDbLine
 62
1
  6
HIDDEN
 10
15.2216452814
 20
-37.6515394171
 11
15.3106062318
 21
-37.4930955947
  0
LINE
  5
2D4
100
AcDbEntity
  8
_30_VOLUMEN
100
AcDbLine
 62
1
  6
HIDDEN
 10
15.3106062318
 20
-37.4930955947
 11
15.4046407383
 21
-37.3255758291
  0
LINE
  5
2D5
100
AcDbEntity
  8
_30_VOLUMEN
100
AcDbLine
 62
1
  6
HIDDEN
 10
15.4046407383
 20
-37.3255758291
 11
15.4893921367
 21
-37.1745582589
  0
LINE
  5
2D6
100
AcDbEntity
  8
_30_VOLUMEN
100
AcDbLine
 62
1
  6
HIDDEN
 10
15.4893921367
 20
-37.1745582589
 11
15.5864450931
 21
-37.0015789294
  0
LINE
  5
2D7
100
AcDbEntity
  8
_30_VOLUMEN
100
AcDbLine
 62
1
  6
HIDDEN
 10
15.5864450931
 20
-37.0015789294
 11
16.125
 21
-36.0408633902
  0
SPLINE
  5
2D8
100
AcDbEntity
  8
_30_VOLUMEN
100
AcDbSpline
 62
1
  6
HIDDEN
 70
0
 71
3
 72
9
 73
5
 74
0
 42
0.0000001
 43
0.0000001
 44
0.0000000001
 40
0.0
 40
0.0
 40
0.0
 40
0.0
 40
0.174294799
 40
1.0
 40
1.0
 40
1.0
 40
1.0
 10
4.0
 20
39.9874980463
 30
0.0
 10
4.0
 20
39.986576101
 30
0.0
 10
4.0014164424
 20
39.9813193847
 30
0.0
 10
4.0059448577
 20
39.977768979
 30
0.0
 10
4.009402233
 20
39.975100133
 30
0.0
  0
SPLINE
  5
2D9
100
AcDbEntity
  8
_30_VOLUMEN
100
AcDbSpline
 62
1
  6
HIDDEN
 70
0
 71
3
 72
9
 73
5
 74
0
 42
0.0000001
 43
0.0000001
 44
0.0000000001
 40
0.0
 40
0.0
 40
0.0
 40
0.0
 40
0.3889150154
 40
1.0
 40
1.0
 40
1.0
 40
1.0
 10
4.009402233
 20
39.975100133
 30
0.0
 10
4.0181469856
 20
39.9683498104
 30
0.0
 10
4.043507173
 20
39.9550291769
 30
0.0
 10
4.0695303964
 20
39.9438077147
 30
0.0
 10
4.0856273422
 20
39.937313092
 30
0.0
  0
SPLINE
  5
2DA
100
AcDbEntity
  8
_30_VOLUMEN
100
AcDbSpline
 62
1
  6
HIDDEN
 70
0
 71
3
 72
9
 73
5
 74
0
 42
0.0000001
 43
0.0000001
 44
0.0000000001
 40
0.0
 40
0.0
 40
0.0
 40
0.0
 40
0.6821867816
 40
1.0
 40
1.0
 40
1.0
 40
1.0
 10
11.7182041076
 20
-38.995427825
 30
0.0
 10
9.954900468
 20
-39.0533163871
 30
0.0
 10
7.3721435477
 20
-39.3156454202
 30
0.0
 10
4.8334642287
 20
-39.8130982099
 30
0.0
 10
4.0314591411
 20
-39.9929334388
 30
0.0
  0
SPLINE
  5
2DB
100
AcDbEntity
  8
_30_VOLUMEN
100
AcDbSpline
 62
4
  6
CONTINUOUS
 70
0
 71
3
 72
8
 73
4
 74
0
 42
0.0000001
 43
0.0000001
 44
0.0000000001
 40
0.0
 40
0.0
 40
0.0
 40
0.0
 40
1.0
 40
1.0
 40
1.0
 40
1.0
 10
19.875
 20
-36.0408633902
 30
0.0
 10
20.4230208046
 20
-37.0192110086
 30
0.0
 10
20.9720336125
 20
-37.9970033684
 30
0.0
 10
21.5218366421
 20
-38.9743505398
 30
0.0
  0
SPLINE
  5
2DC
100
AcDbEntity
  8
_30_VOLUMEN
100
AcDbSpline
 62
4
  6
CONTINUOUS
 70
0
 71
3
 72
28
 73
24
 74
0
 42
0.0000001
 43
0.0000001
 44
0.0000000001
 40
0.0
 40
0.0
 40
0.0
 40
0.0
 40
0.0003076483
 40
0.0012306051
 40
0.0027688732
 40
0.0049223291
 40
0.0076890286
 40
0.0110656607
 40
0.0196353565
 40
0.0306047125
 40
0.0439440834
 40
0.0596091778
 40
0.0775513106
 40
0.1200610763
 40
0.170988867
 40
0.2297925731
 40
0.2958671943
 40
0.3685679704
 40
0.4472075129
 40
0.5310585007
 40
0.6193566685
 40
0.8059474047
 40
1.0
 40
1.0
 40
1.0
 40
1.0
 10
4.0000232036
 20
-39.9999824528
 30
0.0
 10
3.9992742606
 20
-40.0005351456
 30
0.0
 10
4.0069427035
 20
-39.997878749
 30
0.0
 10
4.0112183196
 20
-39.9978251382
 30
0.0
 10
4.0270650006
 20
-39.993755735
 30
0.0
 10
4.0451489617
 20
-39.9899280877
 30
0.0
 10
4.0700249015
 20
-39.9842700117
 30
0.0
 10
4.1132899141
 20
-39.9746566856
 30
0.0
 10
4.1810962336
 20
-39.959594867
 30
0.0
 10
4.2782050415
 20
-39.9382849363
 30
0.0
 10
4.3964090311
 20
-39.9126029259
 30
0.0
 10
4.5352939106
 20
-39.8828705941
 30
0.0
 10
4.760655575
 20
-39.8354478041
 30
0.0
 10
5.0908335757
 20
-39.7680577584
 30
0.0
 10
5.5430245043
 20
-39.6803456482
 30
0.0
 10
6.0663339842
 20
-39.5850277547
 30
0.0
 10
6.6558311022
 20
-39.4857356589
 30
0.0
 10
7.3060731344
 20
-39.3861606418
 30
0.0
 10
8.0111752418
 20
-39.2901215946
 30
0.0
 10
8.764767261
 20
-39.2012486483
 30
0.0
 10
9.8449982492
 20
-39.0950609955
 30
0.0
 10
11.2610795224
 20
-39.0004047739
 30
0.0
 10
12.412888723
 20
-38.9743505398
 30
0.0
 10
13.0
 20
-38.9743505398
 30
0.0
  0
SPLINE
  5
2DD
100
AcDbEntity
  8
_30_VOLUMEN
100
AcDbSpline
 62
4
  6
CONTINUOUS
 70
0
 71
3
 72
8
 73
4
 74
0
 42
0.0000001
 43
0.0000001
 44
0.0000000001
 40
0.0
 40
0.0
 40
0.0
 40
0.0
 40
1.0
 40
1.0
 40
1.0
 40
1.0
 10
16.125
 20
-36.0408633902
 30
0.0
 10
15.5769791954
 20
-37.0192110086
 30
0.0
 10
15.0279663875
 20
-37.9970033684
 30
0.0
 10
14.4781633579
 20
-38.9743505398
 30
0.0
  0
SPLINE
  5
2DE
100
AcDbEntity
  8
_30_VOLUMEN
100
AcDbSpline
 62
4
  6
CONTINUOUS
 70
0
 71
3
 72
24
 73
20
 74
0
 42
0.0000001
 43
0.0000001
 44
0.0000000001
 40
0.0
 40
0.0
 40
0.0
 40
0.0
 40
0.1932469096
 40
0.3790669705
 40
0.5504948703
 40
0.6288505931
 40
0.701340619
 40
0.7672951241
 40
0.8260837292
 40
0.8771179191
 40
0.9198579013
 40
0.9379643946
 40
0.9538248997
 40
0.9673899452
 40
0.978620996
 40
0.9874893558
 40
0.9939744924
 40
0.9980915701
 40
1.0
 40
1.0
 40
1.0
 40
1.0
 10
13.0
 20
38.7298334621
 30
0.0
 10
12.4120580188
 20
38.7298334621
 30
0.0
 10
11.2585506886
 20
38.7590460991
 30
0.0
 10
9.5877882679
 20
38.8843843038
 30
0.0
 10
8.271777873
 20
39.0451290416
 30
0.0
 10
7.3029178109
 20
39.1961211975
 30
0.0
 10
6.6533471251
 20
39.3109839571
 30
0.0
 10
6.0645556802
 20
39.4269617526
 30
0.0
 10
5.5418451602
 20
39.5401463766
 30
0.0
 10
5.0900755625
 20
39.6467874022
 30
0.0
 10
4.7603210356
 20
39.7313516739
 30
0.0
 10
4.5353244837
 20
39.7933041179
 30
0.0
 10
4.3963846984
 20
39.833530911
 30
0.0
 10
4.2781896147
 20
39.8697460097
 30
0.0
 10
4.1806649669
 20
39.9018225521
 30
0.0
 10
4.1051355453
 20
39.9290474073
 30
0.0
 10
4.0490259759
 20
39.9522161392
 30
0.0
 10
4.0176815046
 20
39.9686486442
 30
0.0
 10
4.0
 20
39.9816917642
 30
0.0
 10
4.0
 20
39.9874980463
 30
0.0
  0
LINE
  5
2DF
100
AcDbEntity
  8
_30_VOLUMEN
100
AcDbLine
 62
4
  6
CONTINUOUS
 10
4.0314591411
 20
-39.9929334388
 11
4.0000232036
 21
-39.9999824528
  0
ENDSEC
  0
SECTION
  2
OBJECTS
  0
DICTIONARY
  5
C
100
AcDbDictionary
280
0
281
1
  3
ACAD_GROUP
350
D
  3
ACAD_MLINESTYLE
350
17
  3
ACAD_LAYOUT
350
1A
  3
ACAD_PLOTSETTINGS
350
19
  3
ACAD_PLOTSTYLENAME
350
E
  0
DICTIONARY
  5
D
102
{ACAD_REACTORS
330
C
102
}
100
AcDbDictionary
280
0
281
1
  0
ACDBDICTIONARYWDFLT
  5
E
102
{ACAD_REACTORS
330
C
102
}
100
AcDbDictionary
281
1
  3
Normal
350
F
100
AcDbDictionaryWithDefault
340
F
  0
DICTIONARY
  5
17
102
{ACAD_REACTORS
330
C
102
}
100
AcDbDictionary
280
0
281
1
  3
Standard
350
18
  0
DICTIONARY
  5
19
102
{ACAD_REACTORS
330
C
102
}
100
AcDbDictionary
281
1
  0
DICTIONARY
  5
1A
102
{ACAD_REACTORS
330
C
102
}
100
AcDbDictionary
281
1
  3
Model
350
2E0
  3
Layout1
350
2E1
  0
ACDBPLACEHOLDER
  5
F
102
{ACAD_REACTORS
330
E
102
}
  0
MLINESTYLE
  5
18
102
{ACAD_REACTORS
330
17
102
}
100
AcDbMlineStyle
  2
STANDARD
 70
0
  3

 62
256
 51
90.0
 52
90.0
 71
2
 49
0.5
 62
256
  6
BYLAYER
 49
-0.5
 62
256
  6
BYLAYER
  0
LAYOUT
  5
2E0
102
{ACAD_REACTORS
330
1A
102
}
100
AcDbPlotSettings
  1

  2
none_device
  4
ISO_A3_(420.00_x_297.00_MM)
  6

 40
0.0
 41
0.0
 42
0.0
 43
0.0
 44
420.0
 45
297.0
 46
0.0
 47
0.0
 48
0.0
 49
0.0
140
0.0
141
0.0
142
1.0
143
1.0
 70
1024
 72
1
 73
0
 74
0
  7

 75
0
147
1.0
148
0.0
149
0.0
100
AcDbLayout
  1
Model
 70
0
 71
0
 10
0.0
 20
0.0
 11
420.0
 21
297.0
 12
0.0
 22
0.0
 32
0.0
 14
0.0
 24
0.0
 34
0.0
 15
0.0
 25
0.0
 35
0.0
146
0.0
 13
0.0
 23
0.0
 33
0.0
 16
1.0
 26
0.0
 36
0.0
 17
0.0
 27
1.0
 37
0.0
 76
0
330
20D
345
0
346
0
  0
LAYOUT
  5
2E1
102
{ACAD_REACTORS
330
1A
102
}
100
AcDbPlotSettings
  1

  2
none_device
  4
ISO_A3_(420.00_x_297.00_MM)
  6

 40
0.0
 41
0.0
 42
0.0
 43
0.0
 44
420.0
 45
297.0
 46
0.0
 47
0.0
 48
0.0
 49
0.0
140
0.0
141
0.0
142
1.0
143
1.0
 70
0
 72
1
 73
0
 74
0
  7

 75
0
147
1.0
148
0.0
149
0.0
100
AcDbLayout
  1
Layout1
 70
0
 71
1
 10
0.0
 20
0.0
 11
420.0
 21
297.0
 12
0.0
 22
0.0
 32
0.0
 14
0.0
 24
0.0
 34
0.0
 15
0.0
 25
0.0
 35
0.0
146
0.0
 13
0.0
 23
0.0
 33
0.0
 16
1.0
 26
0.0
 36
0.0
 17
0.0
 27
1.0
 37
0.0
 76
0
330
20E
345
0
346
0
  0
ENDSEC
  0
EOF
