999
DXF file: 8432908157.dxf
999
Pro/ENGINEER 2021164 by Parametric Technology Corporation
  0
SECTION
  2
HEADER
  9
$ACADVER
  1
AC1021
  9
$DWGCODEPAGE
  3
ANSI_1252
  9
$EXTMAX
 10
420.0
 20
297.0
 30
0.0
  9
$EXTMIN
 10
0.0
 20
0.0
 30
0.0
  9
$LIMMIN
 10
0.0
 20
0.0
  9
$LIMMAX
 10
420.0
 20
297.0
  9
$VIEWCTR
 10
210.0
 20
148.5
  9
$VIEWSIZE
 40
297.0
  9
$CLAYER
  8
0
  9
$LTSCALE
 40
23.1
  9
$CELTYPE
  6
BYLAYER
  9
$DIMSCALE
 40
1.0
  9
$DIMASZ
 40
3.5
  9
$DIMEXO
 40
0.0
  9
$DIMDLI
 40
15.96
  9
$DIMEXE
 40
1.5
  9
$DIMCEN
 40
3.78
  9
$DIMLFAC
 40
1.0
  9
$DIMBLK
  1
_FILLED
  9
$DIMALT
 70
0
  9
$DIMALTF
 40
0.0393700787
  9
$DIMTXT
 40
3.5
  9
$DIMTOL
 70
1
  9
$DIMLIM
 70
0
  9
$DIMTFAC
 40
1.0
  9
$DIMTP
 40
0.05
  9
$DIMTM
 40
0.05
  9
$DIMGAP
 40
0.625
  9
$DIMDSEP
 70
46
  9
$AUNITS
 70
0
  9
$PDMODE
 70
3
  9
$PDSIZE
 40
0.3125
  9
$HANDSEED
  5
2EC
  9
$TILEMODE
 70
1
  9
$MEASUREMENT
 70
1
  9
$INSUNITS
 70
4
  0
ENDSEC
  0
SECTION
  2
CLASSES
  0
CLASS
  1
ACDBDICTIONARYWDFLT
  2
AcDbDictionaryWithDefault
  3
AutoCAD 2000
 90
0
 91
1
280
0
281
0
  0
CLASS
  1
ACDBPLACEHOLDER
  2
AcDbPlaceHolder
  3
AutoCAD 2000
 90
0
 91
1
280
0
281
0
  0
CLASS
  1
LAYOUT
  2
AcDbLayout
  3
AutoCAD 2000
 90
0
 91
0
280
0
281
0
  0
ENDSEC
  0
SECTION
  2
TABLES
  0
TABLE
  2
VPORT
  5
8
100
AcDbSymbolTable
 70
2
  0
VPORT
  5
1F4
100
AcDbSymbolTableRecord
100
AcDbViewportTableRecord
  2
*ACTIVE
 70
0
 10
0.0
 20
0.0
 11
1.0
 21
1.0
 12
210.0
 22
148.5
 13
0.0
 23
0.0
 14
1.0
 24
1.0
 15
0.0
 25
0.0
 16
0.0
 26
0.0
 36
1.0
 17
0.0
 27
0.0
 37
0.0
 40
297.0
 41
1.4141414141
 42
50.0
 43
0.0
 44
0.0
 50
0.0
 51
0.0
 71
0
 72
100
 73
1
 74
1
 75
0
 76
0
 77
0
 78
0
  0
ENDTAB
  0
TABLE
  2
LTYPE
  5
5
100
AcDbSymbolTable
 70
6
  0
LTYPE
  5
14
100
AcDbSymbolTableRecord
100
AcDbLinetypeTableRecord
  2
BYBLOCK
 70
0
  3

 72
65
 73
0
 40
0.0
  0
LTYPE
  5
15
100
AcDbSymbolTableRecord
100
AcDbLinetypeTableRecord
  2
BYLAYER
 70
0
  3

 72
65
 73
0
 40
0.0
  0
LTYPE
  5
16
100
AcDbSymbolTableRecord
100
AcDbLinetypeTableRecord
  2
CONTINUOUS
 70
64
  3
Solid line
 72
65
 73
0
 40
0.0
  0
LTYPE
  5
1F5
100
AcDbSymbolTableRecord
100
AcDbLinetypeTableRecord
  2
CENTER
 70
64
  3
____ _ ____ _ ____ _ ____ _ ____ _ ____ _ ____
 72
65
 73
4
 40
0.6
 49
0.375
 74
0
 49
-0.075
 74
0
 49
0.075
 74
0
 49
-0.075
 74
0
  0
LTYPE
  5
1F6
100
AcDbSymbolTableRecord
100
AcDbLinetypeTableRecord
  2
HIDDEN
 70
64
  3
- - - - - - - - - - - - - - - - - - - -
 72
65
 73
2
 40
0.2
 49
0.1
 74
0
 49
-0.1
 74
0
  0
LTYPE
  5
1F7
100
AcDbSymbolTableRecord
100
AcDbLinetypeTableRecord
  2
PHANTOM
 70
64
  3
_____ _ _ _____ _ _ _____ _ _ _____
 72
65
 73
6
 40
0.8
 49
0.45
 74
0
 49
-0.05
 74
0
 49
0.1
 74
0
 49
-0.05
 74
0
 49
0.1
 74
0
 49
-0.05
 74
0
  0
LTYPE
  5
1F8
100
AcDbSymbolTableRecord
100
AcDbLinetypeTableRecord
  2
DOT
 70
64
  3
. . . . . . . . . . . . . . . . . . . .
 72
65
 73
2
 40
0.2
 49
0.1
 74
0
 49
-0.1
 74
0
  0
LTYPE
  5
1F9
100
AcDbSymbolTableRecord
100
AcDbLinetypeTableRecord
  2
DASHED
 70
64
  3
- - - - - - - - - - - - - - - - - - - -
 72
65
 73
2
 40
0.2
 49
0.1
 74
0
 49
-0.1
 74
0
  0
ENDTAB
  0
TABLE
  2
LAYER
  5
2
100
AcDbSymbolTable
 70
36
  0
LAYER
  5
10
100
AcDbSymbolTableRecord
100
AcDbLayerTableRecord
  2
0
 70
0
 62
7
  6
CONTINUOUS
370
-3
390
F
  0
LAYER
  5
1FA
100
AcDbSymbolTableRecord
100
AcDbLayerTableRecord
  2
DEFAULT_1
 70
0
 62
7
  6
CENTER
370
-3
390
F
  0
LAYER
  5
1FB
100
AcDbSymbolTableRecord
100
AcDbLayerTableRecord
  2
DEFAULT_2
 70
0
 62
1
  6
HIDDEN
370
-3
390
F
  0
LAYER
  5
1FC
100
AcDbSymbolTableRecord
100
AcDbLayerTableRecord
  2
DEFAULT_3
 70
0
 62
7
  6
PHANTOM
370
-3
390
F
  0
LAYER
  5
1FD
100
AcDbSymbolTableRecord
100
AcDbLayerTableRecord
  2
2
 70
0
 62
7
  6
CONTINUOUS
370
-3
390
F
  0
LAYER
  5
1FE
100
AcDbSymbolTableRecord
100
AcDbLayerTableRecord
  2
HILFEN
 70
0
 62
7
  6
CONTINUOUS
370
-3
390
F
  0
LAYER
  5
1FF
100
AcDbSymbolTableRecord
100
AcDbLayerTableRecord
  2
NOCUT
 70
0
 62
7
  6
CONTINUOUS
370
-3
390
F
  0
LAYER
  5
200
100
AcDbSymbolTableRecord
100
AcDbLayerTableRecord
  2
PLATZIERUNG
 70
0
 62
7
  6
CONTINUOUS
370
-3
390
F
  0
LAYER
  5
201
100
AcDbSymbolTableRecord
100
AcDbLayerTableRecord
  2
T_STARTBEZUEGE
 70
0
 62
7
  6
CONTINUOUS
370
-3
390
F
  0
LAYER
  5
202
100
AcDbSymbolTableRecord
100
AcDbLayerTableRecord
  2
_04_NOTIZEN
 70
0
 62
7
  6
CONTINUOUS
370
-3
390
F
  0
LAYER
  5
203
100
AcDbSymbolTableRecord
100
AcDbLayerTableRecord
  2
_05_2D_ELEMENTE
 70
0
 62
7
  6
CONTINUOUS
370
-3
390
F
  0
LAYER
  5
204
100
AcDbSymbolTableRecord
100
AcDbLayerTableRecord
  2
_07_EINRASTLINIEN
 70
0
 62
7
  6
CONTINUOUS
370
-3
390
F
  0
LAYER
  5
205
100
AcDbSymbolTableRecord
100
AcDbLayerTableRecord
  2
_26_BEZUGSACHSEN
 70
0
 62
7
  6
CONTINUOUS
370
-3
390
F
  0
LAYER
  5
206
100
AcDbSymbolTableRecord
100
AcDbLayerTableRecord
  2
_27_BEZUGSEBENEN
 70
0
 62
7
  6
CONTINUOUS
370
-3
390
F
  0
LAYER
  5
207
100
AcDbSymbolTableRecord
100
AcDbLayerTableRecord
  2
_28_BEZUGSPUNKTE
 70
0
 62
7
  6
CONTINUOUS
370
-3
390
F
  0
LAYER
  5
208
100
AcDbSymbolTableRecord
100
AcDbLayerTableRecord
  2
_29_KOORDINATENSYSTEME
 70
0
 62
7
  6
CONTINUOUS
370
-3
390
F
  0
LAYER
  5
209
100
AcDbSymbolTableRecord
100
AcDbLayerTableRecord
  2
_30_VOLUMEN
 70
0
 62
7
  6
CONTINUOUS
370
-3
390
F
  0
ENDTAB
  0
TABLE
  2
STYLE
  5
3
100
AcDbSymbolTable
 70
1
  0
STYLE
  5
11
100
AcDbSymbolTableRecord
100
AcDbTextStyleTableRecord
  2
STANDARD
 70
0
 40
0.0
 41
0.7
 50
0.0
 71
0
 42
0.2
  3
SIMPLEX.SHX
  4

  0
STYLE
  5
20A
100
AcDbSymbolTableRecord
100
AcDbTextStyleTableRecord
  2
TEXTSTYLE_1
 70
0
 40
0.0
 41
0.8
 50
0.0
 71
0
 42
0.2
  3
gdt
  4

  0
STYLE
  5
20B
100
AcDbSymbolTableRecord
100
AcDbTextStyleTableRecord
  2
TEXTSTYLE_2
 70
0
 40
0.0
 41
0.7
 50
0.0
 71
0
 42
0.2
  3
gdt
  4

  0
ENDTAB
  0
TABLE
  2
VIEW
  5
6
100
AcDbSymbolTable
 70
0
  0
ENDTAB
  0
TABLE
  2
UCS
  5
7
100
AcDbSymbolTable
 70
0
  0
ENDTAB
  0
TABLE
  2
APPID
  5
9
100
AcDbSymbolTable
 70
1
  0
APPID
  5
20C
100
AcDbSymbolTableRecord
100
AcDbRegAppTableRecord
  2
ACAD
 70
0
  0
ENDTAB
  0
TABLE
  2
BLOCK_RECORD
  5
1
100
AcDbSymbolTable
 70
0
  0
BLOCK_RECORD
  5
20D
100
AcDbSymbolTableRecord
100
AcDbBlockTableRecord
  2
*Model_Space
  0
BLOCK_RECORD
  5
20E
100
AcDbSymbolTableRecord
100
AcDbBlockTableRecord
  2
*Paper_Space
  0
BLOCK_RECORD
  5
20F
100
AcDbSymbolTableRecord
100
AcDbBlockTableRecord
  2
_FILLED
  0
BLOCK_RECORD
  5
210
100
AcDbSymbolTableRecord
100
AcDbBlockTableRecord
  2
*D0
  0
BLOCK_RECORD
  5
211
100
AcDbSymbolTableRecord
100
AcDbBlockTableRecord
  2
*D1
  0
BLOCK_RECORD
  5
212
100
AcDbSymbolTableRecord
100
AcDbBlockTableRecord
  2
*D2
  0
BLOCK_RECORD
  5
213
100
AcDbSymbolTableRecord
100
AcDbBlockTableRecord
  2
*D3
  0
BLOCK_RECORD
  5
214
100
AcDbSymbolTableRecord
100
AcDbBlockTableRecord
  2
*D4
  0
BLOCK_RECORD
  5
215
100
AcDbSymbolTableRecord
100
AcDbBlockTableRecord
  2
*D5
  0
BLOCK_RECORD
  5
216
100
AcDbSymbolTableRecord
100
AcDbBlockTableRecord
  2
*D6
  0
ENDTAB
  0
TABLE
  2
DIMSTYLE
  5
A
100
AcDbSymbolTable
 70
1
100
AcDbDimStyleTable
 71
0
  0
DIMSTYLE
105
217
100
AcDbSymbolTableRecord
100
AcDbDimStyleTableRecord
  2
STANDARD
 70
0
  3

  4

 40
1.0
 41
3.5
 42
0.0
 43
0.38
 44
1.5
 45
0.0
 46
0.0
 47
0.05
 48
0.05
140
3.5
141
0.09
142
0.0
143
25.4
144
1.0
145
0.0
146
1.0
147
0.625
 71
1
 72
0
 73
0
 74
0
 75
0
 76
0
 77
1
 78
8
 79
2
170
0
171
1
172
0
173
0
174
0
175
0
176
0
177
0
178
7
270
2
179
2
271
2
272
2
273
2
274
2
275
0
280
0
281
0
282
0
283
1
284
8
285
0
286
0
287
3
288
0
340
11
278
46
341
20F
342
20F
343
20F
344
20F
  0
DIMSTYLE
105
218
100
AcDbSymbolTableRecord
100
AcDbDimStyleTableRecord
  2
DIMSTYLE_1
 70
0
  3

  4

 40
1.0
 41
3.5
 42
0.0
 43
0.38
 44
1.5
 45
0.0
 46
0.0
 47
0.3
 48
0.3
140
3.5
141
0.09
142
0.0
143
25.4
144
1.0
145
0.0
146
1.0
147
0.875
 71
0
 72
0
 73
0
 74
0
 75
0
 76
0
 77
1
 78
8
 79
2
170
0
171
1
172
0
173
0
174
0
175
0
176
0
177
0
178
7
270
2
179
2
271
2
272
2
273
2
274
2
275
0
280
0
281
0
282
0
283
1
284
8
285
0
286
0
287
3
288
0
340
11
278
46
341
20F
342
20F
343
20F
344
20F
  0
DIMSTYLE
105
219
100
AcDbSymbolTableRecord
100
AcDbDimStyleTableRecord
  2
DIMSTYLE_2
 70
0
  3

  4

 40
1.0
 41
3.5
 42
0.0
 43
0.38
 44
1.5
 45
0.0
 46
0.0
 47
0.2
 48
0.2
140
3.5
141
0.09
142
0.0
143
25.4
144
1.0
145
0.0
146
1.0
147
0.875
 71
0
 72
0
 73
0
 74
0
 75
0
 76
0
 77
1
 78
8
 79
2
170
0
171
1
172
0
173
0
174
0
175
0
176
0
177
0
178
7
270
2
179
2
271
2
272
2
273
2
274
2
275
0
280
0
281
0
282
0
283
1
284
8
285
0
286
0
287
3
288
0
340
11
278
46
341
20F
342
20F
343
20F
344
20F
  0
ENDTAB
  0
ENDSEC
  0
SECTION
  2
BLOCKS
  0
BLOCK
  5
20
100
AcDbEntity
  8
0
100
AcDbBlockBegin
  2
*Model_Space
 70
0
 10
0.0
 20
0.0
 30
0.0
  3
*Model_Space
  1

  0
ENDBLK
  5
21
100
AcDbEntity
  8
0
100
AcDbBlockEnd
  0
BLOCK
  5
1C
100
AcDbEntity
  8
0
100
AcDbBlockBegin
  2
*Paper_Space
 70
0
 10
0.0
 20
0.0
 30
0.0
  3
*Paper_Space
  1

  0
ENDBLK
  5
1D
100
AcDbEntity
  8
0
100
AcDbBlockEnd
  0
BLOCK
  5
21A
100
AcDbEntity
  8
0
100
AcDbBlockBegin
  2
_FILLED
 70
64
 10
0.0
 20
0.0
  3
_FILLED
  1

  0
SOLID
  5
21B
100
AcDbEntity
  8
0
  6
BYBLOCK
 62
0
100
AcDbTrace
 10
0.0
 20
0.0
 11
-1.0
 21
0.125
 12
-1.0
 22
-0.125
 13
-1.0
 23
-0.125
  0
ENDBLK
  5
21C
100
AcDbEntity
  8
0
  6
BYBLOCK
 62
0
100
AcDbBlockEnd
  0
BLOCK
  5
21D
100
AcDbEntity
  8
2
100
AcDbBlockBegin
 62
7
  6
CONTINUOUS
  2
*D0
 70
65
 10
0.0
 20
0.0
  3
*D0
  1

  0
TEXT
  5
21E
100
AcDbEntity
  8
2
100
AcDbText
 62
7
  6
CONTINUOUS
 10
-41.875
 20
-10.875
  7
STANDARD
 40
3.5
  1
HSK-A 
 50
90.0
 41
0.7857142857
 72
1
 11
-41.875
 21
-2.625
100
AcDbText
  0
TEXT
  5
21F
100
AcDbEntity
  8
2
100
AcDbText
 62
7
  6
CONTINUOUS
 10
-41.875
 20
5.625
  7
STANDARD
 40
3.5
  1
63
 50
90.0
 41
0.75
 72
1
 11
-41.875
 21
8.25
100
AcDbText
  0
LINE
  5
220
100
AcDbEntity
  8
2
100
AcDbLine
 62
7
  6
CONTINUOUS
 10
-0.0
 20
-31.5
 11
-42.5
 21
-31.5
  0
LINE
  5
221
100
AcDbEntity
  8
2
100
AcDbLine
 62
7
  6
CONTINUOUS
 10
0.0
 20
31.5
 11
-42.5
 21
31.5
  0
LINE
  5
222
100
AcDbEntity
  8
2
100
AcDbLine
 62
7
  6
CONTINUOUS
 10
-41.0
 20
-31.5
 11
-41.0
 21
0.0
  0
LINE
  5
223
100
AcDbEntity
  8
2
100
AcDbLine
 62
7
  6
CONTINUOUS
 10
-41.0
 20
31.5
 11
-41.0
 21
0.0
  0
INSERT
  5
224
100
AcDbEntity
  8
2
100
AcDbBlockReference
 62
7
  6
CONTINUOUS
  2
_FILLED
 10
-41.0
 20
-31.5
 41
3.5
 42
3.5
 43
3.5
 50
270.0
  0
INSERT
  5
225
100
AcDbEntity
  8
2
100
AcDbBlockReference
 62
7
  6
CONTINUOUS
  2
_FILLED
 10
-41.0
 20
31.5
 41
3.5
 42
3.5
 43
3.5
 50
90.0
  0
ENDBLK
  5
226
100
AcDbEntity
  8
0
  6
BYBLOCK
 62
0
100
AcDbBlockEnd
  0
BLOCK
  5
227
100
AcDbEntity
  8
2
100
AcDbBlockBegin
 62
7
  6
CONTINUOUS
  2
*D1
 70
65
 10
0.0
 20
0.0
  3
*D1
  1

  0
TEXT
  5
228
100
AcDbEntity
  8
2
100
AcDbText
 62
7
  6
CONTINUOUS
 10
86.125
 20
-4.9583333333
  7
TEXTSTYLE_2
 40
3.5
  1
n
 50
90.0
 41
1.0
 72
1
 11
86.125
 21
-2.625
100
AcDbText
  0
TEXT
  5
229
100
AcDbEntity
  8
2
100
AcDbText
 62
7
  6
CONTINUOUS
 10
86.125
 20
-0.2916666667
  7
STANDARD
 40
3.5
  1
65
 50
90.0
 41
0.75
 72
1
 11
86.125
 21
2.3333333333
100
AcDbText
  0
LINE
  5
22A
100
AcDbEntity
  8
2
100
AcDbLine
 62
7
  6
CONTINUOUS
 10
78.0
 20
32.5
 11
88.5
 21
32.5
  0
LINE
  5
22B
100
AcDbEntity
  8
2
100
AcDbLine
 62
7
  6
CONTINUOUS
 10
78.0
 20
-32.5
 11
88.5
 21
-32.5
  0
LINE
  5
22C
100
AcDbEntity
  8
2
100
AcDbLine
 62
7
  6
CONTINUOUS
 10
87.0
 20
32.5
 11
87.0
 21
-0.0
  0
LINE
  5
22D
100
AcDbEntity
  8
2
100
AcDbLine
 62
7
  6
CONTINUOUS
 10
87.0
 20
-32.5
 11
87.0
 21
-0.0
  0
INSERT
  5
22E
100
AcDbEntity
  8
2
100
AcDbBlockReference
 62
7
  6
CONTINUOUS
  2
_FILLED
 10
87.0
 20
32.5
 41
3.5
 42
3.5
 43
3.5
 50
90.0
  0
INSERT
  5
22F
100
AcDbEntity
  8
2
100
AcDbBlockReference
 62
7
  6
CONTINUOUS
  2
_FILLED
 10
87.0
 20
-32.5
 41
3.5
 42
3.5
 43
3.5
 50
270.0
  0
ENDBLK
  5
230
100
AcDbEntity
  8
0
  6
BYBLOCK
 62
0
100
AcDbBlockEnd
  0
BLOCK
  5
231
100
AcDbEntity
  8
2
100
AcDbBlockBegin
 62
7
  6
CONTINUOUS
  2
*D2
 70
65
 10
0.0
 20
0.0
  3
*D2
  1

  0
TEXT
  5
232
100
AcDbEntity
  8
2
100
AcDbText
 62
7
  6
CONTINUOUS
 10
95.125
 20
-4.7083333333
  7
TEXTSTYLE_2
 40
3.5
  1
n
 50
90.0
 41
1.0
 72
1
 11
95.125
 21
-2.375
100
AcDbText
  0
TEXT
  5
233
100
AcDbEntity
  8
2
100
AcDbText
 62
7
  6
CONTINUOUS
 10
95.125
 20
-0.0416666667
  7
STANDARD
 40
3.5
  1
81
 50
90.0
 41
0.6785714286
 72
1
 11
95.125
 21
2.3333333333
100
AcDbText
  0
LINE
  5
234
100
AcDbEntity
  8
2
100
AcDbLine
 62
7
  6
CONTINUOUS
 10
77.0
 20
40.5
 11
97.5
 21
40.5
  0
LINE
  5
235
100
AcDbEntity
  8
2
100
AcDbLine
 62
7
  6
CONTINUOUS
 10
77.0
 20
-40.5
 11
97.5
 21
-40.5
  0
LINE
  5
236
100
AcDbEntity
  8
2
100
AcDbLine
 62
7
  6
CONTINUOUS
 10
96.0
 20
40.5
 11
96.0
 21
-0.0
  0
LINE
  5
237
100
AcDbEntity
  8
2
100
AcDbLine
 62
7
  6
CONTINUOUS
 10
96.0
 20
-40.5
 11
96.0
 21
-0.0
  0
INSERT
  5
238
100
AcDbEntity
  8
2
100
AcDbBlockReference
 62
7
  6
CONTINUOUS
  2
_FILLED
 10
96.0
 20
40.5
 41
3.5
 42
3.5
 43
3.5
 50
90.0
  0
INSERT
  5
239
100
AcDbEntity
  8
2
100
AcDbBlockReference
 62
7
  6
CONTINUOUS
  2
_FILLED
 10
96.0
 20
-40.5
 41
3.5
 42
3.5
 43
3.5
 50
270.0
  0
ENDBLK
  5
23A
100
AcDbEntity
  8
0
  6
BYBLOCK
 62
0
100
AcDbBlockEnd
  0
BLOCK
  5
23B
100
AcDbEntity
  8
2
100
AcDbBlockBegin
 62
7
  6
CONTINUOUS
  2
*D3
 70
65
 10
0.0
 20
0.0
  3
*D3
  1

  0
TEXT
  5
23C
100
AcDbEntity
  8
2
100
AcDbText
 62
7
  6
CONTINUOUS
 10
63.25
 20
-46.5260438124
  7
STANDARD
 40
3.5
  1
24
 41
0.7857142857
 72
1
 11
66.0
 21
-46.5260438124
100
AcDbText
  0
LINE
  5
23D
100
AcDbEntity
  8
2
100
AcDbLine
 62
7
  6
CONTINUOUS
 10
54.0
 20
-39.5
 11
54.0
 21
-48.9010438124
  0
LINE
  5
23E
100
AcDbEntity
  8
2
100
AcDbLine
 62
7
  6
CONTINUOUS
 10
78.0
 20
-39.5
 11
78.0
 21
-48.9010438124
  0
LINE
  5
23F
100
AcDbEntity
  8
2
100
AcDbLine
 62
7
  6
CONTINUOUS
 10
54.0
 20
-47.4010438124
 11
66.0
 21
-47.4010438124
  0
LINE
  5
240
100
AcDbEntity
  8
2
100
AcDbLine
 62
7
  6
CONTINUOUS
 10
78.0
 20
-47.4010438124
 11
66.0
 21
-47.4010438124
  0
INSERT
  5
241
100
AcDbEntity
  8
2
100
AcDbBlockReference
 62
7
  6
CONTINUOUS
  2
_FILLED
 10
54.0
 20
-47.4010438124
 41
3.5
 42
3.5
 43
3.5
 50
180.0
  0
INSERT
  5
242
100
AcDbEntity
  8
2
100
AcDbBlockReference
 62
7
  6
CONTINUOUS
  2
_FILLED
 10
78.0
 20
-47.4010438124
 41
3.5
 42
3.5
 43
3.5
  0
ENDBLK
  5
243
100
AcDbEntity
  8
0
  6
BYBLOCK
 62
0
100
AcDbBlockEnd
  0
BLOCK
  5
244
100
AcDbEntity
  8
2
100
AcDbBlockBegin
 62
7
  6
CONTINUOUS
  2
*D4
 70
65
 10
0.0
 20
0.0
  3
*D4
  1

  0
TEXT
  5
245
100
AcDbEntity
  8
2
100
AcDbText
 62
7
  6
CONTINUOUS
 10
30.25
 20
50.375
  7
STANDARD
 40
3.5
  1
66
 41
0.7857142857
 72
1
 11
33.0
 21
50.375
100
AcDbText
  0
LINE
  5
246
100
AcDbEntity
  8
2
100
AcDbLine
 62
7
  6
CONTINUOUS
 10
-0.0
 20
31.5
 11
-0.0
 21
51.0
  0
LINE
  5
247
100
AcDbEntity
  8
2
100
AcDbLine
 62
7
  6
CONTINUOUS
 10
66.0
 20
32.5
 11
66.0
 21
51.0
  0
LINE
  5
248
100
AcDbEntity
  8
2
100
AcDbLine
 62
7
  6
CONTINUOUS
 10
-0.0
 20
49.5
 11
33.0
 21
49.5
  0
LINE
  5
249
100
AcDbEntity
  8
2
100
AcDbLine
 62
7
  6
CONTINUOUS
 10
66.0
 20
49.5
 11
33.0
 21
49.5
  0
INSERT
  5
24A
100
AcDbEntity
  8
2
100
AcDbBlockReference
 62
7
  6
CONTINUOUS
  2
_FILLED
 10
-0.0
 20
49.5
 41
3.5
 42
3.5
 43
3.5
 50
180.0
  0
INSERT
  5
24B
100
AcDbEntity
  8
2
100
AcDbBlockReference
 62
7
  6
CONTINUOUS
  2
_FILLED
 10
66.0
 20
49.5
 41
3.5
 42
3.5
 43
3.5
  0
ENDBLK
  5
24C
100
AcDbEntity
  8
0
  6
BYBLOCK
 62
0
100
AcDbBlockEnd
  0
BLOCK
  5
24D
100
AcDbEntity
  8
2
100
AcDbBlockBegin
 62
7
  6
CONTINUOUS
  2
*D5
 70
65
 10
0.0
 20
0.0
  3
*D5
  1

  0
TEXT
  5
24E
100
AcDbEntity
  8
2
100
AcDbText
 62
7
  6
CONTINUOUS
 10
36.25
 20
59.375
  7
STANDARD
 40
3.5
  1
78
 41
0.7857142857
 72
1
 11
39.0
 21
59.375
100
AcDbText
  0
LINE
  5
24F
100
AcDbEntity
  8
2
100
AcDbLine
 62
7
  6
CONTINUOUS
 10
-0.0
 20
31.5
 11
-0.0
 21
60.0
  0
LINE
  5
250
100
AcDbEntity
  8
2
100
AcDbLine
 62
7
  6
CONTINUOUS
 10
78.0
 20
39.5
 11
78.0
 21
60.0
  0
LINE
  5
251
100
AcDbEntity
  8
2
100
AcDbLine
 62
7
  6
CONTINUOUS
 10
-0.0
 20
58.5
 11
39.0
 21
58.5
  0
LINE
  5
252
100
AcDbEntity
  8
2
100
AcDbLine
 62
7
  6
CONTINUOUS
 10
78.0
 20
58.5
 11
39.0
 21
58.5
  0
INSERT
  5
253
100
AcDbEntity
  8
2
100
AcDbBlockReference
 62
7
  6
CONTINUOUS
  2
_FILLED
 10
-0.0
 20
58.5
 41
3.5
 42
3.5
 43
3.5
 50
180.0
  0
INSERT
  5
254
100
AcDbEntity
  8
2
100
AcDbBlockReference
 62
7
  6
CONTINUOUS
  2
_FILLED
 10
78.0
 20
58.5
 41
3.5
 42
3.5
 43
3.5
  0
ENDBLK
  5
255
100
AcDbEntity
  8
0
  6
BYBLOCK
 62
0
100
AcDbBlockEnd
  0
BLOCK
  5
256
100
AcDbEntity
  8
2
100
AcDbBlockBegin
 62
7
  6
CONTINUOUS
  2
*D6
 70
65
 10
0.0
 20
0.0
  3
*D6
  1

  0
TEXT
  5
257
100
AcDbEntity
  8
2
100
AcDbText
 62
7
  6
CONTINUOUS
 10
19.625
 20
68.375
  7
STANDARD
 40
3.5
  1
110
 41
0.6428571429
 72
1
 11
23.0
 21
68.375
100
AcDbText
  0
LINE
  5
258
100
AcDbEntity
  8
2
100
AcDbLine
 62
7
  6
CONTINUOUS
 10
-32.0
 20
22.7165848278
 11
-32.0
 21
69.0
  0
LINE
  5
259
100
AcDbEntity
  8
2
100
AcDbLine
 62
7
  6
CONTINUOUS
 10
78.0
 20
39.5
 11
78.0
 21
69.0
  0
LINE
  5
25A
100
AcDbEntity
  8
2
100
AcDbLine
 62
7
  6
CONTINUOUS
 10
-32.0
 20
67.5
 11
23.0
 21
67.5
  0
LINE
  5
25B
100
AcDbEntity
  8
2
100
AcDbLine
 62
7
  6
CONTINUOUS
 10
78.0
 20
67.5
 11
23.0
 21
67.5
  0
INSERT
  5
25C
100
AcDbEntity
  8
2
100
AcDbBlockReference
 62
7
  6
CONTINUOUS
  2
_FILLED
 10
-32.0
 20
67.5
 41
3.5
 42
3.5
 43
3.5
 50
180.0
  0
INSERT
  5
25D
100
AcDbEntity
  8
2
100
AcDbBlockReference
 62
7
  6
CONTINUOUS
  2
_FILLED
 10
78.0
 20
67.5
 41
3.5
 42
3.5
 43
3.5
  0
ENDBLK
  5
25E
100
AcDbEntity
  8
0
  6
BYBLOCK
 62
0
100
AcDbBlockEnd
  0
ENDSEC
  0
SECTION
  2
ENTITIES
  0
DIMENSION
  5
25F
100
AcDbEntity
  8
2
100
AcDbDimension
 62
7
  6
CONTINUOUS
  2
*D0
 10
-41.0
 20
31.5
 11
-41.0
 21
0.0
 70
160
 71
2
 72
2
 41
0.9
 42
63.0
  1
HSK-A <>
  3
DIMSTYLE_1
100
AcDbAlignedDimension
 13
-0.0
 23
-31.5
 14
0.0
 24
31.5
 50
90.0
100
AcDbRotatedDimension
  0
DIMENSION
  5
260
100
AcDbEntity
  8
2
100
AcDbDimension
 62
7
  6
CONTINUOUS
  2
*D1
 10
87.0
 20
-32.5
 11
87.0
 21
-0.0
 70
160
 71
2
 72
2
 41
0.9
 42
65.0
  1
%%c<>
  3
DIMSTYLE_1
100
AcDbAlignedDimension
 13
78.0
 23
32.5
 14
78.0
 24
-32.5
 50
270.0
100
AcDbRotatedDimension
  0
DIMENSION
  5
261
100
AcDbEntity
  8
2
100
AcDbDimension
 62
7
  6
CONTINUOUS
  2
*D2
 10
96.0
 20
-40.5
 11
96.0
 21
-0.0
 70
160
 71
2
 72
2
 41
0.9
 42
81.0
  1
%%c<>
  3
DIMSTYLE_1
100
AcDbAlignedDimension
 13
77.0
 23
40.5
 14
77.0
 24
-40.5
 50
270.0
100
AcDbRotatedDimension
  0
DIMENSION
  5
262
100
AcDbEntity
  8
2
100
AcDbDimension
 62
7
  6
CONTINUOUS
  2
*D3
 10
78.0
 20
-47.4010438124
 11
65.5000016785
 21
-47.4010438124
 70
160
 71
2
 72
2
 41
0.9
 42
24.0
  3
DIMSTYLE_2
100
AcDbAlignedDimension
 13
54.0
 23
-39.5
 14
78.0
 24
-39.5
100
AcDbRotatedDimension
  0
DIMENSION
  5
263
100
AcDbEntity
  8
2
100
AcDbDimension
 62
7
  6
CONTINUOUS
  2
*D4
 10
66.0
 20
49.5
 11
32.5000009918
 21
49.5
 70
160
 71
2
 72
2
 41
0.9
 42
66.0
  3
DIMSTYLE_1
100
AcDbAlignedDimension
 13
-0.0
 23
31.5
 14
66.0
 24
32.5
100
AcDbRotatedDimension
  0
DIMENSION
  5
264
100
AcDbEntity
  8
2
100
AcDbDimension
 62
7
  6
CONTINUOUS
  2
*D5
 10
78.0
 20
58.5
 11
38.5000005341
 21
58.5
 70
160
 71
2
 72
2
 41
0.9
 42
78.0
  3
DIMSTYLE_1
100
AcDbAlignedDimension
 13
-0.0
 23
31.5
 14
78.0
 24
39.5
100
AcDbRotatedDimension
  0
DIMENSION
  5
265
100
AcDbEntity
  8
2
100
AcDbDimension
 62
7
  6
CONTINUOUS
  2
*D6
 10
78.0
 20
67.5
 11
22.4999998856
 21
67.5
 70
160
 71
2
 72
2
 41
0.9
 42
110.0
  3
DIMSTYLE_1
100
AcDbAlignedDimension
 13
-32.0
 23
22.7165848278
 14
78.0
 24
39.5
100
AcDbRotatedDimension
  0
LINE
  5
266
100
AcDbEntity
  8
NOCUT
100
AcDbLine
 62
7
  6
CONTINUOUS
 10
-32.0
 20
22.7165848278
 11
-32.0
 21
0.0
  0
LINE
  5
267
100
AcDbEntity
  8
_30_VOLUMEN
100
AcDbLine
 62
4
  6
CONTINUOUS
 10
-32.0
 20
-22.7161877735
 11
-32.0
 21
22.7161877735
  0
LINE
  5
268
100
AcDbEntity
  8
_30_VOLUMEN
100
AcDbLine
 62
4
  6
CONTINUOUS
 10
55.0
 20
-40.5
 11
77.0
 21
-40.5
  0
LINE
  5
269
100
AcDbEntity
  8
_30_VOLUMEN
100
AcDbLine
 62
1
  6
HIDDEN
 10
66.0
 20
-32.5
 11
78.0
 21
-32.5
  0
LINE
  5
26A
100
AcDbEntity
  8
_30_VOLUMEN
100
AcDbLine
 62
4
  6
CONTINUOUS
 10
-0.0
 20
-31.5
 11
5.0
 21
-31.5
  0
LINE
  5
26B
100
AcDbEntity
  8
_30_VOLUMEN
100
AcDbLine
 62
4
  6
CONTINUOUS
 10
-6.3
 20
-24.005
 11
-6.3
 21
24.005
  0
LINE
  5
26C
100
AcDbEntity
  8
_30_VOLUMEN
100
AcDbLine
 62
4
  6
CONTINUOUS
 10
13.0
 20
-30.4671954732
 11
14.6225009252
 21
-30.4671954732
  0
LINE
  5
26D
100
AcDbEntity
  8
_30_VOLUMEN
100
AcDbLine
 62
4
  6
CONTINUOUS
 10
21.3774990748
 20
-30.4671954732
 11
26.0
 21
-30.4671954732
  0
LINE
  5
26E
100
AcDbEntity
  8
_30_VOLUMEN
100
AcDbLine
 62
4
  6
CONTINUOUS
 10
45.0
 20
-30.0
 11
54.0
 21
-30.0
  0
LINE
  5
26F
100
AcDbEntity
  8
NOCUT
100
AcDbLine
 62
7
  6
CONTINUOUS
 10
0.0
 20
31.5
 11
0.0
 21
24.005
  0
LINE
  5
270
100
AcDbEntity
  8
_30_VOLUMEN
100
AcDbLine
 62
4
  6
CONTINUOUS
 10
-0.0
 20
-31.5
 11
0.0
 21
31.5
  0
LINE
  5
271
100
AcDbEntity
  8
_30_VOLUMEN
100
AcDbLine
 62
1
  6
HIDDEN
 10
5.0002180565
 20
-26.5
 11
16.125
 21
-26.5
  0
LINE
  5
272
100
AcDbEntity
  8
_30_VOLUMEN
100
AcDbLine
 62
4
  6
CONTINUOUS
 10
16.125
 20
-26.5
 11
19.875
 21
-26.5
  0
LINE
  5
273
100
AcDbEntity
  8
_30_VOLUMEN
100
AcDbLine
 62
1
  6
HIDDEN
 10
19.875
 20
-26.5
 11
26.0
 21
-26.5
  0
LINE
  5
274
100
AcDbEntity
  8
_30_VOLUMEN
100
AcDbLine
 62
4
  6
CONTINUOUS
 10
27.0
 20
-25.0
 11
43.0
 21
-25.0
  0
LINE
  5
275
100
AcDbEntity
  8
_30_VOLUMEN
100
AcDbLine
 62
1
  6
HIDDEN
 10
13.0
 20
-24.3361870473
 11
14.6225009252
 21
-24.3361870473
  0
LINE
  5
276
100
AcDbEntity
  8
_30_VOLUMEN
100
AcDbLine
 62
1
  6
HIDDEN
 10
21.3774990748
 20
-24.3361870473
 11
26.0
 21
-24.3361870473
  0
LINE
  5
277
100
AcDbEntity
  8
_30_VOLUMEN
100
AcDbLine
 62
4
  6
CONTINUOUS
 10
-6.3
 20
-24.005
 11
-0.0
 21
-24.005
  0
LINE
  5
278
100
AcDbEntity
  8
_30_VOLUMEN
100
AcDbLine
 62
4
  6
CONTINUOUS
 10
-32.0
 20
-22.7165848278
 11
-6.3
 21
-24.005
  0
LINE
  5
279
100
AcDbEntity
  8
_30_VOLUMEN
100
AcDbLine
 62
4
  6
CONTINUOUS
 10
5.0
 20
31.5
 11
5.0
 21
31.4841229829
  0
LINE
  5
27A
100
AcDbEntity
  8
_30_VOLUMEN
100
AcDbLine
 62
1
  6
HIDDEN
 10
5.0
 20
-31.5
 11
5.0
 21
-26.5
  0
LINE
  5
27B
100
AcDbEntity
  8
_30_VOLUMEN
100
AcDbLine
 62
1
  6
HIDDEN
 10
5.0
 20
26.5
 11
5.0
 21
31.4841229829
  0
LINE
  5
27C
100
AcDbEntity
  8
_30_VOLUMEN
100
AcDbLine
 62
1
  6
HIDDEN
 10
5.8882860963
 20
-20.0
 11
16.125
 21
-20.0
  0
LINE
  5
27D
100
AcDbEntity
  8
_30_VOLUMEN
100
AcDbLine
 62
1
  6
HIDDEN
 10
19.875
 20
-20.0
 11
26.0
 21
-20.0
  0
LINE
  5
27E
100
AcDbEntity
  8
_30_VOLUMEN
100
AcDbLine
 62
1
  6
HIDDEN
 10
-32.0
 20
-17.0
 11
-0.0
 21
-17.0
  0
LINE
  5
27F
100
AcDbEntity
  8
_30_VOLUMEN
100
AcDbLine
 62
7
  6
DOT
 10
13.0
 20
-20.0
 11
13.0
 21
-24.3361870473
  0
LINE
  5
280
100
AcDbEntity
  8
_30_VOLUMEN
100
AcDbLine
 62
1
  6
DOT
 10
13.0
 20
-26.5
 11
13.0
 21
-30.4671954732
  0
LINE
  5
281
100
AcDbEntity
  8
_30_VOLUMEN
100
AcDbLine
 62
1
  6
DOT
 10
13.0
 20
26.5
 11
13.0
 21
30.1869176962
  0
LINE
  5
282
100
AcDbEntity
  8
_30_VOLUMEN
100
AcDbLine
 62
4
  6
CONTINUOUS
 10
14.6225009252
 20
-30.4671954732
 11
14.6225009252
 21
30.1869176962
  0
LINE
  5
283
100
AcDbEntity
  8
_30_VOLUMEN
100
AcDbLine
 62
4
  6
CONTINUOUS
 10
16.125
 20
27.4603534583
 11
16.125
 21
-27.7681654427
  0
LINE
  5
284
100
AcDbEntity
  8
_30_VOLUMEN
100
AcDbLine
 62
4
  6
CONTINUOUS
 10
54.0
 20
39.5
 11
55.0
 21
40.5
  0
LINE
  5
285
100
AcDbEntity
  8
NOCUT
100
AcDbLine
 62
7
  6
CONTINUOUS
 10
54.0
 20
39.5
 11
55.0
 21
40.5
  0
LINE
  5
286
100
AcDbEntity
  8
_30_VOLUMEN
100
AcDbLine
 62
4
  6
CONTINUOUS
 10
44.0
 20
29.0
 11
45.0
 21
30.0
  0
LINE
  5
287
100
AcDbEntity
  8
NOCUT
100
AcDbLine
 62
7
  6
CONTINUOUS
 10
44.0
 20
29.0
 11
45.0
 21
30.0
  0
LINE
  5
288
100
AcDbEntity
  8
_30_VOLUMEN
100
AcDbLine
 62
1
  6
HIDDEN
 10
-0.0
 20
-4.2
 11
26.0
 21
-4.2
  0
LINE
  5
289
100
AcDbEntity
  8
_30_VOLUMEN
100
AcDbLine
 62
1
  6
HIDDEN
 10
26.0
 20
-4.0
 11
66.0
 21
-4.0
  0
LINE
  5
28A
100
AcDbEntity
  8
_30_VOLUMEN
100
AcDbLine
 62
4
  6
CONTINUOUS
 10
54.0
 20
-39.5
 11
55.0
 21
-40.5
  0
LINE
  5
28B
100
AcDbEntity
  8
_30_VOLUMEN
100
AcDbLine
 62
4
  6
CONTINUOUS
 10
44.0
 20
-29.0
 11
45.0
 21
-30.0
  0
LINE
  5
28C
100
AcDbEntity
  8
_30_VOLUMEN
100
AcDbLine
 62
4
  6
CONTINUOUS
 10
19.875
 20
-27.7681654427
 11
19.875
 21
27.4603534583
  0
LINE
  5
28D
100
AcDbEntity
  8
_30_VOLUMEN
100
AcDbLine
 62
4
  6
CONTINUOUS
 10
21.3774990748
 20
30.1869176962
 11
21.3774990748
 21
-30.4671954732
  0
LINE
  5
28E
100
AcDbEntity
  8
_30_VOLUMEN
100
AcDbLine
 62
4
  6
CONTINUOUS
 10
43.0
 20
25.0
 11
44.0
 21
26.0
  0
LINE
  5
28F
100
AcDbEntity
  8
NOCUT
100
AcDbLine
 62
7
  6
CONTINUOUS
 10
43.0
 20
25.0
 11
44.0
 21
26.0
  0
LINE
  5
290
100
AcDbEntity
  8
NOCUT
100
AcDbLine
 62
7
  6
CONTINUOUS
 10
-32.0
 20
0.0
 11
78.0
 21
-0.0
  0
LINE
  5
291
100
AcDbEntity
  8
_30_VOLUMEN
100
AcDbLine
 62
4
  6
CONTINUOUS
 10
43.0
 20
-25.0
 11
44.0
 21
-26.0
  0
LINE
  5
292
100
AcDbEntity
  8
_30_VOLUMEN
100
AcDbLine
 62
4
  6
CONTINUOUS
 10
26.0
 20
30.1869176962
 11
26.0
 21
-30.4671954732
  0
LINE
  5
293
100
AcDbEntity
  8
NOCUT
100
AcDbLine
 62
7
  6
CONTINUOUS
 10
26.0
 20
26.0
 11
26.0
 21
31.5
  0
LINE
  5
294
100
AcDbEntity
  8
_30_VOLUMEN
100
AcDbLine
 62
4
  6
CONTINUOUS
 10
27.0
 20
-25.0
 11
27.0
 21
25.0
  0
LINE
  5
295
100
AcDbEntity
  8
_30_VOLUMEN
100
AcDbLine
 62
1
  6
HIDDEN
 10
26.0
 20
4.0
 11
66.0
 21
4.0
  0
LINE
  5
296
100
AcDbEntity
  8
_30_VOLUMEN
100
AcDbLine
 62
1
  6
HIDDEN
 10
0.0
 20
4.2
 11
26.0
 21
4.2
  0
LINE
  5
297
100
AcDbEntity
  8
_30_VOLUMEN
100
AcDbLine
 62
1
  6
HIDDEN
 10
-32.0
 20
17.0
 11
0.0
 21
17.0
  0
LINE
  5
298
100
AcDbEntity
  8
_30_VOLUMEN
100
AcDbLine
 62
4
  6
CONTINUOUS
 10
43.0
 20
-25.0
 11
43.0
 21
25.0
  0
LINE
  5
299
100
AcDbEntity
  8
_30_VOLUMEN
100
AcDbLine
 62
4
  6
CONTINUOUS
 10
44.0
 20
-29.0
 11
44.0
 21
29.0
  0
LINE
  5
29A
100
AcDbEntity
  8
NOCUT
100
AcDbLine
 62
7
  6
CONTINUOUS
 10
44.0
 20
26.0
 11
44.0
 21
29.0
  0
LINE
  5
29B
100
AcDbEntity
  8
_30_VOLUMEN
100
AcDbLine
 62
4
  6
CONTINUOUS
 10
45.0
 20
-30.0
 11
45.0
 21
30.0
  0
LINE
  5
29C
100
AcDbEntity
  8
_30_VOLUMEN
100
AcDbLine
 62
4
  6
CONTINUOUS
 10
26.0
 20
-26.0
 11
27.0
 21
-25.0
  0
LINE
  5
29D
100
AcDbEntity
  8
_30_VOLUMEN
100
AcDbLine
 62
4
  6
CONTINUOUS
 10
26.0
 20
26.0
 11
27.0
 21
25.0
  0
LINE
  5
29E
100
AcDbEntity
  8
NOCUT
100
AcDbLine
 62
7
  6
CONTINUOUS
 10
26.0
 20
26.0
 11
27.0
 21
25.0
  0
LINE
  5
29F
100
AcDbEntity
  8
_30_VOLUMEN
100
AcDbLine
 62
4
  6
CONTINUOUS
 10
-32.0
 20
22.7165848278
 11
-6.3
 21
24.005
  0
LINE
  5
2A0
100
AcDbEntity
  8
NOCUT
100
AcDbLine
 62
7
  6
CONTINUOUS
 10
-6.3
 20
24.005
 11
-32.0
 21
22.7165848278
  0
LINE
  5
2A1
100
AcDbEntity
  8
_30_VOLUMEN
100
AcDbLine
 62
4
  6
CONTINUOUS
 10
-6.3
 20
24.005
 11
0.0
 21
24.005
  0
LINE
  5
2A2
100
AcDbEntity
  8
NOCUT
100
AcDbLine
 62
7
  6
CONTINUOUS
 10
0.0
 20
24.005
 11
-6.3
 21
24.005
  0
LINE
  5
2A3
100
AcDbEntity
  8
_30_VOLUMEN
100
AcDbLine
 62
4
  6
CONTINUOUS
 10
27.0
 20
25.0
 11
43.0
 21
25.0
  0
LINE
  5
2A4
100
AcDbEntity
  8
NOCUT
100
AcDbLine
 62
7
  6
CONTINUOUS
 10
27.0
 20
25.0
 11
43.0
 21
25.0
  0
LINE
  5
2A5
100
AcDbEntity
  8
_30_VOLUMEN
100
AcDbLine
 62
1
  6
HIDDEN
 10
5.0
 20
26.5
 11
16.125
 21
26.5
  0
LINE
  5
2A6
100
AcDbEntity
  8
_30_VOLUMEN
100
AcDbLine
 62
4
  6
CONTINUOUS
 10
16.125
 20
26.5
 11
19.875
 21
26.5
  0
LINE
  5
2A7
100
AcDbEntity
  8
_30_VOLUMEN
100
AcDbLine
 62
1
  6
HIDDEN
 10
19.875
 20
26.5
 11
26.0
 21
26.5
  0
LINE
  5
2A8
100
AcDbEntity
  8
_30_VOLUMEN
100
AcDbLine
 62
4
  6
CONTINUOUS
 10
54.0
 20
-39.499678248
 11
54.0
 21
39.499678248
  0
LINE
  5
2A9
100
AcDbEntity
  8
NOCUT
100
AcDbLine
 62
7
  6
CONTINUOUS
 10
54.0
 20
30.0
 11
54.0
 21
39.5
  0
LINE
  5
2AA
100
AcDbEntity
  8
_30_VOLUMEN
100
AcDbLine
 62
4
  6
CONTINUOUS
 10
55.0
 20
-40.5
 11
55.0
 21
40.5
  0
LINE
  5
2AB
100
AcDbEntity
  8
_30_VOLUMEN
100
AcDbLine
 62
4
  6
CONTINUOUS
 10
45.0
 20
30.0
 11
54.0
 21
30.0
  0
LINE
  5
2AC
100
AcDbEntity
  8
NOCUT
100
AcDbLine
 62
7
  6
CONTINUOUS
 10
45.0
 20
30.0
 11
54.0
 21
30.0
  0
LINE
  5
2AD
100
AcDbEntity
  8
_30_VOLUMEN
100
AcDbLine
 62
4
  6
CONTINUOUS
 10
13.0
 20
30.1869176962
 11
14.6225009252
 21
30.1869176962
  0
LINE
  5
2AE
100
AcDbEntity
  8
_30_VOLUMEN
100
AcDbLine
 62
4
  6
CONTINUOUS
 10
21.3774990748
 20
30.1869176962
 11
26.0
 21
30.1869176962
  0
LINE
  5
2AF
100
AcDbEntity
  8
_30_VOLUMEN
100
AcDbLine
 62
4
  6
CONTINUOUS
 10
0.0
 20
31.5
 11
5.0
 21
31.5
  0
LINE
  5
2B0
100
AcDbEntity
  8
NOCUT
100
AcDbLine
 62
7
  6
CONTINUOUS
 10
26.0
 20
31.5
 11
0.0
 21
31.5
  0
LINE
  5
2B1
100
AcDbEntity
  8
_30_VOLUMEN
100
AcDbLine
 62
1
  6
HIDDEN
 10
66.0
 20
32.5
 11
78.0
 21
32.5
  0
LINE
  5
2B2
100
AcDbEntity
  8
_30_VOLUMEN
100
AcDbLine
 62
4
  6
CONTINUOUS
 10
55.0
 20
40.5
 11
77.0
 21
40.5
  0
LINE
  5
2B3
100
AcDbEntity
  8
NOCUT
100
AcDbLine
 62
7
  6
CONTINUOUS
 10
55.0
 20
40.5
 11
77.0
 21
40.5
  0
LINE
  5
2B4
100
AcDbEntity
  8
_30_VOLUMEN
100
AcDbLine
 62
1
  6
HIDDEN
 10
66.0
 20
-32.5
 11
66.0
 21
32.5
  0
LINE
  5
2B5
100
AcDbEntity
  8
_30_VOLUMEN
100
AcDbLine
 62
4
  6
CONTINUOUS
 10
77.0
 20
-40.5
 11
77.0
 21
40.5
  0
LINE
  5
2B6
100
AcDbEntity
  8
_30_VOLUMEN
100
AcDbLine
 62
4
  6
CONTINUOUS
 10
78.0
 20
-39.499678248
 11
78.0
 21
39.499678248
  0
LINE
  5
2B7
100
AcDbEntity
  8
NOCUT
100
AcDbLine
 62
7
  6
CONTINUOUS
 10
78.0
 20
-0.0
 11
78.0
 21
39.5
  0
LINE
  5
2B8
100
AcDbEntity
  8
_30_VOLUMEN
100
AcDbLine
 62
4
  6
CONTINUOUS
 10
77.0
 20
-40.5
 11
78.0
 21
-39.5
  0
LINE
  5
2B9
100
AcDbEntity
  8
_30_VOLUMEN
100
AcDbLine
 62
4
  6
CONTINUOUS
 10
77.0
 20
40.5
 11
78.0
 21
39.5
  0
LINE
  5
2BA
100
AcDbEntity
  8
NOCUT
100
AcDbLine
 62
7
  6
CONTINUOUS
 10
77.0
 20
40.5
 11
78.0
 21
39.5
  0
ARC
  5
2BB
100
AcDbEntity
  8
_30_VOLUMEN
100
AcDbCircle
 62
4
  6
CONTINUOUS
 10
993.1082402889
 20
512.2446885527
 40
1113.0124987993
100
AcDbArc
 50
209.0243515443
 51
209.1833703557
  0
ARC
  5
2BC
100
AcDbEntity
  8
_30_VOLUMEN
100
AcDbCircle
 62
4
  6
CONTINUOUS
 10
-957.1082402866
 20
512.2446885514
 40
1113.0124987967
100
AcDbArc
 50
330.8166296443
 51
330.9756484557
  0
ARC
  5
2BD
100
AcDbEntity
  8
_30_VOLUMEN
100
AcDbCircle
 62
4
  6
CONTINUOUS
 10
-749.30889607
 20
-392.5619869935
 40
873.1024085017
100
AcDbArc
 50
28.7552312529
 51
28.9595257516
  0
ARC
  5
2BE
100
AcDbEntity
  8
_30_VOLUMEN
100
AcDbCircle
 62
4
  6
CONTINUOUS
 10
785.3088960693
 20
-392.5619869931
 40
873.1024085009
100
AcDbArc
 50
151.0404742484
 51
151.2447687471
  0
ARC
  5
2BF
100
AcDbEntity
  8
_30_VOLUMEN
100
AcDbCircle
 62
1
  6
HIDDEN
 10
161.3427085105
 20
38.1953151008
 40
153.2985603758
100
AcDbArc
 50
202.6573986475
 51
204.0734014668
  0
ARC
  5
2C0
100
AcDbEntity
  8
_30_VOLUMEN
100
AcDbCircle
 62
1
  6
HIDDEN
 10
-125.3427085105
 20
38.1953151008
 40
153.2985603758
100
AcDbArc
 50
335.9265985332
 51
337.3426013525
  0
ARC
  5
2C1
100
AcDbEntity
  8
_30_VOLUMEN
100
AcDbCircle
 62
1
  6
HIDDEN
 10
13.0012902025
 20
-60.9956429486
 40
30.5284475027
100
AcDbArc
 50
90.0024214516
 51
91.5760199542
  0
ARC
  5
2C2
100
AcDbEntity
  8
_30_VOLUMEN
100
AcDbCircle
 62
1
  6
HIDDEN
 10
13.0014191272
 20
57.0939454185
 40
26.9070277597
100
AcDbArc
 50
267.5609684455
 51
269.996978113
  0
SPLINE
  5
2C3
100
AcDbEntity
  8
_30_VOLUMEN
100
AcDbSpline
 62
1
  6
HIDDEN
 70
0
 71
3
 72
15
 73
11
 74
0
 42
0.0000001
 43
0.0000001
 44
0.0000000001
 40
0.0
 40
0.0
 40
0.0
 40
0.0
 40
0.1128771245
 40
0.2261861481
 40
0.341813276
 40
0.4617975639
 40
0.5877656972
 40
0.72030404
 40
0.8584984054
 40
1.0
 40
1.0
 40
1.0
 40
1.0
 10
5.8882860963
 20
-20.0
 30
0.0
 10
6.0181587934
 20
-20.3067477472
 30
0.0
 10
6.3162909701
 20
-20.9064656808
 30
0.0
 10
6.8905289159
 20
-21.7402325933
 30
0.0
 10
7.6029925998
 20
-22.4898787823
 30
0.0
 10
8.4580491799
 20
-23.1361218018
 30
0.0
 10
9.4495301099
 20
-23.6603270969
 30
0.0
 10
10.5590872312
 20
-24.0466066887
 30
0.0
 10
11.7559814595
 20
-24.2832697558
 30
0.0
 10
12.5824189623
 20
-24.3361870473
 30
0.0
 10
13.0
 20
-24.3361870473
 30
0.0
  0
LINE
  5
2C4
100
AcDbEntity
  8
_30_VOLUMEN
100
AcDbLine
 62
1
  6
HIDDEN
 10
19.875
 20
27.4603534583
 11
20.3636819436
 21
28.3497188759
  0
LINE
  5
2C5
100
AcDbEntity
  8
_30_VOLUMEN
100
AcDbLine
 62
1
  6
HIDDEN
 10
20.3636819436
 20
28.3497188759
 11
20.4523598955
 21
28.5108260281
  0
LINE
  5
2C6
100
AcDbEntity
  8
_30_VOLUMEN
100
AcDbLine
 62
1
  6
HIDDEN
 10
20.4523598955
 20
28.5108260281
 11
20.5292476371
 21
28.6504463399
  0
LINE
  5
2C7
100
AcDbEntity
  8
_30_VOLUMEN
100
AcDbLine
 62
1
  6
HIDDEN
 10
20.5292476371
 20
28.6504463399
 11
20.6154423742
 21
28.8068946081
  0
LINE
  5
2C8
100
AcDbEntity
  8
_30_VOLUMEN
100
AcDbLine
 62
1
  6
HIDDEN
 10
20.6154423742
 20
28.8068946081
 11
20.6962345795
 21
28.9534683553
  0
LINE
  5
2C9
100
AcDbEntity
  8
_30_VOLUMEN
100
AcDbLine
 62
1
  6
HIDDEN
 10
20.6962345795
 20
28.9534683553
 11
20.7764576616
 21
29.0989449127
  0
LINE
  5
2CA
100
AcDbEntity
  8
_30_VOLUMEN
100
AcDbLine
 62
1
  6
HIDDEN
 10
20.7764576616
 20
29.0989449127
 11
20.8645097635
 21
29.2585455961
  0
LINE
  5
2CB
100
AcDbEntity
  8
_30_VOLUMEN
100
AcDbLine
 62
1
  6
HIDDEN
 10
20.8645097635
 20
29.2585455961
 11
21.3774990748
 21
30.1869176962
  0
LINE
  5
2CC
100
AcDbEntity
  8
_30_VOLUMEN
100
AcDbLine
 62
1
  6
HIDDEN
 10
21.3774990748
 20
-30.4671954732
 11
20.8656988812
 21
-29.5497646385
  0
LINE
  5
2CD
100
AcDbEntity
  8
_30_VOLUMEN
100
AcDbLine
 62
1
  6
HIDDEN
 10
20.8656988812
 20
-29.5497646385
 11
20.7797941009
 21
-29.3955892208
  0
LINE
  5
2CE
100
AcDbEntity
  8
_30_VOLUMEN
100
AcDbLine
 62
1
  6
HIDDEN
 10
20.7797941009
 20
-29.3955892208
 11
20.6975510568
 21
-29.247933363
  0
LINE
  5
2CF
100
AcDbEntity
  8
_30_VOLUMEN
100
AcDbLine
 62
1
  6
HIDDEN
 10
20.6975510568
 20
-29.247933363
 11
20.6198604604
 21
-29.1084031107
  0
LINE
  5
2D0
100
AcDbEntity
  8
_30_VOLUMEN
100
AcDbLine
 62
1
  6
HIDDEN
 10
20.6198604604
 20
-29.1084031107
 11
20.5305723344
 21
-28.947985904
  0
LINE
  5
2D1
100
AcDbEntity
  8
_30_VOLUMEN
100
AcDbLine
 62
1
  6
HIDDEN
 10
20.5305723344
 20
-28.947985904
 11
20.455701608
 21
-28.8134227358
  0
LINE
  5
2D2
100
AcDbEntity
  8
_30_VOLUMEN
100
AcDbLine
 62
1
  6
HIDDEN
 10
20.455701608
 20
-28.8134227358
 11
20.3648759238
 21
-28.6501236981
  0
LINE
  5
2D3
100
AcDbEntity
  8
_30_VOLUMEN
100
AcDbLine
 62
1
  6
HIDDEN
 10
20.3648759238
 20
-28.6501236981
 11
19.875
 21
-27.7681654427
  0
LINE
  5
2D4
100
AcDbEntity
  8
_30_VOLUMEN
100
AcDbLine
 62
1
  6
HIDDEN
 10
16.125
 20
27.4603534583
 11
15.6363180564
 21
28.3497188759
  0
LINE
  5
2D5
100
AcDbEntity
  8
_30_VOLUMEN
100
AcDbLine
 62
1
  6
HIDDEN
 10
15.6363180564
 20
28.3497188759
 11
15.5476401083
 21
28.5108260213
  0
LINE
  5
2D6
100
AcDbEntity
  8
_30_VOLUMEN
100
AcDbLine
 62
1
  6
HIDDEN
 10
15.5476401083
 20
28.5108260213
 11
15.4707523629
 21
28.65044634
  0
LINE
  5
2D7
100
AcDbEntity
  8
_30_VOLUMEN
100
AcDbLine
 62
1
  6
HIDDEN
 10
15.4707523629
 20
28.65044634
 11
15.3845576293
 21
28.8068946018
  0
LINE
  5
2D8
100
AcDbEntity
  8
_30_VOLUMEN
100
AcDbLine
 62
1
  6
HIDDEN
 10
15.3845576293
 20
28.8068946018
 11
15.3037654205
 21
28.9534683553
  0
LINE
  5
2D9
100
AcDbEntity
  8
_30_VOLUMEN
100
AcDbLine
 62
1
  6
HIDDEN
 10
15.3037654205
 20
28.9534683553
 11
15.2235423414
 21
29.0989449072
  0
LINE
  5
2DA
100
AcDbEntity
  8
_30_VOLUMEN
100
AcDbLine
 62
1
  6
HIDDEN
 10
15.2235423414
 20
29.0989449072
 11
15.1354902365
 21
29.2585455961
  0
LINE
  5
2DB
100
AcDbEntity
  8
_30_VOLUMEN
100
AcDbLine
 62
1
  6
HIDDEN
 10
15.1354902365
 20
29.2585455961
 11
14.6225009252
 21
30.1869176962
  0
LINE
  5
2DC
100
AcDbEntity
  8
_30_VOLUMEN
100
AcDbLine
 62
1
  6
HIDDEN
 10
14.6225009252
 20
-30.4671954732
 11
15.1343011188
 21
-29.5497646384
  0
LINE
  5
2DD
100
AcDbEntity
  8
_30_VOLUMEN
100
AcDbLine
 62
1
  6
HIDDEN
 10
15.1343011188
 20
-29.5497646384
 11
15.2202058736
 21
-29.3955892665
  0
LINE
  5
2DE
100
AcDbEntity
  8
_30_VOLUMEN
100
AcDbLine
 62
1
  6
HIDDEN
 10
15.2202058736
 20
-29.3955892665
 11
15.3024489432
 21
-29.2479333629
  0
LINE
  5
2DF
100
AcDbEntity
  8
_30_VOLUMEN
100
AcDbLine
 62
1
  6
HIDDEN
 10
15.3024489432
 20
-29.2479333629
 11
15.3801395191
 21
-29.1084031476
  0
LINE
  5
2E0
100
AcDbEntity
  8
_30_VOLUMEN
100
AcDbLine
 62
1
  6
HIDDEN
 10
15.3801395191
 20
-29.1084031476
 11
15.4694276656
 21
-28.947985904
  0
LINE
  5
2E1
100
AcDbEntity
  8
_30_VOLUMEN
100
AcDbLine
 62
1
  6
HIDDEN
 10
15.4694276656
 20
-28.947985904
 11
15.544298355
 21
-28.8134228024
  0
LINE
  5
2E2
100
AcDbEntity
  8
_30_VOLUMEN
100
AcDbLine
 62
1
  6
HIDDEN
 10
15.544298355
 20
-28.8134228024
 11
15.6351240762
 21
-28.650123698
  0
LINE
  5
2E3
100
AcDbEntity
  8
_30_VOLUMEN
100
AcDbLine
 62
1
  6
HIDDEN
 10
15.6351240762
 20
-28.650123698
 11
16.125
 21
-27.7681654427
  0
SPLINE
  5
2E4
100
AcDbEntity
  8
_30_VOLUMEN
100
AcDbSpline
 62
1
  6
HIDDEN
 70
0
 71
3
 72
9
 73
5
 74
0
 42
0.0000001
 43
0.0000001
 44
0.0000000001
 40
0.0
 40
0.0
 40
0.0
 40
0.0
 40
0.3388695136
 40
1.0
 40
1.0
 40
1.0
 40
1.0
 10
5.0
 20
31.4841229829
 30
0.0
 10
5.0
 20
31.4783945642
 30
0.0
 10
5.0135913123
 20
31.4644952011
 30
0.0
 10
5.0270807408
 20
31.4561088858
 30
0.0
 10
5.0367318275
 20
31.4504731736
 30
0.0
  0
SPLINE
  5
2E5
100
AcDbEntity
  8
_30_VOLUMEN
100
AcDbSpline
 62
1
  6
HIDDEN
 70
0
 71
3
 72
9
 73
5
 74
0
 42
0.0000001
 43
0.0000001
 44
0.0000000001
 40
0.0
 40
0.0
 40
0.0
 40
0.0
 40
0.2171224493
 40
1.0
 40
1.0
 40
1.0
 40
1.0
 10
5.0367318275
 20
31.4504731736
 30
0.0
 10
5.0399291717
 20
31.4486060977
 30
0.0
 10
5.0547958559
 20
31.4402477717
 30
0.0
 10
5.0700930982
 20
31.4326780136
 30
0.0
 10
5.0821647616
 20
31.4269766084
 30
0.0
  0
SPLINE
  5
2E6
100
AcDbEntity
  8
_30_VOLUMEN
100
AcDbSpline
 62
1
  6
HIDDEN
 70
0
 71
3
 72
9
 73
5
 74
0
 42
0.0000001
 43
0.0000001
 44
0.0000000001
 40
0.0
 40
0.0
 40
0.0
 40
0.0
 40
0.6576023977
 40
1.0
 40
1.0
 40
1.0
 40
1.0
 10
12.1616581074
 20
-30.4787439438
 30
0.0
 10
10.5963266081
 20
-30.5217477927
 30
0.0
 10
8.2168550761
 20
-30.7734547942
 30
0.0
 10
5.8881266215
 20
-31.2768814789
 30
0.0
 10
5.0973313209
 20
-31.4754217177
 30
0.0
  0
LINE
  5
2E7
100
AcDbEntity
  8
_30_VOLUMEN
100
AcDbLine
 62
1
  6
HIDDEN
 10
5.0973313209
 20
-31.4754217177
 11
5.0
 21
-31.5
  0
SPLINE
  5
2E8
100
AcDbEntity
  8
_30_VOLUMEN
100
AcDbSpline
 62
4
  6
CONTINUOUS
 70
0
 71
3
 72
23
 73
19
 74
0
 42
0.0000001
 43
0.0000001
 44
0.0000000001
 40
0.0
 40
0.0
 40
0.0
 40
0.0
 40
0.1926043819
 40
0.3777911696
 40
0.5487270253
 40
0.6269236748
 40
0.6993287105
 40
0.7652838125
 40
0.8241614018
 40
0.8753667085
 40
0.9183488512
 40
0.9526128784
 40
0.9663415752
 40
0.9777452397
 40
0.9867940155
 40
0.9934703714
 40
0.9978037465
 40
1.0
 40
1.0
 40
1.0
 40
1.0
 10
13.0
 20
30.1869176962
 30
0.0
 10
12.4765833085
 20
30.1869176962
 30
0.0
 10
11.4496470783
 20
30.2169995878
 30
0.0
 10
9.96330162
 20
30.3459374991
 30
0.0
 10
8.7940096262
 20
30.5109111051
 30
0.0
 10
7.9339513469
 20
30.665657777
 30
0.0
 10
7.3572813626
 20
30.7833776714
 30
0.0
 10
6.8345813194
 20
30.9022705522
 30
0.0
 10
6.3704647277
 20
31.0184230398
 30
0.0
 10
5.9691605082
 20
31.1280418159
 30
0.0
 10
5.6345812336
 20
31.2276338928
 30
0.0
 10
5.3994449049
 20
31.3042935602
 30
0.0
 10
5.2475508906
 20
31.3587608108
 30
0.0
 10
5.1607937588
 20
31.3923586835
 30
0.0
 10
5.0932685004
 20
31.4211014789
 30
0.0
 10
5.0436485079
 20
31.4457715971
 30
0.0
 10
5.0145160937
 20
31.4637857067
 30
0.0
 10
5.0
 20
31.4781545011
 30
0.0
 10
5.0
 20
31.4841229829
 30
0.0
  0
SPLINE
  5
2E9
100
AcDbEntity
  8
_30_VOLUMEN
100
AcDbSpline
 62
4
  6
CONTINUOUS
 70
0
 71
3
 72
29
 73
25
 74
0
 42
0.0000001
 43
0.0000001
 44
0.0000000001
 40
0.0
 40
0.0
 40
0.0
 40
0.0
 40
0.0003106078
 40
0.0012412987
 40
0.0027903671
 40
0.0049561087
 40
0.0077368195
 40
0.0111307966
 40
0.019749352
 40
0.0307796795
 40
0.0441831009
 40
0.0599201386
 40
0.0779401762
 40
0.0981850089
 40
0.1205963527
 40
0.1716546311
 40
0.2305494101
 40
0.2966697191
 40
0.3693686161
 40
0.4479593183
 40
0.5317238481
 40
0.6199059859
 40
0.8062239155
 40
1.0
 40
1.0
 40
1.0
 40
1.0
 10
5.0
 20
-31.5
 30
0.0
 10
4.9994835745
 20
-31.5006590766
 30
0.0
 10
5.0059568091
 20
-31.4977249647
 30
0.0
 10
5.0101291066
 20
-31.4979051179
 30
0.0
 10
5.0240425487
 20
-31.4936682977
 30
0.0
 10
5.0402344808
 20
-31.4898850116
 30
0.0
 10
5.0623374801
 20
-31.4841873353
 30
0.0
 10
5.1008661211
 20
-31.4745509976
 30
0.0
 10
5.1612147126
 20
-31.459394578
 30
0.0
 10
5.247650914
 20
-31.4379655695
 30
0.0
 10
5.3528408226
 20
-31.4121776455
 30
0.0
 10
5.4764051685
 20
-31.3823014729
 30
0.0
 10
5.6180292465
 20
-31.3486167996
 30
0.0
 10
5.7773195632
 20
-31.3114691522
 30
0.0
 10
6.023616412
 20
-31.2552728152
 30
0.0
 10
6.372148948
 20
-31.178804621
 30
0.0
 10
6.8370360993
 20
-31.0830078669
 30
0.0
 10
7.3605934364
 20
-30.9831333291
 30
0.0
 10
7.938064366
 20
-30.8829246766
 30
0.0
 10
8.5643062202
 20
-30.78616352
 30
0.0
 10
9.2337590376
 20
-30.6965460574
 30
0.0
 10
10.1936307238
 20
-30.589339701
 30
0.0
 10
11.4528347756
 20
-30.4935906666
 30
0.0
 10
12.4776390245
 20
-30.4671954732
 30
0.0
 10
13.0
 20
-30.4671954732
 30
0.0
  0
ENDSEC
  0
SECTION
  2
OBJECTS
  0
DICTIONARY
  5
C
100
AcDbDictionary
280
0
281
1
  3
ACAD_GROUP
350
D
  3
ACAD_MLINESTYLE
350
17
  3
ACAD_LAYOUT
350
1A
  3
ACAD_PLOTSETTINGS
350
19
  3
ACAD_PLOTSTYLENAME
350
E
  0
DICTIONARY
  5
D
102
{ACAD_REACTORS
330
C
102
}
100
AcDbDictionary
280
0
281
1
  0
ACDBDICTIONARYWDFLT
  5
E
102
{ACAD_REACTORS
330
C
102
}
100
AcDbDictionary
281
1
  3
Normal
350
F
100
AcDbDictionaryWithDefault
340
F
  0
DICTIONARY
  5
17
102
{ACAD_REACTORS
330
C
102
}
100
AcDbDictionary
280
0
281
1
  3
Standard
350
18
  0
DICTIONARY
  5
19
102
{ACAD_REACTORS
330
C
102
}
100
AcDbDictionary
281
1
  0
DICTIONARY
  5
1A
102
{ACAD_REACTORS
330
C
102
}
100
AcDbDictionary
281
1
  3
Model
350
2EA
  3
Layout1
350
2EB
  0
ACDBPLACEHOLDER
  5
F
102
{ACAD_REACTORS
330
E
102
}
  0
MLINESTYLE
  5
18
102
{ACAD_REACTORS
330
17
102
}
100
AcDbMlineStyle
  2
STANDARD
 70
0
  3

 62
256
 51
90.0
 52
90.0
 71
2
 49
0.5
 62
256
  6
BYLAYER
 49
-0.5
 62
256
  6
BYLAYER
  0
LAYOUT
  5
2EA
102
{ACAD_REACTORS
330
1A
102
}
100
AcDbPlotSettings
  1

  2
none_device
  4
ISO_A3_(420.00_x_297.00_MM)
  6

 40
0.0
 41
0.0
 42
0.0
 43
0.0
 44
420.0
 45
297.0
 46
0.0
 47
0.0
 48
0.0
 49
0.0
140
0.0
141
0.0
142
1.0
143
1.0
 70
1024
 72
1
 73
0
 74
0
  7

 75
0
147
1.0
148
0.0
149
0.0
100
AcDbLayout
  1
Model
 70
0
 71
0
 10
0.0
 20
0.0
 11
420.0
 21
297.0
 12
0.0
 22
0.0
 32
0.0
 14
0.0
 24
0.0
 34
0.0
 15
0.0
 25
0.0
 35
0.0
146
0.0
 13
0.0
 23
0.0
 33
0.0
 16
1.0
 26
0.0
 36
0.0
 17
0.0
 27
1.0
 37
0.0
 76
0
330
20D
345
0
346
0
  0
LAYOUT
  5
2EB
102
{ACAD_REACTORS
330
1A
102
}
100
AcDbPlotSettings
  1

  2
none_device
  4
ISO_A3_(420.00_x_297.00_MM)
  6

 40
0.0
 41
0.0
 42
0.0
 43
0.0
 44
420.0
 45
297.0
 46
0.0
 47
0.0
 48
0.0
 49
0.0
140
0.0
141
0.0
142
1.0
143
1.0
 70
0
 72
1
 73
0
 74
0
  7

 75
0
147
1.0
148
0.0
149
0.0
100
AcDbLayout
  1
Layout1
 70
0
 71
1
 10
0.0
 20
0.0
 11
420.0
 21
297.0
 12
0.0
 22
0.0
 32
0.0
 14
0.0
 24
0.0
 34
0.0
 15
0.0
 25
0.0
 35
0.0
146
0.0
 13
0.0
 23
0.0
 33
0.0
 16
1.0
 26
0.0
 36
0.0
 17
0.0
 27
1.0
 37
0.0
 76
0
330
20E
345
0
346
0
  0
ENDSEC
  0
EOF
