  0
SECTION
  2
HEADER
  9
$ACADVER
  1
AC1021
  9
$ACADMAINTVER
 70
    25
  9
$DWGCODEPAGE
  3
ANSI_1252
  9
$INSBASE
 10
0.0
 20
0.0
 30
0.0
  9
$EXTMIN
 10
0.0
 20
0.0
 30
0.0
  9
$EXTMAX
 10
297.0
 20
210.0
 30
0.0
  9
$LIMMIN
 10
0.0
 20
0.0
  9
$LIMMAX
 10
297.0
 20
210.0
  9
$ORTHOMODE
 70
     0
  9
$REGENMODE
 70
     1
  9
$FILLMODE
 70
     1
  9
$QTEXTMODE
 70
     0
  9
$MIRRTEXT
 70
     1
  9
$LTSCALE
 40
1.0
  9
$ATTMODE
 70
     1
  9
$TEXTSIZE
 40
3.5
  9
$TRACEWID
 40
1.0
  9
$TEXTSTYLE
  7
Standard
  9
$CLAYER
  8
0
  9
$CELTYPE
  6
ByLayer
  9
$CECOLOR
 62
   256
  9
$CELTSCALE
 40
1.0
  9
$DISPSILH
 70
     0
  9
$DIMSCALE
 40
1.0
  9
$DIMASZ
 40
3.302
  9
$DIMEXO
 40
1.0
  9
$DIMDLI
 40
3.75
  9
$DIMRND
 40
0.0
  9
$DIMDLE
 40
0.0
  9
$DIMEXE
 40
1.0
  9
$DIMTP
 40
0.0
  9
$DIMTM
 40
0.0
  9
$DIMTXT
 40
3.5
  9
$DIMCEN
 40
2.5
  9
$DIMTSZ
 40
0.0
  9
$DIMTOL
 70
     0
  9
$DIMLIM
 70
     0
  9
$DIMTIH
 70
     1
  9
$DIMTOH
 70
     1
  9
$DIMSE1
 70
     0
  9
$DIMSE2
 70
     0
  9
$DIMTAD
 70
     1
  9
$DIMZIN
 70
     0
  9
$DIMBLK
  1

  9
$DIMASO
 70
     1
  9
$DIMSHO
 70
     1
  9
$DIMPOST
  1

  9
$DIMAPOST
  1

  9
$DIMALT
 70
     0
  9
$DIMALTD
 70
     3
  9
$DIMALTF
 40
0.0393700787
  9
$DIMLFAC
 40
1.0
  9
$DIMTOFL
 70
     1
  9
$DIMTVP
 40
0.0
  9
$DIMTIX
 70
     0
  9
$DIMSOXD
 70
     0
  9
$DIMSAH
 70
     0
  9
$DIMBLK1
  1

  9
$DIMBLK2
  1

  9
$DIMSTYLE
  2
ISO-25
  9
$DIMCLRD
 70
     0
  9
$DIMCLRE
 70
     0
  9
$DIMCLRT
 70
     0
  9
$DIMTFAC
 40
1.0
  9
$DIMGAP
 40
1.524
  9
$DIMJUST
 70
     0
  9
$DIMSD1
 70
     0
  9
$DIMSD2
 70
     0
  9
$DIMTOLJ
 70
     0
  9
$DIMTZIN
 70
     0
  9
$DIMALTZ
 70
     0
  9
$DIMALTTZ
 70
     0
  9
$DIMUPT
 70
     0
  9
$DIMDEC
 70
     2
  9
$DIMTDEC
 70
     2
  9
$DIMALTU
 70
     2
  9
$DIMALTTD
 70
     3
  9
$DIMTXSTY
  7
Standard
  9
$DIMAUNIT
 70
     0
  9
$DIMADEC
 70
     2
  9
$DIMALTRND
 40
0.0
  9
$DIMAZIN
 70
     0
  9
$DIMDSEP
 70
    44
  9
$DIMATFIT
 70
     3
  9
$DIMFRAC
 70
     0
  9
$DIMLDRBLK
  1

  9
$DIMLUNIT
 70
     2
  9
$DIMLWD
 70
    -2
  9
$DIMLWE
 70
    -2
  9
$DIMTMOVE
 70
     0
  9
$DIMFXL
 40
1.0
  9
$DIMFXLON
 70
     0
  9
$DIMJOGANG
 40
0.7853981634
  9
$DIMTFILL
 70
     0
  9
$DIMTFILLCLR
 70
     0
  9
$DIMARCSYM
 70
     0
  9
$DIMLTYPE
  6

  9
$DIMLTEX1
  6

  9
$DIMLTEX2
  6

  9
$LUNITS
 70
     2
  9
$LUPREC
 70
     2
  9
$SKETCHINC
 40
1.0
  9
$FILLETRAD
 40
10.0
  9
$AUNITS
 70
     0
  9
$AUPREC
 70
     2
  9
$MENU
  1
.
  9
$ELEVATION
 40
0.0
  9
$PELEVATION
 40
0.0
  9
$THICKNESS
 40
0.0
  9
$LIMCHECK
 70
     0
  9
$CHAMFERA
 40
10.0
  9
$CHAMFERB
 40
10.0
  9
$CHAMFERC
 40
20.0
  9
$CHAMFERD
 40
0.0
  9
$SKPOLY
 70
     0
  9
$TDCREATE
 40
2456455.363718032
  9
$TDUCREATE
 40
2456455.280384699
  9
$TDUPDATE
 40
2456455.3637186
  9
$TDUUPDATE
 40
2456455.280385266
  9
$TDINDWG
 40
0.0000000116
  9
$TDUSRTIMER
 40
0.0000000116
  9
$USRTIMER
 70
     1
  9
$ANGBASE
 50
0.0
  9
$ANGDIR
 70
     0
  9
$PDMODE
 70
     0
  9
$PDSIZE
 40
-1.0
  9
$PLINEWID
 40
0.0
  9
$SPLFRAME
 70
     0
  9
$SPLINETYPE
 70
     6
  9
$SPLINESEGS
 70
     8
  9
$HANDSEED
  5
153
  9
$SURFTAB1
 70
     6
  9
$SURFTAB2
 70
     6
  9
$SURFTYPE
 70
     6
  9
$SURFU
 70
     6
  9
$SURFV
 70
     6
  9
$UCSBASE
  2

  9
$UCSNAME
  2

  9
$UCSORG
 10
0.0
 20
0.0
 30
0.0
  9
$UCSXDIR
 10
1.0
 20
0.0
 30
0.0
  9
$UCSYDIR
 10
0.0
 20
1.0
 30
0.0
  9
$UCSORTHOREF
  2

  9
$UCSORTHOVIEW
 70
     0
  9
$UCSORGTOP
 10
0.0
 20
0.0
 30
0.0
  9
$UCSORGBOTTOM
 10
0.0
 20
0.0
 30
0.0
  9
$UCSORGLEFT
 10
0.0
 20
0.0
 30
0.0
  9
$UCSORGRIGHT
 10
0.0
 20
0.0
 30
0.0
  9
$UCSORGFRONT
 10
0.0
 20
0.0
 30
0.0
  9
$UCSORGBACK
 10
0.0
 20
0.0
 30
0.0
  9
$PUCSBASE
  2

  9
$PUCSNAME
  2

  9
$PUCSORG
 10
0.0
 20
0.0
 30
0.0
  9
$PUCSXDIR
 10
1.0
 20
0.0
 30
0.0
  9
$PUCSYDIR
 10
0.0
 20
1.0
 30
0.0
  9
$PUCSORTHOREF
  2

  9
$PUCSORTHOVIEW
 70
     0
  9
$PUCSORGTOP
 10
0.0
 20
0.0
 30
0.0
  9
$PUCSORGBOTTOM
 10
0.0
 20
0.0
 30
0.0
  9
$PUCSORGLEFT
 10
0.0
 20
0.0
 30
0.0
  9
$PUCSORGRIGHT
 10
0.0
 20
0.0
 30
0.0
  9
$PUCSORGFRONT
 10
0.0
 20
0.0
 30
0.0
  9
$PUCSORGBACK
 10
0.0
 20
0.0
 30
0.0
  9
$USERI1
 70
     0
  9
$USERI2
 70
     0
  9
$USERI3
 70
     0
  9
$USERI4
 70
     0
  9
$USERI5
 70
     0
  9
$USERR1
 40
0.0
  9
$USERR2
 40
0.0
  9
$USERR3
 40
0.0
  9
$USERR4
 40
0.0
  9
$USERR5
 40
0.0
  9
$WORLDVIEW
 70
     1
  9
$SHADEDGE
 70
     3
  9
$SHADEDIF
 70
    70
  9
$TILEMODE
 70
     1
  9
$MAXACTVP
 70
    64
  9
$PINSBASE
 10
0.0
 20
0.0
 30
0.0
  9
$PLIMCHECK
 70
     0
  9
$PEXTMIN
 10
1.0000000000E+20
 20
1.0000000000E+20
 30
1.0000000000E+20
  9
$PEXTMAX
 10
-1.0000000000E+20
 20
-1.0000000000E+20
 30
-1.0000000000E+20
  9
$PLIMMIN
 10
0.0
 20
0.0
  9
$PLIMMAX
 10
420.0
 20
297.0
  9
$UNITMODE
 70
     0
  9
$VISRETAIN
 70
     1
  9
$PLINEGEN
 70
     0
  9
$PSLTSCALE
 70
     1
  9
$TREEDEPTH
 70
  3020
  9
$CMLSTYLE
  2
Standard
  9
$CMLJUST
 70
     0
  9
$CMLSCALE
 40
20.0
  9
$PROXYGRAPHICS
 70
     1
  9
$MEASUREMENT
 70
     1
  9
$CELWEIGHT
370
    -1
  9
$ENDCAPS
280
     0
  9
$JOINSTYLE
280
     0
  9
$LWDISPLAY
290
     1
  9
$INSUNITS
 70
     4
  9
$HYPERLINKBASE
  1

  9
$STYLESHEET
  1

  9
$XEDIT
290
     1
  9
$CEPSNTYPE
380
     0
  9
$PSTYLEMODE
290
     1
  9
$FINGERPRINTGUID
  2
{E58BA1FE-891B-4153-9FC5-1232607CC0E7}
  9
$VERSIONGUID
  2
{FAEB1C32-E019-11D5-929B-00C0DF256EC4}
  9
$EXTNAMES
290
     1
  9
$PSVPSCALE
 40
0.0
  9
$OLESTARTUP
290
     0
  9
$SORTENTS
280
   127
  9
$INDEXCTL
280
     0
  9
$HIDETEXT
280
     1
  9
$XCLIPFRAME
290
     0
  9
$HALOGAP
280
     0
  9
$OBSCOLOR
 70
   257
  9
$OBSLTYPE
280
     0
  9
$INTERSECTIONDISPLAY
280
     0
  9
$INTERSECTIONCOLOR
 70
   257
  9
$DIMASSOC
280
     2
  9
$PROJECTNAME
  1

  9
$CAMERADISPLAY
290
     0
  9
$LENSLENGTH
 40
50.0
  9
$CAMERAHEIGHT
 40
0.0
  9
$STEPSPERSEC
 40
2.0
  9
$STEPSIZE
 40
6.0
  9
$3DDWFPREC
 40
2.0
  9
$PSOLWIDTH
 40
5.0
  9
$PSOLHEIGHT
 40
80.0
  9
$LOFTANG1
 40
1.5707963268
  9
$LOFTANG2
 40
1.5707963268
  9
$LOFTMAG1
 40
0.0
  9
$LOFTMAG2
 40
0.0
  9
$LOFTPARAM
 70
     7
  9
$LOFTNORMALS
280
     1
  9
$LATITUDE
 40
37.795
  9
$LONGITUDE
 40
-122.394
  9
$NORTHDIRECTION
 40
0.0
  9
$TIMEZONE
 70
 -8000
  9
$LIGHTGLYPHDISPLAY
280
     1
  9
$TILEMODELIGHTSYNCH
280
     1
  9
$SOLIDHIST
280
     1
  9
$SHOWHIST
280
     1
  9
$DWFFRAME
280
     2
  9
$DGNFRAME
280
     2
  9
$REALWORLDSCALE
290
     1
  9
$INTERFERECOLOR
 62
   256
  9
$CSHADOW
280
     0
  9
$SHADOWPLANELOCATION
 40
0.0
  0
ENDSEC
  0
SECTION
  2
CLASSES
  0
CLASS
  1
ACDBDICTIONARYWDFLT
  2
AcDbDictionaryWithDefault
  3
ObjectDBX Classes
 90
        0
 91
        4
280
     0
281
     0
  0
CLASS
  1
VISUALSTYLE
  2
AcDbVisualStyle
  3
ObjectDBX Classes
 90
     4095
 91
        4
280
     0
281
     0
  0
CLASS
  1
MATERIAL
  2
AcDbMaterial
  3
ObjectDBX Classes
 90
     1153
 91
        4
280
     0
281
     0
  0
ENDSEC
  0
SECTION
  2
TABLES
  0
TABLE
  2
VPORT
  5
8
330
0
100
AcDbSymbolTable
 70
     1
  0
VPORT
  5
29
330
8
100
AcDbSymbolTableRecord
100
AcDbViewportTableRecord
  2
*Active
 70
     0
 10
0.0
 20
0.0
 11
1.0
 21
1.0
 12
148.5
 22
105.0
 13
0.0
 23
0.0
 14
10.0
 24
10.0
 15
10.0
 25
10.0
 16
0.0
 26
0.0
 36
1.0
 17
0.0
 27
0.0
 37
0.0
 40
210.0
 41
1.4142857143
 42
50.0
 43
0.0
 44
0.0
 50
0.0
 51
0.0
 71
     0
 72
  2000
 73
     1
 74
     3
 75
     0
 76
     0
 77
     0
 78
     0
281
     0
 65
     1
110
0.0
120
0.0
130
0.0
111
1.0
121
0.0
131
0.0
112
0.0
122
1.0
132
0.0
 79
     0
146
0.0
 60
     3
 61
     5
292
     1
282
     1
141
0.0
142
0.0
 63
   250
  0
ENDTAB
  0
TABLE
  2
LTYPE
  5
5
330
0
100
AcDbSymbolTable
 70
     8
  0
LTYPE
  5
14
330
5
100
AcDbSymbolTableRecord
100
AcDbLinetypeTableRecord
  2
ByBlock
 70
     0
  3

 72
    65
 73
     0
 40
0.0
  0
LTYPE
  5
15
330
5
100
AcDbSymbolTableRecord
100
AcDbLinetypeTableRecord
  2
ByLayer
 70
     0
  3

 72
    65
 73
     0
 40
0.0
  0
LTYPE
  5
16
330
5
100
AcDbSymbolTableRecord
100
AcDbLinetypeTableRecord
  2
Continuous
 70
     0
  3
Solid line
 72
    65
 73
     0
 40
0.0
  0
LTYPE
  5
3F
330
5
100
AcDbSymbolTableRecord
100
AcDbLinetypeTableRecord
  2
SLD-Durchgehend
 70
     0
  3
SolidWorks Line Style
 72
    65
 73
     0
 40
0.0
  0
LTYPE
  5
40
330
5
100
AcDbSymbolTableRecord
100
AcDbLinetypeTableRecord
  2
SLD-Gestrichelt
 70
     0
  3
SolidWorks Line Style
 72
    65
 73
     2
 40
1.905
 49
1.27
 74
     0
 49
-0.635
 74
     0
  0
LTYPE
  5
41
330
5
100
AcDbSymbolTableRecord
100
AcDbLinetypeTableRecord
  2
SLD-Phantom
 70
     0
  3
SolidWorks Line Style
 72
    65
 73
     6
 40
12.7
 49
6.35
 74
     0
 49
-1.27
 74
     0
 49
1.27
 74
     0
 49
-1.27
 74
     0
 49
1.27
 74
     0
 49
-1.27
 74
     0
  0
LTYPE
  5
42
330
5
100
AcDbSymbolTableRecord
100
AcDbLinetypeTableRecord
  2
SLD-Kette
 70
     0
  3
SolidWorks Line Style
 72
    65
 73
     4
 40
10.16
 49
6.35
 74
     0
 49
-1.27
 74
     0
 49
1.27
 74
     0
 49
-1.27
 74
     0
  0
LTYPE
  5
43
330
5
100
AcDbSymbolTableRecord
100
AcDbLinetypeTableRecord
  2
SLD-Punktstrich
 70
     0
  3
SolidWorks Line Style
 72
    65
 73
     4
 40
19.05
 49
15.24
 74
     0
 49
-1.27
 74
     0
 49
1.27
 74
     0
 49
-1.27
 74
     0
  0
LTYPE
  5
44
330
5
100
AcDbSymbolTableRecord
100
AcDbLinetypeTableRecord
  2
SLD-Naht
 70
     0
  3
SolidWorks Line Style
 72
    65
 73
     2
 40
0.635
 49
0.0
 74
     0
 49
-0.635
 74
     0
  0
LTYPE
  5
45
330
5
100
AcDbSymbolTableRecord
100
AcDbLinetypeTableRecord
  2
SLD-Dicke-Dünne-Kette
 70
     0
  3
SolidWorks Line Style
 72
    65
 73
     4
 40
10.16
 49
6.35
 74
     0
 49
-1.27
 74
     0
 49
1.27
 74
     0
 49
-1.27
 74
     0
  0
ENDTAB
  0
TABLE
  2
LAYER
  5
2
330
0
100
AcDbSymbolTable
 70
     3
  0
LAYER
  5
10
330
2
100
AcDbSymbolTableRecord
100
AcDbLayerTableRecord
  2
0
 70
     0
 62
     7
  6
Continuous
370
    -3
390
F
347
3E
  0
LAYER
  5
46
330
2
100
AcDbSymbolTableRecord
100
AcDbLayerTableRecord
  2
1
 70
     0
 62
     4
  6
Continuous
370
    -1
390
F
347
3E
  0
LAYER
  5
47
330
2
100
AcDbSymbolTableRecord
100
AcDbLayerTableRecord
  2
2
 70
     0
 62
     7
  6
SLD-Durchgehend
370
    -3
390
F
347
3E
  0
ENDTAB
  0
TABLE
  2
STYLE
  5
3
330
0
100
AcDbSymbolTable
 70
     2
  0
STYLE
  5
11
330
3
100
AcDbSymbolTableRecord
100
AcDbTextStyleTableRecord
  2
Standard
 70
     0
 40
0.0
 41
1.0
 50
0.0
 71
     0
 42
3.5
  3
txt
  4

  0
STYLE
  5
12F
330
3
100
AcDbSymbolTableRecord
100
AcDbTextStyleTableRecord
  2
SLDTEXTSTYLE0
 70
     0
 40
0.0
 41
0.75
 50
0.0
 71
     0
 42
0.2
  3
TXT
  4

  0
ENDTAB
  0
TABLE
  2
VIEW
  5
6
330
0
100
AcDbSymbolTable
 70
     0
  0
ENDTAB
  0
TABLE
  2
UCS
  5
7
330
0
100
AcDbSymbolTable
 70
     0
  0
ENDTAB
  0
TABLE
  2
APPID
  5
9
330
0
100
AcDbSymbolTable
 70
     1
  0
APPID
  5
12
330
9
100
AcDbSymbolTableRecord
100
AcDbRegAppTableRecord
  2
ACAD
 70
     0
  0
ENDTAB
  0
TABLE
  2
DIMSTYLE
  5
A
330
0
100
AcDbSymbolTable
 70
     2
100
AcDbDimStyleTable
  0
DIMSTYLE
105
27
330
A
100
AcDbSymbolTableRecord
100
AcDbDimStyleTableRecord
  2
ISO-25
 70
     0
 41
2.5
 42
0.625
 43
3.75
 44
1.25
 73
     0
 74
     0
 77
     1
 78
     8
140
2.5
141
2.5
143
0.0393700787
147
0.625
171
     3
172
     1
178
     0
271
     2
272
     2
274
     3
278
    44
283
     0
284
     8
340
11
  0
DIMSTYLE
105
130
102
{ACAD_REACTORS
330
12E
330
13A
330
144
102
}
330
A
100
AcDbSymbolTableRecord
100
AcDbDimStyleTableRecord
  2
SLDDIMSTYLE0
 70
     0
 41
3.302
 44
0.0
 45
0.000000001
 73
     0
 74
     0
 77
     1
 78
    12
 79
     3
140
3.5
147
0.875
173
     1
178
     0
271
     2
272
     2
276
     2
284
    12
340
12F
  0
ENDTAB
  0
TABLE
  2
BLOCK_RECORD
  5
1
330
0
100
AcDbSymbolTable
 70
     4
  0
BLOCK_RECORD
  5
1F
330
1
100
AcDbSymbolTableRecord
100
AcDbBlockTableRecord
  2
*Model_Space
340
22
 70
     0
280
     1
281
     0
  0
BLOCK_RECORD
  5
1B
330
1
100
AcDbSymbolTableRecord
100
AcDbBlockTableRecord
  2
*Paper_Space
340
1E
 70
     0
280
     1
281
     0
  0
BLOCK_RECORD
  5
23
330
1
100
AcDbSymbolTableRecord
100
AcDbBlockTableRecord
  2
*Paper_Space0
340
26
 70
     0
280
     1
281
     0
  0
BLOCK_RECORD
  5
131
330
1
100
AcDbSymbolTableRecord
100
AcDbBlockTableRecord
  2
_D
340
0
 70
     0
280
     1
281
     0
  0
BLOCK_RECORD
  5
13B
330
1
100
AcDbSymbolTableRecord
100
AcDbBlockTableRecord
  2
_D_1
340
0
 70
     0
280
     1
281
     0
  0
BLOCK_RECORD
  5
145
330
1
100
AcDbSymbolTableRecord
100
AcDbBlockTableRecord
  2
_D_2
340
0
 70
     0
280
     1
281
     0
  0
ENDTAB
  0
ENDSEC
  0
SECTION
  2
BLOCKS
  0
BLOCK
  5
20
330
1F
100
AcDbEntity
  8
0
100
AcDbBlockBegin
  2
*Model_Space
 70
     0
 10
0.0
 20
0.0
 30
0.0
  3
*Model_Space
  1

  0
ENDBLK
  5
21
330
1F
100
AcDbEntity
  8
0
100
AcDbBlockEnd
  0
BLOCK
  5
1C
330
1B
100
AcDbEntity
 67
     1
  8
0
100
AcDbBlockBegin
  2
*Paper_Space
 70
     0
 10
0.0
 20
0.0
 30
0.0
  3
*Paper_Space
  1

  0
ENDBLK
  5
1D
330
1B
100
AcDbEntity
 67
     1
  8
0
100
AcDbBlockEnd
  0
BLOCK
  5
24
330
23
100
AcDbEntity
  8
0
100
AcDbBlockBegin
  2
*Paper_Space0
 70
     0
 10
0.0
 20
0.0
 30
0.0
  3
*Paper_Space0
  1

  0
ENDBLK
  5
25
330
23
100
AcDbEntity
  8
0
100
AcDbBlockEnd
  0
BLOCK
  5
132
330
131
100
AcDbEntity
  8
0
100
AcDbBlockBegin
  2
_D
 70
     0
 10
0.0
 20
0.0
 30
0.0
  3
_D
  1

  0
SOLID
  5
134
330
131
100
AcDbEntity
  8
2
 62
     7
420
 16777215
100
AcDbTrace
 10
-65.395001095
 20
43.5002713063
 30
0.0
 11
-62.093001095
 21
42.9922713063
 31
0.0
 12
-62.093001095
 22
44.0082713063
 32
0.0
 13
-62.093001095
 23
44.0082713063
 33
0.0
  0
SOLID
  5
135
330
131
100
AcDbEntity
  8
2
 62
     7
420
 16777215
100
AcDbTrace
 10
90.004998905
 20
43.5002713063
 30
0.0
 11
86.702998905
 21
44.0082713063
 31
0.0
 12
86.702998905
 22
42.9922713063
 32
0.0
 13
86.702998905
 23
42.9922713063
 33
0.0
  0
LINE
  5
136
330
131
100
AcDbEntity
  8
2
 62
     7
420
 16777215
100
AcDbLine
 10
-65.395001095
 20
1.0002713063
 30
0.0
 11
-65.395001095
 21
44.5002713063
 31
0.0
  0
LINE
  5
137
330
131
100
AcDbEntity
  8
2
 62
     7
420
 16777215
100
AcDbLine
 10
90.004998905
 20
1.0002713063
 30
0.0
 11
90.004998905
 21
44.5002713063
 31
0.0
  0
LINE
  5
138
330
131
100
AcDbEntity
  8
2
 62
     7
420
 16777215
100
AcDbLine
 10
-65.395001095
 20
43.5002713063
 30
0.0
 11
90.004998905
 21
43.5002713063
 31
0.0
  0
MTEXT
  5
139
330
131
100
AcDbEntity
  8
2
 62
     7
420
 16777215
100
AcDbMText
 10
3.7713180935
 20
48.0120082209
 30
0.0
 40
3.5
 41
0.0
 46
0.0
 71
     1
 72
     1
  1
155,40
  7
SLDTEXTSTYLE0
 73
     1
 44
1.0
  0
ENDBLK
  5
133
330
131
100
AcDbEntity
  8
0
100
AcDbBlockEnd
  0
BLOCK
  5
13C
330
13B
100
AcDbEntity
  8
0
100
AcDbBlockBegin
  2
_D_1
 70
     0
 10
0.0
 20
0.0
 30
0.0
  3
_D_1
  1

  0
SOLID
  5
13E
330
13B
100
AcDbEntity
  8
2
 62
     7
420
 16777215
100
AcDbTrace
 10
90.004998905
 20
37.5002713063
 30
0.0
 11
86.702998905
 21
38.0082713063
 31
0.0
 12
86.702998905
 22
36.9922713063
 32
0.0
 13
86.702998905
 23
36.9922713063
 33
0.0
  0
SOLID
  5
13F
330
13B
100
AcDbEntity
  8
2
 62
     7
420
 16777215
100
AcDbTrace
 10
0.004998905
 20
37.5002713063
 30
0.0
 11
3.306998905
 21
36.9922713063
 31
0.0
 12
3.306998905
 22
38.0082713063
 32
0.0
 13
3.306998905
 23
38.0082713063
 33
0.0
  0
LINE
  5
140
330
13B
100
AcDbEntity
  8
2
 62
     7
420
 16777215
100
AcDbLine
 10
90.004998905
 20
1.0002713063
 30
0.0
 11
90.004998905
 21
38.5002713063
 31
0.0
  0
LINE
  5
141
330
13B
100
AcDbEntity
  8
2
 62
     7
420
 16777215
100
AcDbLine
 10
0.004998905
 20
1.0002713063
 30
0.0
 11
0.004998905
 21
38.5002713063
 31
0.0
  0
LINE
  5
142
330
13B
100
AcDbEntity
  8
2
 62
     7
420
 16777215
100
AcDbLine
 10
90.004998905
 20
37.5002713063
 30
0.0
 11
0.004998905
 21
37.5002713063
 31
0.0
  0
MTEXT
  5
143
330
13B
100
AcDbEntity
  8
2
 62
     7
420
 16777215
100
AcDbMText
 10
40.9970126239
 20
42.0120082209
 30
0.0
 40
3.5
 41
0.0
 46
0.0
 71
     1
 72
     1
  1
90
  7
SLDTEXTSTYLE0
 73
     1
 44
1.0
  0
ENDBLK
  5
13D
330
13B
100
AcDbEntity
  8
0
100
AcDbBlockEnd
  0
BLOCK
  5
146
330
145
100
AcDbEntity
  8
0
100
AcDbBlockBegin
  2
_D_2
 70
     0
 10
0.0
 20
0.0
 30
0.0
  3
_D_2
  1

  0
SOLID
  5
148
330
145
100
AcDbEntity
  8
2
 62
     7
420
 16777215
100
AcDbTrace
 10
96.004998905
 20
12.0002714106
 30
0.0
 11
95.496998905
 21
8.6982714106
 31
0.0
 12
96.512998905
 22
8.6982714106
 32
0.0
 13
96.512998905
 23
8.6982714106
 33
0.0
  0
SOLID
  5
149
330
145
100
AcDbEntity
  8
2
 62
     7
420
 16777215
100
AcDbTrace
 10
96.004998905
 20
-11.999728798
 30
0.0
 11
96.512998905
 21
-8.697728798
 31
0.0
 12
95.496998905
 22
-8.697728798
 32
0.0
 13
95.496998905
 23
-8.697728798
 33
0.0
  0
LINE
  5
14A
330
145
100
AcDbEntity
  8
2
 62
     7
420
 16777215
100
AcDbLine
 10
88.2442293895
 20
12.0002714106
 30
0.0
 11
97.004998905
 21
12.0002714106
 31
0.0
  0
LINE
  5
14B
330
145
100
AcDbEntity
  8
2
 62
     7
420
 16777215
100
AcDbLine
 10
88.2442293895
 20
-11.999728798
 30
0.0
 11
97.004998905
 21
-11.999728798
 31
0.0
  0
LINE
  5
14C
330
145
100
AcDbEntity
  8
2
 62
     7
420
 16777215
100
AcDbLine
 10
96.004998905
 20
12.0002714106
 30
0.0
 11
96.004998905
 21
-11.999728798
 31
0.0
  0
MTEXT
  5
14D
330
145
100
AcDbEntity
  8
2
 62
     7
420
 16777215
100
AcDbMText
 10
91.4932618158
 20
-6.6469336739
 30
0.0
 40
3.5
 41
0.0
 46
0.0
 71
     1
 72
     1
  1
%%c
  7
SLDTEXTSTYLE0
 11
-7.044195017643634E-15
 21
1.0
 31
0.0
 73
     1
 44
1.0
  0
MTEXT
  5
14E
330
145
100
AcDbEntity
  8
2
 62
     7
420
 16777215
100
AcDbMText
 10
91.4397896391
 20
-1.3684962755
 30
0.0
 40
3.5
 41
0.0
 46
0.0
 71
     1
 72
     1
  1
24
  7
SLDTEXTSTYLE0
 11
-7.044195017643634E-15
 21
1.0
 31
0.0
 73
     1
 44
1.0
  0
ENDBLK
  5
147
330
145
100
AcDbEntity
  8
0
100
AcDbBlockEnd
  0
ENDSEC
  0
SECTION
  2
ENTITIES
  0
LINE
  5
48
330
1F
100
AcDbEntity
  8
0
  6
SLD-Punktstrich
 62
     7
100
AcDbLine
 10
-65.395001095
 20
0.0002713063
 30
0.0
 11
90.004998905
 21
0.0002713063
 31
0.0
  0
POINT
  5
49
330
1F
100
AcDbEntity
  8
1
 62
     4
420
    65535
100
AcDbPoint
 10
-65.395001095
 20
0.0002713063
 30
0.0
  0
POINT
  5
4A
330
1F
100
AcDbEntity
  8
1
 62
     4
420
    65535
100
AcDbPoint
 10
90.004998905
 20
0.0002713063
 30
0.0
  0
POINT
  5
4B
330
1F
100
AcDbEntity
  8
1
 62
     4
420
    65535
100
AcDbPoint
 10
0.004998905
 20
0.0002713063
 30
0.0
  0
POINT
  5
4C
330
1F
100
AcDbEntity
  8
1
 62
     4
420
    65535
100
AcDbPoint
 10
70.004998905
 20
0.0002713063
 30
0.0
  0
POINT
  5
4D
330
1F
100
AcDbEntity
  8
1
 62
     4
420
    65535
100
AcDbPoint
 10
90.004998905
 20
0.0002713063
 30
0.0
  0
LINE
  5
4E
330
1F
100
AcDbEntity
  8
1
 62
     4
420
    65535
100
AcDbLine
 10
2.004998905
 20
-31.4997286937
 30
0.0
 11
11.6048568987
 21
-31.4997286937
 31
0.0
  0
LINE
  5
4F
330
1F
100
AcDbEntity
  8
1
 62
     4
420
    65535
100
AcDbLine
 10
11.6048568987
 20
-31.4997286937
 30
0.0
 11
14.104998905
 21
-27.1693557126
 31
0.0
  0
LINE
  5
50
330
1F
100
AcDbEntity
  8
1
 62
     4
420
    65535
100
AcDbLine
 10
14.304998905
 20
-26.4997286937
 30
0.0
 11
18.904998905
 21
-26.4997286937
 31
0.0
  0
LINE
  5
51
330
1F
100
AcDbEntity
  8
1
 62
     4
420
    65535
100
AcDbLine
 10
19.104998905
 20
-27.1693557126
 30
0.0
 11
21.6051409113
 21
-31.4997286937
 31
0.0
  0
LINE
  5
52
330
1F
100
AcDbEntity
  8
1
 62
     4
420
    65535
100
AcDbLine
 10
-22.395001095
 20
7.0002713063
 30
0.0
 11
-54.6629502874
 21
7.0002713063
 31
0.0
  0
LINE
  5
53
330
1F
100
AcDbEntity
  8
1
 62
     4
420
    65535
100
AcDbLine
 10
-54.6629502874
 20
-6.9997286937
 30
0.0
 11
-22.395001095
 21
-6.9997286937
 31
0.0
  0
LINE
  5
54
330
1F
100
AcDbEntity
  8
1
 62
     4
420
    65535
100
AcDbLine
 10
-21.2533678162
 20
5.1002744641
 30
0.0
 11
-22.395001095
 21
7.0002713063
 31
0.0
  0
LINE
  5
55
330
1F
100
AcDbEntity
  8
1
 62
     4
420
    65535
100
AcDbLine
 10
-22.395001095
 20
-6.9997286937
 30
0.0
 11
-21.2533678162
 21
-5.0997318514
 31
0.0
  0
LINE
  5
56
330
1F
100
AcDbEntity
  8
1
 62
     4
420
    65535
100
AcDbLine
 10
-54.6629502874
 20
7.0002713063
 30
0.0
 11
-56.395001095
 21
8.0002713063
 31
0.0
  0
LINE
  5
57
330
1F
100
AcDbEntity
  8
1
 62
     4
420
    65535
100
AcDbLine
 10
-56.395001095
 20
-7.9997286937
 30
0.0
 11
-54.6629502874
 21
-6.9997286937
 31
0.0
  0
ARC
  5
58
330
1F
100
AcDbEntity
  8
1
 62
     4
420
    65535
100
AcDbCircle
 10
14.304998905
 20
-26.6997286937
 30
0.0
 40
0.1999999999999993
100
AcDbArc
 50
90.0
 51
180.0
  0
LINE
  5
59
330
1F
100
AcDbEntity
  8
1
 62
     4
420
    65535
100
AcDbLine
 10
-56.395001095
 20
8.5002713063
 30
0.0
 11
-64.395001095
 21
8.5002713063
 31
0.0
  0
LINE
  5
5A
330
1F
100
AcDbEntity
  8
1
 62
     4
420
    65535
100
AcDbLine
 10
-64.395001095
 20
-8.4997286937
 30
0.0
 11
-56.395001095
 21
-8.4997286937
 31
0.0
  0
ARC
  5
5B
330
1F
100
AcDbEntity
  8
1
 62
     4
420
    65535
100
AcDbCircle
 10
18.904998905
 20
26.7002713063
 30
0.0
 40
0.1999999999999993
100
AcDbArc
 50
270.0
 51
0.0
  0
LINE
  5
5C
330
1F
100
AcDbEntity
  8
1
 62
     4
420
    65535
100
AcDbLine
 10
-64.395001095
 20
8.5002713063
 30
0.0
 11
-65.395001095
 21
9.5002713063
 31
0.0
  0
LINE
  5
5D
330
1F
100
AcDbEntity
  8
1
 62
     4
420
    65535
100
AcDbLine
 10
-65.395001095
 20
-9.4997286937
 30
0.0
 11
-64.395001095
 21
-8.4997286937
 31
0.0
  0
LINE
  5
5E
330
1F
100
AcDbEntity
  8
1
 62
     4
420
    65535
100
AcDbLine
 10
-64.9657108889
 20
-12.9433171565
 30
0.0
 11
0.304998905
 21
-22.2675852897
 31
0.0
  0
LINE
  5
5F
330
1F
100
AcDbEntity
  8
1
 62
     4
420
    65535
100
AcDbLine
 10
0.304998905
 20
22.2681279023
 30
0.0
 11
-64.9657108889
 21
12.9438597692
 31
0.0
  0
LINE
  5
60
330
1F
100
AcDbEntity
  8
1
 62
     4
420
    65535
100
AcDbLine
 10
1.904998905
 20
22.1381279023
 30
0.0
 11
0.404998905
 21
22.1381279023
 31
0.0
  0
LINE
  5
61
330
1F
100
AcDbEntity
  8
1
 62
     4
420
    65535
100
AcDbLine
 10
0.404998905
 20
-22.1375852897
 30
0.0
 11
1.904998905
 21
-22.1375852897
 31
0.0
  0
LINE
  5
62
330
1F
100
AcDbEntity
  8
1
 62
     4
420
    65535
100
AcDbLine
 10
11.6048568987
 20
31.5002713063
 30
0.0
 11
2.004998905
 21
31.5002713063
 31
0.0
  0
LINE
  5
63
330
1F
100
AcDbEntity
  8
1
 62
     4
420
    65535
100
AcDbLine
 10
14.104998905
 20
27.1698983253
 30
0.0
 11
11.6048568987
 21
31.5002713063
 31
0.0
  0
ARC
  5
64
330
1F
100
AcDbEntity
  8
1
 62
     4
420
    65535
100
AcDbCircle
 10
-64.895001095
 20
12.4488848961
 30
0.0
 40
0.5000000000000014
100
AcDbArc
 50
98.13
 51
180.0
  0
ARC
  5
65
330
1F
100
AcDbEntity
  8
1
 62
     4
420
    65535
100
AcDbCircle
 10
-64.895001095
 20
-12.4483422834
 30
0.0
 40
0.5000000000000014
100
AcDbArc
 50
180.0
 51
261.87
  0
ARC
  5
66
330
1F
100
AcDbEntity
  8
1
 62
     4
420
    65535
100
AcDbCircle
 10
0.404998905
 20
22.2381279023
 30
0.0
 40
0.1000000000000029
100
AcDbArc
 50
180.0
 51
270.0
  0
ARC
  5
67
330
1F
100
AcDbEntity
  8
1
 62
     4
420
    65535
100
AcDbCircle
 10
0.404998905
 20
-22.2375852897
 30
0.0
 40
0.1000000000000029
100
AcDbArc
 50
90.0
 51
180.0
  0
LINE
  5
68
330
1F
100
AcDbEntity
  8
1
 62
     4
420
    65535
100
AcDbLine
 10
18.904998905
 20
26.5002713063
 30
0.0
 11
14.304998905
 21
26.5002713063
 31
0.0
  0
ARC
  5
69
330
1F
100
AcDbEntity
  8
1
 62
     4
420
    65535
100
AcDbCircle
 10
1.904998905
 20
22.2381279023
 30
0.0
 40
0.1000000000000032
100
AcDbArc
 50
270.0
 51
0.0
  0
ARC
  5
6A
330
1F
100
AcDbEntity
  8
1
 62
     4
420
    65535
100
AcDbCircle
 10
1.904998905
 20
-22.2375852897
 30
0.0
 40
0.1000000000000032
100
AcDbArc
 50
0.0
 51
90.0
  0
LINE
  5
6B
330
1F
100
AcDbEntity
  8
1
 62
     4
420
    65535
100
AcDbLine
 10
21.6051409113
 20
31.5002713063
 30
0.0
 11
19.104998905
 21
27.1698983253
 31
0.0
  0
LINE
  5
6C
330
1F
100
AcDbEntity
  8
1
 62
     4
420
    65535
100
AcDbLine
 10
27.004998905
 20
31.5002713063
 30
0.0
 11
21.6051409113
 21
31.5002713063
 31
0.0
  0
LINE
  5
6D
330
1F
100
AcDbEntity
  8
1
 62
     4
420
    65535
100
AcDbLine
 10
21.6051409113
 20
-31.4997286937
 30
0.0
 11
27.004998905
 21
-31.4997286937
 31
0.0
  0
ARC
  5
6E
330
1F
100
AcDbEntity
  8
1
 62
     4
420
    65535
100
AcDbCircle
 10
14.304998905
 20
26.7002713063
 30
0.0
 40
0.1999999999999993
100
AcDbArc
 50
180.0
 51
270.0
  0
LINE
  5
6F
330
1F
100
AcDbEntity
  8
1
 62
     4
420
    65535
100
AcDbLine
 10
82.576791268
 20
8.9630144603
 30
0.0
 11
82.2897604924
 21
9.3502720743
 31
0.0
  0
LINE
  5
70
330
1F
100
AcDbEntity
  8
1
 62
     4
420
    65535
100
AcDbLine
 10
82.2897604924
 20
-9.3497294616
 30
0.0
 11
82.576791268
 21
-8.9624718477
 31
0.0
  0
ARC
  5
71
330
1F
100
AcDbEntity
  8
1
 62
     4
420
    65535
100
AcDbCircle
 10
18.904998905
 20
-26.6997286937
 30
0.0
 40
0.1999999999999993
100
AcDbArc
 50
0.0
 51
90.0
  0
ARC
  5
72
330
1F
100
AcDbEntity
  8
1
 62
     4
420
    65535
100
AcDbCircle
 10
81.8113784965
 20
9.195701566
 30
0.0
 40
0.800000000000103
100
AcDbArc
 50
277.9999931808
 51
343.0906169723
  0
ARC
  5
73
330
1F
100
AcDbEntity
  8
1
 62
     4
420
    65535
100
AcDbCircle
 10
81.8113784965
 20
-9.1951589533
 30
0.0
 40
0.800000000000103
100
AcDbArc
 50
16.9093830277
 51
82.0000068192
  0
LINE
  5
74
330
1F
100
AcDbEntity
  8
1
 62
     4
420
    65535
100
AcDbLine
 10
82.2897604924
 20
9.3502720743
 30
0.0
 11
78.1113780361
 21
9.3502720743
 31
0.0
  0
LINE
  5
75
330
1F
100
AcDbEntity
  8
1
 62
     4
420
    65535
100
AcDbLine
 10
78.1113780361
 20
-9.3497294616
 30
0.0
 11
82.2897604924
 21
-9.3497294616
 31
0.0
  0
LINE
  5
76
330
1F
100
AcDbEntity
  8
1
 62
     4
420
    65535
100
AcDbLine
 10
78.1113780361
 20
9.3502720743
 30
0.0
 11
78.0103419208
 21
9.525271424
 31
0.0
  0
LINE
  5
77
330
1F
100
AcDbEntity
  8
1
 62
     4
420
    65535
100
AcDbLine
 10
78.0103419208
 20
-9.5247288114
 30
0.0
 11
78.1113780361
 21
-9.3497294616
 31
0.0
  0
LINE
  5
78
330
1F
100
AcDbEntity
  8
1
 62
     4
420
    65535
100
AcDbLine
 10
73.4685106924
 20
10.0002719014
 30
0.0
 11
71.6113797646
 21
10.0002719014
 31
0.0
  0
LINE
  5
79
330
1F
100
AcDbEntity
  8
1
 62
     4
420
    65535
100
AcDbLine
 10
71.6113797646
 20
-9.9997292887
 30
0.0
 11
73.4685106924
 21
-9.9997292887
 31
0.0
  0
LINE
  5
7A
330
1F
100
AcDbEntity
  8
1
 62
     4
420
    65535
100
AcDbLine
 10
71.6113797646
 20
10.1002717315
 30
0.0
 11
68.5113784621
 21
10.1002717315
 31
0.0
  0
LINE
  5
7B
330
1F
100
AcDbEntity
  8
1
 62
     4
420
    65535
100
AcDbLine
 10
68.5113784621
 20
-10.0997291188
 30
0.0
 11
71.6113797646
 21
-10.0997291188
 31
0.0
  0
LINE
  5
7C
330
1F
100
AcDbEntity
  8
1
 62
     4
420
    65535
100
AcDbLine
 10
68.1113784621
 20
11.8002721248
 30
0.0
 11
67.911374829
 21
12.0002715375
 31
0.0
  0
LINE
  5
7D
330
1F
100
AcDbEntity
  8
1
 62
     4
420
    65535
100
AcDbLine
 10
67.911374829
 20
-11.9997289248
 30
0.0
 11
68.1113784621
 21
-11.7997295122
 31
0.0
  0
LINE
  5
7E
330
1F
100
AcDbEntity
  8
1
 62
     4
420
    65535
100
AcDbLine
 10
67.911374829
 20
12.0002715375
 30
0.0
 11
34.504998905
 21
12.0002715375
 31
0.0
  0
LINE
  5
7F
330
1F
100
AcDbEntity
  8
1
 62
     4
420
    65535
100
AcDbLine
 10
34.504998905
 20
-11.9997289248
 30
0.0
 11
67.911374829
 21
-11.9997289248
 31
0.0
  0
LINE
  5
80
330
1F
100
AcDbEntity
  8
1
 62
     4
420
    65535
100
AcDbLine
 10
57.3227006014
 20
5.1002744641
 30
0.0
 11
-21.2533678162
 21
5.1002744641
 31
0.0
  0
LINE
  5
81
330
1F
100
AcDbEntity
  8
1
 62
     4
420
    65535
100
AcDbLine
 10
-21.2533678162
 20
-5.0997318514
 30
0.0
 11
57.3227006014
 21
-5.0997318514
 31
0.0
  0
LINE
  5
82
330
1F
100
AcDbEntity
  8
1
 62
     4
420
    65535
100
AcDbLine
 10
57.3227006014
 20
-5.0997318514
 30
0.0
 11
57.6113807972
 21
-5.5997314676
 31
0.0
  0
LINE
  5
83
330
1F
100
AcDbEntity
  8
1
 62
     4
420
    65535
100
AcDbLine
 10
57.6113807972
 20
5.6002740803
 30
0.0
 11
57.3227006014
 21
5.1002744641
 31
0.0
  0
ARC
  5
84
330
1F
100
AcDbEntity
  8
1
 62
     4
420
    65535
100
AcDbCircle
 10
68.5113784621
 20
10.5002717315
 30
0.0
 40
0.399999999999979
100
AcDbArc
 50
180.0
 51
270.0
  0
ARC
  5
85
330
1F
100
AcDbEntity
  8
1
 62
     4
420
    65535
100
AcDbCircle
 10
68.5113784621
 20
-10.4997291188
 30
0.0
 40
0.3999999999999808
100
AcDbArc
 50
90.0
 51
180.0
  0
LINE
  5
86
330
1F
100
AcDbEntity
  8
1
 62
     4
420
    65535
100
AcDbLine
 10
61.9768026288
 20
5.6002740803
 30
0.0
 11
57.6113807972
 21
5.6002740803
 31
0.0
  0
LINE
  5
87
330
1F
100
AcDbEntity
  8
1
 62
     4
420
    65535
100
AcDbLine
 10
57.6113807972
 20
-5.5997314676
 30
0.0
 11
61.9768026288
 21
-5.5997314676
 31
0.0
  0
LINE
  5
88
330
1F
100
AcDbEntity
  8
1
 62
     4
420
    65535
100
AcDbLine
 10
61.9768026288
 20
-5.5997314676
 30
0.0
 11
81.9227168829
 21
-8.402944485
 31
0.0
  0
LINE
  5
89
330
1F
100
AcDbEntity
  8
1
 62
     4
420
    65535
100
AcDbLine
 10
81.9227168829
 20
8.4034870977
 30
0.0
 11
61.9768026288
 21
5.6002740803
 31
0.0
  0
ARC
  5
8A
330
1F
100
AcDbEntity
  8
1
 62
     4
420
    65535
100
AcDbCircle
 10
34.504998905
 20
19.5002715375
 30
0.0
 40
7.49999999999995
100
AcDbArc
 50
180.0
 51
270.0
  0
ARC
  5
8B
330
1F
100
AcDbEntity
  8
1
 62
     4
420
    65535
100
AcDbCircle
 10
34.504998905
 20
-19.4997289248
 30
0.0
 40
7.499999999999954
100
AcDbArc
 50
90.0
 51
180.0
  0
LINE
  5
8C
330
1F
100
AcDbEntity
  8
1
 62
     4
420
    65535
100
AcDbLine
 10
78.0103419208
 20
-9.5247288114
 30
0.0
 11
80.0074238622
 21
-9.5247288114
 31
0.0
  0
LINE
  5
8D
330
1F
100
AcDbEntity
  8
1
 62
     4
420
    65535
100
AcDbLine
 10
80.0074238622
 20
9.525271424
 30
0.0
 11
78.0103419208
 21
9.525271424
 31
0.0
  0
LINE
  5
8E
330
1F
100
AcDbEntity
  8
1
 62
     4
420
    65535
100
AcDbLine
 10
73.4685106924
 20
10.0002719014
 30
0.0
 11
73.4050024593
 21
10.1102714547
 31
0.0
  0
LINE
  5
8F
330
1F
100
AcDbEntity
  8
1
 62
     4
420
    65535
100
AcDbLine
 10
73.4050024593
 20
-10.1097288421
 30
0.0
 11
73.4685106924
 21
-9.9997292887
 31
0.0
  0
LINE
  5
90
330
1F
100
AcDbEntity
  8
1
 62
     4
420
    65535
100
AcDbLine
 10
83.6088916775
 20
-8.755397934
 30
0.0
 11
83.6672410481
 21
-9.1705752787
 31
0.0
  0
LINE
  5
91
330
1F
100
AcDbEntity
  8
1
 62
     4
420
    65535
100
AcDbLine
 10
83.6672410481
 20
9.1711178914
 30
0.0
 11
83.6088916775
 21
8.7559405467
 31
0.0
  0
LINE
  5
92
330
1F
100
AcDbEntity
  8
1
 62
     4
420
    65535
100
AcDbLine
 10
84.004998905
 20
-8.2997286936
 30
0.0
 11
84.404998905
 21
-8.2997286936
 31
0.0
  0
LINE
  5
93
330
1F
100
AcDbEntity
  8
1
 62
     4
420
    65535
100
AcDbLine
 10
84.404998905
 20
8.3002713063
 30
0.0
 11
84.004998905
 21
8.3002713063
 31
0.0
  0
LINE
  5
94
330
1F
100
AcDbEntity
  8
1
 62
     4
420
    65535
100
AcDbLine
 10
84.6878416175
 20
-8.4168859812
 30
0.0
 11
84.8308060135
 21
-8.5598503772
 31
0.0
  0
LINE
  5
95
330
1F
100
AcDbEntity
  8
1
 62
     4
420
    65535
100
AcDbLine
 10
84.8308060135
 20
8.5603929899
 30
0.0
 11
84.6878416175
 21
8.4174285939
 31
0.0
  0
LINE
  5
96
330
1F
100
AcDbEntity
  8
1
 62
     4
420
    65535
100
AcDbLine
 10
83.6711338206
 20
-9.2262445191
 30
0.0
 11
83.6711338206
 21
9.2267871317
 31
0.0
  0
LINE
  5
97
330
1F
100
AcDbEntity
  8
1
 62
     4
420
    65535
100
AcDbLine
 10
83.6711338206
 20
-9.2262445191
 30
0.0
 11
83.6711338206
 21
9.2267871317
 31
0.0
  0
ARC
  5
98
330
1F
100
AcDbEntity
  8
1
 62
     4
420
    65535
100
AcDbCircle
 10
83.2711338206
 20
-9.2262445191
 30
0.0
 40
0.3999999999999773
100
AcDbArc
 50
0.0
 51
7.9999999975
  0
ARC
  5
99
330
1F
100
AcDbEntity
  8
1
 62
     4
420
    65535
100
AcDbCircle
 10
83.2711338206
 20
-9.2262445191
 30
0.0
 40
0.3999999999999773
100
AcDbArc
 50
255.0000615792
 51
0.0
  0
ARC
  5
9A
330
1F
100
AcDbEntity
  8
1
 62
     4
420
    65535
100
AcDbCircle
 10
83.2711338206
 20
9.2267871317
 30
0.0
 40
0.3999999999999773
100
AcDbArc
 50
352.0000000025
 51
0.0
  0
ARC
  5
9B
330
1F
100
AcDbEntity
  8
1
 62
     4
420
    65535
100
AcDbCircle
 10
83.2711338206
 20
9.2267871317
 30
0.0
 40
0.3999999999999773
100
AcDbArc
 50
0.0
 51
104.9999384208
  0
ARC
  5
9C
330
1F
100
AcDbEntity
  8
1
 62
     4
420
    65535
100
AcDbCircle
 10
84.404998905
 20
-8.6997286936
 30
0.0
 40
0.4000000000000981
100
AcDbArc
 50
45.0
 51
90.0
  0
ARC
  5
9D
330
1F
100
AcDbEntity
  8
1
 62
     4
420
    65535
100
AcDbCircle
 10
84.404998905
 20
8.7002713063
 30
0.0
 40
0.4000000000000984
100
AcDbArc
 50
270.0
 51
315.0
  0
LINE
  5
9E
330
1F
100
AcDbEntity
  8
1
 62
     4
420
    65535
100
AcDbLine
 10
83.604998905
 20
8.7002713063
 30
0.0
 11
83.604998905
 21
-8.6997286936
 31
0.0
  0
LINE
  5
9F
330
1F
100
AcDbEntity
  8
1
 62
     4
420
    65535
100
AcDbLine
 10
83.604998905
 20
8.7002713063
 30
0.0
 11
83.604998905
 21
-8.6997286936
 31
0.0
  0
ARC
  5
A0
330
1F
100
AcDbEntity
  8
1
 62
     4
420
    65535
100
AcDbCircle
 10
84.004998905
 20
-8.6997286936
 30
0.0
 40
0.4000000000000767
100
AcDbArc
 50
90.0
 51
180.0
  0
ARC
  5
A1
330
1F
100
AcDbEntity
  8
1
 62
     4
420
    65535
100
AcDbCircle
 10
84.004998905
 20
-8.6997286936
 30
0.0
 40
0.4000000000000767
100
AcDbArc
 50
180.0
 51
187.9999999975
  0
ARC
  5
A2
330
1F
100
AcDbEntity
  8
1
 62
     4
420
    65535
100
AcDbCircle
 10
84.004998905
 20
8.7002713063
 30
0.0
 40
0.4000000000000767
100
AcDbArc
 50
180.0
 51
270.0
  0
ARC
  5
A3
330
1F
100
AcDbEntity
  8
1
 62
     4
420
    65535
100
AcDbCircle
 10
84.004998905
 20
8.7002713063
 30
0.0
 40
0.4000000000000767
100
AcDbArc
 50
172.0000000025
 51
180.0
  0
LINE
  5
A4
330
1F
100
AcDbEntity
  8
1
 62
     4
420
    65535
100
AcDbLine
 10
89.4250024403
 20
6.2502713995
 30
0.0
 11
85.3136485911
 21
8.6239605168
 31
0.0
  0
LINE
  5
A5
330
1F
100
AcDbEntity
  8
1
 62
     4
420
    65535
100
AcDbLine
 10
85.3136485911
 20
-8.6234179041
 30
0.0
 11
89.4250024403
 21
-6.2497287868
 31
0.0
  0
LINE
  5
A6
330
1F
100
AcDbEntity
  8
1
 62
     4
420
    65535
100
AcDbLine
 10
89.4250024403
 20
-6.2497287868
 30
0.0
 11
89.504998905
 21
-6.2497287868
 31
0.0
  0
LINE
  5
A7
330
1F
100
AcDbEntity
  8
1
 62
     4
420
    65535
100
AcDbLine
 10
89.504998905
 20
6.2502713995
 30
0.0
 11
89.4250024403
 21
6.2502713995
 31
0.0
  0
ARC
  5
A8
330
1F
100
AcDbEntity
  8
1
 62
     4
420
    65535
100
AcDbCircle
 10
85.113648726
 20
-8.2770076647
 30
0.0
 40
0.3999999999999967
100
AcDbArc
 50
225.0
 51
299.9999776926
  0
ARC
  5
A9
330
1F
100
AcDbEntity
  8
1
 62
     4
420
    65535
100
AcDbCircle
 10
85.113648726
 20
8.2775502774
 30
0.0
 40
0.3999999999999955
100
AcDbArc
 50
60.0000223074
 51
135.0
  0
LINE
  5
AA
330
1F
100
AcDbEntity
  8
1
 62
     4
420
    65535
100
AcDbLine
 10
89.7049992992
 20
10.6723633785
 30
0.0
 11
87.5442297837
 21
11.9198864253
 31
0.0
  0
LINE
  5
AB
330
1F
100
AcDbEntity
  8
1
 62
     4
420
    65535
100
AcDbLine
 10
87.5442297837
 20
-11.9193438127
 30
0.0
 11
89.7049992992
 21
-10.6718207658
 31
0.0
  0
LINE
  5
AC
330
1F
100
AcDbEntity
  8
1
 62
     4
420
    65535
100
AcDbLine
 10
69.3050001108
 20
-11.999728798
 30
0.0
 11
87.2442293895
 21
-11.999728798
 31
0.0
  0
LINE
  5
AD
330
1F
100
AcDbEntity
  8
1
 62
     4
420
    65535
100
AcDbLine
 10
87.2442293895
 20
12.0002714106
 30
0.0
 11
69.3050001108
 21
12.0002714106
 31
0.0
  0
LINE
  5
AE
330
1F
100
AcDbEntity
  8
1
 62
     4
420
    65535
100
AcDbLine
 10
69.1049967253
 20
-11.7997291378
 30
0.0
 11
69.3050001108
 21
-11.999728798
 31
0.0
  0
LINE
  5
AF
330
1F
100
AcDbEntity
  8
1
 62
     4
420
    65535
100
AcDbLine
 10
69.3050001108
 20
12.0002714106
 30
0.0
 11
69.1049967253
 21
11.8002717504
 31
0.0
  0
ARC
  5
B0
330
1F
100
AcDbEntity
  8
1
 62
     4
420
    65535
100
AcDbCircle
 10
87.2442293895
 20
-11.399728798
 30
0.0
 40
0.6000000000000462
100
AcDbArc
 50
270.0
 51
300.0000434629
  0
ARC
  5
B1
330
1F
100
AcDbEntity
  8
1
 62
     4
420
    65535
100
AcDbCircle
 10
87.2442293895
 20
11.4002714106
 30
0.0
 40
0.6000000000000476
100
AcDbArc
 50
59.9999565371
 51
90.0
  0
ARC
  5
B2
330
1F
100
AcDbEntity
  8
1
 62
     4
420
    65535
100
AcDbCircle
 10
89.504998905
 20
-6.7497287868
 30
0.0
 40
0.4999999999998899
100
AcDbArc
 50
0.0
 51
90.0
  0
ARC
  5
B3
330
1F
100
AcDbEntity
  8
1
 62
     4
420
    65535
100
AcDbCircle
 10
89.504998905
 20
6.7502713995
 30
0.0
 40
0.4999999999998908
100
AcDbArc
 50
270.0
 51
0.0
  0
LINE
  5
B4
330
1F
100
AcDbEntity
  8
1
 62
     4
420
    65535
100
AcDbLine
 10
69.4514114702
 20
10.1102714547
 30
0.0
 11
69.1049967253
 21
10.310271115
 31
0.0
  0
LINE
  5
B5
330
1F
100
AcDbEntity
  8
1
 62
     4
420
    65535
100
AcDbLine
 10
69.1049967253
 20
-10.3097285024
 30
0.0
 11
69.4514114702
 21
-10.1097288421
 31
0.0
  0
ARC
  5
B6
330
1F
100
AcDbEntity
  8
1
 62
     4
420
    65535
100
AcDbCircle
 10
89.404998905
 20
-10.1522057511
 30
0.0
 40
0.6000000000000796
100
AcDbArc
 50
300.0000434629
 51
0.0
  0
ARC
  5
B7
330
1F
100
AcDbEntity
  8
1
 62
     4
420
    65535
100
AcDbCircle
 10
89.404998905
 20
10.1527483638
 30
0.0
 40
0.6000000000000796
100
AcDbArc
 50
0.0
 51
59.9999565371
  0
LINE
  5
B8
330
1F
100
AcDbEntity
  8
1
 62
     4
420
    65535
100
AcDbLine
 10
69.4514114702
 20
-10.1097288421
 30
0.0
 11
73.4050024593
 21
-10.1097288421
 31
0.0
  0
LINE
  5
B9
330
1F
100
AcDbEntity
  8
1
 62
     4
420
    65535
100
AcDbLine
 10
73.4050024593
 20
10.1102714547
 30
0.0
 11
69.4514114702
 21
10.1102714547
 31
0.0
  0
LINE
  5
BA
330
1F
100
AcDbEntity
  8
1
 62
     4
420
    65535
100
AcDbLine
 10
80.1049966657
 20
9.356271767
 30
0.0
 11
80.0074238622
 21
9.525271424
 31
0.0
  0
LINE
  5
BB
330
1F
100
AcDbEntity
  8
1
 62
     4
420
    65535
100
AcDbLine
 10
80.0074238622
 20
-9.5247288114
 30
0.0
 11
80.1049966657
 21
-9.3557291544
 31
0.0
  0
LINE
  5
BC
330
1F
100
AcDbEntity
  8
1
 62
     4
420
    65535
100
AcDbLine
 10
80.1049966657
 20
-9.3557291544
 30
0.0
 11
82.2088916147
 21
-9.3557291544
 31
0.0
  0
LINE
  5
BD
330
1F
100
AcDbEntity
  8
1
 62
     4
420
    65535
100
AcDbLine
 10
82.2088916147
 20
9.356271767
 30
0.0
 11
80.1049966657
 21
9.356271767
 31
0.0
  0
LINE
  5
BE
330
1F
100
AcDbEntity
  8
1
 62
     4
420
    65535
100
AcDbLine
 10
82.2088916147
 20
-9.3557291544
 30
0.0
 11
83.1676066178
 21
-9.6126149608
 31
0.0
  0
LINE
  5
BF
330
1F
100
AcDbEntity
  8
1
 62
     4
420
    65535
100
AcDbLine
 10
83.1676066178
 20
9.6131575735
 30
0.0
 11
82.2088916147
 21
9.356271767
 31
0.0
  0
LINE
  5
C0
330
1F
100
AcDbEntity
  8
1
 62
     4
420
    65535
100
AcDbLine
 10
2.004998905
 20
-8.5497286937
 30
0.0
 11
2.004998905
 21
-31.4839949304
 31
0.0
  0
LINE
  5
C1
330
1F
100
AcDbEntity
  8
1
 62
     4
420
    65535
100
AcDbLine
 10
2.004998905
 20
-8.5497286937
 30
0.0
 11
2.504998905
 21
-8.0497286937
 31
0.0
  0
LINE
  5
C2
330
1F
100
AcDbEntity
  8
1
 62
     4
420
    65535
100
AcDbLine
 10
2.504998905
 20
-8.0497286937
 30
0.0
 11
11.6048568987
 21
-8.0497286937
 31
0.0
  0
LINE
  5
C3
330
1F
100
AcDbEntity
  8
1
 62
     4
420
    65535
100
AcDbLine
 10
2.504998905
 20
-8.0497286937
 30
0.0
 11
2.004998905
 21
-8.5497286937
 31
0.0
  0
LINE
  5
C4
330
1F
100
AcDbEntity
  8
1
 62
     4
420
    65535
100
AcDbLine
 10
11.6048568987
 20
-8.0497286937
 30
0.0
 11
11.6048568987
 21
-31.4997286937
 31
0.0
  0
SPLINE
  5
C5
330
1F
100
AcDbEntity
  8
1
 62
     4
420
    65535
100
AcDbSpline
210
0.0
220
0.0
230
1.0
 70
    24
 71
     3
 72
     8
 73
     4
 74
     0
 42
0.00000001
 43
0.00000001
 12
1.0
 22
0.0
 32
0.0
 13
1.0
 23
0.0
 33
0.0
 40
0.0
 40
0.0
 40
0.0
 40
0.0
 40
1.0
 40
1.0
 40
1.0
 40
1.0
 10
11.6048568986916
 20
-8.049728693655897
 30
0.0
 10
12.44183895634114
 20
-8.049728693655897
 30
0.0
 10
13.27581444365017
 20
-8.049728693655897
 30
0.0
 10
14.10499890500835
 20
-8.049728693655897
 30
0.0
  0
SPLINE
  5
C6
330
1F
100
AcDbEntity
  8
1
 62
     4
420
    65535
100
AcDbSpline
210
0.0
220
0.0
230
1.0
 70
    24
 71
     3
 72
     8
 73
     4
 74
     0
 42
0.00000001
 43
0.00000001
 12
1.0
 22
0.0
 32
0.0
 13
1.0
 23
0.0
 33
0.0
 40
0.0
 40
0.0
 40
0.0
 40
0.0
 40
1.0
 40
1.0
 40
1.0
 40
1.0
 10
14.10499890500835
 20
-8.049728693655897
 30
0.0
 10
13.27578008350827
 20
-8.049728693655897
 30
0.0
 10
12.44181289779608
 20
-8.049728693655897
 30
0.0
 10
11.6048568986916
 20
-8.049728693655897
 30
0.0
  0
LINE
  5
C7
330
1F
100
AcDbEntity
  8
1
 62
     4
420
    65535
100
AcDbLine
 10
14.104998905
 20
-8.0497286937
 30
0.0
 11
14.104998905
 21
-27.1533523649
 31
0.0
  0
LINE
  5
C8
330
1F
100
AcDbEntity
  8
1
 62
     4
420
    65535
100
AcDbLine
 10
14.304998905
 20
-8.0497286937
 30
0.0
 11
14.304998905
 21
-26.4843120761
 31
0.0
  0
LINE
  5
C9
330
1F
100
AcDbEntity
  8
1
 62
     4
420
    65535
100
AcDbLine
 10
14.304998905
 20
-8.0497286937
 30
0.0
 11
14.954998905
 21
-8.0497286937
 31
0.0
  0
SPLINE
  5
CA
330
1F
100
AcDbEntity
  8
1
 62
     4
420
    65535
100
AcDbSpline
210
0.0
220
0.0
230
1.0
 70
    24
 71
     3
 72
    10
 73
     6
 74
     0
 42
0.00000001
 43
0.00000001
 12
1.0
 22
0.0
 32
0.0
 13
1.0
 23
0.0
 33
0.0
 40
0.0
 40
0.0
 40
0.0
 40
0.0
 40
0.5
 40
0.5
 40
1.0
 40
1.0
 40
1.0
 40
1.0
 10
14.30499890500836
 20
-8.049728693655897
 30
0.0
 10
14.25142361561569
 20
-8.049728693655895
 30
0.0
 10
14.19840103396983
 20
-8.049728693655897
 30
0.0
 10
14.12519019322368
 20
-8.049728693655897
 30
0.0
 10
14.10499890500926
 20
-8.049728693655899
 30
0.0
 10
14.10499890500835
 20
-8.049728693655897
 30
0.0
  0
SPLINE
  5
CB
330
1F
100
AcDbEntity
  8
1
 62
     4
420
    65535
100
AcDbSpline
210
0.0
220
0.0
230
1.0
 70
     8
 71
     3
 72
    12
 73
     8
 74
     0
 42
0.00000001
 43
0.00000001
 12
1.0
 22
0.0
 32
0.0
 13
1.0
 23
0.0
 33
0.0
 40
0.0
 40
0.0
 40
0.0
 40
0.0
 40
0.4999999999999989
 40
0.4999999999999989
 40
0.7499999999999994
 40
0.7499999999999994
 40
1.0
 40
1.0
 40
1.0
 40
1.0
 10
14.95499890500836
 20
-8.049728693655895
 30
0.0
 10
15.65074776529359
 20
-8.049728693655895
 30
0.0
 10
16.33035215291197
 20
-7.961033488143761
 30
0.0
 10
17.32670128717356
 20
-7.700079040052189
 30
0.0
 10
17.65657437164444
 20
-7.590682940264995
 30
0.0
 10
18.29499818514071
 20
-7.332224938779933
 30
0.0
 10
18.60470425054612
 20
-7.183107078616514
 30
0.0
 10
18.90499890500835
 20
-7.013999860355972
 30
0.0
  0
LINE
  5
CC
330
1F
100
AcDbEntity
  8
1
 62
     4
420
    65535
100
AcDbLine
 10
18.904998905
 20
-7.0139998604
 30
0.0
 11
18.904998905
 21
-26.4997286937
 31
0.0
  0
SPLINE
  5
CD
330
1F
100
AcDbEntity
  8
1
 62
     4
420
    65535
100
AcDbSpline
210
0.0
220
0.0
230
1.0
 70
     8
 71
     3
 72
    12
 73
     8
 74
     0
 42
0.00000001
 43
0.00000001
 12
1.0
 22
0.0
 32
0.0
 13
1.0
 23
0.0
 33
0.0
 40
0.0
 40
0.0
 40
0.0
 40
0.0
 40
0.4999999999999989
 40
0.4999999999999989
 40
0.7499999999999994
 40
0.7499999999999994
 40
1.0
 40
1.0
 40
1.0
 40
1.0
 10
18.90499890500835
 20
-7.013999860355974
 30
0.0
 10
18.30460225162259
 20
-7.35210580529472
 30
0.0
 10
17.67262893840766
 20
-7.608177709431687
 30
0.0
 10
16.67671302962426
 20
-7.870947012894758
 30
0.0
 10
16.33473629138437
 20
-7.938155082992672
 30
0.0
 10
15.64828798994855
 20
-8.027283678767184
 30
0.0
 10
15.30279664273423
 20
-8.049728693655897
 30
0.0
 10
14.95499890500836
 20
-8.049728693655899
 30
0.0
  0
LINE
  5
CE
330
1F
100
AcDbEntity
  8
1
 62
     4
420
    65535
100
AcDbLine
 10
19.104998905
 20
6.8980970507
 30
0.0
 11
19.104998905
 21
26.7002713063
 31
0.0
  0
SPLINE
  5
CF
330
1F
100
AcDbEntity
  8
1
 62
     4
420
    65535
100
AcDbSpline
210
0.0
220
0.0
230
1.0
 70
    24
 71
     3
 72
    10
 73
     6
 74
     0
 42
0.00000001
 43
0.00000001
 12
1.0
 22
0.0
 32
0.0
 13
1.0
 23
0.0
 33
0.0
 40
0.0
 40
0.0
 40
0.0
 40
0.0
 40
0.5
 40
0.5
 40
1.0
 40
1.0
 40
1.0
 40
1.0
 10
14.10499890500835
 20
-8.049728693655897
 30
0.0
 10
14.10499890500841
 20
-8.049728693655895
 30
0.0
 10
14.1252273841881
 20
-8.049728693655897
 30
0.0
 10
14.19842647017482
 20
-8.049728693655897
 30
0.0
 10
14.25125983268788
 20
-8.049728693655899
 30
0.0
 10
14.30499890500836
 20
-8.049728693655897
 30
0.0
  0
LINE
  5
D0
330
1F
100
AcDbEntity
  8
1
 62
     4
420
    65535
100
AcDbLine
 10
18.904998905
 20
7.014542473
 30
0.0
 11
18.904998905
 21
26.5002713063
 31
0.0
  0
LINE
  5
D1
330
1F
100
AcDbEntity
  8
1
 62
     4
420
    65535
100
AcDbLine
 10
14.104998905
 20
-8.0497286937
 30
0.0
 11
14.104998905
 21
-26.6841369116
 31
0.0
  0
SPLINE
  5
D2
330
1F
100
AcDbEntity
  8
1
 62
     4
420
    65535
100
AcDbSpline
210
0.0
220
0.0
230
1.0
 70
     8
 71
     3
 72
    10
 73
     6
 74
     0
 42
0.00000001
 43
0.00000001
 12
1.0
 22
0.0
 32
0.0
 13
1.0
 23
0.0
 33
0.0
 40
0.0
 40
0.0
 40
0.0
 40
0.0
 40
0.5
 40
0.5
 40
1.0
 40
1.0
 40
1.0
 40
1.0
 10
18.90499890500834
 20
7.01454247304418
 30
0.0
 10
18.95746160422557
 20
6.984998753250189
 30
0.0
 10
19.00558961703672
 20
6.957070884684599
 30
0.0
 10
19.07960730191933
 20
6.913443592762288
 30
0.0
 10
19.10499890500835
 20
6.89809705073632
 30
0.0
 10
19.10499890500835
 20
6.89809705073632
 30
0.0
  0
LINE
  5
D3
330
1F
100
AcDbEntity
  8
1
 62
     4
420
    65535
100
AcDbLine
 10
19.104998905
 20
-6.897554438
 30
0.0
 11
19.104998905
 21
-26.6997286937
 31
0.0
  0
LINE
  5
D4
330
1F
100
AcDbEntity
  8
1
 62
     4
420
    65535
100
AcDbLine
 10
19.104998905
 20
-6.897554438
 30
0.0
 11
19.104998905
 21
-27.1539335726
 31
0.0
  0
SPLINE
  5
D5
330
1F
100
AcDbEntity
  8
1
 62
     4
420
    65535
100
AcDbSpline
210
0.0
220
0.0
230
1.0
 70
     8
 71
     3
 72
    10
 73
     6
 74
     0
 42
0.00000001
 43
0.00000001
 12
1.0
 22
0.0
 32
0.0
 13
1.0
 23
0.0
 33
0.0
 40
0.0
 40
0.0
 40
0.0
 40
0.0
 40
0.5
 40
0.5
 40
1.0
 40
1.0
 40
1.0
 40
1.0
 10
19.10499890500834
 20
-6.897554438048124
 30
0.0
 10
19.54849287670773
 20
-6.630731231612559
 30
0.0
 10
19.98097763556468
 20
-6.313584688145692
 30
0.0
 10
20.81790566246638
 20
-5.54513797273641
 30
0.0
 10
21.22286365082644
 20
-5.096449981703595
 30
0.0
 10
21.60514091132511
 20
-4.536039011063806
 30
0.0
  0
SPLINE
  5
D6
330
1F
100
AcDbEntity
  8
1
 62
     4
420
    65535
100
AcDbSpline
210
0.0
220
0.0
230
1.0
 70
     8
 71
     3
 72
    10
 73
     6
 74
     0
 42
0.00000001
 43
0.00000001
 12
1.0
 22
0.0
 32
0.0
 13
1.0
 23
0.0
 33
0.0
 40
0.0
 40
0.0
 40
0.0
 40
0.0
 40
0.5
 40
0.5
 40
1.0
 40
1.0
 40
1.0
 40
1.0
 10
21.60514091132511
 20
-4.536039011063805
 30
0.0
 10
21.22600373367586
 20
-5.091846681797055
 30
0.0
 10
20.8220079350991
 20
-5.540938126702656
 30
0.0
 10
19.98349334752773
 20
-6.311704658566133
 30
0.0
 10
19.54744903369006
 20
-6.631359248133606
 30
0.0
 10
19.10499890500839
 20
-6.897554438048573
 30
0.0
  0
LINE
  5
D7
330
1F
100
AcDbEntity
  8
1
 62
     4
420
    65535
100
AcDbLine
 10
-21.2533678162
 20
5.1002744641
 30
0.0
 11
-21.2533678162
 21
-5.0997318514
 31
0.0
  0
SPLINE
  5
D8
330
1F
100
AcDbEntity
  8
1
 62
     4
420
    65535
100
AcDbSpline
210
0.0
220
0.0
230
1.0
 70
     8
 71
     3
 72
    10
 73
     6
 74
     0
 42
0.00000001
 43
0.00000001
 12
1.0
 22
0.0
 32
0.0
 13
1.0
 23
0.0
 33
0.0
 40
0.0
 40
0.0
 40
0.0
 40
0.0
 40
0.5
 40
0.5
 40
1.0
 40
1.0
 40
1.0
 40
1.0
 10
19.10499890500835
 20
6.898097050736339
 30
0.0
 10
19.10499890500835
 20
6.898097050736337
 30
0.0
 10
19.07941604208684
 20
6.913555951344897
 30
0.0
 10
19.00588530402202
 20
6.956896974418862
 30
0.0
 10
18.95726258250246
 20
6.98511082987061
 30
0.0
 10
18.90499890500898
 20
7.014542473043943
 30
0.0
  0
LINE
  5
D9
330
1F
100
AcDbEntity
  8
1
 62
     4
420
    65535
100
AcDbLine
 10
-22.395001095
 20
-6.9958196398
 30
0.0
 11
-22.395001095
 21
6.9963622525
 31
0.0
  0
LINE
  5
DA
330
1F
100
AcDbEntity
  8
1
 62
     4
420
    65535
100
AcDbLine
 10
-56.395001095
 20
-7.9839425211
 30
0.0
 11
-56.395001095
 21
7.9844851338
 31
0.0
  0
LINE
  5
DB
330
1F
100
AcDbEntity
  8
1
 62
     4
420
    65535
100
AcDbLine
 10
-56.395001095
 20
-8.4997286937
 30
0.0
 11
-56.395001095
 21
8.5002713063
 31
0.0
  0
LINE
  5
DC
330
1F
100
AcDbEntity
  8
1
 62
     4
420
    65535
100
AcDbLine
 10
-64.395001095
 20
-8.4997286937
 30
0.0
 11
-64.395001095
 21
8.5002713063
 31
0.0
  0
LINE
  5
DD
330
1F
100
AcDbEntity
  8
1
 62
     4
420
    65535
100
AcDbLine
 10
-65.395001095
 20
-9.4958545255
 30
0.0
 11
-65.395001095
 21
9.4963971382
 31
0.0
  0
LINE
  5
DE
330
1F
100
AcDbEntity
  8
1
 62
     4
420
    65535
100
AcDbLine
 10
-65.395001095
 20
-12.4444730302
 30
0.0
 11
-65.395001095
 21
12.4450156429
 31
0.0
  0
LINE
  5
DF
330
1F
100
AcDbEntity
  8
1
 62
     4
420
    65535
100
AcDbLine
 10
0.304998905
 20
-22.2675852897
 30
0.0
 11
0.304998905
 21
22.2681279023
 31
0.0
  0
LINE
  5
E0
330
1F
100
AcDbEntity
  8
1
 62
     4
420
    65535
100
AcDbLine
 10
-64.9657108889
 20
-12.9433171565
 30
0.0
 11
-64.9657108889
 21
12.9438597692
 31
0.0
  0
LINE
  5
E1
330
1F
100
AcDbEntity
  8
1
 62
     4
420
    65535
100
AcDbLine
 10
0.304998905
 20
-22.2375852897
 30
0.0
 11
0.304998905
 21
22.2381279023
 31
0.0
  0
LINE
  5
E2
330
1F
100
AcDbEntity
  8
1
 62
     4
420
    65535
100
AcDbLine
 10
0.404998905
 20
-22.1375852897
 30
0.0
 11
0.404998905
 21
22.1381279023
 31
0.0
  0
LINE
  5
E3
330
1F
100
AcDbEntity
  8
1
 62
     4
420
    65535
100
AcDbLine
 10
1.904998905
 20
-22.1375852897
 30
0.0
 11
1.904998905
 21
22.1381279023
 31
0.0
  0
LINE
  5
E4
330
1F
100
AcDbEntity
  8
1
 62
     4
420
    65535
100
AcDbLine
 10
2.004998905
 20
-22.2375852897
 30
0.0
 11
2.004998905
 21
22.2381279023
 31
0.0
  0
LINE
  5
E5
330
1F
100
AcDbEntity
  8
1
 62
     4
420
    65535
100
AcDbLine
 10
2.004998905
 20
8.5502713063
 30
0.0
 11
2.004998905
 21
-8.5497286937
 31
0.0
  0
LINE
  5
E6
330
1F
100
AcDbEntity
  8
1
 62
     4
420
    65535
100
AcDbLine
 10
2.004998905
 20
8.5502713063
 30
0.0
 11
2.004998905
 21
31.4845375431
 31
0.0
  0
LINE
  5
E7
330
1F
100
AcDbEntity
  8
1
 62
     4
420
    65535
100
AcDbLine
 10
11.6048568987
 20
8.0502713063
 30
0.0
 11
11.6048568987
 21
31.5002713063
 31
0.0
  0
LINE
  5
E8
330
1F
100
AcDbEntity
  8
1
 62
     4
420
    65535
100
AcDbLine
 10
11.6048568987
 20
8.0502713063
 30
0.0
 11
2.504998905
 21
8.0502713063
 31
0.0
  0
LINE
  5
E9
330
1F
100
AcDbEntity
  8
1
 62
     4
420
    65535
100
AcDbLine
 10
21.6051409113
 20
-4.5360390111
 30
0.0
 11
21.6051409113
 21
-31.4839077932
 31
0.0
  0
LINE
  5
EA
330
1F
100
AcDbEntity
  8
1
 62
     4
420
    65535
100
AcDbLine
 10
2.504998905
 20
8.0502713063
 30
0.0
 11
2.004998905
 21
8.5502713063
 31
0.0
  0
LINE
  5
EB
330
1F
100
AcDbEntity
  8
1
 62
     4
420
    65535
100
AcDbLine
 10
2.004998905
 20
8.5502713063
 30
0.0
 11
2.504998905
 21
8.0502713063
 31
0.0
  0
LINE
  5
EC
330
1F
100
AcDbEntity
  8
1
 62
     4
420
    65535
100
AcDbLine
 10
14.104998905
 20
8.0502713063
 30
0.0
 11
14.104998905
 21
27.1538949776
 31
0.0
  0
LINE
  5
ED
330
1F
100
AcDbEntity
  8
1
 62
     4
420
    65535
100
AcDbLine
 10
-54.6629502874
 20
-6.9958196398
 30
0.0
 11
-54.6629502874
 21
6.9963622525
 31
0.0
  0
LINE
  5
EE
330
1F
100
AcDbEntity
  8
1
 62
     4
420
    65535
100
AcDbLine
 10
14.104998905
 20
8.0502713063
 30
0.0
 11
14.104998905
 21
26.6846795243
 31
0.0
  0
SPLINE
  5
EF
330
1F
100
AcDbEntity
  8
1
 62
     4
420
    65535
100
AcDbSpline
210
0.0
220
0.0
230
1.0
 70
    24
 71
     3
 72
     8
 73
     4
 74
     0
 42
0.00000001
 43
0.00000001
 12
1.0
 22
0.0
 32
0.0
 13
1.0
 23
0.0
 33
0.0
 40
0.0
 40
0.0
 40
0.0
 40
0.0
 40
1.0
 40
1.0
 40
1.0
 40
1.0
 10
14.10499890500835
 20
8.050271306344102
 30
0.0
 10
13.27581444365017
 20
8.050271306344102
 30
0.0
 10
12.44183895634114
 20
8.050271306344102
 30
0.0
 10
11.6048568986916
 20
8.050271306344102
 30
0.0
  0
SPLINE
  5
F0
330
1F
100
AcDbEntity
  8
1
 62
     4
420
    65535
100
AcDbSpline
210
0.0
220
0.0
230
1.0
 70
    24
 71
     3
 72
     8
 73
     4
 74
     0
 42
0.00000001
 43
0.00000001
 12
1.0
 22
0.0
 32
0.0
 13
1.0
 23
0.0
 33
0.0
 40
0.0
 40
0.0
 40
0.0
 40
0.0
 40
1.0
 40
1.0
 40
1.0
 40
1.0
 10
11.6048568986916
 20
8.050271306344102
 30
0.0
 10
12.44181360851444
 20
8.050271306344102
 30
0.0
 10
13.2757917292369
 20
8.050271306344102
 30
0.0
 10
14.10499890500835
 20
8.050271306344102
 30
0.0
  0
LINE
  5
F1
330
1F
100
AcDbEntity
  8
1
 62
     4
420
    65535
100
AcDbLine
 10
14.304998905
 20
8.0502713063
 30
0.0
 11
14.304998905
 21
26.4848546888
 31
0.0
  0
LINE
  5
F2
330
1F
100
AcDbEntity
  8
1
 62
     4
420
    65535
100
AcDbLine
 10
14.954998905
 20
8.0502713063
 30
0.0
 11
14.304998905
 21
8.0502713063
 31
0.0
  0
SPLINE
  5
F3
330
1F
100
AcDbEntity
  8
1
 62
     4
420
    65535
100
AcDbSpline
210
0.0
220
0.0
230
1.0
 70
    24
 71
     3
 72
    10
 73
     6
 74
     0
 42
0.00000001
 43
0.00000001
 12
1.0
 22
0.0
 32
0.0
 13
1.0
 23
0.0
 33
0.0
 40
0.0
 40
0.0
 40
0.0
 40
0.0
 40
0.5
 40
0.5
 40
1.0
 40
1.0
 40
1.0
 40
1.0
 10
14.10499890500835
 20
8.050271306344102
 30
0.0
 10
14.10499890500798
 20
8.0502713063441
 30
0.0
 10
14.12545183513813
 20
8.050271306344102
 30
0.0
 10
14.19799927986742
 20
8.050271306344102
 30
0.0
 10
14.25148380161598
 20
8.050271306344104
 30
0.0
 10
14.30499890500836
 20
8.050271306344102
 30
0.0
  0
SPLINE
  5
F4
330
1F
100
AcDbEntity
  8
1
 62
     4
420
    65535
100
AcDbSpline
210
0.0
220
0.0
230
1.0
 70
     8
 71
     3
 72
    12
 73
     8
 74
     0
 42
0.00000001
 43
0.00000001
 12
1.0
 22
0.0
 32
0.0
 13
1.0
 23
0.0
 33
0.0
 40
0.0
 40
0.0
 40
0.0
 40
0.0
 40
0.4999999999999989
 40
0.4999999999999989
 40
0.7499999999999994
 40
0.7499999999999994
 40
1.0
 40
1.0
 40
1.0
 40
1.0
 10
18.90499890500835
 20
7.014542473044179
 30
0.0
 10
18.30460225162259
 20
7.352648417982925
 30
0.0
 10
17.67262893840766
 20
7.608720322119892
 30
0.0
 10
16.67671302962426
 20
7.871489625582963
 30
0.0
 10
16.33473629138437
 20
7.938697695680878
 30
0.0
 10
15.64828798994855
 20
8.027826291455387
 30
0.0
 10
15.30279664273423
 20
8.050271306344102
 30
0.0
 10
14.95499890500836
 20
8.050271306344104
 30
0.0
  0
SPLINE
  5
F5
330
1F
100
AcDbEntity
  8
1
 62
     4
420
    65535
100
AcDbSpline
210
0.0
220
0.0
230
1.0
 70
     8
 71
     3
 72
    10
 73
     6
 74
     0
 42
0.00000001
 43
0.00000001
 12
1.0
 22
0.0
 32
0.0
 13
1.0
 23
0.0
 33
0.0
 40
0.0
 40
0.0
 40
0.0
 40
0.0
 40
0.5
 40
0.5
 40
1.0
 40
1.0
 40
1.0
 40
1.0
 10
18.90499890500834
 20
-7.013999860355977
 30
0.0
 10
18.95746160422557
 20
-6.984456140561985
 30
0.0
 10
19.00558961703672
 20
-6.956528271996394
 30
0.0
 10
19.07960730191933
 20
-6.912900980074081
 30
0.0
 10
19.10499890500835
 20
-6.897554438048116
 30
0.0
 10
19.10499890500835
 20
-6.897554438048115
 30
0.0
  0
SPLINE
  5
F6
330
1F
100
AcDbEntity
  8
1
 62
     4
420
    65535
100
AcDbSpline
210
0.0
220
0.0
230
1.0
 70
     8
 71
     3
 72
    10
 73
     6
 74
     0
 42
0.00000001
 43
0.00000001
 12
1.0
 22
0.0
 32
0.0
 13
1.0
 23
0.0
 33
0.0
 40
0.0
 40
0.0
 40
0.0
 40
0.0
 40
0.5
 40
0.5
 40
1.0
 40
1.0
 40
1.0
 40
1.0
 10
19.10499890500835
 20
-6.897554438048133
 30
0.0
 10
19.10499890500835
 20
-6.897554438048132
 30
0.0
 10
19.07941604208684
 20
-6.913013338656694
 30
0.0
 10
19.00588530402202
 20
-6.956354361730654
 30
0.0
 10
18.95726258250246
 20
-6.984568217182405
 30
0.0
 10
18.90499890500898
 20
-7.013999860355738
 30
0.0
  0
LINE
  5
F7
330
1F
100
AcDbEntity
  8
1
 62
     4
420
    65535
100
AcDbLine
 10
19.104998905
 20
6.8980970507
 30
0.0
 11
19.104998905
 21
27.1544761853
 31
0.0
  0
LINE
  5
F8
330
1F
100
AcDbEntity
  8
1
 62
     4
420
    65535
100
AcDbLine
 10
21.6051409113
 20
4.5365816238
 30
0.0
 11
21.6051409113
 21
31.4844504059
 31
0.0
  0
SPLINE
  5
F9
330
1F
100
AcDbEntity
  8
1
 62
     4
420
    65535
100
AcDbSpline
210
0.0
220
0.0
230
1.0
 70
     8
 71
     3
 72
    10
 73
     6
 74
     0
 42
0.00000001
 43
0.00000001
 12
1.0
 22
0.0
 32
0.0
 13
1.0
 23
0.0
 33
0.0
 40
0.0
 40
0.0
 40
0.0
 40
0.0
 40
0.5
 40
0.5
 40
1.0
 40
1.0
 40
1.0
 40
1.0
 10
21.60514091132511
 20
4.53658162375201
 30
0.0
 10
21.22600373367586
 20
5.092389294485263
 30
0.0
 10
20.8220079350991
 20
5.541480739390863
 30
0.0
 10
19.98349334752773
 20
6.312247271254337
 30
0.0
 10
19.54744903369006
 20
6.631901860821812
 30
0.0
 10
19.10499890500839
 20
6.898097050736778
 30
0.0
  0
SPLINE
  5
FA
330
1F
100
AcDbEntity
  8
1
 62
     4
420
    65535
100
AcDbSpline
210
0.0
220
0.0
230
1.0
 70
     8
 71
     3
 72
    10
 73
     6
 74
     0
 42
0.00000001
 43
0.00000001
 12
1.0
 22
0.0
 32
0.0
 13
1.0
 23
0.0
 33
0.0
 40
0.0
 40
0.0
 40
0.0
 40
0.0
 40
0.5
 40
0.5
 40
1.0
 40
1.0
 40
1.0
 40
1.0
 10
19.10499890500834
 20
6.898097050736328
 30
0.0
 10
19.54849287670774
 20
6.631273844300764
 30
0.0
 10
19.98097763556468
 20
6.314127300833897
 30
0.0
 10
20.81790566246638
 20
5.545680585424615
 30
0.0
 10
21.22286365082644
 20
5.096992594391799
 30
0.0
 10
21.60514091132511
 20
4.53658162375201
 30
0.0
  0
SPLINE
  5
FB
330
1F
100
AcDbEntity
  8
1
 62
     4
420
    65535
100
AcDbSpline
210
0.0
220
0.0
230
1.0
 70
     8
 71
     3
 72
    20
 73
    16
 74
     0
 42
0.00000001
 43
0.00000001
 12
1.0
 22
0.0
 32
0.0
 13
1.0
 23
0.0
 33
0.0
 40
0.0
 40
0.0
 40
0.0
 40
0.0
 40
0.25
 40
0.25
 40
0.375
 40
0.375
 40
0.5
 40
0.5
 40
0.625
 40
0.625
 40
0.75
 40
0.75
 40
0.875
 40
0.875
 40
1.0
 40
1.0
 40
1.0
 40
1.0
 10
21.60514091132511
 20
-4.536039011063804
 30
0.0
 10
22.05958610019861
 20
-3.869831272034355
 30
0.0
 10
22.40582098041887
 20
-3.152127014857081
 30
0.0
 10
22.76368307816928
 20
-1.99708136095339
 30
0.0
 10
22.85425569057988
 20
-1.601190450135355
 30
0.0
 10
22.97421379424257
 20
-0.8091297574977413
 30
0.0
 10
23.00460437321787
 20
-0.4099415498192425
 30
0.0
 10
23.00538584654407
 20
0.3948506681222459
 30
0.0
 10
22.97498921751002
 20
0.8025031560610199
 30
0.0
 10
22.85530370629387
 20
1.596831546393249
 30
0.0
 10
22.76632533604449
 20
1.986746269935793
 30
0.0
 10
22.53057629900071
 20
2.752276128435113
 30
0.0
 10
22.38245704739034
 20
3.130343449487794
 30
0.0
 10
22.03320966351939
 20
3.855581739528376
 30
0.0
 10
21.83238987084572
 20
4.203439103541154
 30
0.0
 10
21.60514091132511
 20
4.536581623752012
 30
0.0
  0
SPLINE
  5
FC
330
1F
100
AcDbEntity
  8
1
 62
     4
420
    65535
100
AcDbSpline
210
0.0
220
0.0
230
1.0
 70
     8
 71
     3
 72
    20
 73
    16
 74
     0
 42
0.00000001
 43
0.00000001
 12
1.0
 22
0.0
 32
0.0
 13
1.0
 23
0.0
 33
0.0
 40
0.0
 40
0.0
 40
0.0
 40
0.0
 40
0.25
 40
0.25
 40
0.375
 40
0.375
 40
0.5
 40
0.5
 40
0.625
 40
0.625
 40
0.75
 40
0.75
 40
0.875
 40
0.875
 40
1.0
 40
1.0
 40
1.0
 40
1.0
 10
21.60514091132511
 20
4.536581623752009
 30
0.0
 10
22.05958610019861
 20
3.870373884722559
 30
0.0
 10
22.40582098041887
 20
3.152669627545285
 30
0.0
 10
22.76368307816928
 20
1.997623973641593
 30
0.0
 10
22.85425569057988
 20
1.601733062823559
 30
0.0
 10
22.97421379424257
 20
0.8096723701859458
 30
0.0
 10
23.00460437321787
 20
0.410484162507447
 30
0.0
 10
23.00538584654407
 20
-0.3943080554340413
 30
0.0
 10
22.97498921751002
 20
-0.8019605433728154
 30
0.0
 10
22.85530370629387
 20
-1.596288933705045
 30
0.0
 10
22.76632533604449
 20
-1.986203657247589
 30
0.0
 10
22.53057629900071
 20
-2.751733515746909
 30
0.0
 10
22.38245704739034
 20
-3.12980083679959
 30
0.0
 10
22.03320966351939
 20
-3.855039126840172
 30
0.0
 10
21.83238987084572
 20
-4.202896490852948
 30
0.0
 10
21.60514091132511
 20
-4.536039011063806
 30
0.0
  0
LINE
  5
FD
330
1F
100
AcDbEntity
  8
1
 62
     4
420
    65535
100
AcDbLine
 10
27.004998905
 20
-31.4997286937
 30
0.0
 11
27.004998905
 21
31.5002713063
 31
0.0
  0
LINE
  5
FE
330
1F
100
AcDbEntity
  8
1
 62
     4
420
    65535
100
AcDbLine
 10
27.004998905
 20
-19.4958743552
 30
0.0
 11
27.004998905
 21
19.4964169679
 31
0.0
  0
LINE
  5
FF
330
1F
100
AcDbEntity
  8
1
 62
     4
420
    65535
100
AcDbLine
 10
2.004998905
 20
-8.5497286937
 30
0.0
 11
2.504998905
 21
-8.0497286937
 31
0.0
  0
LINE
  5
100
330
1F
100
AcDbEntity
  8
1
 62
     4
420
    65535
100
AcDbLine
 10
2.504998905
 20
-8.0497286937
 30
0.0
 11
14.954998905
 21
-8.0497286937
 31
0.0
  0
SPLINE
  5
101
330
1F
100
AcDbEntity
  8
1
 62
     4
420
    65535
100
AcDbSpline
210
0.0
220
0.0
230
1.0
 70
     8
 71
     3
 72
    12
 73
     8
 74
     0
 42
0.00000001
 43
0.00000001
 12
1.0
 22
0.0
 32
0.0
 13
1.0
 23
0.0
 33
0.0
 40
0.0
 40
0.0
 40
0.0
 40
0.0
 40
0.4999999999999988
 40
0.4999999999999988
 40
0.7499999999999993
 40
0.7499999999999993
 40
1.0
 40
1.0
 40
1.0
 40
1.0
 10
14.95499890500836
 20
8.0502713063441
 30
0.0
 10
15.65074776529359
 20
8.0502713063441
 30
0.0
 10
16.33035215291197
 20
7.961576100831964
 30
0.0
 10
17.32670128717357
 20
7.700621652740394
 30
0.0
 10
17.65657437164444
 20
7.591225552953202
 30
0.0
 10
18.2949981851407
 20
7.332767551468141
 30
0.0
 10
18.60470425054612
 20
7.183649691304723
 30
0.0
 10
18.90499890500835
 20
7.014542473044177
 30
0.0
  0
LINE
  5
102
330
1F
100
AcDbEntity
  8
1
 62
     4
420
    65535
100
AcDbLine
 10
14.954998905
 20
8.0502713063
 30
0.0
 11
2.504998905
 21
8.0502713063
 31
0.0
  0
LINE
  5
103
330
1F
100
AcDbEntity
  8
1
 62
     4
420
    65535
100
AcDbLine
 10
2.504998905
 20
8.0502713063
 30
0.0
 11
2.004998905
 21
8.5502713063
 31
0.0
  0
SPLINE
  5
104
330
1F
100
AcDbEntity
  8
1
 62
     4
420
    65535
100
AcDbSpline
210
0.0
220
0.0
230
1.0
 70
    24
 71
     3
 72
    10
 73
     6
 74
     0
 42
0.00000001
 43
0.00000001
 12
1.0
 22
0.0
 32
0.0
 13
1.0
 23
0.0
 33
0.0
 40
0.0
 40
0.0
 40
0.0
 40
0.0
 40
0.5
 40
0.5
 40
1.0
 40
1.0
 40
1.0
 40
1.0
 10
14.30499890500836
 20
8.050271306344102
 30
0.0
 10
14.25156733650002
 20
8.0502713063441
 30
0.0
 10
14.19859155841256
 20
8.050271306344102
 30
0.0
 10
14.12529672825518
 20
8.050271306344102
 30
0.0
 10
14.10499890500835
 20
8.050271306344104
 30
0.0
 10
14.10499890500835
 20
8.050271306344102
 30
0.0
  0
ARC
  5
105
330
1F
100
AcDbEntity
  8
1
 62
     4
420
    65535
100
AcDbCircle
 10
14.954998905
 20
0.0002713063
 30
0.0
 40
8.05
100
AcDbArc
 50
270.0
 51
90.0
  0
ARC
  5
106
330
1F
100
AcDbEntity
  8
1
 62
     4
420
    65535
100
AcDbCircle
 10
14.954998905
 20
0.0002713063
 30
0.0
 40
8.05
100
AcDbArc
 50
270.0
 51
90.0
  0
LINE
  5
107
330
1F
100
AcDbEntity
  8
1
 62
     4
420
    65535
100
AcDbLine
 10
82.576791268
 20
-8.9585357381
 30
0.0
 11
82.576791268
 21
8.9590783508
 31
0.0
  0
LINE
  5
108
330
1F
100
AcDbEntity
  8
1
 62
     4
420
    65535
100
AcDbLine
 10
81.9227168829
 20
-8.402944485
 30
0.0
 11
81.9227168829
 21
8.4034870977
 31
0.0
  0
LINE
  5
109
330
1F
100
AcDbEntity
  8
1
 62
     4
420
    65535
100
AcDbLine
 10
78.1113780361
 20
-9.3339107401
 30
0.0
 11
78.1113780361
 21
9.3344533528
 31
0.0
  0
LINE
  5
10A
330
1F
100
AcDbEntity
  8
1
 62
     4
420
    65535
100
AcDbLine
 10
73.4685106924
 20
-9.9997292887
 30
0.0
 11
73.4685106924
 21
10.0002719014
 31
0.0
  0
LINE
  5
10B
330
1F
100
AcDbEntity
  8
1
 62
     4
420
    65535
100
AcDbLine
 10
71.6113797646
 20
-9.9997292887
 30
0.0
 11
71.6113797646
 21
10.0002719014
 31
0.0
  0
LINE
  5
10C
330
1F
100
AcDbEntity
  8
1
 62
     4
420
    65535
100
AcDbLine
 10
71.6113797646
 20
-10.0958942196
 30
0.0
 11
71.6113797646
 21
10.0964368323
 31
0.0
  0
LINE
  5
10D
330
1F
100
AcDbEntity
  8
1
 62
     4
420
    65535
100
AcDbLine
 10
68.5113784621
 20
-10.0958942196
 30
0.0
 11
68.5113784621
 21
10.0964368323
 31
0.0
  0
LINE
  5
10E
330
1F
100
AcDbEntity
  8
1
 62
     4
420
    65535
100
AcDbLine
 10
68.1113784621
 20
-10.4843299636
 30
0.0
 11
68.1113784621
 21
10.4848725763
 31
0.0
  0
LINE
  5
10F
330
1F
100
AcDbEntity
  8
1
 62
     4
420
    65535
100
AcDbLine
 10
68.1113784621
 20
-11.7958174286
 30
0.0
 11
68.1113784621
 21
11.7963600412
 31
0.0
  0
LINE
  5
110
330
1F
100
AcDbEntity
  8
1
 62
     4
420
    65535
100
AcDbLine
 10
67.911374829
 20
-11.9843270105
 30
0.0
 11
67.911374829
 21
11.9848696232
 31
0.0
  0
LINE
  5
111
330
1F
100
AcDbEntity
  8
1
 62
     4
420
    65535
100
AcDbLine
 10
34.504998905
 20
-11.9843270105
 30
0.0
 11
34.504998905
 21
11.9848696232
 31
0.0
  0
LINE
  5
112
330
1F
100
AcDbEntity
  8
1
 62
     4
420
    65535
100
AcDbLine
 10
57.3227006014
 20
-5.0997318514
 30
0.0
 11
57.3227006014
 21
5.1002744641
 31
0.0
  0
LINE
  5
113
330
1F
100
AcDbEntity
  8
1
 62
     4
420
    65535
100
AcDbLine
 10
57.6113807972
 20
-5.5840727241
 30
0.0
 11
57.6113807972
 21
5.5846153368
 31
0.0
  0
LINE
  5
114
330
1F
100
AcDbEntity
  8
1
 62
     4
420
    65535
100
AcDbLine
 10
61.9768026288
 20
-5.5840727241
 30
0.0
 11
61.9768026288
 21
5.5846153368
 31
0.0
  0
LINE
  5
115
330
1F
100
AcDbEntity
  8
1
 62
     4
420
    65535
100
AcDbLine
 10
80.0074238622
 20
9.525271424
 30
0.0
 11
80.0074238622
 21
-9.5091945261
 31
0.0
  0
LINE
  5
116
330
1F
100
AcDbEntity
  8
1
 62
     4
420
    65535
100
AcDbLine
 10
73.4050024593
 20
10.1102714547
 30
0.0
 11
73.4050024593
 21
-10.094376973
 31
0.0
  0
LINE
  5
117
330
1F
100
AcDbEntity
  8
1
 62
     4
420
    65535
100
AcDbLine
 10
83.6672410481
 20
9.1711178914
 30
0.0
 11
83.6672410481
 21
-9.1705752787
 31
0.0
  0
LINE
  5
118
330
1F
100
AcDbEntity
  8
1
 62
     4
420
    65535
100
AcDbLine
 10
83.1676066178
 20
9.6131575735
 30
0.0
 11
83.1676066178
 21
-9.5969373424
 31
0.0
  0
LINE
  5
119
330
1F
100
AcDbEntity
  8
1
 62
     4
420
    65535
100
AcDbLine
 10
83.6088916775
 20
8.7559405467
 30
0.0
 11
83.6088916775
 21
-8.7400206302
 31
0.0
  0
LINE
  5
11A
330
1F
100
AcDbEntity
  8
1
 62
     4
420
    65535
100
AcDbLine
 10
84.004998905
 20
8.3002713063
 30
0.0
 11
84.004998905
 21
-8.2839863222
 31
0.0
  0
LINE
  5
11B
330
1F
100
AcDbEntity
  8
1
 62
     4
420
    65535
100
AcDbLine
 10
84.404998905
 20
8.3002713063
 30
0.0
 11
84.404998905
 21
-8.2839863222
 31
0.0
  0
LINE
  5
11C
330
1F
100
AcDbEntity
  8
1
 62
     4
420
    65535
100
AcDbLine
 10
84.6878416175
 20
8.4174285939
 30
0.0
 11
84.6878416175
 21
-8.4168859812
 31
0.0
  0
LINE
  5
11D
330
1F
100
AcDbEntity
  8
1
 62
     4
420
    65535
100
AcDbLine
 10
84.8308060135
 20
8.5603929899
 30
0.0
 11
84.8308060135
 21
-8.5598503772
 31
0.0
  0
LINE
  5
11E
330
1F
100
AcDbEntity
  8
1
 62
     4
420
    65535
100
AcDbLine
 10
85.3136485911
 20
8.6239605168
 30
0.0
 11
85.3136485911
 21
-8.6234179041
 31
0.0
  0
LINE
  5
11F
330
1F
100
AcDbEntity
  8
1
 62
     4
420
    65535
100
AcDbLine
 10
89.4250024403
 20
6.2502713995
 30
0.0
 11
89.4250024403
 21
-6.2497287868
 31
0.0
  0
LINE
  5
120
330
1F
100
AcDbEntity
  8
1
 62
     4
420
    65535
100
AcDbLine
 10
89.504998905
 20
6.2502713995
 30
0.0
 11
89.504998905
 21
-6.2497287868
 31
0.0
  0
LINE
  5
121
330
1F
100
AcDbEntity
  8
1
 62
     4
420
    65535
100
AcDbLine
 10
82.2897604924
 20
-9.3339107401
 30
0.0
 11
82.2897604924
 21
9.3344533528
 31
0.0
  0
LINE
  5
122
330
1F
100
AcDbEntity
  8
1
 62
     4
420
    65535
100
AcDbLine
 10
90.004998905
 20
10.1527483638
 30
0.0
 11
90.004998905
 21
-10.1367893815
 31
0.0
  0
LINE
  5
123
330
1F
100
AcDbEntity
  8
1
 62
     4
420
    65535
100
AcDbLine
 10
89.7049992992
 20
10.6723633785
 30
0.0
 11
89.7049992992
 21
-10.6718207658
 31
0.0
  0
LINE
  5
124
330
1F
100
AcDbEntity
  8
1
 62
     4
420
    65535
100
AcDbLine
 10
78.0103419208
 20
9.5213870607
 30
0.0
 11
78.0103419208
 21
-9.520844448
 31
0.0
  0
LINE
  5
125
330
1F
100
AcDbEntity
  8
1
 62
     4
420
    65535
100
AcDbLine
 10
87.2442293895
 20
12.0002714106
 30
0.0
 11
87.2442293895
 21
-11.999728798
 31
0.0
  0
LINE
  5
126
330
1F
100
AcDbEntity
  8
1
 62
     4
420
    65535
100
AcDbLine
 10
69.3050001108
 20
12.0002714106
 30
0.0
 11
69.3050001108
 21
-11.999728798
 31
0.0
  0
LINE
  5
127
330
1F
100
AcDbEntity
  8
1
 62
     4
420
    65535
100
AcDbLine
 10
69.1049967253
 20
11.8002717504
 30
0.0
 11
69.1049967253
 21
-11.7840833978
 31
0.0
  0
LINE
  5
128
330
1F
100
AcDbEntity
  8
1
 62
     4
420
    65535
100
AcDbLine
 10
69.1049967253
 20
10.310271115
 30
0.0
 11
69.1049967253
 21
-10.2940729371
 31
0.0
  0
LINE
  5
129
330
1F
100
AcDbEntity
  8
1
 62
     4
420
    65535
100
AcDbLine
 10
69.4514114702
 20
10.1102714547
 30
0.0
 11
69.4514114702
 21
-10.094376973
 31
0.0
  0
LINE
  5
12A
330
1F
100
AcDbEntity
  8
1
 62
     4
420
    65535
100
AcDbLine
 10
90.004998905
 20
6.7502713995
 30
0.0
 11
90.004998905
 21
-6.7497287868
 31
0.0
  0
LINE
  5
12B
330
1F
100
AcDbEntity
  8
1
 62
     4
420
    65535
100
AcDbLine
 10
82.2088916147
 20
9.356271767
 30
0.0
 11
82.2088916147
 21
-9.3557291544
 31
0.0
  0
LINE
  5
12C
330
1F
100
AcDbEntity
  8
1
 62
     4
420
    65535
100
AcDbLine
 10
87.5442297837
 20
11.9198864253
 30
0.0
 11
87.5442297837
 21
-11.9193438127
 31
0.0
  0
LINE
  5
12D
330
1F
100
AcDbEntity
  8
1
 62
     4
420
    65535
100
AcDbLine
 10
80.1049966657
 20
9.356271767
 30
0.0
 11
80.1049966657
 21
-9.3557291544
 31
0.0
  0
DIMENSION
  5
12E
330
1F
100
AcDbEntity
  8
2
 62
     7
420
 16777215
100
AcDbDimension
  2
_D
 10
90.004998905
 20
43.5002713063
 30
0.0
 11
12.304998905
 21
43.5002713063
 31
0.0
 70
   160
  1
<>
 71
     2
 42
-1.0
 73
     0
 74
     0
 75
     0
  3
SLDDIMSTYLE0
100
AcDbAlignedDimension
 13
-65.395001095
 23
0.0002713063
 33
0.0
 14
90.004998905
 24
0.0002713063
 34
0.0
 50
0.0
100
AcDbRotatedDimension
  0
DIMENSION
  5
13A
330
1F
100
AcDbEntity
  8
2
 62
     7
420
 16777215
100
AcDbDimension
  2
_D_1
 10
0.004998905
 20
37.5002713063
 30
0.0
 11
45.004998905
 21
37.5002713063
 31
0.0
 70
   160
  1
<>
 71
     2
 42
-1.0
 73
     0
 74
     0
 75
     0
  3
SLDDIMSTYLE0
100
AcDbAlignedDimension
 13
90.004998905
 23
0.0002713063
 33
0.0
 14
0.004998905
 24
0.0002713063
 34
0.0
100
AcDbRotatedDimension
  0
DIMENSION
  5
144
330
1F
100
AcDbEntity
  8
2
 62
     7
420
 16777215
100
AcDbDimension
  2
_D_2
 10
96.004998905
 20
-11.999728798
 30
0.0
 11
96.004998905
 21
0.0002713063
 31
0.0
 70
   160
  1
%%c<>
 71
     2
 42
-1.0
 73
     0
 74
     0
 75
     0
  3
SLDDIMSTYLE0
100
AcDbAlignedDimension
 13
87.2442293895
 23
12.0002714106
 33
0.0
 14
87.2442293895
 24
-11.999728798
 34
0.0
 50
90.0
100
AcDbRotatedDimension
  0
LINE
  5
14F
330
1F
100
AcDbEntity
  8
0
  6
SLD-Gestrichelt
 62
     7
370
     0
100
AcDbLine
 10
-22.395001095
 20
-7.9997286937
 30
0.0
 11
-56.395001095
 21
-7.9997286937
 31
0.0
  0
LINE
  5
150
330
1F
100
AcDbEntity
  8
0
  6
SLD-Gestrichelt
 62
     7
370
     0
100
AcDbLine
 10
-22.395001095
 20
8.0002713063
 30
0.0
 11
-56.395001095
 21
8.0002713063
 31
0.0
  0
ENDSEC
  0
SECTION
  2
OBJECTS
  0
DICTIONARY
  5
C
330
0
100
AcDbDictionary
281
     1
  3
ACAD_GROUP
350
D
  3
ACAD_LAYOUT
350
1A
  3
ACAD_MATERIAL
350
3B
  3
ACAD_MLEADERSTYLE
350
152
  3
ACAD_MLINESTYLE
350
17
  3
ACAD_PLOTSETTINGS
350
19
  3
ACAD_PLOTSTYLENAME
350
E
  3
ACAD_TABLESTYLE
350
151
  3
ACAD_VISUALSTYLE
350
2A
  0
DICTIONARY
  5
D
102
{ACAD_REACTORS
330
C
102
}
330
C
100
AcDbDictionary
281
     1
  0
DICTIONARY
  5
1A
102
{ACAD_REACTORS
330
C
102
}
330
C
100
AcDbDictionary
281
     1
  3
Layout1
350
1E
  3
Layout2
350
26
  3
Model
350
22
  0
DICTIONARY
  5
3B
102
{ACAD_REACTORS
330
C
102
}
330
C
100
AcDbDictionary
281
     1
  3
ByBlock
350
3D
  3
ByLayer
350
3C
  3
Global
350
3E
  0
DICTIONARY
  5
152
102
{ACAD_REACTORS
330
C
102
}
330
C
100
AcDbDictionary
281
     1
  0
DICTIONARY
  5
17
102
{ACAD_REACTORS
330
C
102
}
330
C
100
AcDbDictionary
281
     1
  3
Standard
350
18
  0
DICTIONARY
  5
19
102
{ACAD_REACTORS
330
C
102
}
330
C
100
AcDbDictionary
281
     1
  0
ACDBDICTIONARYWDFLT
  5
E
102
{ACAD_REACTORS
330
C
102
}
330
C
100
AcDbDictionary
281
     1
  3
Normal
350
F
100
AcDbDictionaryWithDefault
340
F
  0
DICTIONARY
  5
151
102
{ACAD_REACTORS
330
C
102
}
330
C
100
AcDbDictionary
281
     1
  0
DICTIONARY
  5
2A
102
{ACAD_REACTORS
330
C
102
}
330
C
100
AcDbDictionary
281
     1
  3
2dWireframe
350
2F
  3
3D Hidden
350
31
  3
3dWireframe
350
30
  3
Basic
350
32
  3
Brighten
350
36
  3
ColorChange
350
3A
  3
Conceptual
350
34
  3
Dim
350
35
  3
Facepattern
350
39
  3
Flat
350
2B
  3
FlatWithEdges
350
2C
  3
Gouraud
350
2D
  3
GouraudWithEdges
350
2E
  3
Linepattern
350
38
  3
Realistic
350
33
  3
Thicken
350
37
  0
LAYOUT
  5
1E
102
{ACAD_REACTORS
330
1A
102
}
330
1A
100
AcDbPlotSettings
  1

  2
none_device
  4

  6

 40
0.0
 41
0.0
 42
0.0
 43
0.0
 44
0.0
 45
0.0
 46
0.0
 47
0.0
 48
0.0
 49
0.0
140
0.0
141
0.0
142
1.0
143
1.0
 70
   688
 72
     0
 73
     0
 74
     5
  7

 75
    16
 76
     0
 77
     2
 78
   300
147
1.0
148
0.0
149
0.0
100
AcDbLayout
  1
Layout1
 70
     1
 71
     1
 10
0.0
 20
0.0
 11
420.0
 21
297.0
 12
0.0
 22
0.0
 32
0.0
 14
1.0000000000E+20
 24
1.0000000000E+20
 34
1.0000000000E+20
 15
-1.0000000000E+20
 25
-1.0000000000E+20
 35
-1.0000000000E+20
146
0.0
 13
0.0
 23
0.0
 33
0.0
 16
1.0
 26
0.0
 36
0.0
 17
0.0
 27
1.0
 37
0.0
 76
     0
330
1B
  0
LAYOUT
  5
26
102
{ACAD_REACTORS
330
1A
102
}
330
1A
100
AcDbPlotSettings
  1

  2
none_device
  4

  6

 40
0.0
 41
0.0
 42
0.0
 43
0.0
 44
0.0
 45
0.0
 46
0.0
 47
0.0
 48
0.0
 49
0.0
140
0.0
141
0.0
142
1.0
143
1.0
 70
   688
 72
     0
 73
     0
 74
     5
  7

 75
    16
 76
     0
 77
     2
 78
   300
147
1.0
148
0.0
149
0.0
100
AcDbLayout
  1
Layout2
 70
     1
 71
     2
 10
0.0
 20
0.0
 11
0.0
 21
0.0
 12
0.0
 22
0.0
 32
0.0
 14
0.0
 24
0.0
 34
0.0
 15
0.0
 25
0.0
 35
0.0
146
0.0
 13
0.0
 23
0.0
 33
0.0
 16
1.0
 26
0.0
 36
0.0
 17
0.0
 27
1.0
 37
0.0
 76
     0
330
23
  0
LAYOUT
  5
22
102
{ACAD_REACTORS
330
1A
102
}
330
1A
100
AcDbPlotSettings
  1

  2
none_device
  4

  6

 40
0.0
 41
0.0
 42
0.0
 43
0.0
 44
0.0
 45
0.0
 46
0.0
 47
0.0
 48
0.0
 49
0.0
140
0.0
141
0.0
142
1.0
143
1.0
 70
  1712
 72
     0
 73
     0
 74
     0
  7

 75
     0
 76
     0
 77
     2
 78
   300
147
1.0
148
0.0
149
0.0
100
AcDbLayout
  1
Model
 70
     1
 71
     0
 10
0.0
 20
0.0
 11
297.0
 21
210.0
 12
0.0
 22
0.0
 32
0.0
 14
0.0
 24
0.0
 34
0.0
 15
297.0
 25
210.0
 35
0.0
146
0.0
 13
0.0
 23
0.0
 33
0.0
 16
1.0
 26
0.0
 36
0.0
 17
0.0
 27
1.0
 37
0.0
 76
     0
330
1F
331
29
  0
MATERIAL
  5
3D
102
{ACAD_REACTORS
330
3B
102
}
330
3B
100
AcDbMaterial
  1
ByBlock
 72
     1
 94
      127
  0
MATERIAL
  5
3C
102
{ACAD_REACTORS
330
3B
102
}
330
3B
100
AcDbMaterial
  1
ByLayer
 72
     1
 94
      127
  0
MATERIAL
  5
3E
102
{ACAD_REACTORS
330
3B
102
}
330
3B
100
AcDbMaterial
  1
Global
 72
     1
 94
      127
  0
MLINESTYLE
  5
18
102
{ACAD_REACTORS
330
17
102
}
330
17
100
AcDbMlineStyle
  2
Standard
 70
     0
  3

 62
   256
 51
90.0
 52
90.0
 71
     2
 49
0.5
 62
   256
  6
BYLAYER
 49
-0.5
 62
   256
  6
BYLAYER
  0
ACDBPLACEHOLDER
  5
F
102
{ACAD_REACTORS
330
E
102
}
330
E
  0
VISUALSTYLE
  5
2F
102
{ACAD_REACTORS
330
2A
102
}
330
2A
100
AcDbVisualStyle
  2
2dWireframe
 70
     4
 71
     0
 72
     2
 73
     0
 90
        0
 40
-0.6
 41
-30.0
 62
     5
 63
     7
421
 16777215
 74
     1
 91
        4
 64
     7
 65
   257
 75
     1
175
     1
 42
1.0
 92
        0
 66
   257
 43
1.0
 76
     1
 77
     6
 78
     2
 67
     7
 79
     5
170
     0
171
     0
290
     0
174
     0
 93
        1
 44
0.0
173
     0
291
     0
 45
0.0
  0
VISUALSTYLE
  5
31
102
{ACAD_REACTORS
330
2A
102
}
330
2A
100
AcDbVisualStyle
  2
3D Hidden
 70
     6
 71
     1
 72
     2
 73
     2
 90
        0
 40
-0.6
 41
-30.0
 62
     5
 63
     7
421
 16777215
 74
     2
 91
        2
 64
     7
 65
   257
 75
     2
175
     1
 42
40.0
 92
        0
 66
   257
 43
1.0
 76
     1
 77
     6
 78
     2
 67
     7
 79
     3
170
     0
171
     0
290
     0
174
     0
 93
        1
 44
0.0
173
     0
291
     0
 45
0.0
  0
VISUALSTYLE
  5
30
102
{ACAD_REACTORS
330
2A
102
}
330
2A
100
AcDbVisualStyle
  2
3dWireframe
 70
     5
 71
     0
 72
     2
 73
     0
 90
        0
 40
-0.6
 41
-30.0
 62
     5
 63
     7
421
 16777215
 74
     1
 91
        4
 64
     7
 65
   257
 75
     1
175
     1
 42
1.0
 92
        0
 66
   257
 43
1.0
 76
     1
 77
     6
 78
     2
 67
     7
 79
     5
170
     0
171
     0
290
     0
174
     0
 93
        1
 44
0.0
173
     0
291
     0
 45
0.0
  0
VISUALSTYLE
  5
32
102
{ACAD_REACTORS
330
2A
102
}
330
2A
100
AcDbVisualStyle
  2
Basic
 70
     7
 71
     1
 72
     0
 73
     1
 90
        0
 40
-0.6
 41
-30.0
 62
     5
 63
     7
421
 16777215
 74
     0
 91
        4
 64
     7
 65
   257
 75
     1
175
     1
 42
1.0
 92
        8
 66
     7
 43
1.0
 76
     1
 77
     6
 78
     2
 67
     7
 79
     5
170
     0
171
     0
290
     0
174
     0
 93
        1
 44
0.0
173
     0
291
     1
 45
0.0
  0
VISUALSTYLE
  5
36
102
{ACAD_REACTORS
330
2A
102
}
330
2A
100
AcDbVisualStyle
  2
Brighten
 70
    12
 71
     2
 72
     2
 73
     0
 90
        0
 40
-0.6
 41
-30.0
 62
     5
 63
     7
421
 16777215
 74
     1
 91
        4
 64
     7
 65
   257
 75
     1
175
     1
 42
1.0
 92
        8
 66
     7
 43
1.0
 76
     1
 77
     6
 78
     2
 67
     7
 79
     5
170
     0
171
     0
290
     0
174
     0
 93
        1
 44
50.0
173
     0
291
     1
 45
0.0
  0
VISUALSTYLE
  5
3A
102
{ACAD_REACTORS
330
2A
102
}
330
2A
100
AcDbVisualStyle
  2
ColorChange
 70
    16
 71
     2
 72
     2
 73
     3
 90
        0
 40
-0.6
 41
-30.0
 62
     5
 63
     8
421
  8421504
 74
     1
 91
        4
 64
     7
 65
   257
 75
     1
175
     1
 42
1.0
 92
        8
 66
     8
424
  8421504
 43
1.0
 76
     1
 77
     6
 78
     2
 67
     7
 79
     5
170
     0
171
     0
290
     0
174
     0
 93
        1
 44
0.0
173
     0
291
     1
 45
0.0
  0
VISUALSTYLE
  5
34
102
{ACAD_REACTORS
330
2A
102
}
330
2A
100
AcDbVisualStyle
  2
Conceptual
 70
     9
 71
     3
 72
     2
 73
     0
 90
        0
 40
-0.6
 41
-30.0
 62
     5
 63
     7
421
 16777215
 74
     2
 91
        2
 64
     7
 65
   257
 75
     1
175
     1
 42
40.0
 92
        8
 66
     7
 43
1.0
 76
     1
 77
     6
 78
     2
 67
     7
 79
     3
170
     0
171
     0
290
     0
174
     0
 93
        1
 44
0.0
173
     0
291
     0
 45
0.0
  0
VISUALSTYLE
  5
35
102
{ACAD_REACTORS
330
2A
102
}
330
2A
100
AcDbVisualStyle
  2
Dim
 70
    11
 71
     2
 72
     2
 73
     0
 90
        0
 40
-0.6
 41
-30.0
 62
     5
 63
     7
421
 16777215
 74
     1
 91
        4
 64
     7
 65
   257
 75
     1
175
     1
 42
1.0
 92
        8
 66
     7
 43
1.0
 76
     1
 77
     6
 78
     2
 67
     7
 79
     5
170
     0
171
     0
290
     0
174
     0
 93
        1
 44
-50.0
173
     0
291
     1
 45
0.0
  0
VISUALSTYLE
  5
39
102
{ACAD_REACTORS
330
2A
102
}
330
2A
100
AcDbVisualStyle
  2
Facepattern
 70
    15
 71
     2
 72
     2
 73
     0
 90
        0
 40
-0.6
 41
-30.0
 62
     5
 63
     7
421
 16777215
 74
     1
 91
        4
 64
     7
 65
   257
 75
     1
175
     1
 42
1.0
 92
        8
 66
     7
 43
1.0
 76
     1
 77
     6
 78
     2
 67
     7
 79
     5
170
     0
171
     0
290
     0
174
     0
 93
        1
 44
0.0
173
     0
291
     1
 45
0.0
  0
VISUALSTYLE
  5
2B
102
{ACAD_REACTORS
330
2A
102
}
330
2A
100
AcDbVisualStyle
  2
Flat
 70
     0
 71
     2
 72
     1
 73
     1
 90
        2
 40
-0.6
 41
30.0
 62
     5
 63
     7
421
 16777215
 74
     0
 91
        4
 64
     7
 65
   257
 75
     1
175
     1
 42
1.0
 92
        8
 66
     7
 43
1.0
 76
     1
 77
     6
 78
     2
 67
     7
 79
     5
170
     0
171
     0
290
     0
174
     0
 93
       13
 44
0.0
173
     0
291
     1
 45
0.0
  0
VISUALSTYLE
  5
2C
102
{ACAD_REACTORS
330
2A
102
}
330
2A
100
AcDbVisualStyle
  2
FlatWithEdges
 70
     1
 71
     2
 72
     1
 73
     1
 90
        2
 40
-0.6
 41
30.0
 62
     5
 63
     7
421
 16777215
 74
     1
 91
        4
 64
     7
 65
   257
 75
     1
175
     1
 42
1.0
 92
        0
 66
   257
 43
1.0
 76
     1
 77
     6
 78
     2
 67
     7
 79
     5
170
     0
171
     0
290
     0
174
     0
 93
       13
 44
0.0
173
     0
291
     1
 45
0.0
  0
VISUALSTYLE
  5
2D
102
{ACAD_REACTORS
330
2A
102
}
330
2A
100
AcDbVisualStyle
  2
Gouraud
 70
     2
 71
     2
 72
     2
 73
     1
 90
        2
 40
-0.6
 41
30.0
 62
     5
 63
     7
421
 16777215
 74
     0
 91
        4
 64
     7
 65
   257
 75
     1
175
     1
 42
1.0
 92
        0
 66
     7
 43
1.0
 76
     1
 77
     6
 78
     2
 67
     7
 79
     5
170
     0
171
     0
290
     0
174
     0
 93
       13
 44
0.0
173
     0
291
     1
 45
0.0
  0
VISUALSTYLE
  5
2E
102
{ACAD_REACTORS
330
2A
102
}
330
2A
100
AcDbVisualStyle
  2
GouraudWithEdges
 70
     3
 71
     2
 72
     2
 73
     1
 90
        2
 40
-0.6
 41
30.0
 62
     5
 63
     7
421
 16777215
 74
     1
 91
        4
 64
     7
 65
   257
 75
     1
175
     1
 42
1.0
 92
        0
 66
   257
 43
1.0
 76
     1
 77
     6
 78
     2
 67
     7
 79
     5
170
     0
171
     0
290
     0
174
     0
 93
       13
 44
0.0
173
     0
291
     1
 45
0.0
  0
VISUALSTYLE
  5
38
102
{ACAD_REACTORS
330
2A
102
}
330
2A
100
AcDbVisualStyle
  2
Linepattern
 70
    14
 71
     2
 72
     2
 73
     0
 90
        0
 40
-0.6
 41
-30.0
 62
     5
 63
     7
421
 16777215
 74
     1
 91
        4
 64
     7
 65
   257
 75
     7
175
     7
 42
1.0
 92
        8
 66
     7
 43
1.0
 76
     1
 77
     6
 78
     2
 67
     7
 79
     5
170
     0
171
     0
290
     0
174
     0
 93
        1
 44
0.0
173
     0
291
     1
 45
0.0
  0
VISUALSTYLE
  5
33
102
{ACAD_REACTORS
330
2A
102
}
330
2A
100
AcDbVisualStyle
  2
Realistic
 70
     8
 71
     2
 72
     2
 73
     0
 90
        0
 40
-0.6
 41
-30.0
 62
     5
 63
     7
421
 16777215
 74
     1
 91
        0
 64
     7
 65
   257
 75
     1
175
     1
 42
1.0
 92
        8
 66
     8
424
  7895160
 43
1.0
 76
     1
 77
     6
 78
     2
 67
     7
 79
     5
170
     0
171
     0
290
     0
174
     0
 93
       13
 44
0.0
173
     0
291
     0
 45
0.0
  0
VISUALSTYLE
  5
37
102
{ACAD_REACTORS
330
2A
102
}
330
2A
100
AcDbVisualStyle
  2
Thicken
 70
    13
 71
     2
 72
     2
 73
     0
 90
        0
 40
-0.6
 41
-30.0
 62
     5
 63
     7
421
 16777215
 74
     1
 91
        4
 64
     7
 65
   257
 75
     1
175
     1
 42
1.0
 92
       12
 66
     7
 43
1.0
 76
     1
 77
     6
 78
     2
 67
     7
 79
     5
170
     0
171
     0
290
     0
174
     0
 93
        1
 44
0.0
173
     0
291
     1
 45
0.0
  0
ENDSEC
  0
EOF
