  0
SECTION
  2
HEADER
  9
$ACADVER
  1
AC1021
  9
$ACADMAINTVER
 70
    25
  9
$DWGCODEPAGE
  3
ANSI_1252
  9
$INSBASE
 10
0.0
 20
0.0
 30
0.0
  9
$EXTMIN
 10
0.0
 20
0.0
 30
0.0
  9
$EXTMAX
 10
297.0
 20
210.0
 30
0.0
  9
$LIMMIN
 10
0.0
 20
0.0
  9
$LIMMAX
 10
297.0
 20
210.0
  9
$ORTHOMODE
 70
     0
  9
$REGENMODE
 70
     1
  9
$FILLMODE
 70
     1
  9
$QTEXTMODE
 70
     0
  9
$MIRRTEXT
 70
     1
  9
$LTSCALE
 40
1.0
  9
$ATTMODE
 70
     1
  9
$TEXTSIZE
 40
3.5
  9
$TRACEWID
 40
1.0
  9
$TEXTSTYLE
  7
Standard
  9
$CLAYER
  8
0
  9
$CELTYPE
  6
ByLayer
  9
$CECOLOR
 62
   256
  9
$CELTSCALE
 40
1.0
  9
$DISPSILH
 70
     0
  9
$DIMSCALE
 40
1.0
  9
$DIMASZ
 40
3.302
  9
$DIMEXO
 40
1.0
  9
$DIMDLI
 40
3.75
  9
$DIMRND
 40
0.0
  9
$DIMDLE
 40
0.0
  9
$DIMEXE
 40
1.0
  9
$DIMTP
 40
0.0
  9
$DIMTM
 40
0.0
  9
$DIMTXT
 40
3.5
  9
$DIMCEN
 40
2.5
  9
$DIMTSZ
 40
0.0
  9
$DIMTOL
 70
     0
  9
$DIMLIM
 70
     0
  9
$DIMTIH
 70
     1
  9
$DIMTOH
 70
     1
  9
$DIMSE1
 70
     0
  9
$DIMSE2
 70
     0
  9
$DIMTAD
 70
     1
  9
$DIMZIN
 70
     0
  9
$DIMBLK
  1

  9
$DIMASO
 70
     1
  9
$DIMSHO
 70
     1
  9
$DIMPOST
  1

  9
$DIMAPOST
  1

  9
$DIMALT
 70
     0
  9
$DIMALTD
 70
     3
  9
$DIMALTF
 40
0.0393700787
  9
$DIMLFAC
 40
1.0
  9
$DIMTOFL
 70
     1
  9
$DIMTVP
 40
0.0
  9
$DIMTIX
 70
     0
  9
$DIMSOXD
 70
     0
  9
$DIMSAH
 70
     0
  9
$DIMBLK1
  1

  9
$DIMBLK2
  1

  9
$DIMSTYLE
  2
ISO-25
  9
$DIMCLRD
 70
     0
  9
$DIMCLRE
 70
     0
  9
$DIMCLRT
 70
     0
  9
$DIMTFAC
 40
1.0
  9
$DIMGAP
 40
1.524
  9
$DIMJUST
 70
     0
  9
$DIMSD1
 70
     0
  9
$DIMSD2
 70
     0
  9
$DIMTOLJ
 70
     0
  9
$DIMTZIN
 70
     0
  9
$DIMALTZ
 70
     0
  9
$DIMALTTZ
 70
     0
  9
$DIMUPT
 70
     0
  9
$DIMDEC
 70
     2
  9
$DIMTDEC
 70
     2
  9
$DIMALTU
 70
     2
  9
$DIMALTTD
 70
     3
  9
$DIMTXSTY
  7
Standard
  9
$DIMAUNIT
 70
     0
  9
$DIMADEC
 70
     2
  9
$DIMALTRND
 40
0.0
  9
$DIMAZIN
 70
     0
  9
$DIMDSEP
 70
    44
  9
$DIMATFIT
 70
     3
  9
$DIMFRAC
 70
     0
  9
$DIMLDRBLK
  1

  9
$DIMLUNIT
 70
     2
  9
$DIMLWD
 70
    -2
  9
$DIMLWE
 70
    -2
  9
$DIMTMOVE
 70
     0
  9
$DIMFXL
 40
1.0
  9
$DIMFXLON
 70
     0
  9
$DIMJOGANG
 40
0.7853981634
  9
$DIMTFILL
 70
     0
  9
$DIMTFILLCLR
 70
     0
  9
$DIMARCSYM
 70
     0
  9
$DIMLTYPE
  6

  9
$DIMLTEX1
  6

  9
$DIMLTEX2
  6

  9
$LUNITS
 70
     2
  9
$LUPREC
 70
     2
  9
$SKETCHINC
 40
1.0
  9
$FILLETRAD
 40
10.0
  9
$AUNITS
 70
     0
  9
$AUPREC
 70
     2
  9
$MENU
  1
.
  9
$ELEVATION
 40
0.0
  9
$PELEVATION
 40
0.0
  9
$THICKNESS
 40
0.0
  9
$LIMCHECK
 70
     0
  9
$CHAMFERA
 40
10.0
  9
$CHAMFERB
 40
10.0
  9
$CHAMFERC
 40
20.0
  9
$CHAMFERD
 40
0.0
  9
$SKPOLY
 70
     0
  9
$TDCREATE
 40
2456455.390823866
  9
$TDUCREATE
 40
2456455.307490532
  9
$TDUPDATE
 40
2456455.39082456
  9
$TDUUPDATE
 40
2456455.307491227
  9
$TDINDWG
 40
0.0000000116
  9
$TDUSRTIMER
 40
0.0000000116
  9
$USRTIMER
 70
     1
  9
$ANGBASE
 50
0.0
  9
$ANGDIR
 70
     0
  9
$PDMODE
 70
     0
  9
$PDSIZE
 40
-1.0
  9
$PLINEWID
 40
0.0
  9
$SPLFRAME
 70
     0
  9
$SPLINETYPE
 70
     6
  9
$SPLINESEGS
 70
     8
  9
$HANDSEED
  5
193
  9
$SURFTAB1
 70
     6
  9
$SURFTAB2
 70
     6
  9
$SURFTYPE
 70
     6
  9
$SURFU
 70
     6
  9
$SURFV
 70
     6
  9
$UCSBASE
  2

  9
$UCSNAME
  2

  9
$UCSORG
 10
0.0
 20
0.0
 30
0.0
  9
$UCSXDIR
 10
1.0
 20
0.0
 30
0.0
  9
$UCSYDIR
 10
0.0
 20
1.0
 30
0.0
  9
$UCSORTHOREF
  2

  9
$UCSORTHOVIEW
 70
     0
  9
$UCSORGTOP
 10
0.0
 20
0.0
 30
0.0
  9
$UCSORGBOTTOM
 10
0.0
 20
0.0
 30
0.0
  9
$UCSORGLEFT
 10
0.0
 20
0.0
 30
0.0
  9
$UCSORGRIGHT
 10
0.0
 20
0.0
 30
0.0
  9
$UCSORGFRONT
 10
0.0
 20
0.0
 30
0.0
  9
$UCSORGBACK
 10
0.0
 20
0.0
 30
0.0
  9
$PUCSBASE
  2

  9
$PUCSNAME
  2

  9
$PUCSORG
 10
0.0
 20
0.0
 30
0.0
  9
$PUCSXDIR
 10
1.0
 20
0.0
 30
0.0
  9
$PUCSYDIR
 10
0.0
 20
1.0
 30
0.0
  9
$PUCSORTHOREF
  2

  9
$PUCSORTHOVIEW
 70
     0
  9
$PUCSORGTOP
 10
0.0
 20
0.0
 30
0.0
  9
$PUCSORGBOTTOM
 10
0.0
 20
0.0
 30
0.0
  9
$PUCSORGLEFT
 10
0.0
 20
0.0
 30
0.0
  9
$PUCSORGRIGHT
 10
0.0
 20
0.0
 30
0.0
  9
$PUCSORGFRONT
 10
0.0
 20
0.0
 30
0.0
  9
$PUCSORGBACK
 10
0.0
 20
0.0
 30
0.0
  9
$USERI1
 70
     0
  9
$USERI2
 70
     0
  9
$USERI3
 70
     0
  9
$USERI4
 70
     0
  9
$USERI5
 70
     0
  9
$USERR1
 40
0.0
  9
$USERR2
 40
0.0
  9
$USERR3
 40
0.0
  9
$USERR4
 40
0.0
  9
$USERR5
 40
0.0
  9
$WORLDVIEW
 70
     1
  9
$SHADEDGE
 70
     3
  9
$SHADEDIF
 70
    70
  9
$TILEMODE
 70
     1
  9
$MAXACTVP
 70
    64
  9
$PINSBASE
 10
0.0
 20
0.0
 30
0.0
  9
$PLIMCHECK
 70
     0
  9
$PEXTMIN
 10
1.0000000000E+20
 20
1.0000000000E+20
 30
1.0000000000E+20
  9
$PEXTMAX
 10
-1.0000000000E+20
 20
-1.0000000000E+20
 30
-1.0000000000E+20
  9
$PLIMMIN
 10
0.0
 20
0.0
  9
$PLIMMAX
 10
420.0
 20
297.0
  9
$UNITMODE
 70
     0
  9
$VISRETAIN
 70
     1
  9
$PLINEGEN
 70
     0
  9
$PSLTSCALE
 70
     1
  9
$TREEDEPTH
 70
  3020
  9
$CMLSTYLE
  2
Standard
  9
$CMLJUST
 70
     0
  9
$CMLSCALE
 40
20.0
  9
$PROXYGRAPHICS
 70
     1
  9
$MEASUREMENT
 70
     1
  9
$CELWEIGHT
370
    -1
  9
$ENDCAPS
280
     0
  9
$JOINSTYLE
280
     0
  9
$LWDISPLAY
290
     1
  9
$INSUNITS
 70
     4
  9
$HYPERLINKBASE
  1

  9
$STYLESHEET
  1

  9
$XEDIT
290
     1
  9
$CEPSNTYPE
380
     0
  9
$PSTYLEMODE
290
     1
  9
$FINGERPRINTGUID
  2
{9833532A-A078-4067-8B0A-4B238B7E0D1E}
  9
$VERSIONGUID
  2
{FAEB1C32-E019-11D5-929B-00C0DF256EC4}
  9
$EXTNAMES
290
     1
  9
$PSVPSCALE
 40
0.0
  9
$OLESTARTUP
290
     0
  9
$SORTENTS
280
   127
  9
$INDEXCTL
280
     0
  9
$HIDETEXT
280
     1
  9
$XCLIPFRAME
290
     0
  9
$HALOGAP
280
     0
  9
$OBSCOLOR
 70
   257
  9
$OBSLTYPE
280
     0
  9
$INTERSECTIONDISPLAY
280
     0
  9
$INTERSECTIONCOLOR
 70
   257
  9
$DIMASSOC
280
     2
  9
$PROJECTNAME
  1

  9
$CAMERADISPLAY
290
     0
  9
$LENSLENGTH
 40
50.0
  9
$CAMERAHEIGHT
 40
0.0
  9
$STEPSPERSEC
 40
2.0
  9
$STEPSIZE
 40
6.0
  9
$3DDWFPREC
 40
2.0
  9
$PSOLWIDTH
 40
5.0
  9
$PSOLHEIGHT
 40
80.0
  9
$LOFTANG1
 40
1.5707963268
  9
$LOFTANG2
 40
1.5707963268
  9
$LOFTMAG1
 40
0.0
  9
$LOFTMAG2
 40
0.0
  9
$LOFTPARAM
 70
     7
  9
$LOFTNORMALS
280
     1
  9
$LATITUDE
 40
37.795
  9
$LONGITUDE
 40
-122.394
  9
$NORTHDIRECTION
 40
0.0
  9
$TIMEZONE
 70
 -8000
  9
$LIGHTGLYPHDISPLAY
280
     1
  9
$TILEMODELIGHTSYNCH
280
     1
  9
$SOLIDHIST
280
     1
  9
$SHOWHIST
280
     1
  9
$DWFFRAME
280
     2
  9
$DGNFRAME
280
     2
  9
$REALWORLDSCALE
290
     1
  9
$INTERFERECOLOR
 62
   256
  9
$CSHADOW
280
     0
  9
$SHADOWPLANELOCATION
 40
0.0
  0
ENDSEC
  0
SECTION
  2
CLASSES
  0
CLASS
  1
ACDBDICTIONARYWDFLT
  2
AcDbDictionaryWithDefault
  3
ObjectDBX Classes
 90
        0
 91
        4
280
     0
281
     0
  0
CLASS
  1
VISUALSTYLE
  2
AcDbVisualStyle
  3
ObjectDBX Classes
 90
     4095
 91
        4
280
     0
281
     0
  0
CLASS
  1
MATERIAL
  2
AcDbMaterial
  3
ObjectDBX Classes
 90
     1153
 91
        4
280
     0
281
     0
  0
ENDSEC
  0
SECTION
  2
TABLES
  0
TABLE
  2
VPORT
  5
8
330
0
100
AcDbSymbolTable
 70
     1
  0
VPORT
  5
29
330
8
100
AcDbSymbolTableRecord
100
AcDbViewportTableRecord
  2
*Active
 70
     0
 10
0.0
 20
0.0
 11
1.0
 21
1.0
 12
148.5
 22
105.0
 13
0.0
 23
0.0
 14
10.0
 24
10.0
 15
10.0
 25
10.0
 16
0.0
 26
0.0
 36
1.0
 17
0.0
 27
0.0
 37
0.0
 40
210.0
 41
1.4142857143
 42
50.0
 43
0.0
 44
0.0
 50
0.0
 51
0.0
 71
     0
 72
  2000
 73
     1
 74
     3
 75
     0
 76
     0
 77
     0
 78
     0
281
     0
 65
     1
110
0.0
120
0.0
130
0.0
111
1.0
121
0.0
131
0.0
112
0.0
122
1.0
132
0.0
 79
     0
146
0.0
 60
     3
 61
     5
292
     1
282
     1
141
0.0
142
0.0
 63
   250
  0
ENDTAB
  0
TABLE
  2
LTYPE
  5
5
330
0
100
AcDbSymbolTable
 70
     8
  0
LTYPE
  5
14
330
5
100
AcDbSymbolTableRecord
100
AcDbLinetypeTableRecord
  2
ByBlock
 70
     0
  3

 72
    65
 73
     0
 40
0.0
  0
LTYPE
  5
15
330
5
100
AcDbSymbolTableRecord
100
AcDbLinetypeTableRecord
  2
ByLayer
 70
     0
  3

 72
    65
 73
     0
 40
0.0
  0
LTYPE
  5
16
330
5
100
AcDbSymbolTableRecord
100
AcDbLinetypeTableRecord
  2
Continuous
 70
     0
  3
Solid line
 72
    65
 73
     0
 40
0.0
  0
LTYPE
  5
3F
330
5
100
AcDbSymbolTableRecord
100
AcDbLinetypeTableRecord
  2
SLD-Durchgehend
 70
     0
  3
SolidWorks Line Style
 72
    65
 73
     0
 40
0.0
  0
LTYPE
  5
40
330
5
100
AcDbSymbolTableRecord
100
AcDbLinetypeTableRecord
  2
SLD-Gestrichelt
 70
     0
  3
SolidWorks Line Style
 72
    65
 73
     2
 40
1.905
 49
1.27
 74
     0
 49
-0.635
 74
     0
  0
LTYPE
  5
41
330
5
100
AcDbSymbolTableRecord
100
AcDbLinetypeTableRecord
  2
SLD-Phantom
 70
     0
  3
SolidWorks Line Style
 72
    65
 73
     6
 40
12.7
 49
6.35
 74
     0
 49
-1.27
 74
     0
 49
1.27
 74
     0
 49
-1.27
 74
     0
 49
1.27
 74
     0
 49
-1.27
 74
     0
  0
LTYPE
  5
42
330
5
100
AcDbSymbolTableRecord
100
AcDbLinetypeTableRecord
  2
SLD-Kette
 70
     0
  3
SolidWorks Line Style
 72
    65
 73
     4
 40
10.16
 49
6.35
 74
     0
 49
-1.27
 74
     0
 49
1.27
 74
     0
 49
-1.27
 74
     0
  0
LTYPE
  5
43
330
5
100
AcDbSymbolTableRecord
100
AcDbLinetypeTableRecord
  2
SLD-Punktstrich
 70
     0
  3
SolidWorks Line Style
 72
    65
 73
     4
 40
19.05
 49
15.24
 74
     0
 49
-1.27
 74
     0
 49
1.27
 74
     0
 49
-1.27
 74
     0
  0
LTYPE
  5
44
330
5
100
AcDbSymbolTableRecord
100
AcDbLinetypeTableRecord
  2
SLD-Naht
 70
     0
  3
SolidWorks Line Style
 72
    65
 73
     2
 40
0.635
 49
0.0
 74
     0
 49
-0.635
 74
     0
  0
LTYPE
  5
45
330
5
100
AcDbSymbolTableRecord
100
AcDbLinetypeTableRecord
  2
SLD-Dicke-Dünne-Kette
 70
     0
  3
SolidWorks Line Style
 72
    65
 73
     4
 40
10.16
 49
6.35
 74
     0
 49
-1.27
 74
     0
 49
1.27
 74
     0
 49
-1.27
 74
     0
  0
ENDTAB
  0
TABLE
  2
LAYER
  5
2
330
0
100
AcDbSymbolTable
 70
     3
  0
LAYER
  5
10
330
2
100
AcDbSymbolTableRecord
100
AcDbLayerTableRecord
  2
0
 70
     0
 62
     7
  6
Continuous
370
    -3
390
F
347
3E
  0
LAYER
  5
46
330
2
100
AcDbSymbolTableRecord
100
AcDbLayerTableRecord
  2
1
 70
     0
 62
     4
  6
Continuous
370
    -1
390
F
347
3E
  0
LAYER
  5
47
330
2
100
AcDbSymbolTableRecord
100
AcDbLayerTableRecord
  2
2
 70
     0
 62
     7
  6
SLD-Durchgehend
370
    -3
390
F
347
3E
  0
ENDTAB
  0
TABLE
  2
STYLE
  5
3
330
0
100
AcDbSymbolTable
 70
     2
  0
STYLE
  5
11
330
3
100
AcDbSymbolTableRecord
100
AcDbTextStyleTableRecord
  2
Standard
 70
     0
 40
0.0
 41
1.0
 50
0.0
 71
     0
 42
3.5
  3
txt
  4

  0
STYLE
  5
163
330
3
100
AcDbSymbolTableRecord
100
AcDbTextStyleTableRecord
  2
SLDTEXTSTYLE0
 70
     0
 40
0.0
 41
0.75
 50
0.0
 71
     0
 42
0.2
  3
TXT
  4

  0
ENDTAB
  0
TABLE
  2
VIEW
  5
6
330
0
100
AcDbSymbolTable
 70
     0
  0
ENDTAB
  0
TABLE
  2
UCS
  5
7
330
0
100
AcDbSymbolTable
 70
     0
  0
ENDTAB
  0
TABLE
  2
APPID
  5
9
330
0
100
AcDbSymbolTable
 70
     1
  0
APPID
  5
12
330
9
100
AcDbSymbolTableRecord
100
AcDbRegAppTableRecord
  2
ACAD
 70
     0
  0
ENDTAB
  0
TABLE
  2
DIMSTYLE
  5
A
330
0
100
AcDbSymbolTable
 70
     2
100
AcDbDimStyleTable
  0
DIMSTYLE
105
27
330
A
100
AcDbSymbolTableRecord
100
AcDbDimStyleTableRecord
  2
ISO-25
 70
     0
 41
2.5
 42
0.625
 43
3.75
 44
1.25
 73
     0
 74
     0
 77
     1
 78
     8
140
2.5
141
2.5
143
0.0393700787
147
0.625
171
     3
172
     1
178
     0
271
     2
272
     2
274
     3
278
    44
283
     0
284
     8
340
11
  0
DIMSTYLE
105
164
102
{ACAD_REACTORS
330
162
330
16E
330
178
330
184
102
}
330
A
100
AcDbSymbolTableRecord
100
AcDbDimStyleTableRecord
  2
SLDDIMSTYLE0
 70
     0
 41
3.302
 44
0.0
 45
0.000000001
 73
     0
 74
     0
 77
     1
 78
    12
 79
     3
140
3.5
147
0.875
173
     1
178
     0
271
     2
272
     2
276
     2
284
    12
340
163
  0
ENDTAB
  0
TABLE
  2
BLOCK_RECORD
  5
1
330
0
100
AcDbSymbolTable
 70
     5
  0
BLOCK_RECORD
  5
1F
330
1
100
AcDbSymbolTableRecord
100
AcDbBlockTableRecord
  2
*Model_Space
340
22
 70
     0
280
     1
281
     0
  0
BLOCK_RECORD
  5
1B
330
1
100
AcDbSymbolTableRecord
100
AcDbBlockTableRecord
  2
*Paper_Space
340
1E
 70
     0
280
     1
281
     0
  0
BLOCK_RECORD
  5
23
330
1
100
AcDbSymbolTableRecord
100
AcDbBlockTableRecord
  2
*Paper_Space0
340
26
 70
     0
280
     1
281
     0
  0
BLOCK_RECORD
  5
165
330
1
100
AcDbSymbolTableRecord
100
AcDbBlockTableRecord
  2
_D
340
0
 70
     0
280
     1
281
     0
  0
BLOCK_RECORD
  5
16F
330
1
100
AcDbSymbolTableRecord
100
AcDbBlockTableRecord
  2
_D_1
340
0
 70
     0
280
     1
281
     0
  0
BLOCK_RECORD
  5
179
330
1
100
AcDbSymbolTableRecord
100
AcDbBlockTableRecord
  2
_D_2
340
0
 70
     0
280
     1
281
     0
  0
BLOCK_RECORD
  5
185
330
1
100
AcDbSymbolTableRecord
100
AcDbBlockTableRecord
  2
_D_3
340
0
 70
     0
280
     1
281
     0
  0
ENDTAB
  0
ENDSEC
  0
SECTION
  2
BLOCKS
  0
BLOCK
  5
20
330
1F
100
AcDbEntity
  8
0
100
AcDbBlockBegin
  2
*Model_Space
 70
     0
 10
0.0
 20
0.0
 30
0.0
  3
*Model_Space
  1

  0
ENDBLK
  5
21
330
1F
100
AcDbEntity
  8
0
100
AcDbBlockEnd
  0
BLOCK
  5
1C
330
1B
100
AcDbEntity
 67
     1
  8
0
100
AcDbBlockBegin
  2
*Paper_Space
 70
     0
 10
0.0
 20
0.0
 30
0.0
  3
*Paper_Space
  1

  0
ENDBLK
  5
1D
330
1B
100
AcDbEntity
 67
     1
  8
0
100
AcDbBlockEnd
  0
BLOCK
  5
24
330
23
100
AcDbEntity
  8
0
100
AcDbBlockBegin
  2
*Paper_Space0
 70
     0
 10
0.0
 20
0.0
 30
0.0
  3
*Paper_Space0
  1

  0
ENDBLK
  5
25
330
23
100
AcDbEntity
  8
0
100
AcDbBlockEnd
  0
BLOCK
  5
166
330
165
100
AcDbEntity
  8
0
100
AcDbBlockBegin
  2
_D
 70
     0
 10
0.0
 20
0.0
 30
0.0
  3
_D
  1

  0
SOLID
  5
168
330
165
100
AcDbEntity
  8
2
 62
     7
420
 16777215
100
AcDbTrace
 10
-65.3936582195
 20
43.5077955953
 30
0.0
 11
-62.0916582195
 21
42.9997955953
 31
0.0
 12
-62.0916582195
 22
44.0157955953
 32
0.0
 13
-62.0916582195
 23
44.0157955953
 33
0.0
  0
SOLID
  5
169
330
165
100
AcDbEntity
  8
2
 62
     7
420
 16777215
100
AcDbTrace
 10
100.0063417805
 20
43.5077955953
 30
0.0
 11
96.7043417805
 21
44.0157955953
 31
0.0
 12
96.7043417805
 22
42.9997955953
 32
0.0
 13
96.7043417805
 23
42.9997955953
 33
0.0
  0
LINE
  5
16A
330
165
100
AcDbEntity
  8
2
 62
     7
420
 16777215
100
AcDbLine
 10
-65.3936582195
 20
1.0077955953
 30
0.0
 11
-65.3936582195
 21
44.5077955953
 31
0.0
  0
LINE
  5
16B
330
165
100
AcDbEntity
  8
2
 62
     7
420
 16777215
100
AcDbLine
 10
100.0063417805
 20
1.0077955953
 30
0.0
 11
100.0063417805
 21
44.5077955953
 31
0.0
  0
LINE
  5
16C
330
165
100
AcDbEntity
  8
2
 62
     7
420
 16777215
100
AcDbLine
 10
-65.3936582195
 20
43.5077955953
 30
0.0
 11
100.0063417805
 21
43.5077955953
 31
0.0
  0
MTEXT
  5
16D
330
165
100
AcDbEntity
  8
2
 62
     7
420
 16777215
100
AcDbMText
 10
8.772660969
 20
48.0195325099
 30
0.0
 40
3.5
 41
0.0
 46
0.0
 71
     1
 72
     1
  1
165,40
  7
SLDTEXTSTYLE0
 73
     1
 44
1.0
  0
ENDBLK
  5
167
330
165
100
AcDbEntity
  8
0
100
AcDbBlockEnd
  0
BLOCK
  5
170
330
16F
100
AcDbEntity
  8
0
100
AcDbBlockBegin
  2
_D_1
 70
     0
 10
0.0
 20
0.0
 30
0.0
  3
_D_1
  1

  0
SOLID
  5
172
330
16F
100
AcDbEntity
  8
2
 62
     7
420
 16777215
100
AcDbTrace
 10
100.0063417805
 20
37.5077955953
 30
0.0
 11
96.7043417805
 21
38.0157955953
 31
0.0
 12
96.7043417805
 22
36.9997955953
 32
0.0
 13
96.7043417805
 23
36.9997955953
 33
0.0
  0
SOLID
  5
173
330
16F
100
AcDbEntity
  8
2
 62
     7
420
 16777215
100
AcDbTrace
 10
0.0063417805
 20
37.5077955953
 30
0.0
 11
3.3083417805
 21
36.9997955953
 31
0.0
 12
3.3083417805
 22
38.0157955953
 32
0.0
 13
3.3083417805
 23
38.0157955953
 33
0.0
  0
LINE
  5
174
330
16F
100
AcDbEntity
  8
2
 62
     7
420
 16777215
100
AcDbLine
 10
100.0063417805
 20
1.0077955953
 30
0.0
 11
100.0063417805
 21
38.5077955953
 31
0.0
  0
LINE
  5
175
330
16F
100
AcDbEntity
  8
2
 62
     7
420
 16777215
100
AcDbLine
 10
0.0063417805
 20
1.0077955953
 30
0.0
 11
0.0063417805
 21
38.5077955953
 31
0.0
  0
LINE
  5
176
330
16F
100
AcDbEntity
  8
2
 62
     7
420
 16777215
100
AcDbLine
 10
100.0063417805
 20
37.5077955953
 30
0.0
 11
0.0063417805
 21
37.5077955953
 31
0.0
  0
MTEXT
  5
177
330
16F
100
AcDbEntity
  8
2
 62
     7
420
 16777215
100
AcDbMText
 10
44.705300252
 20
42.0195325099
 30
0.0
 40
3.5
 41
0.0
 46
0.0
 71
     1
 72
     1
  1
100
  7
SLDTEXTSTYLE0
 73
     1
 44
1.0
  0
ENDBLK
  5
171
330
16F
100
AcDbEntity
  8
0
100
AcDbBlockEnd
  0
BLOCK
  5
17A
330
179
100
AcDbEntity
  8
0
100
AcDbBlockBegin
  2
_D_2
 70
     0
 10
0.0
 20
0.0
 30
0.0
  3
_D_2
  1

  0
SOLID
  5
17C
330
179
100
AcDbEntity
  8
2
 62
     7
420
 16777215
100
AcDbTrace
 10
106.0063417805
 20
5.0077955953
 30
0.0
 11
105.4983417805
 21
1.7057955953
 31
0.0
 12
106.5143417805
 22
1.7057955953
 32
0.0
 13
106.5143417805
 23
1.7057955953
 33
0.0
  0
SOLID
  5
17D
330
179
100
AcDbEntity
  8
2
 62
     7
420
 16777215
100
AcDbTrace
 10
106.0063417805
 20
-4.9922044047
 30
0.0
 11
106.5143417805
 21
-1.6902044047
 31
0.0
 12
105.4983417805
 22
-1.6902044047
 32
0.0
 13
105.4983417805
 23
-1.6902044047
 33
0.0
  0
LINE
  5
17E
330
179
100
AcDbEntity
  8
2
 62
     7
420
 16777215
100
AcDbLine
 10
73.2593216552
 20
5.0077955953
 30
0.0
 11
107.0063417805
 21
5.0077955953
 31
0.0
  0
LINE
  5
17F
330
179
100
AcDbEntity
  8
2
 62
     7
420
 16777215
100
AcDbLine
 10
73.2593216552
 20
-4.9922044047
 30
0.0
 11
107.0063417805
 21
-4.9922044047
 31
0.0
  0
LINE
  5
180
330
179
100
AcDbEntity
  8
2
 62
     7
420
 16777215
100
AcDbLine
 10
106.0063417805
 20
5.0077955953
 30
0.0
 11
106.0063417805
 21
-4.9922044047
 31
0.0
  0
LINE
  5
181
330
179
100
AcDbEntity
  8
2
 62
     7
420
 16777215
100
AcDbLine
 10
106.0063417805
 20
-4.9922044047
 30
0.0
 11
106.0063417805
 21
-23.1577952237
 31
0.0
  0
MTEXT
  5
182
330
179
100
AcDbEntity
  8
2
 62
     7
420
 16777215
100
AcDbMText
 10
101.4946046913
 20
-23.1577952237
 30
0.0
 40
3.5
 41
0.0
 46
0.0
 71
     1
 72
     1
  1
%%c
  7
SLDTEXTSTYLE0
 11
-7.044195017643634E-15
 21
1.0
 31
0.0
 73
     1
 44
1.0
  0
MTEXT
  5
183
330
179
100
AcDbEntity
  8
2
 62
     7
420
 16777215
100
AcDbMText
 10
101.4411325147
 20
-17.8793578253
 30
0.0
 40
3.5
 41
0.0
 46
0.0
 71
     1
 72
     1
  1
10
  7
SLDTEXTSTYLE0
 11
-7.044195017643634E-15
 21
1.0
 31
0.0
 73
     1
 44
1.0
  0
ENDBLK
  5
17B
330
179
100
AcDbEntity
  8
0
100
AcDbBlockEnd
  0
BLOCK
  5
186
330
185
100
AcDbEntity
  8
0
100
AcDbBlockBegin
  2
_D_3
 70
     0
 10
0.0
 20
0.0
 30
0.0
  3
_D_3
  1

  0
SOLID
  5
188
330
185
100
AcDbEntity
  8
2
 62
     7
420
 16777215
100
AcDbTrace
 10
118.0063417805
 20
12.0077957086
 30
0.0
 11
117.4983417805
 21
8.7057957086
 31
0.0
 12
118.5143417805
 22
8.7057957086
 32
0.0
 13
118.5143417805
 23
8.7057957086
 33
0.0
  0
SOLID
  5
189
330
185
100
AcDbEntity
  8
2
 62
     7
420
 16777215
100
AcDbTrace
 10
118.0063417805
 20
-11.992204518
 30
0.0
 11
118.5143417805
 21
-8.690204518
 31
0.0
 12
117.4983417805
 22
-8.690204518
 32
0.0
 13
117.4983417805
 23
-8.690204518
 33
0.0
  0
LINE
  5
18A
330
185
100
AcDbEntity
  8
2
 62
     7
420
 16777215
100
AcDbLine
 10
100.0455721308
 20
12.0077957086
 30
0.0
 11
119.0063417805
 21
12.0077957086
 31
0.0
  0
LINE
  5
18B
330
185
100
AcDbEntity
  8
2
 62
     7
420
 16777215
100
AcDbLine
 10
100.0455721308
 20
-11.992204518
 30
0.0
 11
119.0063417805
 21
-11.992204518
 31
0.0
  0
LINE
  5
18C
330
185
100
AcDbEntity
  8
2
 62
     7
420
 16777215
100
AcDbLine
 10
118.0063417805
 20
12.0077957086
 30
0.0
 11
118.0063417805
 21
-11.992204518
 31
0.0
  0
MTEXT
  5
18D
330
185
100
AcDbEntity
  8
2
 62
     7
420
 16777215
100
AcDbMText
 10
113.4946046913
 20
-6.639409385
 30
0.0
 40
3.5
 41
0.0
 46
0.0
 71
     1
 72
     1
  1
%%c
  7
SLDTEXTSTYLE0
 11
-7.044195017643634E-15
 21
1.0
 31
0.0
 73
     1
 44
1.0
  0
MTEXT
  5
18E
330
185
100
AcDbEntity
  8
2
 62
     7
420
 16777215
100
AcDbMText
 10
113.4411325147
 20
-1.3609719866
 30
0.0
 40
3.5
 41
0.0
 46
0.0
 71
     1
 72
     1
  1
24
  7
SLDTEXTSTYLE0
 11
-7.044195017643634E-15
 21
1.0
 31
0.0
 73
     1
 44
1.0
  0
ENDBLK
  5
187
330
185
100
AcDbEntity
  8
0
100
AcDbBlockEnd
  0
ENDSEC
  0
SECTION
  2
ENTITIES
  0
LINE
  5
48
330
1F
100
AcDbEntity
  8
0
  6
SLD-Punktstrich
 62
     7
100
AcDbLine
 10
-65.3936582195
 20
0.0077955953
 30
0.0
 11
100.0063417805
 21
0.0077955953
 31
0.0
  0
POINT
  5
49
330
1F
100
AcDbEntity
  8
1
 62
     4
420
    65535
100
AcDbPoint
 10
-65.3936582195
 20
0.0077955953
 30
0.0
  0
POINT
  5
4A
330
1F
100
AcDbEntity
  8
1
 62
     4
420
    65535
100
AcDbPoint
 10
100.0063417805
 20
0.0077955953
 30
0.0
  0
POINT
  5
4B
330
1F
100
AcDbEntity
  8
1
 62
     4
420
    65535
100
AcDbPoint
 10
0.0063417805
 20
0.0077955953
 30
0.0
  0
POINT
  5
4C
330
1F
100
AcDbEntity
  8
1
 62
     4
420
    65535
100
AcDbPoint
 10
80.0063417805
 20
0.0077955953
 30
0.0
  0
POINT
  5
4D
330
1F
100
AcDbEntity
  8
1
 62
     4
420
    65535
100
AcDbPoint
 10
100.0063417805
 20
0.0077955953
 30
0.0
  0
LINE
  5
4E
330
1F
100
AcDbEntity
  8
1
 62
     4
420
    65535
100
AcDbLine
 10
2.0063417805
 20
-31.4922044047
 30
0.0
 11
11.6061997742
 21
-31.4922044047
 31
0.0
  0
LINE
  5
4F
330
1F
100
AcDbEntity
  8
1
 62
     4
420
    65535
100
AcDbLine
 10
14.3063417805
 20
-26.4922044047
 30
0.0
 11
18.9063417805
 21
-26.4922044047
 31
0.0
  0
LINE
  5
50
330
1F
100
AcDbEntity
  8
1
 62
     4
420
    65535
100
AcDbLine
 10
11.6061997742
 20
-31.4922044047
 30
0.0
 11
14.1063417805
 21
-27.1618314236
 31
0.0
  0
LINE
  5
51
330
1F
100
AcDbEntity
  8
1
 62
     4
420
    65535
100
AcDbLine
 10
19.1063417805
 20
-27.1618314236
 30
0.0
 11
21.6064837869
 21
-31.4922044047
 31
0.0
  0
LINE
  5
52
330
1F
100
AcDbEntity
  8
1
 62
     4
420
    65535
100
AcDbLine
 10
-21.2520231539
 20
5.1077957793
 30
0.0
 11
-22.3936582195
 21
7.0077955953
 31
0.0
  0
LINE
  5
53
330
1F
100
AcDbEntity
  8
1
 62
     4
420
    65535
100
AcDbLine
 10
-22.3936582195
 20
-6.9922044047
 30
0.0
 11
-21.2520231539
 21
-5.0922045887
 31
0.0
  0
LINE
  5
54
330
1F
100
AcDbEntity
  8
1
 62
     4
420
    65535
100
AcDbLine
 10
-22.3936582195
 20
7.0077955953
 30
0.0
 11
-54.6616074119
 21
7.0077955953
 31
0.0
  0
LINE
  5
55
330
1F
100
AcDbEntity
  8
1
 62
     4
420
    65535
100
AcDbLine
 10
-54.6616074119
 20
-6.9922044047
 30
0.0
 11
-22.3936582195
 21
-6.9922044047
 31
0.0
  0
LINE
  5
56
330
1F
100
AcDbEntity
  8
1
 62
     4
420
    65535
100
AcDbLine
 10
-54.6616074119
 20
7.0077955953
 30
0.0
 11
-56.3936582195
 21
8.0077955953
 31
0.0
  0
LINE
  5
57
330
1F
100
AcDbEntity
  8
1
 62
     4
420
    65535
100
AcDbLine
 10
-56.3936582195
 20
-7.9922044047
 30
0.0
 11
-54.6616074119
 21
-6.9922044047
 31
0.0
  0
LINE
  5
58
330
1F
100
AcDbEntity
  8
1
 62
     4
420
    65535
100
AcDbLine
 10
-56.3936582195
 20
8.5077955953
 30
0.0
 11
-64.3936582195
 21
8.5077955953
 31
0.0
  0
LINE
  5
59
330
1F
100
AcDbEntity
  8
1
 62
     4
420
    65535
100
AcDbLine
 10
-64.3936582195
 20
-8.4922044047
 30
0.0
 11
-56.3936582195
 21
-8.4922044047
 31
0.0
  0
ARC
  5
5A
330
1F
100
AcDbEntity
  8
1
 62
     4
420
    65535
100
AcDbCircle
 10
14.3063417805
 20
-26.6922044047
 30
0.0
 40
0.1999999999999993
100
AcDbArc
 50
90.0
 51
180.0
  0
LINE
  5
5B
330
1F
100
AcDbEntity
  8
1
 62
     4
420
    65535
100
AcDbLine
 10
-64.3936582195
 20
8.5077955953
 30
0.0
 11
-65.3936582195
 21
9.5077955953
 31
0.0
  0
LINE
  5
5C
330
1F
100
AcDbEntity
  8
1
 62
     4
420
    65535
100
AcDbLine
 10
-65.3936582195
 20
-9.4922044047
 30
0.0
 11
-64.3936582195
 21
-8.4922044047
 31
0.0
  0
ARC
  5
5D
330
1F
100
AcDbEntity
  8
1
 62
     4
420
    65535
100
AcDbCircle
 10
18.9063417805
 20
26.7077955953
 30
0.0
 40
0.1999999999999993
100
AcDbArc
 50
270.0
 51
0.0
  0
LINE
  5
5E
330
1F
100
AcDbEntity
  8
1
 62
     4
420
    65535
100
AcDbLine
 10
-64.9643680134
 20
-12.9357928676
 30
0.0
 11
0.3063417805
 21
-22.2600610007
 31
0.0
  0
LINE
  5
5F
330
1F
100
AcDbEntity
  8
1
 62
     4
420
    65535
100
AcDbLine
 10
0.3063417805
 20
22.2756521913
 30
0.0
 11
-64.9643680134
 21
12.9513840581
 31
0.0
  0
LINE
  5
60
330
1F
100
AcDbEntity
  8
1
 62
     4
420
    65535
100
AcDbLine
 10
1.9063417805
 20
22.1456521913
 30
0.0
 11
0.4063417805
 21
22.1456521913
 31
0.0
  0
LINE
  5
61
330
1F
100
AcDbEntity
  8
1
 62
     4
420
    65535
100
AcDbLine
 10
0.4063417805
 20
-22.1300610007
 30
0.0
 11
1.9063417805
 21
-22.1300610007
 31
0.0
  0
LINE
  5
62
330
1F
100
AcDbEntity
  8
1
 62
     4
420
    65535
100
AcDbLine
 10
11.6061997742
 20
31.5077955953
 30
0.0
 11
2.0063417805
 21
31.5077955953
 31
0.0
  0
ARC
  5
63
330
1F
100
AcDbEntity
  8
1
 62
     4
420
    65535
100
AcDbCircle
 10
-64.8936582195
 20
12.456409185
 30
0.0
 40
0.5
100
AcDbArc
 50
98.13
 51
180.0
  0
ARC
  5
64
330
1F
100
AcDbEntity
  8
1
 62
     4
420
    65535
100
AcDbCircle
 10
-64.8936582195
 20
-12.4408179944
 30
0.0
 40
0.5
100
AcDbArc
 50
180.0
 51
261.87
  0
LINE
  5
65
330
1F
100
AcDbEntity
  8
1
 62
     4
420
    65535
100
AcDbLine
 10
14.1063417805
 20
27.1774226142
 30
0.0
 11
11.6061997742
 21
31.5077955953
 31
0.0
  0
ARC
  5
66
330
1F
100
AcDbEntity
  8
1
 62
     4
420
    65535
100
AcDbCircle
 10
0.4063417805
 20
22.2456521913
 30
0.0
 40
0.1000000000000029
100
AcDbArc
 50
180.0
 51
270.0
  0
ARC
  5
67
330
1F
100
AcDbEntity
  8
1
 62
     4
420
    65535
100
AcDbCircle
 10
0.4063417805
 20
-22.2300610007
 30
0.0
 40
0.100000000000005
100
AcDbArc
 50
90.0
 51
180.0
  0
LINE
  5
68
330
1F
100
AcDbEntity
  8
1
 62
     4
420
    65535
100
AcDbLine
 10
18.9063417805
 20
26.5077955953
 30
0.0
 11
14.3063417805
 21
26.5077955953
 31
0.0
  0
ARC
  5
69
330
1F
100
AcDbEntity
  8
1
 62
     4
420
    65535
100
AcDbCircle
 10
1.9063417805
 20
22.2456521913
 30
0.0
 40
0.100000000000003
100
AcDbArc
 50
270.0
 51
0.0
  0
ARC
  5
6A
330
1F
100
AcDbEntity
  8
1
 62
     4
420
    65535
100
AcDbCircle
 10
1.9063417805
 20
-22.2300610007
 30
0.0
 40
0.100000000000005
100
AcDbArc
 50
0.0
 51
90.0
  0
LINE
  5
6B
330
1F
100
AcDbEntity
  8
1
 62
     4
420
    65535
100
AcDbLine
 10
21.6064837869
 20
31.5077955953
 30
0.0
 11
19.1063417805
 21
27.1774226142
 31
0.0
  0
LINE
  5
6C
330
1F
100
AcDbEntity
  8
1
 62
     4
420
    65535
100
AcDbLine
 10
27.0063417805
 20
31.5077955953
 30
0.0
 11
21.6064837869
 21
31.5077955953
 31
0.0
  0
LINE
  5
6D
330
1F
100
AcDbEntity
  8
1
 62
     4
420
    65535
100
AcDbLine
 10
21.6064837869
 20
-31.4922044047
 30
0.0
 11
27.0063417805
 21
-31.4922044047
 31
0.0
  0
LINE
  5
6E
330
1F
100
AcDbEntity
  8
1
 62
     4
420
    65535
100
AcDbLine
 10
67.4995182408
 20
5.1077957793
 30
0.0
 11
-21.2520231539
 21
5.1077957793
 31
0.0
  0
LINE
  5
6F
330
1F
100
AcDbEntity
  8
1
 62
     4
420
    65535
100
AcDbLine
 10
-21.2520231539
 20
-5.0922045887
 30
0.0
 11
67.4995182408
 21
-5.0922045887
 31
0.0
  0
LINE
  5
70
330
1F
100
AcDbEntity
  8
1
 62
     4
420
    65535
100
AcDbLine
 10
67.4995182408
 20
-5.0922045887
 30
0.0
 11
67.7593274368
 21
-5.5422042899
 31
0.0
  0
LINE
  5
71
330
1F
100
AcDbEntity
  8
1
 62
     4
420
    65535
100
AcDbLine
 10
67.7593274368
 20
5.5577954805
 30
0.0
 11
67.4995182408
 21
5.1077957793
 31
0.0
  0
LINE
  5
72
330
1F
100
AcDbEntity
  8
1
 62
     4
420
    65535
100
AcDbLine
 10
71.7689840448
 20
5.5577954805
 30
0.0
 11
67.7593274368
 21
5.5577954805
 31
0.0
  0
LINE
  5
73
330
1F
100
AcDbEntity
  8
1
 62
     4
420
    65535
100
AcDbLine
 10
67.7593274368
 20
-5.5422042899
 30
0.0
 11
71.7689840448
 21
-5.5422042899
 31
0.0
  0
ARC
  5
74
330
1F
100
AcDbEntity
  8
1
 62
     4
420
    65535
100
AcDbCircle
 10
14.3063417805
 20
26.7077955953
 30
0.0
 40
0.1999999999999993
100
AcDbArc
 50
180.0
 51
270.0
  0
ARC
  5
75
330
1F
100
AcDbEntity
  8
1
 62
     4
420
    65535
100
AcDbCircle
 10
18.9063417805
 20
-26.6922044047
 30
0.0
 40
0.1999999999999957
100
AcDbArc
 50
0.0
 51
90.0
  0
LINE
  5
76
330
1F
100
AcDbEntity
  8
1
 62
     4
420
    65535
100
AcDbLine
 10
71.7689840448
 20
-5.5422042899
 30
0.0
 11
92.3289124898
 21
-8.4317134811
 31
0.0
  0
LINE
  5
77
330
1F
100
AcDbEntity
  8
1
 62
     4
420
    65535
100
AcDbLine
 10
92.3289124898
 20
8.4473046716
 30
0.0
 11
71.7689840448
 21
5.5577954805
 31
0.0
  0
LINE
  5
78
330
1F
100
AcDbEntity
  8
1
 62
     4
420
    65535
100
AcDbLine
 10
92.7593259467
 20
9.2577957145
 30
0.0
 11
92.5593225611
 21
9.4577953747
 31
0.0
  0
LINE
  5
79
330
1F
100
AcDbEntity
  8
1
 62
     4
420
    65535
100
AcDbLine
 10
92.5593225611
 20
-9.4422041841
 30
0.0
 11
92.7593259467
 21
-9.2422045239
 31
0.0
  0
LINE
  5
7A
330
1F
100
AcDbEntity
  8
1
 62
     4
420
    65535
100
AcDbLine
 10
92.5593225611
 20
9.4577953747
 30
0.0
 11
87.7593232645
 21
9.4577953747
 31
0.0
  0
LINE
  5
7B
330
1F
100
AcDbEntity
  8
1
 62
     4
420
    65535
100
AcDbLine
 10
87.7593232645
 20
-9.4422041841
 30
0.0
 11
92.5593225611
 21
-9.4422041841
 31
0.0
  0
LINE
  5
7C
330
1F
100
AcDbEntity
  8
1
 62
     4
420
    65535
100
AcDbLine
 10
87.7593232645
 20
9.4577953747
 30
0.0
 11
87.1531067742
 21
10.5077954537
 31
0.0
  0
LINE
  5
7D
330
1F
100
AcDbEntity
  8
1
 62
     4
420
    65535
100
AcDbLine
 10
87.1531067742
 20
-10.4922042631
 30
0.0
 11
87.7593232645
 21
-9.4422041841
 31
0.0
  0
LINE
  5
7E
330
1F
100
AcDbEntity
  8
1
 62
     4
420
    65535
100
AcDbLine
 10
87.1531067742
 20
10.5077954537
 30
0.0
 11
79.3593226327
 21
10.5077954537
 31
0.0
  0
LINE
  5
7F
330
1F
100
AcDbEntity
  8
1
 62
     4
420
    65535
100
AcDbLine
 10
79.3593226327
 20
-10.4922042631
 30
0.0
 11
87.1531067742
 21
-10.4922042631
 31
0.0
  0
LINE
  5
80
330
1F
100
AcDbEntity
  8
1
 62
     4
420
    65535
100
AcDbLine
 10
79.3593226327
 20
10.6577951989
 30
0.0
 11
75.7593212975
 21
10.6577951989
 31
0.0
  0
LINE
  5
81
330
1F
100
AcDbEntity
  8
1
 62
     4
420
    65535
100
AcDbLine
 10
75.7593212975
 20
-10.6422040083
 30
0.0
 11
79.3593226327
 21
-10.6422040083
 31
0.0
  0
ARC
  5
82
330
1F
100
AcDbEntity
  8
1
 62
     4
420
    65535
100
AcDbCircle
 10
92.2593259467
 20
8.942438707
 30
0.0
 40
0.4999999999998457
100
AcDbArc
 50
277.9999991421
 51
0.0
  0
ARC
  5
83
330
1F
100
AcDbEntity
  8
1
 62
     4
420
    65535
100
AcDbCircle
 10
92.2593259467
 20
-8.9268475165
 30
0.0
 40
0.499999999999844
100
AcDbArc
 50
0.0
 51
82.0000008579
  0
LINE
  5
84
330
1F
100
AcDbEntity
  8
1
 62
     4
420
    65535
100
AcDbLine
 10
75.7593212975
 20
13.3077953539
 30
0.0
 11
75.5422411812
 21
13.5248801268
 31
0.0
  0
LINE
  5
85
330
1F
100
AcDbEntity
  8
1
 62
     4
420
    65535
100
AcDbLine
 10
75.5422411812
 20
-13.5092889362
 30
0.0
 11
75.7593212975
 21
-13.2922041633
 31
0.0
  0
LINE
  5
86
330
1F
100
AcDbEntity
  8
1
 62
     4
420
    65535
100
AcDbLine
 10
75.5422411812
 20
13.5248801268
 30
0.0
 11
31.1532758297
 21
17.018367664
 31
0.0
  0
LINE
  5
87
330
1F
100
AcDbEntity
  8
1
 62
     4
420
    65535
100
AcDbLine
 10
31.1532758297
 20
-17.0027764734
 30
0.0
 11
75.5422411812
 21
-13.5092889362
 31
0.0
  0
ARC
  5
88
330
1F
100
AcDbEntity
  8
1
 62
     4
420
    65535
100
AcDbCircle
 10
31.5063417805
 20
21.5044956642
 30
0.0
 40
4.499999999999965
100
AcDbArc
 50
180.0
 51
265.4999997436
  0
ARC
  5
89
330
1F
100
AcDbEntity
  8
1
 62
     4
420
    65535
100
AcDbCircle
 10
31.5063417805
 20
-21.4889044736
 30
0.0
 40
4.499999999999965
100
AcDbArc
 50
94.5000002564
 51
180.0
  0
LINE
  5
8A
330
1F
100
AcDbEntity
  8
1
 62
     4
420
    65535
100
AcDbLine
 10
81.4063398074
 20
10.6702956043
 30
0.0
 11
77.6063438963
 21
10.6702956043
 31
0.0
  0
LINE
  5
8B
330
1F
100
AcDbEntity
  8
1
 62
     4
420
    65535
100
AcDbLine
 10
77.6063438963
 20
-10.6547044137
 30
0.0
 11
81.4063398074
 21
-10.6547044137
 31
0.0
  0
LINE
  5
8C
330
1F
100
AcDbEntity
  8
1
 62
     4
420
    65535
100
AcDbLine
 10
89.6063445462
 20
9.8077959295
 30
0.0
 11
81.9043068541
 21
9.8077959295
 31
0.0
  0
LINE
  5
8D
330
1F
100
AcDbEntity
  8
1
 62
     4
420
    65535
100
AcDbLine
 10
81.9043068541
 20
-9.7922047389
 30
0.0
 11
89.6063445462
 21
-9.7922047389
 31
0.0
  0
LINE
  5
8E
330
1F
100
AcDbEntity
  8
1
 62
     4
420
    65535
100
AcDbLine
 10
81.9043068541
 20
9.8077959295
 30
0.0
 11
81.4063398074
 21
10.6702956043
 31
0.0
  0
LINE
  5
8F
330
1F
100
AcDbEntity
  8
1
 62
     4
420
    65535
100
AcDbLine
 10
81.4063398074
 20
-10.6547044137
 30
0.0
 11
81.9043068541
 21
-9.7922047389
 31
0.0
  0
LINE
  5
90
330
1F
100
AcDbEntity
  8
1
 62
     4
420
    65535
100
AcDbLine
 10
89.9438409461
 20
9.4702958043
 30
0.0
 11
89.6063445462
 21
9.8077959295
 31
0.0
  0
LINE
  5
91
330
1F
100
AcDbEntity
  8
1
 62
     4
420
    65535
100
AcDbLine
 10
89.6063445462
 20
-9.7922047389
 30
0.0
 11
89.9438409461
 21
-9.4547046137
 31
0.0
  0
LINE
  5
92
330
1F
100
AcDbEntity
  8
1
 62
     4
420
    65535
100
AcDbLine
 10
93.4063418689
 20
9.4702958043
 30
0.0
 11
89.9438409461
 21
9.4702958043
 31
0.0
  0
LINE
  5
93
330
1F
100
AcDbEntity
  8
1
 62
     4
420
    65535
100
AcDbLine
 10
89.9438409461
 20
-9.4547046137
 30
0.0
 11
93.4063418689
 21
-9.4547046137
 31
0.0
  0
ARC
  5
94
330
1F
100
AcDbEntity
  8
1
 62
     4
420
    65535
100
AcDbCircle
 10
77.6063438963
 20
11.4702956043
 30
0.0
 40
0.8000000000000256
100
AcDbArc
 50
180.0
 51
270.0
  0
ARC
  5
95
330
1F
100
AcDbEntity
  8
1
 62
     4
420
    65535
100
AcDbCircle
 10
77.6063438963
 20
-11.4547044137
 30
0.0
 40
0.8000000000000256
100
AcDbArc
 50
90.0
 51
180.0
  0
LINE
  5
96
330
1F
100
AcDbEntity
  8
1
 62
     4
420
    65535
100
AcDbLine
 10
94.5406587995
 20
8.2077958043
 30
0.0
 11
94.3063418689
 21
8.2077958043
 31
0.0
  0
LINE
  5
97
330
1F
100
AcDbEntity
  8
1
 62
     4
420
    65535
100
AcDbLine
 10
94.3063418689
 20
-8.1922046137
 30
0.0
 11
94.5406587995
 21
-8.1922046137
 31
0.0
  0
LINE
  5
98
330
1F
100
AcDbEntity
  8
1
 62
     4
420
    65535
100
AcDbLine
 10
94.823501512
 20
-8.3093619013
 30
0.0
 11
95.0343605737
 21
-8.520220963
 31
0.0
  0
LINE
  5
99
330
1F
100
AcDbEntity
  8
1
 62
     4
420
    65535
100
AcDbLine
 10
95.0343605737
 20
8.5358121535
 30
0.0
 11
94.823501512
 21
8.3249530918
 31
0.0
  0
ARC
  5
9A
330
1F
100
AcDbEntity
  8
1
 62
     4
420
    65535
100
AcDbCircle
 10
94.5406587995
 20
8.6077958043
 30
0.0
 40
0.399999999999995
100
AcDbArc
 50
270.0
 51
315.0
  0
ARC
  5
9B
330
1F
100
AcDbEntity
  8
1
 62
     4
420
    65535
100
AcDbCircle
 10
94.5406587995
 20
-8.5922046137
 30
0.0
 40
0.399999999999995
100
AcDbArc
 50
45.0
 51
90.0
  0
ARC
  5
9C
330
1F
100
AcDbEntity
  8
1
 62
     4
420
    65535
100
AcDbCircle
 10
94.3063418689
 20
8.7077958043
 30
0.0
 40
0.4999999999999716
100
AcDbArc
 50
180.0
 51
270.0
  0
ARC
  5
9D
330
1F
100
AcDbEntity
  8
1
 62
     4
420
    65535
100
AcDbCircle
 10
94.3063418689
 20
-8.6922046137
 30
0.0
 40
0.4999999999999716
100
AcDbArc
 50
90.0
 51
180.0
  0
LINE
  5
9E
330
1F
100
AcDbEntity
  8
1
 62
     4
420
    65535
100
AcDbLine
 10
99.3471145845
 20
6.3881804911
 30
0.0
 11
95.5172032042
 21
8.5993796499
 31
0.0
  0
LINE
  5
9F
330
1F
100
AcDbEntity
  8
1
 62
     4
420
    65535
100
AcDbLine
 10
95.5172032042
 20
-8.5837884593
 30
0.0
 11
99.3471145845
 21
-6.3725893005
 31
0.0
  0
ARC
  5
A0
330
1F
100
AcDbEntity
  8
1
 62
     4
420
    65535
100
AcDbCircle
 10
93.4063418689
 20
9.0702958043
 30
0.0
 40
0.4000000000000199
100
AcDbArc
 50
0.0
 51
90.0
  0
ARC
  5
A1
330
1F
100
AcDbEntity
  8
1
 62
     4
420
    65535
100
AcDbCircle
 10
93.4063418689
 20
-9.0547046137
 30
0.0
 40
0.4000000000000199
100
AcDbArc
 50
270.0
 51
0.0
  0
LINE
  5
A2
330
1F
100
AcDbEntity
  8
1
 62
     4
420
    65535
100
AcDbLine
 10
99.806338395
 20
6.3077958043
 30
0.0
 11
99.6471144616
 21
6.3077958043
 31
0.0
  0
LINE
  5
A3
330
1F
100
AcDbEntity
  8
1
 62
     4
420
    65535
100
AcDbLine
 10
99.6471144616
 20
-6.2922046137
 30
0.0
 11
99.806338395
 21
-6.2922046137
 31
0.0
  0
ARC
  5
A4
330
1F
100
AcDbEntity
  8
1
 62
     4
420
    65535
100
AcDbCircle
 10
95.3172032861
 20
8.252969441
 30
0.0
 40
0.4000000000000355
100
AcDbArc
 50
60.0000135492
 51
135.0
  0
ARC
  5
A5
330
1F
100
AcDbEntity
  8
1
 62
     4
420
    65535
100
AcDbCircle
 10
95.3172032861
 20
-8.2373782505
 30
0.0
 40
0.4000000000000341
100
AcDbArc
 50
225.0
 51
299.9999864508
  0
ARC
  5
A6
330
1F
100
AcDbEntity
  8
1
 62
     4
420
    65535
100
AcDbCircle
 10
99.6471144616
 20
6.9077958043
 30
0.0
 40
0.600000000000029
100
AcDbArc
 50
240.0000135492
 51
270.0
  0
ARC
  5
A7
330
1F
100
AcDbEntity
  8
1
 62
     4
420
    65535
100
AcDbCircle
 10
99.6471144616
 20
-6.8922046137
 30
0.0
 40
0.6000000000000298
100
AcDbArc
 50
90.0
 51
119.9999864508
  0
LINE
  5
A8
330
1F
100
AcDbEntity
  8
1
 62
     4
420
    65535
100
AcDbLine
 10
99.806338395
 20
-6.2922046137
 30
0.0
 11
100.0063417805
 21
-6.4922047396
 31
0.0
  0
LINE
  5
A9
330
1F
100
AcDbEntity
  8
1
 62
     4
420
    65535
100
AcDbLine
 10
100.0063417805
 20
6.5077959302
 30
0.0
 11
99.806338395
 21
6.3077958043
 31
0.0
  0
LINE
  5
AA
330
1F
100
AcDbEntity
  8
1
 62
     4
420
    65535
100
AcDbLine
 10
100.0063417805
 20
11.5459155667
 30
0.0
 11
99.3455720418
 21
11.9274110022
 31
0.0
  0
LINE
  5
AB
330
1F
100
AcDbEntity
  8
1
 62
     4
420
    65535
100
AcDbLine
 10
99.3455720418
 20
-11.9118198117
 30
0.0
 11
100.0063417805
 21
-11.5303243761
 31
0.0
  0
LINE
  5
AC
330
1F
100
AcDbEntity
  8
1
 62
     4
420
    65535
100
AcDbLine
 10
99.0455721308
 20
12.0077957086
 30
0.0
 11
90.0063440173
 21
12.0077957086
 31
0.0
  0
LINE
  5
AD
330
1F
100
AcDbEntity
  8
1
 62
     4
420
    65535
100
AcDbLine
 10
90.0063440173
 20
-11.992204518
 30
0.0
 11
99.0455721308
 21
-11.992204518
 31
0.0
  0
LINE
  5
AE
330
1F
100
AcDbEntity
  8
1
 62
     4
420
    65535
100
AcDbLine
 10
89.6063450308
 20
12.1149748004
 30
0.0
 11
88.9336464834
 21
12.5033561758
 31
0.0
  0
LINE
  5
AF
330
1F
100
AcDbEntity
  8
1
 62
     4
420
    65535
100
AcDbLine
 10
88.9336464834
 20
-12.4877649852
 30
0.0
 11
89.6063450308
 21
-12.0993836099
 31
0.0
  0
LINE
  5
B0
330
1F
100
AcDbEntity
  8
1
 62
     4
420
    65535
100
AcDbLine
 10
88.9336464834
 20
12.5033561758
 30
0.0
 11
87.5076798502
 21
12.6155822477
 31
0.0
  0
LINE
  5
B1
330
1F
100
AcDbEntity
  8
1
 62
     4
420
    65535
100
AcDbLine
 10
87.5076798502
 20
-12.5999910572
 30
0.0
 11
88.9336464834
 21
-12.4877649852
 31
0.0
  0
ARC
  5
B2
330
1F
100
AcDbEntity
  8
1
 62
     4
420
    65535
100
AcDbCircle
 10
99.0455721308
 20
11.4077957086
 30
0.0
 40
0.6000000000002585
100
AcDbArc
 50
60.0000098159
 51
90.0
  0
ARC
  5
B3
330
1F
100
AcDbEntity
  8
1
 62
     4
420
    65535
100
AcDbCircle
 10
99.0455721308
 20
-11.392204518
 30
0.0
 40
0.6000000000002601
100
AcDbArc
 50
270.0
 51
299.9999901841
  0
ARC
  5
B4
330
1F
100
AcDbEntity
  8
1
 62
     4
420
    65535
100
AcDbCircle
 10
90.0063440173
 20
12.8077957086
 30
0.0
 40
0.800000000000086
100
AcDbArc
 50
240.0000838136
 51
270.0
  0
ARC
  5
B5
330
1F
100
AcDbEntity
  8
1
 62
     4
420
    65535
100
AcDbCircle
 10
90.0063440173
 20
-12.792204518
 30
0.0
 40
0.8000000000000842
100
AcDbArc
 50
90.0
 51
119.9999161864
  0
LINE
  5
B6
330
1F
100
AcDbEntity
  8
1
 62
     4
420
    65535
100
AcDbLine
 10
86.7150060003
 20
12.6779670682
 30
0.0
 11
85.0153861481
 21
12.8117301279
 31
0.0
  0
LINE
  5
B7
330
1F
100
AcDbEntity
  8
1
 62
     4
420
    65535
100
AcDbLine
 10
85.0153861481
 20
-12.7961389373
 30
0.0
 11
86.7150060003
 21
-12.6623758777
 31
0.0
  0
ARC
  5
B8
330
1F
100
AcDbEntity
  8
1
 62
     4
420
    65535
100
AcDbCircle
 10
87.1466010413
 20
13.0947712436
 30
0.0
 40
0.5999999999991318
100
AcDbArc
 50
224.0012150894
 51
306.9987797974
  0
ARC
  5
B9
330
1F
100
AcDbEntity
  8
1
 62
     4
420
    65535
100
AcDbCircle
 10
87.1466010413
 20
-13.079180053
 30
0.0
 40
0.5999999999991318
100
AcDbArc
 50
53.0012202026
 51
135.9987849106
  0
LINE
  5
BA
330
1F
100
AcDbEntity
  8
1
 62
     4
420
    65535
100
AcDbLine
 10
84.2227126748
 20
12.8741149188
 30
0.0
 11
82.5230924461
 21
13.007878008
 31
0.0
  0
LINE
  5
BB
330
1F
100
AcDbEntity
  8
1
 62
     4
420
    65535
100
AcDbLine
 10
82.5230924461
 20
-12.9922868175
 30
0.0
 11
84.2227126748
 21
-12.8585237282
 31
0.0
  0
ARC
  5
BC
330
1F
100
AcDbEntity
  8
1
 62
     4
420
    65535
100
AcDbCircle
 10
84.6543075406
 20
13.2909192755
 30
0.0
 40
0.6000000000013181
100
AcDbArc
 50
224.0012391697
 51
306.998755717
  0
ARC
  5
BD
330
1F
100
AcDbEntity
  8
1
 62
     4
420
    65535
100
AcDbCircle
 10
84.6543075406
 20
-13.2753280849
 30
0.0
 40
0.6000000000013181
100
AcDbArc
 50
53.001244283
 51
135.9987608303
  0
LINE
  5
BE
330
1F
100
AcDbEntity
  8
1
 62
     4
420
    65535
100
AcDbLine
 10
81.7304177451
 20
13.0702628955
 30
0.0
 11
80.030813699
 21
13.2040247112
 31
0.0
  0
LINE
  5
BF
330
1F
100
AcDbEntity
  8
1
 62
     4
420
    65535
100
AcDbLine
 10
80.030813699
 20
-13.1884335206
 30
0.0
 11
81.7304177451
 21
-13.054671705
 31
0.0
  0
ARC
  5
C0
330
1F
100
AcDbEntity
  8
1
 62
     4
420
    65535
100
AcDbCircle
 10
82.162013182
 20
13.4870666609
 30
0.0
 40
0.5999999999997818
100
AcDbArc
 50
224.001160663
 51
306.9988342237
  0
ARC
  5
C1
330
1F
100
AcDbEntity
  8
1
 62
     4
420
    65535
100
AcDbCircle
 10
82.162013182
 20
-13.4714754703
 30
0.0
 40
0.5999999999997818
100
AcDbArc
 50
53.0011657763
 51
135.998839337
  0
LINE
  5
C2
330
1F
100
AcDbEntity
  8
1
 62
     4
420
    65535
100
AcDbLine
 10
79.2381016831
 20
13.2664125355
 30
0.0
 11
77.0057288837
 21
13.4421041853
 31
0.0
  0
LINE
  5
C3
330
1F
100
AcDbEntity
  8
1
 62
     4
420
    65535
100
AcDbLine
 10
77.0057288837
 20
-13.4265129947
 30
0.0
 11
79.2381016831
 21
-13.2508213449
 31
0.0
  0
ARC
  5
C4
330
1F
100
AcDbEntity
  8
1
 62
     4
420
    65535
100
AcDbCircle
 10
79.6697144784
 20
13.6831983257
 30
0.0
 40
0.6000000000055606
100
AcDbArc
 50
223.9987744559
 51
307.0012204308
  0
ARC
  5
C5
330
1F
100
AcDbEntity
  8
1
 62
     4
420
    65535
100
AcDbCircle
 10
79.6697144784
 20
-13.6676071352
 30
0.0
 40
0.6000000000055606
100
AcDbArc
 50
52.9987795692
 51
136.0012255441
  0
LINE
  5
C6
330
1F
100
AcDbEntity
  8
1
 62
     4
420
    65535
100
AcDbLine
 10
76.8063438963
 20
-13.2562234559
 30
0.0
 11
77.0057288837
 21
-13.4265129947
 31
0.0
  0
LINE
  5
C7
330
1F
100
AcDbEntity
  8
1
 62
     4
420
    65535
100
AcDbLine
 10
77.0057288837
 20
13.4421041853
 30
0.0
 11
76.8063438963
 21
13.2718146465
 31
0.0
  0
LINE
  5
C8
330
1F
100
AcDbEntity
  8
1
 62
     4
420
    65535
100
AcDbLine
 10
99.4593201531
 20
5.0077955953
 30
0.0
 11
72.2593216552
 21
5.0077955953
 31
0.0
  0
LINE
  5
C9
330
1F
100
AcDbEntity
  8
1
 62
     4
420
    65535
100
AcDbLine
 10
72.2593216552
 20
-4.9922044047
 30
0.0
 11
99.4593201531
 21
-4.9922044047
 31
0.0
  0
LINE
  5
CA
330
1F
100
AcDbEntity
  8
1
 62
     4
420
    65535
100
AcDbLine
 10
71.9593240274
 20
-5.4525500567
 30
0.0
 11
72.159327413
 21
-5.58277177
 31
0.0
  0
LINE
  5
CB
330
1F
100
AcDbEntity
  8
1
 62
     4
420
    65535
100
AcDbLine
 10
72.159327413
 20
5.5983629605
 30
0.0
 11
71.9593240274
 21
5.4681412472
 31
0.0
  0
LINE
  5
CC
330
1F
100
AcDbEntity
  8
1
 62
     4
420
    65535
100
AcDbLine
 10
72.2593216552
 20
5.0077955953
 30
0.0
 11
71.9593240274
 21
5.182474923
 31
0.0
  0
LINE
  5
CD
330
1F
100
AcDbEntity
  8
1
 62
     4
420
    65535
100
AcDbLine
 10
71.9593240274
 20
-5.1668837325
 30
0.0
 11
72.2593216552
 21
-4.9922044047
 31
0.0
  0
LINE
  5
CE
330
1F
100
AcDbEntity
  8
1
 62
     4
420
    65535
100
AcDbLine
 10
92.7593259467
 20
8.1980335123
 30
0.0
 11
92.4593208684
 21
8.4561691216
 31
0.0
  0
LINE
  5
CF
330
1F
100
AcDbEntity
  8
1
 62
     4
420
    65535
100
AcDbLine
 10
92.4593208684
 20
-8.440577931
 30
0.0
 11
92.7593259467
 21
-8.1824423217
 31
0.0
  0
LINE
  5
D0
330
1F
100
AcDbEntity
  8
1
 62
     4
420
    65535
100
AcDbLine
 10
95.459326948
 20
6.8961917019
 30
0.0
 11
92.7593259467
 21
6.8961917019
 31
0.0
  0
LINE
  5
D1
330
1F
100
AcDbEntity
  8
1
 62
     4
420
    65535
100
AcDbLine
 10
92.7593259467
 20
-6.8806005113
 30
0.0
 11
95.459326948
 21
-6.8806005113
 31
0.0
  0
LINE
  5
D2
330
1F
100
AcDbEntity
  8
1
 62
     4
420
    65535
100
AcDbLine
 10
95.459326948
 20
-8.3176005104
 30
0.0
 11
95.6093220366
 21
-8.4677706876
 31
0.0
  0
LINE
  5
D3
330
1F
100
AcDbEntity
  8
1
 62
     4
420
    65535
100
AcDbLine
 10
95.6093220366
 20
8.4833618781
 30
0.0
 11
95.459326948
 21
8.3331917009
 31
0.0
  0
LINE
  5
D4
330
1F
100
AcDbEntity
  8
1
 62
     4
420
    65535
100
AcDbLine
 10
95.7018135441
 20
8.4833618781
 30
0.0
 11
95.6093220366
 21
8.4833618781
 31
0.0
  0
LINE
  5
D5
330
1F
100
AcDbEntity
  8
1
 62
     4
420
    65535
100
AcDbLine
 10
95.6093220366
 20
-8.4677706876
 30
0.0
 11
95.7018135441
 21
-8.4677706876
 31
0.0
  0
LINE
  5
D6
330
1F
100
AcDbEntity
  8
1
 62
     4
420
    65535
100
AcDbLine
 10
99.3093250645
 20
6.3974889523
 30
0.0
 11
95.7018135441
 21
8.4833618781
 31
0.0
  0
LINE
  5
D7
330
1F
100
AcDbEntity
  8
1
 62
     4
420
    65535
100
AcDbLine
 10
95.7018135441
 20
-8.4677706876
 30
0.0
 11
99.3093250645
 21
-6.3818977618
 31
0.0
  0
LWPOLYLINE
  5
D8
330
1F
100
AcDbEntity
  8
1
 62
     4
420
    65535
100
AcDbPolyline
 90
        8
 70
   128
 43
0.0
 10
92.4593208684
 20
8.4561691216
 10
89.5324496598
 20
8.0443340598
 10
86.6514317534
 20
7.6389182279
 10
83.7984415645
 20
7.2373808262
 10
80.9561212308
 20
6.8372477571
 10
77.9881282142
 20
6.4193162292
 10
75.0490319851
 20
6.0053798727
 10
72.159327413
 20
5.5983629605
  0
LWPOLYLINE
  5
D9
330
1F
100
AcDbEntity
  8
1
 62
     4
420
    65535
100
AcDbPolyline
 90
        8
 70
   128
 43
0.0
 10
72.159327413
 20
-5.58277177
 10
74.9164553207
 20
-5.9711156937
 10
77.7194356038
 20
-6.3658854301
 10
80.5504430382
 20
-6.7645376197
 10
83.3921201218
 20
-7.1645956047
 10
86.378791238
 20
-7.5849582464
 10
89.3943597256
 20
-8.009311912
 10
92.4593208684
 20
-8.440577931
  0
SPLINE
  5
DA
330
1F
100
AcDbEntity
  8
1
 62
     4
420
    65535
100
AcDbSpline
210
0.0
220
0.0
230
1.0
 70
     8
 71
     3
 72
    11
 73
     7
 74
     0
 42
0.00000001
 43
0.00000001
 12
1.0
 22
0.0
 32
0.0
 13
1.0
 23
0.0
 33
0.0
 40
0.0
 40
0.0
 40
0.0
 40
0.0
 40
0.3370810668038932
 40
0.6624905263717155
 40
0.8672055114683941
 40
1.0
 40
1.0
 40
1.0
 40
1.0
 10
99.4593201530883
 20
6.137151230749371
 30
0.0
 10
99.45570771522229
 20
6.172545975003649
 30
0.0
 10
99.44860792203002
 20
6.242109902085472
 30
0.0
 10
99.40151163983127
 20
6.322965196360567
 30
0.0
 10
99.35087378696188
 20
6.371034452689164
 30
0.0
 10
99.3210567142332
 20
6.390019290069102
 30
0.0
 10
99.30932506451103
 20
6.397488952305906
 30
0.0
  0
SPLINE
  5
DB
330
1F
100
AcDbEntity
  8
1
 62
     4
420
    65535
100
AcDbSpline
210
0.0
220
0.0
230
1.0
 70
     8
 71
     3
 72
    11
 73
     7
 74
     0
 42
0.00000001
 43
0.00000001
 12
1.0
 22
0.0
 32
0.0
 13
1.0
 23
0.0
 33
0.0
 40
0.0
 40
0.0
 40
0.0
 40
0.0
 40
0.1844321545368961
 40
0.4691610726900917
 40
0.7360725617674551
 40
1.0
 40
1.0
 40
1.0
 40
1.0
 10
99.30932506451103
 20
-6.381897761756681
 30
0.0
 10
99.32555999926643
 20
-6.371366480912311
 30
0.0
 10
99.36685865146738
 20
-6.344576862636948
 30
0.0
 10
99.41734101411188
 20
-6.28438666559509
 30
0.0
 10
99.45199198479814
 20
-6.20484059019888
 30
0.0
 10
99.45688660183647
 20
-6.149215994413508
 30
0.0
 10
99.4593201530883
 20
-6.121560040200146
 30
0.0
  0
LINE
  5
DC
330
1F
100
AcDbEntity
  8
1
 62
     4
420
    65535
100
AcDbLine
 10
2.0063417805
 20
-8.5422044047
 30
0.0
 11
2.0063417805
 21
-31.4764706415
 31
0.0
  0
LINE
  5
DD
330
1F
100
AcDbEntity
  8
1
 62
     4
420
    65535
100
AcDbLine
 10
2.0063417805
 20
-8.5422044047
 30
0.0
 11
2.5063417805
 21
-8.0422044047
 31
0.0
  0
LINE
  5
DE
330
1F
100
AcDbEntity
  8
1
 62
     4
420
    65535
100
AcDbLine
 10
2.5063417805
 20
-8.0422044047
 30
0.0
 11
11.6061997742
 21
-8.0422044047
 31
0.0
  0
LINE
  5
DF
330
1F
100
AcDbEntity
  8
1
 62
     4
420
    65535
100
AcDbLine
 10
11.6061997742
 20
-8.0422044047
 30
0.0
 11
11.6061997742
 21
-31.4760685855
 31
0.0
  0
LINE
  5
E0
330
1F
100
AcDbEntity
  8
1
 62
     4
420
    65535
100
AcDbLine
 10
2.5063417805
 20
-8.0422044047
 30
0.0
 11
2.0063417805
 21
-8.5422044047
 31
0.0
  0
SPLINE
  5
E1
330
1F
100
AcDbEntity
  8
1
 62
     4
420
    65535
100
AcDbSpline
210
0.0
220
0.0
230
1.0
 70
    24
 71
     3
 72
     8
 73
     4
 74
     0
 42
0.00000001
 43
0.00000001
 12
1.0
 22
0.0
 32
0.0
 13
1.0
 23
0.0
 33
0.0
 40
0.0
 40
0.0
 40
0.0
 40
0.0
 40
1.0
 40
1.0
 40
1.0
 40
1.0
 10
11.60619977421767
 20
-8.042204404725387
 30
0.0
 10
12.44318183186721
 20
-8.042204404725387
 30
0.0
 10
13.27715731917624
 20
-8.042204404725387
 30
0.0
 10
14.10634178053442
 20
-8.042204404725387
 30
0.0
  0
LINE
  5
E2
330
1F
100
AcDbEntity
  8
1
 62
     4
420
    65535
100
AcDbLine
 10
14.1063417805
 20
-8.0422044047
 30
0.0
 11
14.1063417805
 21
-27.145828076
 31
0.0
  0
SPLINE
  5
E3
330
1F
100
AcDbEntity
  8
1
 62
     4
420
    65535
100
AcDbSpline
210
0.0
220
0.0
230
1.0
 70
    24
 71
     3
 72
    10
 73
     6
 74
     0
 42
0.00000001
 43
0.00000001
 12
1.0
 22
0.0
 32
0.0
 13
1.0
 23
0.0
 33
0.0
 40
0.0
 40
0.0
 40
0.0
 40
0.0
 40
0.5
 40
0.5
 40
1.0
 40
1.0
 40
1.0
 40
1.0
 10
14.10634178053442
 20
-8.042204404725387
 30
0.0
 10
14.10634178053448
 20
-8.042204404725386
 30
0.0
 10
14.12657025971417
 20
-8.042204404725387
 30
0.0
 10
14.19976934570089
 20
-8.042204404725387
 30
0.0
 10
14.25260270821395
 20
-8.042204404725389
 30
0.0
 10
14.30634178053443
 20
-8.042204404725387
 30
0.0
  0
LINE
  5
E4
330
1F
100
AcDbEntity
  8
1
 62
     4
420
    65535
100
AcDbLine
 10
14.3063417805
 20
-8.0422044047
 30
0.0
 11
14.3063417805
 21
-26.4922044047
 31
0.0
  0
LINE
  5
E5
330
1F
100
AcDbEntity
  8
1
 62
     4
420
    65535
100
AcDbLine
 10
14.3063417805
 20
-8.0422044047
 30
0.0
 11
14.9563417805
 21
-8.0422044047
 31
0.0
  0
SPLINE
  5
E6
330
1F
100
AcDbEntity
  8
1
 62
     4
420
    65535
100
AcDbSpline
210
0.0
220
0.0
230
1.0
 70
    24
 71
     3
 72
    10
 73
     6
 74
     0
 42
0.00000001
 43
0.00000001
 12
1.0
 22
0.0
 32
0.0
 13
1.0
 23
0.0
 33
0.0
 40
0.0
 40
0.0
 40
0.0
 40
0.0
 40
0.5
 40
0.5
 40
1.0
 40
1.0
 40
1.0
 40
1.0
 10
14.30634178053443
 20
-8.042204404725387
 30
0.0
 10
14.25276649114176
 20
-8.042204404725386
 30
0.0
 10
14.1997439094959
 20
-8.042204404725387
 30
0.0
 10
14.12653306874975
 20
-8.042204404725387
 30
0.0
 10
14.10634178053533
 20
-8.042204404725389
 30
0.0
 10
14.10634178053442
 20
-8.042204404725387
 30
0.0
  0
SPLINE
  5
E7
330
1F
100
AcDbEntity
  8
1
 62
     4
420
    65535
100
AcDbSpline
210
0.0
220
0.0
230
1.0
 70
    24
 71
     3
 72
     8
 73
     4
 74
     0
 42
0.00000001
 43
0.00000001
 12
1.0
 22
0.0
 32
0.0
 13
1.0
 23
0.0
 33
0.0
 40
0.0
 40
0.0
 40
0.0
 40
0.0
 40
1.0
 40
1.0
 40
1.0
 40
1.0
 10
14.10634178053442
 20
-8.042204404725387
 30
0.0
 10
13.27712295903434
 20
-8.042204404725387
 30
0.0
 10
12.44315577332215
 20
-8.042204404725387
 30
0.0
 10
11.60619977421767
 20
-8.042204404725387
 30
0.0
  0
LINE
  5
E8
330
1F
100
AcDbEntity
  8
1
 62
     4
420
    65535
100
AcDbLine
 10
18.9063417805
 20
-7.0064755714
 30
0.0
 11
18.9063417805
 21
-26.4922044047
 31
0.0
  0
SPLINE
  5
E9
330
1F
100
AcDbEntity
  8
1
 62
     4
420
    65535
100
AcDbSpline
210
0.0
220
0.0
230
1.0
 70
     8
 71
     3
 72
    12
 73
     8
 74
     0
 42
0.00000001
 43
0.00000001
 12
1.0
 22
0.0
 32
0.0
 13
1.0
 23
0.0
 33
0.0
 40
0.0
 40
0.0
 40
0.0
 40
0.0
 40
0.4999999999999989
 40
0.4999999999999989
 40
0.7499999999999994
 40
0.7499999999999994
 40
1.0
 40
1.0
 40
1.0
 40
1.0
 10
18.90634178053442
 20
-7.006475571425464
 30
0.0
 10
18.30594512714866
 20
-7.34458151636421
 30
0.0
 10
17.67397181393373
 20
-7.600653420501177
 30
0.0
 10
16.67805590515033
 20
-7.863422723964248
 30
0.0
 10
16.33607916691044
 20
-7.930630794062163
 30
0.0
 10
15.64963086547462
 20
-8.019759389836674
 30
0.0
 10
15.3041395182603
 20
-8.042204404725387
 30
0.0
 10
14.95634178053443
 20
-8.042204404725389
 30
0.0
  0
LINE
  5
EA
330
1F
100
AcDbEntity
  8
1
 62
     4
420
    65535
100
AcDbLine
 10
19.1063417805
 20
6.9056213397
 30
0.0
 11
19.1063417805
 21
26.7077955953
 31
0.0
  0
LINE
  5
EB
330
1F
100
AcDbEntity
  8
1
 62
     4
420
    65535
100
AcDbLine
 10
14.1063417805
 20
-8.0422044047
 30
0.0
 11
14.1063417805
 21
-26.6766126227
 31
0.0
  0
SPLINE
  5
EC
330
1F
100
AcDbEntity
  8
1
 62
     4
420
    65535
100
AcDbSpline
210
0.0
220
0.0
230
1.0
 70
     8
 71
     3
 72
    10
 73
     6
 74
     0
 42
0.00000001
 43
0.00000001
 12
1.0
 22
0.0
 32
0.0
 13
1.0
 23
0.0
 33
0.0
 40
0.0
 40
0.0
 40
0.0
 40
0.0
 40
0.5
 40
0.5
 40
1.0
 40
1.0
 40
1.0
 40
1.0
 10
19.10634178053443
 20
6.905621339666848
 30
0.0
 10
19.10634178053443
 20
6.905621339666847
 30
0.0
 10
19.08075891761291
 20
6.921080240275407
 30
0.0
 10
19.00722817954809
 20
6.964421263349372
 30
0.0
 10
18.95860545802853
 20
6.99263511880112
 30
0.0
 10
18.90634178053505
 20
7.022066761974453
 30
0.0
  0
LINE
  5
ED
330
1F
100
AcDbEntity
  8
1
 62
     4
420
    65535
100
AcDbLine
 10
18.9063417805
 20
7.022066762
 30
0.0
 11
18.9063417805
 21
26.5077955953
 31
0.0
  0
SPLINE
  5
EE
330
1F
100
AcDbEntity
  8
1
 62
     4
420
    65535
100
AcDbSpline
210
0.0
220
0.0
230
1.0
 70
     8
 71
     3
 72
    10
 73
     6
 74
     0
 42
0.00000001
 43
0.00000001
 12
1.0
 22
0.0
 32
0.0
 13
1.0
 23
0.0
 33
0.0
 40
0.0
 40
0.0
 40
0.0
 40
0.0
 40
0.5
 40
0.5
 40
1.0
 40
1.0
 40
1.0
 40
1.0
 10
18.90634178053442
 20
7.02206676197469
 30
0.0
 10
18.95880447975164
 20
6.992523042180699
 30
0.0
 10
19.00693249256279
 20
6.964595173615109
 30
0.0
 10
19.0809501774454
 20
6.920967881692798
 30
0.0
 10
19.10634178053443
 20
6.90562133966683
 30
0.0
 10
19.10634178053442
 20
6.90562133966683
 30
0.0
  0
LINE
  5
EF
330
1F
100
AcDbEntity
  8
1
 62
     4
420
    65535
100
AcDbLine
 10
19.1063417805
 20
-6.8900301491
 30
0.0
 11
19.1063417805
 21
-27.1618314236
 31
0.0
  0
SPLINE
  5
F0
330
1F
100
AcDbEntity
  8
1
 62
     4
420
    65535
100
AcDbSpline
210
0.0
220
0.0
230
1.0
 70
     8
 71
     3
 72
    12
 73
     8
 74
     0
 42
0.00000001
 43
0.00000001
 12
1.0
 22
0.0
 32
0.0
 13
1.0
 23
0.0
 33
0.0
 40
0.0
 40
0.0
 40
0.0
 40
0.0
 40
0.4999999999999989
 40
0.4999999999999989
 40
0.7499999999999994
 40
0.7499999999999994
 40
1.0
 40
1.0
 40
1.0
 40
1.0
 10
14.95634178053443
 20
-8.042204404725386
 30
0.0
 10
15.65209064081965
 20
-8.042204404725386
 30
0.0
 10
16.33169502843804
 20
-7.953509199213251
 30
0.0
 10
17.32804416269963
 20
-7.692554751121679
 30
0.0
 10
17.65791724717051
 20
-7.583158651334485
 30
0.0
 10
18.29634106066677
 20
-7.324700649849423
 30
0.0
 10
18.60604712607219
 20
-7.175582789686004
 30
0.0
 10
18.90634178053442
 20
-7.006475571425463
 30
0.0
  0
LINE
  5
F1
330
1F
100
AcDbEntity
  8
1
 62
     4
420
    65535
100
AcDbLine
 10
21.6064837869
 20
-4.5285147221
 30
0.0
 11
21.6064837869
 21
-31.4763835043
 31
0.0
  0
SPLINE
  5
F2
330
1F
100
AcDbEntity
  8
1
 62
     4
420
    65535
100
AcDbSpline
210
0.0
220
0.0
230
1.0
 70
     8
 71
     3
 72
    10
 73
     6
 74
     0
 42
0.00000001
 43
0.00000001
 12
1.0
 22
0.0
 32
0.0
 13
1.0
 23
0.0
 33
0.0
 40
0.0
 40
0.0
 40
0.0
 40
0.0
 40
0.5
 40
0.5
 40
1.0
 40
1.0
 40
1.0
 40
1.0
 10
19.10634178053441
 20
-6.890030149117614
 30
0.0
 10
19.5498357522338
 20
-6.623206942682049
 30
0.0
 10
19.98232051109076
 20
-6.306060399215182
 30
0.0
 10
20.81924853799245
 20
-5.5376136838059
 30
0.0
 10
21.22420652635251
 20
-5.088925692773085
 30
0.0
 10
21.60648378685118
 20
-4.528514722133296
 30
0.0
  0
LINE
  5
F3
330
1F
100
AcDbEntity
  8
1
 62
     4
420
    65535
100
AcDbLine
 10
-21.2520231539
 20
5.1077957793
 30
0.0
 11
-21.2520231539
 21
-5.0922045887
 31
0.0
  0
SPLINE
  5
F4
330
1F
100
AcDbEntity
  8
1
 62
     4
420
    65535
100
AcDbSpline
210
0.0
220
0.0
230
1.0
 70
     8
 71
     3
 72
    10
 73
     6
 74
     0
 42
0.00000001
 43
0.00000001
 12
1.0
 22
0.0
 32
0.0
 13
1.0
 23
0.0
 33
0.0
 40
0.0
 40
0.0
 40
0.0
 40
0.0
 40
0.5
 40
0.5
 40
1.0
 40
1.0
 40
1.0
 40
1.0
 10
21.60648378685118
 20
-4.528514722133295
 30
0.0
 10
21.22734660920193
 20
-5.084322392866545
 30
0.0
 10
20.82335081062517
 20
-5.533413837772146
 30
0.0
 10
19.9848362230538
 20
-6.304180369635623
 30
0.0
 10
19.54879190921613
 20
-6.623834959203096
 30
0.0
 10
19.10634178053446
 20
-6.890030149118063
 30
0.0
  0
LINE
  5
F5
330
1F
100
AcDbEntity
  8
1
 62
     4
420
    65535
100
AcDbLine
 10
-54.6616074119
 20
-6.9882953508
 30
0.0
 11
-54.6616074119
 21
7.0038865414
 31
0.0
  0
LINE
  5
F6
330
1F
100
AcDbEntity
  8
1
 62
     4
420
    65535
100
AcDbLine
 10
-56.3936582195
 20
-7.9764182322
 30
0.0
 11
-56.3936582195
 21
7.9920094227
 31
0.0
  0
LINE
  5
F7
330
1F
100
AcDbEntity
  8
1
 62
     4
420
    65535
100
AcDbLine
 10
-22.3936582195
 20
-6.9882953508
 30
0.0
 11
-22.3936582195
 21
7.0038865414
 31
0.0
  0
LINE
  5
F8
330
1F
100
AcDbEntity
  8
1
 62
     4
420
    65535
100
AcDbLine
 10
-64.3936582195
 20
-8.4922044047
 30
0.0
 11
-64.3936582195
 21
8.5077955953
 31
0.0
  0
LINE
  5
F9
330
1F
100
AcDbEntity
  8
1
 62
     4
420
    65535
100
AcDbLine
 10
-65.3936582195
 20
-9.4761319083
 30
0.0
 11
-65.3936582195
 21
9.4917230989
 31
0.0
  0
LINE
  5
FA
330
1F
100
AcDbEntity
  8
1
 62
     4
420
    65535
100
AcDbLine
 10
-65.3936582195
 20
-12.4248402882
 30
0.0
 11
-65.3936582195
 21
12.4404314787
 31
0.0
  0
LINE
  5
FB
330
1F
100
AcDbEntity
  8
1
 62
     4
420
    65535
100
AcDbLine
 10
-64.9643680134
 20
-12.9357928676
 30
0.0
 11
-64.9643680134
 21
12.9513840581
 31
0.0
  0
LINE
  5
FC
330
1F
100
AcDbEntity
  8
1
 62
     4
420
    65535
100
AcDbLine
 10
0.3063417805
 20
-22.2600610007
 30
0.0
 11
0.3063417805
 21
22.2756521913
 31
0.0
  0
LINE
  5
FD
330
1F
100
AcDbEntity
  8
1
 62
     4
420
    65535
100
AcDbLine
 10
0.3063417805
 20
-22.2300610007
 30
0.0
 11
0.3063417805
 21
22.2456521913
 31
0.0
  0
LINE
  5
FE
330
1F
100
AcDbEntity
  8
1
 62
     4
420
    65535
100
AcDbLine
 10
0.4063417805
 20
-22.1260966125
 30
0.0
 11
0.4063417805
 21
22.141687803
 31
0.0
  0
LINE
  5
FF
330
1F
100
AcDbEntity
  8
1
 62
     4
420
    65535
100
AcDbLine
 10
1.9063417805
 20
-22.1260966125
 30
0.0
 11
1.9063417805
 21
22.141687803
 31
0.0
  0
LINE
  5
100
330
1F
100
AcDbEntity
  8
1
 62
     4
420
    65535
100
AcDbLine
 10
2.0063417805
 20
-22.2300610007
 30
0.0
 11
2.0063417805
 21
22.2456521913
 31
0.0
  0
LINE
  5
101
330
1F
100
AcDbEntity
  8
1
 62
     4
420
    65535
100
AcDbLine
 10
2.0063417805
 20
8.5577955953
 30
0.0
 11
2.0063417805
 21
-8.5422044047
 31
0.0
  0
LINE
  5
102
330
1F
100
AcDbEntity
  8
1
 62
     4
420
    65535
100
AcDbLine
 10
2.0063417805
 20
8.5577955953
 30
0.0
 11
2.0063417805
 21
31.492061832
 31
0.0
  0
LINE
  5
103
330
1F
100
AcDbEntity
  8
1
 62
     4
420
    65535
100
AcDbLine
 10
19.1063417805
 20
-6.8900301491
 30
0.0
 11
19.1063417805
 21
-26.6922044047
 31
0.0
  0
LINE
  5
104
330
1F
100
AcDbEntity
  8
1
 62
     4
420
    65535
100
AcDbLine
 10
11.6061997742
 20
8.0577955953
 30
0.0
 11
2.5063417805
 21
8.0577955953
 31
0.0
  0
LINE
  5
105
330
1F
100
AcDbEntity
  8
1
 62
     4
420
    65535
100
AcDbLine
 10
11.6061997742
 20
8.0577955953
 30
0.0
 11
11.6061997742
 21
31.4916597761
 31
0.0
  0
LINE
  5
106
330
1F
100
AcDbEntity
  8
1
 62
     4
420
    65535
100
AcDbLine
 10
2.5063417805
 20
8.0577955953
 30
0.0
 11
2.0063417805
 21
8.5577955953
 31
0.0
  0
LINE
  5
107
330
1F
100
AcDbEntity
  8
1
 62
     4
420
    65535
100
AcDbLine
 10
-56.3936582195
 20
-8.4922044047
 30
0.0
 11
-56.3936582195
 21
8.5077955953
 31
0.0
  0
LINE
  5
108
330
1F
100
AcDbEntity
  8
1
 62
     4
420
    65535
100
AcDbLine
 10
2.0063417805
 20
8.5577955953
 30
0.0
 11
2.5063417805
 21
8.0577955953
 31
0.0
  0
SPLINE
  5
109
330
1F
100
AcDbEntity
  8
1
 62
     4
420
    65535
100
AcDbSpline
210
0.0
220
0.0
230
1.0
 70
    24
 71
     3
 72
     8
 73
     4
 74
     0
 42
0.00000001
 43
0.00000001
 12
1.0
 22
0.0
 32
0.0
 13
1.0
 23
0.0
 33
0.0
 40
0.0
 40
0.0
 40
0.0
 40
0.0
 40
1.0
 40
1.0
 40
1.0
 40
1.0
 10
14.10634178053442
 20
8.057795595274612
 30
0.0
 10
13.27715731917624
 20
8.057795595274612
 30
0.0
 10
12.44318183186721
 20
8.057795595274612
 30
0.0
 10
11.60619977421767
 20
8.057795595274612
 30
0.0
  0
LINE
  5
10A
330
1F
100
AcDbEntity
  8
1
 62
     4
420
    65535
100
AcDbLine
 10
14.1063417805
 20
8.0577955953
 30
0.0
 11
14.1063417805
 21
27.1614192665
 31
0.0
  0
SPLINE
  5
10B
330
1F
100
AcDbEntity
  8
1
 62
     4
420
    65535
100
AcDbSpline
210
0.0
220
0.0
230
1.0
 70
    24
 71
     3
 72
     8
 73
     4
 74
     0
 42
0.00000001
 43
0.00000001
 12
1.0
 22
0.0
 32
0.0
 13
1.0
 23
0.0
 33
0.0
 40
0.0
 40
0.0
 40
0.0
 40
0.0
 40
1.0
 40
1.0
 40
1.0
 40
1.0
 10
11.60619977421767
 20
8.057795595274612
 30
0.0
 10
12.44315648404051
 20
8.057795595274612
 30
0.0
 10
13.27713460476297
 20
8.057795595274612
 30
0.0
 10
14.10634178053442
 20
8.057795595274612
 30
0.0
  0
LINE
  5
10C
330
1F
100
AcDbEntity
  8
1
 62
     4
420
    65535
100
AcDbLine
 10
14.3063417805
 20
8.0577955953
 30
0.0
 11
14.3063417805
 21
26.5077955953
 31
0.0
  0
SPLINE
  5
10D
330
1F
100
AcDbEntity
  8
1
 62
     4
420
    65535
100
AcDbSpline
210
0.0
220
0.0
230
1.0
 70
    24
 71
     3
 72
    10
 73
     6
 74
     0
 42
0.00000001
 43
0.00000001
 12
1.0
 22
0.0
 32
0.0
 13
1.0
 23
0.0
 33
0.0
 40
0.0
 40
0.0
 40
0.0
 40
0.0
 40
0.5
 40
0.5
 40
1.0
 40
1.0
 40
1.0
 40
1.0
 10
14.30634178053443
 20
8.057795595274612
 30
0.0
 10
14.25291021202609
 20
8.05779559527461
 30
0.0
 10
14.19993443393863
 20
8.057795595274612
 30
0.0
 10
14.12663960378125
 20
8.057795595274612
 30
0.0
 10
14.10634178053442
 20
8.057795595274614
 30
0.0
 10
14.10634178053442
 20
8.057795595274612
 30
0.0
  0
LINE
  5
10E
330
1F
100
AcDbEntity
  8
1
 62
     4
420
    65535
100
AcDbLine
 10
14.9563417805
 20
8.0577955953
 30
0.0
 11
14.3063417805
 21
8.0577955953
 31
0.0
  0
SPLINE
  5
10F
330
1F
100
AcDbEntity
  8
1
 62
     4
420
    65535
100
AcDbSpline
210
0.0
220
0.0
230
1.0
 70
     8
 71
     3
 72
    12
 73
     8
 74
     0
 42
0.00000001
 43
0.00000001
 12
1.0
 22
0.0
 32
0.0
 13
1.0
 23
0.0
 33
0.0
 40
0.0
 40
0.0
 40
0.0
 40
0.0
 40
0.4999999999999989
 40
0.4999999999999989
 40
0.7499999999999994
 40
0.7499999999999994
 40
1.0
 40
1.0
 40
1.0
 40
1.0
 10
18.90634178053442
 20
7.022066761974688
 30
0.0
 10
18.30594512714866
 20
7.360172706913435
 30
0.0
 10
17.67397181393373
 20
7.616244611050401
 30
0.0
 10
16.67805590515033
 20
7.879013914513473
 30
0.0
 10
16.33607916691044
 20
7.946221984611387
 30
0.0
 10
15.64963086547462
 20
8.035350580385897
 30
0.0
 10
15.3041395182603
 20
8.057795595274612
 30
0.0
 10
14.95634178053443
 20
8.057795595274614
 30
0.0
  0
LINE
  5
110
330
1F
100
AcDbEntity
  8
1
 62
     4
420
    65535
100
AcDbLine
 10
14.1063417805
 20
8.0577955953
 30
0.0
 11
14.1063417805
 21
26.6922038132
 31
0.0
  0
SPLINE
  5
111
330
1F
100
AcDbEntity
  8
1
 62
     4
420
    65535
100
AcDbSpline
210
0.0
220
0.0
230
1.0
 70
    24
 71
     3
 72
    10
 73
     6
 74
     0
 42
0.00000001
 43
0.00000001
 12
1.0
 22
0.0
 32
0.0
 13
1.0
 23
0.0
 33
0.0
 40
0.0
 40
0.0
 40
0.0
 40
0.0
 40
0.5
 40
0.5
 40
1.0
 40
1.0
 40
1.0
 40
1.0
 10
14.10634178053442
 20
8.057795595274612
 30
0.0
 10
14.10634178053405
 20
8.05779559527461
 30
0.0
 10
14.1267947106642
 20
8.057795595274612
 30
0.0
 10
14.19934215539349
 20
8.057795595274612
 30
0.0
 10
14.25282667714205
 20
8.057795595274614
 30
0.0
 10
14.30634178053443
 20
8.057795595274612
 30
0.0
  0
SPLINE
  5
112
330
1F
100
AcDbEntity
  8
1
 62
     4
420
    65535
100
AcDbSpline
210
0.0
220
0.0
230
1.0
 70
     8
 71
     3
 72
    10
 73
     6
 74
     0
 42
0.00000001
 43
0.00000001
 12
1.0
 22
0.0
 32
0.0
 13
1.0
 23
0.0
 33
0.0
 40
0.0
 40
0.0
 40
0.0
 40
0.0
 40
0.5
 40
0.5
 40
1.0
 40
1.0
 40
1.0
 40
1.0
 10
19.10634178053443
 20
-6.890030149117623
 30
0.0
 10
19.10634178053443
 20
-6.890030149117622
 30
0.0
 10
19.08075891761291
 20
-6.905489049726184
 30
0.0
 10
19.00722817954809
 20
-6.948830072800145
 30
0.0
 10
18.95860545802853
 20
-6.977043928251895
 30
0.0
 10
18.90634178053505
 20
-7.006475571425228
 30
0.0
  0
LINE
  5
113
330
1F
100
AcDbEntity
  8
1
 62
     4
420
    65535
100
AcDbLine
 10
19.1063417805
 20
6.9056213397
 30
0.0
 11
19.1063417805
 21
27.1774226142
 31
0.0
  0
SPLINE
  5
114
330
1F
100
AcDbEntity
  8
1
 62
     4
420
    65535
100
AcDbSpline
210
0.0
220
0.0
230
1.0
 70
     8
 71
     3
 72
    12
 73
     8
 74
     0
 42
0.00000001
 43
0.00000001
 12
1.0
 22
0.0
 32
0.0
 13
1.0
 23
0.0
 33
0.0
 40
0.0
 40
0.0
 40
0.0
 40
0.0
 40
0.4999999999999988
 40
0.4999999999999988
 40
0.7499999999999993
 40
0.7499999999999993
 40
1.0
 40
1.0
 40
1.0
 40
1.0
 10
14.95634178053443
 20
8.05779559527461
 30
0.0
 10
15.65209064081965
 20
8.05779559527461
 30
0.0
 10
16.33169502843804
 20
7.969100389762474
 30
0.0
 10
17.32804416269964
 20
7.708145941670904
 30
0.0
 10
17.65791724717051
 20
7.598749841883712
 30
0.0
 10
18.29634106066677
 20
7.340291840398651
 30
0.0
 10
18.60604712607219
 20
7.191173980235233
 30
0.0
 10
18.90634178053442
 20
7.022066761974687
 30
0.0
  0
LINE
  5
115
330
1F
100
AcDbEntity
  8
1
 62
     4
420
    65535
100
AcDbLine
 10
21.6064837869
 20
4.5441059127
 30
0.0
 11
21.6064837869
 21
31.4919746948
 31
0.0
  0
SPLINE
  5
116
330
1F
100
AcDbEntity
  8
1
 62
     4
420
    65535
100
AcDbSpline
210
0.0
220
0.0
230
1.0
 70
     8
 71
     3
 72
    10
 73
     6
 74
     0
 42
0.00000001
 43
0.00000001
 12
1.0
 22
0.0
 32
0.0
 13
1.0
 23
0.0
 33
0.0
 40
0.0
 40
0.0
 40
0.0
 40
0.0
 40
0.5
 40
0.5
 40
1.0
 40
1.0
 40
1.0
 40
1.0
 10
21.60648378685118
 20
4.54410591268252
 30
0.0
 10
21.22734660920193
 20
5.099913583415773
 30
0.0
 10
20.82335081062517
 20
5.549005028321373
 30
0.0
 10
19.9848362230538
 20
6.319771560184847
 30
0.0
 10
19.54879190921613
 20
6.639426149752322
 30
0.0
 10
19.10634178053446
 20
6.905621339667288
 30
0.0
  0
SPLINE
  5
117
330
1F
100
AcDbEntity
  8
1
 62
     4
420
    65535
100
AcDbSpline
210
0.0
220
0.0
230
1.0
 70
     8
 71
     3
 72
    20
 73
    16
 74
     0
 42
0.00000001
 43
0.00000001
 12
1.0
 22
0.0
 32
0.0
 13
1.0
 23
0.0
 33
0.0
 40
0.0
 40
0.0
 40
0.0
 40
0.0
 40
0.25
 40
0.25
 40
0.375
 40
0.375
 40
0.5
 40
0.5
 40
0.625
 40
0.625
 40
0.75
 40
0.75
 40
0.875
 40
0.875
 40
1.0
 40
1.0
 40
1.0
 40
1.0
 10
21.60648378685118
 20
-4.528514722133294
 30
0.0
 10
22.06092897572468
 20
-3.862306983103845
 30
0.0
 10
22.40716385594494
 20
-3.144602725926571
 30
0.0
 10
22.76502595369535
 20
-1.989557072022879
 30
0.0
 10
22.85559856610595
 20
-1.593666161204845
 30
0.0
 10
22.97555666976864
 20
-0.8016054685672315
 30
0.0
 10
23.00594724874394
 20
-0.4024172608887326
 30
0.0
 10
23.00672872207014
 20
0.4023749570527557
 30
0.0
 10
22.97633209303609
 20
0.8100274449915297
 30
0.0
 10
22.85664658181994
 20
1.604355835323759
 30
0.0
 10
22.76766821157056
 20
1.994270558866303
 30
0.0
 10
22.53191917452678
 20
2.759800417365623
 30
0.0
 10
22.38379992291641
 20
3.137867738418305
 30
0.0
 10
22.03455253904546
 20
3.863106028458886
 30
0.0
 10
21.83373274637179
 20
4.210963392471664
 30
0.0
 10
21.60648378685118
 20
4.544105912682522
 30
0.0
  0
SPLINE
  5
118
330
1F
100
AcDbEntity
  8
1
 62
     4
420
    65535
100
AcDbSpline
210
0.0
220
0.0
230
1.0
 70
     8
 71
     3
 72
    20
 73
    16
 74
     0
 42
0.00000001
 43
0.00000001
 12
1.0
 22
0.0
 32
0.0
 13
1.0
 23
0.0
 33
0.0
 40
0.0
 40
0.0
 40
0.0
 40
0.0
 40
0.25
 40
0.25
 40
0.375
 40
0.375
 40
0.5
 40
0.5
 40
0.625
 40
0.625
 40
0.75
 40
0.75
 40
0.875
 40
0.875
 40
1.0
 40
1.0
 40
1.0
 40
1.0
 10
21.60648378685118
 20
4.544105912682519
 30
0.0
 10
22.06092897572468
 20
3.877898173653069
 30
0.0
 10
22.40716385594494
 20
3.160193916475796
 30
0.0
 10
22.76502595369535
 20
2.005148262572104
 30
0.0
 10
22.85559856610595
 20
1.609257351754069
 30
0.0
 10
22.97555666976864
 20
0.8171966591164556
 30
0.0
 10
23.00594724874394
 20
0.4180084514379568
 30
0.0
 10
23.00672872207014
 20
-0.3867837665035315
 30
0.0
 10
22.97633209303609
 20
-0.7944362544423056
 30
0.0
 10
22.85664658181994
 20
-1.588764644774535
 30
0.0
 10
22.76766821157056
 20
-1.978679368317078
 30
0.0
 10
22.53191917452678
 20
-2.744209226816399
 30
0.0
 10
22.38379992291641
 20
-3.12227654786908
 30
0.0
 10
22.03455253904546
 20
-3.847514837909662
 30
0.0
 10
21.83373274637179
 20
-4.195372201922439
 30
0.0
 10
21.60648378685118
 20
-4.528514722133297
 30
0.0
  0
SPLINE
  5
119
330
1F
100
AcDbEntity
  8
1
 62
     4
420
    65535
100
AcDbSpline
210
0.0
220
0.0
230
1.0
 70
     8
 71
     3
 72
    10
 73
     6
 74
     0
 42
0.00000001
 43
0.00000001
 12
1.0
 22
0.0
 32
0.0
 13
1.0
 23
0.0
 33
0.0
 40
0.0
 40
0.0
 40
0.0
 40
0.0
 40
0.5
 40
0.5
 40
1.0
 40
1.0
 40
1.0
 40
1.0
 10
19.10634178053441
 20
6.905621339666838
 30
0.0
 10
19.54983575223381
 20
6.638798133231274
 30
0.0
 10
19.98232051109075
 20
6.321651589764406
 30
0.0
 10
20.81924853799245
 20
5.553204874355124
 30
0.0
 10
21.22420652635251
 20
5.104516883322309
 30
0.0
 10
21.60648378685118
 20
4.54410591268252
 30
0.0
  0
LINE
  5
11A
330
1F
100
AcDbEntity
  8
1
 62
     4
420
    65535
100
AcDbLine
 10
27.0063417805
 20
-21.4731297878
 30
0.0
 11
27.0063417805
 21
21.4887209783
 31
0.0
  0
LINE
  5
11B
330
1F
100
AcDbEntity
  8
1
 62
     4
420
    65535
100
AcDbLine
 10
2.0063417805
 20
-8.5422044047
 30
0.0
 11
2.5063417805
 21
-8.0422044047
 31
0.0
  0
LINE
  5
11C
330
1F
100
AcDbEntity
  8
1
 62
     4
420
    65535
100
AcDbLine
 10
2.5063417805
 20
-8.0422044047
 30
0.0
 11
14.9563417805
 21
-8.0422044047
 31
0.0
  0
LINE
  5
11D
330
1F
100
AcDbEntity
  8
1
 62
     4
420
    65535
100
AcDbLine
 10
14.9563417805
 20
8.0577955953
 30
0.0
 11
2.5063417805
 21
8.0577955953
 31
0.0
  0
SPLINE
  5
11E
330
1F
100
AcDbEntity
  8
1
 62
     4
420
    65535
100
AcDbSpline
210
0.0
220
0.0
230
1.0
 70
     8
 71
     3
 72
    10
 73
     6
 74
     0
 42
0.00000001
 43
0.00000001
 12
1.0
 22
0.0
 32
0.0
 13
1.0
 23
0.0
 33
0.0
 40
0.0
 40
0.0
 40
0.0
 40
0.0
 40
0.5
 40
0.5
 40
1.0
 40
1.0
 40
1.0
 40
1.0
 10
18.90634178053442
 20
-7.006475571425467
 30
0.0
 10
18.95880447975164
 20
-6.976931851631475
 30
0.0
 10
19.00693249256279
 20
-6.949003983065884
 30
0.0
 10
19.0809501774454
 20
-6.905376691143571
 30
0.0
 10
19.10634178053443
 20
-6.890030149117606
 30
0.0
 10
19.10634178053442
 20
-6.890030149117605
 30
0.0
  0
LINE
  5
11F
330
1F
100
AcDbEntity
  8
1
 62
     4
420
    65535
100
AcDbLine
 10
2.5063417805
 20
8.0577955953
 30
0.0
 11
2.0063417805
 21
8.5577955953
 31
0.0
  0
ARC
  5
120
330
1F
100
AcDbEntity
  8
1
 62
     4
420
    65535
100
AcDbCircle
 10
14.9563417805
 20
0.0077955953
 30
0.0
 40
8.05
100
AcDbArc
 50
270.0
 51
90.0
  0
LINE
  5
121
330
1F
100
AcDbEntity
  8
1
 62
     4
420
    65535
100
AcDbLine
 10
27.0063417805
 20
-31.4922044047
 30
0.0
 11
27.0063417805
 21
31.5077955953
 31
0.0
  0
ARC
  5
122
330
1F
100
AcDbEntity
  8
1
 62
     4
420
    65535
100
AcDbCircle
 10
14.9563417805
 20
0.0077955953
 30
0.0
 40
8.05
100
AcDbArc
 50
270.0
 51
90.0
  0
LINE
  5
123
330
1F
100
AcDbEntity
  8
1
 62
     4
420
    65535
100
AcDbLine
 10
67.4995182408
 20
-5.0922045887
 30
0.0
 11
67.4995182408
 21
5.1077957793
 31
0.0
  0
LINE
  5
124
330
1F
100
AcDbEntity
  8
1
 62
     4
420
    65535
100
AcDbLine
 10
67.7593274368
 20
-5.5266853646
 30
0.0
 11
67.7593274368
 21
5.5422765551
 31
0.0
  0
LINE
  5
125
330
1F
100
AcDbEntity
  8
1
 62
     4
420
    65535
100
AcDbLine
 10
71.7689840448
 20
-5.5266853646
 30
0.0
 11
71.7689840448
 21
5.5422765551
 31
0.0
  0
LINE
  5
126
330
1F
100
AcDbEntity
  8
1
 62
     4
420
    65535
100
AcDbLine
 10
92.7593259467
 20
-8.9229237474
 30
0.0
 11
92.7593259467
 21
8.938514938
 31
0.0
  0
LINE
  5
127
330
1F
100
AcDbEntity
  8
1
 62
     4
420
    65535
100
AcDbLine
 10
92.7593259467
 20
-9.2265549877
 30
0.0
 11
92.7593259467
 21
9.2421461783
 31
0.0
  0
LINE
  5
128
330
1F
100
AcDbEntity
  8
1
 62
     4
420
    65535
100
AcDbLine
 10
92.5593225611
 20
-9.4262162802
 30
0.0
 11
92.5593225611
 21
9.4418074707
 31
0.0
  0
LINE
  5
129
330
1F
100
AcDbEntity
  8
1
 62
     4
420
    65535
100
AcDbLine
 10
87.7593232645
 20
-9.4262162802
 30
0.0
 11
87.7593232645
 21
9.4418074707
 31
0.0
  0
LINE
  5
12A
330
1F
100
AcDbEntity
  8
1
 62
     4
420
    65535
100
AcDbLine
 10
87.1531067742
 20
-10.4882174869
 30
0.0
 11
87.1531067742
 21
10.5038086775
 31
0.0
  0
LINE
  5
12B
330
1F
100
AcDbEntity
  8
1
 62
     4
420
    65535
100
AcDbLine
 10
79.3593226327
 20
-10.4882174869
 30
0.0
 11
79.3593226327
 21
10.5038086775
 31
0.0
  0
LINE
  5
12C
330
1F
100
AcDbEntity
  8
1
 62
     4
420
    65535
100
AcDbLine
 10
79.3593226327
 20
-10.6265848664
 30
0.0
 11
79.3593226327
 21
10.642176057
 31
0.0
  0
LINE
  5
12D
330
1F
100
AcDbEntity
  8
1
 62
     4
420
    65535
100
AcDbLine
 10
75.7593212975
 20
-10.6265848664
 30
0.0
 11
75.7593212975
 21
10.642176057
 31
0.0
  0
LINE
  5
12E
330
1F
100
AcDbEntity
  8
1
 62
     4
420
    65535
100
AcDbLine
 10
75.7593212975
 20
-13.2883207507
 30
0.0
 11
75.7593212975
 21
13.3039119412
 31
0.0
  0
LINE
  5
12F
330
1F
100
AcDbEntity
  8
1
 62
     4
420
    65535
100
AcDbLine
 10
75.5422411812
 20
-13.5053421379
 30
0.0
 11
75.5422411812
 21
13.5209333284
 31
0.0
  0
LINE
  5
130
330
1F
100
AcDbEntity
  8
1
 62
     4
420
    65535
100
AcDbLine
 10
31.1532758297
 20
-16.9988385597
 30
0.0
 11
31.1532758297
 21
17.0144297502
 31
0.0
  0
LINE
  5
131
330
1F
100
AcDbEntity
  8
1
 62
     4
420
    65535
100
AcDbLine
 10
92.3289124898
 20
-8.4277107883
 30
0.0
 11
92.3289124898
 21
8.4433019788
 31
0.0
  0
LINE
  5
132
330
1F
100
AcDbEntity
  8
1
 62
     4
420
    65535
100
AcDbLine
 10
77.6063438963
 20
-10.6537434864
 30
0.0
 11
77.6063438963
 21
10.6693346769
 31
0.0
  0
LINE
  5
133
330
1F
100
AcDbEntity
  8
1
 62
     4
420
    65535
100
AcDbLine
 10
81.9043068541
 20
-9.7922047389
 30
0.0
 11
81.9043068541
 21
9.8077959295
 31
0.0
  0
LINE
  5
134
330
1F
100
AcDbEntity
  8
1
 62
     4
420
    65535
100
AcDbLine
 10
76.8063438963
 20
-11.4509042226
 30
0.0
 11
76.8063438963
 21
11.4664954131
 31
0.0
  0
LINE
  5
135
330
1F
100
AcDbEntity
  8
1
 62
     4
420
    65535
100
AcDbLine
 10
81.4063398074
 20
-10.6537434864
 30
0.0
 11
81.4063398074
 21
10.6693346769
 31
0.0
  0
LINE
  5
136
330
1F
100
AcDbEntity
  8
1
 62
     4
420
    65535
100
AcDbLine
 10
93.4063418689
 20
-9.4508457383
 30
0.0
 11
93.4063418689
 21
9.4664369288
 31
0.0
  0
LINE
  5
137
330
1F
100
AcDbEntity
  8
1
 62
     4
420
    65535
100
AcDbLine
 10
93.8063418689
 20
-9.0547046137
 30
0.0
 11
93.8063418689
 21
9.0702958043
 31
0.0
  0
LINE
  5
138
330
1F
100
AcDbEntity
  8
1
 62
     4
420
    65535
100
AcDbLine
 10
93.8063418689
 20
-8.6883838913
 30
0.0
 11
93.8063418689
 21
8.7039750818
 31
0.0
  0
LINE
  5
139
330
1F
100
AcDbEntity
  8
1
 62
     4
420
    65535
100
AcDbLine
 10
94.3063418689
 20
-8.1912510697
 30
0.0
 11
94.3063418689
 21
8.2068422602
 31
0.0
  0
LINE
  5
13A
330
1F
100
AcDbEntity
  8
1
 62
     4
420
    65535
100
AcDbLine
 10
94.5406587995
 20
-8.1912510697
 30
0.0
 11
94.5406587995
 21
8.2068422602
 31
0.0
  0
LINE
  5
13B
330
1F
100
AcDbEntity
  8
1
 62
     4
420
    65535
100
AcDbLine
 10
94.823501512
 20
-8.3083947335
 30
0.0
 11
94.823501512
 21
8.323985924
 31
0.0
  0
LINE
  5
13C
330
1F
100
AcDbEntity
  8
1
 62
     4
420
    65535
100
AcDbLine
 10
95.0343605737
 20
-8.5192666934
 30
0.0
 11
95.0343605737
 21
8.5348578839
 31
0.0
  0
LINE
  5
13D
330
1F
100
AcDbEntity
  8
1
 62
     4
420
    65535
100
AcDbLine
 10
95.5172032042
 20
-8.5828270766
 30
0.0
 11
95.5172032042
 21
8.5984182672
 31
0.0
  0
LINE
  5
13E
330
1F
100
AcDbEntity
  8
1
 62
     4
420
    65535
100
AcDbLine
 10
89.6063445462
 20
-9.7922047389
 30
0.0
 11
89.6063445462
 21
9.8077959295
 31
0.0
  0
LINE
  5
13F
330
1F
100
AcDbEntity
  8
1
 62
     4
420
    65535
100
AcDbLine
 10
99.6471144616
 20
-6.2883668238
 30
0.0
 11
99.6471144616
 21
6.3039580144
 31
0.0
  0
LINE
  5
140
330
1F
100
AcDbEntity
  8
1
 62
     4
420
    65535
100
AcDbLine
 10
99.806338395
 20
-6.2883668238
 30
0.0
 11
99.806338395
 21
6.3039580144
 31
0.0
  0
LINE
  5
141
330
1F
100
AcDbEntity
  8
1
 62
     4
420
    65535
100
AcDbLine
 10
100.0063417805
 20
-6.4912363959
 30
0.0
 11
100.0063417805
 21
6.5068275864
 31
0.0
  0
LINE
  5
142
330
1F
100
AcDbEntity
  8
1
 62
     4
420
    65535
100
AcDbLine
 10
100.0063417805
 20
-11.5264991145
 30
0.0
 11
100.0063417805
 21
11.5420903051
 31
0.0
  0
LINE
  5
143
330
1F
100
AcDbEntity
  8
1
 62
     4
420
    65535
100
AcDbLine
 10
99.3455720418
 20
-11.9118198117
 30
0.0
 11
99.3455720418
 21
11.9274110022
 31
0.0
  0
LINE
  5
144
330
1F
100
AcDbEntity
  8
1
 62
     4
420
    65535
100
AcDbLine
 10
99.0455721308
 20
-11.992204518
 30
0.0
 11
99.0455721308
 21
12.0077957086
 31
0.0
  0
LINE
  5
145
330
1F
100
AcDbEntity
  8
1
 62
     4
420
    65535
100
AcDbLine
 10
90.0063440173
 20
-11.992204518
 30
0.0
 11
90.0063440173
 21
12.0077957086
 31
0.0
  0
LINE
  5
146
330
1F
100
AcDbEntity
  8
1
 62
     4
420
    65535
100
AcDbLine
 10
89.6063450308
 20
-12.0984276779
 30
0.0
 11
89.6063450308
 21
12.1140188684
 31
0.0
  0
LINE
  5
147
330
1F
100
AcDbEntity
  8
1
 62
     4
420
    65535
100
AcDbLine
 10
88.9336464834
 20
-12.4868092171
 30
0.0
 11
88.9336464834
 21
12.5024004077
 31
0.0
  0
LINE
  5
148
330
1F
100
AcDbEntity
  8
1
 62
     4
420
    65535
100
AcDbLine
 10
87.5076798502
 20
-12.5990267051
 30
0.0
 11
87.5076798502
 21
12.6146178956
 31
0.0
  0
LINE
  5
149
330
1F
100
AcDbEntity
  8
1
 62
     4
420
    65535
100
AcDbLine
 10
86.7150060003
 20
-12.6623758777
 30
0.0
 11
86.7150060003
 21
12.6779670682
 31
0.0
  0
LINE
  5
14A
330
1F
100
AcDbEntity
  8
1
 62
     4
420
    65535
100
AcDbLine
 10
85.0153861481
 20
-12.7961389373
 30
0.0
 11
85.0153861481
 21
12.8117301279
 31
0.0
  0
LINE
  5
14B
330
1F
100
AcDbEntity
  8
1
 62
     4
420
    65535
100
AcDbLine
 10
84.2227126748
 20
-12.8575698799
 30
0.0
 11
84.2227126748
 21
12.8731610705
 31
0.0
  0
LINE
  5
14C
330
1F
100
AcDbEntity
  8
1
 62
     4
420
    65535
100
AcDbLine
 10
82.5230924461
 20
-12.9913230526
 30
0.0
 11
82.5230924461
 21
13.0069142432
 31
0.0
  0
LINE
  5
14D
330
1F
100
AcDbEntity
  8
1
 62
     4
420
    65535
100
AcDbLine
 10
81.7304177451
 20
-13.0508576485
 30
0.0
 11
81.7304177451
 21
13.066448839
 31
0.0
  0
LINE
  5
14E
330
1F
100
AcDbEntity
  8
1
 62
     4
420
    65535
100
AcDbLine
 10
89.9438409461
 20
-9.4508457383
 30
0.0
 11
89.9438409461
 21
9.4664369288
 31
0.0
  0
LINE
  5
14F
330
1F
100
AcDbEntity
  8
1
 62
     4
420
    65535
100
AcDbLine
 10
77.0057288837
 20
-13.4265129947
 30
0.0
 11
77.0057288837
 21
13.4421041853
 31
0.0
  0
LINE
  5
150
330
1F
100
AcDbEntity
  8
1
 62
     4
420
    65535
100
AcDbLine
 10
80.030813699
 20
-13.1845804075
 30
0.0
 11
80.030813699
 21
13.2001715981
 31
0.0
  0
LINE
  5
151
330
1F
100
AcDbEntity
  8
1
 62
     4
420
    65535
100
AcDbLine
 10
76.8063438963
 20
-13.2552699199
 30
0.0
 11
76.8063438963
 21
13.2708611105
 31
0.0
  0
LINE
  5
152
330
1F
100
AcDbEntity
  8
1
 62
     4
420
    65535
100
AcDbLine
 10
79.2381016831
 20
-13.2498681972
 30
0.0
 11
79.2381016831
 21
13.2654593878
 31
0.0
  0
LINE
  5
153
330
1F
100
AcDbEntity
  8
1
 62
     4
420
    65535
100
AcDbLine
 10
99.3471145845
 20
-6.3716387766
 30
0.0
 11
99.3471145845
 21
6.3872299671
 31
0.0
  0
LINE
  5
154
330
1F
100
AcDbEntity
  8
1
 62
     4
420
    65535
100
AcDbLine
 10
99.4593201531
 20
-6.1184108766
 30
0.0
 11
99.4593201531
 21
6.1340020671
 31
0.0
  0
LINE
  5
155
330
1F
100
AcDbEntity
  8
1
 62
     4
420
    65535
100
AcDbLine
 10
99.4593201531
 20
-4.9914256719
 30
0.0
 11
99.4593201531
 21
5.0070168625
 31
0.0
  0
LINE
  5
156
330
1F
100
AcDbEntity
  8
1
 62
     4
420
    65535
100
AcDbLine
 10
71.9593240274
 20
-5.1637314577
 30
0.0
 11
71.9593240274
 21
5.1793226482
 31
0.0
  0
LINE
  5
157
330
1F
100
AcDbEntity
  8
1
 62
     4
420
    65535
100
AcDbLine
 10
72.159327413
 20
-5.5796497944
 30
0.0
 11
72.159327413
 21
5.595240985
 31
0.0
  0
LINE
  5
158
330
1F
100
AcDbEntity
  8
1
 62
     4
420
    65535
100
AcDbLine
 10
92.4593208684
 20
-8.4397898327
 30
0.0
 11
92.4593208684
 21
8.4553810232
 31
0.0
  0
LINE
  5
159
330
1F
100
AcDbEntity
  8
1
 62
     4
420
    65535
100
AcDbLine
 10
92.7593259467
 20
-8.1816510195
 30
0.0
 11
92.7593259467
 21
8.19724221
 31
0.0
  0
LINE
  5
15A
330
1F
100
AcDbEntity
  8
1
 62
     4
420
    65535
100
AcDbLine
 10
92.7593259467
 20
-6.8806005113
 30
0.0
 11
92.7593259467
 21
6.8961917019
 31
0.0
  0
LINE
  5
15B
330
1F
100
AcDbEntity
  8
1
 62
     4
420
    65535
100
AcDbLine
 10
95.459326948
 20
-6.8806005113
 30
0.0
 11
95.459326948
 21
6.8961917019
 31
0.0
  0
LINE
  5
15C
330
1F
100
AcDbEntity
  8
1
 62
     4
420
    65535
100
AcDbLine
 10
95.459326948
 20
-8.3144394159
 30
0.0
 11
95.459326948
 21
8.3300306065
 31
0.0
  0
LINE
  5
15D
330
1F
100
AcDbEntity
  8
1
 62
     4
420
    65535
100
AcDbLine
 10
95.6093220366
 20
-8.4669800525
 30
0.0
 11
95.6093220366
 21
8.4825712431
 31
0.0
  0
LINE
  5
15E
330
1F
100
AcDbEntity
  8
1
 62
     4
420
    65535
100
AcDbLine
 10
95.7018135441
 20
-8.4669800525
 30
0.0
 11
95.7018135441
 21
8.4825712431
 31
0.0
  0
LINE
  5
15F
330
1F
100
AcDbEntity
  8
1
 62
     4
420
    65535
100
AcDbLine
 10
99.3093250645
 20
-6.3818977618
 30
0.0
 11
99.3093250645
 21
6.3974889523
 31
0.0
  0
LINE
  5
160
330
1F
100
AcDbEntity
  8
1
 62
     4
420
    65535
100
AcDbLine
 10
72.2593216552
 20
-4.9914256719
 30
0.0
 11
72.2593216552
 21
5.0070168625
 31
0.0
  0
LINE
  5
161
330
1F
100
AcDbEntity
  8
1
 62
     4
420
    65535
100
AcDbLine
 10
71.9593240274
 20
-5.4517712069
 30
0.0
 11
71.9593240274
 21
5.4673623975
 31
0.0
  0
DIMENSION
  5
162
330
1F
100
AcDbEntity
  8
2
 62
     7
420
 16777215
100
AcDbDimension
  2
_D
 10
100.0063417805
 20
43.5077955953
 30
0.0
 11
17.3063417805
 21
43.5077955953
 31
0.0
 70
   160
  1
<>
 71
     2
 42
-1.0
 73
     0
 74
     0
 75
     0
  3
SLDDIMSTYLE0
100
AcDbAlignedDimension
 13
-65.3936582195
 23
0.0077955953
 33
0.0
 14
100.0063417805
 24
0.0077955953
 34
0.0
 50
0.0
100
AcDbRotatedDimension
  0
DIMENSION
  5
16E
330
1F
100
AcDbEntity
  8
2
 62
     7
420
 16777215
100
AcDbDimension
  2
_D_1
 10
0.0063417805
 20
37.5077955953
 30
0.0
 11
50.0063417805
 21
37.5077955953
 31
0.0
 70
   160
  1
<>
 71
     2
 42
-1.0
 73
     0
 74
     0
 75
     0
  3
SLDDIMSTYLE0
100
AcDbAlignedDimension
 13
100.0063417805
 23
0.0077955953
 33
0.0
 14
0.0063417805
 24
0.0077955953
 34
0.0
100
AcDbRotatedDimension
  0
DIMENSION
  5
178
330
1F
100
AcDbEntity
  8
2
 62
     7
420
 16777215
100
AcDbDimension
  2
_D_2
 10
106.0063417805
 20
-4.9922044047
 30
0.0
 11
106.0063417805
 21
-16.5105902434
 31
0.0
 70
   160
  1
%%c<>
 71
     2
 42
-1.0
 73
     0
 74
     0
 75
     0
  3
SLDDIMSTYLE0
100
AcDbAlignedDimension
 13
72.2593216552
 23
5.0077955953
 33
0.0
 14
72.2593216552
 24
-4.9922044047
 34
0.0
 50
90.0
100
AcDbRotatedDimension
  0
DIMENSION
  5
184
330
1F
100
AcDbEntity
  8
2
 62
     7
420
 16777215
100
AcDbDimension
  2
_D_3
 10
118.0063417805
 20
-11.992204518
 30
0.0
 11
118.0063417805
 21
0.0077955953
 31
0.0
 70
   160
  1
%%c<>
 71
     2
 42
-1.0
 73
     0
 74
     0
 75
     0
  3
SLDDIMSTYLE0
100
AcDbAlignedDimension
 13
99.0455721308
 23
12.0077957086
 33
0.0
 14
99.0455721308
 24
-11.992204518
 34
0.0
 50
90.0
100
AcDbRotatedDimension
  0
LINE
  5
18F
330
1F
100
AcDbEntity
  8
0
  6
SLD-Gestrichelt
 62
     7
370
     0
100
AcDbLine
 10
-22.3936582195
 20
-7.9922044047
 30
0.0
 11
-56.3936582195
 21
-7.9922044047
 31
0.0
  0
LINE
  5
190
330
1F
100
AcDbEntity
  8
0
  6
SLD-Gestrichelt
 62
     7
370
     0
100
AcDbLine
 10
-22.3936582195
 20
8.0077955953
 30
0.0
 11
-56.3936582195
 21
8.0077955953
 31
0.0
  0
ENDSEC
  0
SECTION
  2
OBJECTS
  0
DICTIONARY
  5
C
330
0
100
AcDbDictionary
281
     1
  3
ACAD_GROUP
350
D
  3
ACAD_LAYOUT
350
1A
  3
ACAD_MATERIAL
350
3B
  3
ACAD_MLEADERSTYLE
350
192
  3
ACAD_MLINESTYLE
350
17
  3
ACAD_PLOTSETTINGS
350
19
  3
ACAD_PLOTSTYLENAME
350
E
  3
ACAD_TABLESTYLE
350
191
  3
ACAD_VISUALSTYLE
350
2A
  0
DICTIONARY
  5
D
102
{ACAD_REACTORS
330
C
102
}
330
C
100
AcDbDictionary
281
     1
  0
DICTIONARY
  5
1A
102
{ACAD_REACTORS
330
C
102
}
330
C
100
AcDbDictionary
281
     1
  3
Layout1
350
1E
  3
Layout2
350
26
  3
Model
350
22
  0
DICTIONARY
  5
3B
102
{ACAD_REACTORS
330
C
102
}
330
C
100
AcDbDictionary
281
     1
  3
ByBlock
350
3D
  3
ByLayer
350
3C
  3
Global
350
3E
  0
DICTIONARY
  5
192
102
{ACAD_REACTORS
330
C
102
}
330
C
100
AcDbDictionary
281
     1
  0
DICTIONARY
  5
17
102
{ACAD_REACTORS
330
C
102
}
330
C
100
AcDbDictionary
281
     1
  3
Standard
350
18
  0
DICTIONARY
  5
19
102
{ACAD_REACTORS
330
C
102
}
330
C
100
AcDbDictionary
281
     1
  0
ACDBDICTIONARYWDFLT
  5
E
102
{ACAD_REACTORS
330
C
102
}
330
C
100
AcDbDictionary
281
     1
  3
Normal
350
F
100
AcDbDictionaryWithDefault
340
F
  0
DICTIONARY
  5
191
102
{ACAD_REACTORS
330
C
102
}
330
C
100
AcDbDictionary
281
     1
  0
DICTIONARY
  5
2A
102
{ACAD_REACTORS
330
C
102
}
330
C
100
AcDbDictionary
281
     1
  3
2dWireframe
350
2F
  3
3D Hidden
350
31
  3
3dWireframe
350
30
  3
Basic
350
32
  3
Brighten
350
36
  3
ColorChange
350
3A
  3
Conceptual
350
34
  3
Dim
350
35
  3
Facepattern
350
39
  3
Flat
350
2B
  3
FlatWithEdges
350
2C
  3
Gouraud
350
2D
  3
GouraudWithEdges
350
2E
  3
Linepattern
350
38
  3
Realistic
350
33
  3
Thicken
350
37
  0
LAYOUT
  5
1E
102
{ACAD_REACTORS
330
1A
102
}
330
1A
100
AcDbPlotSettings
  1

  2
none_device
  4

  6

 40
0.0
 41
0.0
 42
0.0
 43
0.0
 44
0.0
 45
0.0
 46
0.0
 47
0.0
 48
0.0
 49
0.0
140
0.0
141
0.0
142
1.0
143
1.0
 70
   688
 72
     0
 73
     0
 74
     5
  7

 75
    16
 76
     0
 77
     2
 78
   300
147
1.0
148
0.0
149
0.0
100
AcDbLayout
  1
Layout1
 70
     1
 71
     1
 10
0.0
 20
0.0
 11
420.0
 21
297.0
 12
0.0
 22
0.0
 32
0.0
 14
1.0000000000E+20
 24
1.0000000000E+20
 34
1.0000000000E+20
 15
-1.0000000000E+20
 25
-1.0000000000E+20
 35
-1.0000000000E+20
146
0.0
 13
0.0
 23
0.0
 33
0.0
 16
1.0
 26
0.0
 36
0.0
 17
0.0
 27
1.0
 37
0.0
 76
     0
330
1B
  0
LAYOUT
  5
26
102
{ACAD_REACTORS
330
1A
102
}
330
1A
100
AcDbPlotSettings
  1

  2
none_device
  4

  6

 40
0.0
 41
0.0
 42
0.0
 43
0.0
 44
0.0
 45
0.0
 46
0.0
 47
0.0
 48
0.0
 49
0.0
140
0.0
141
0.0
142
1.0
143
1.0
 70
   688
 72
     0
 73
     0
 74
     5
  7

 75
    16
 76
     0
 77
     2
 78
   300
147
1.0
148
0.0
149
0.0
100
AcDbLayout
  1
Layout2
 70
     1
 71
     2
 10
0.0
 20
0.0
 11
0.0
 21
0.0
 12
0.0
 22
0.0
 32
0.0
 14
0.0
 24
0.0
 34
0.0
 15
0.0
 25
0.0
 35
0.0
146
0.0
 13
0.0
 23
0.0
 33
0.0
 16
1.0
 26
0.0
 36
0.0
 17
0.0
 27
1.0
 37
0.0
 76
     0
330
23
  0
LAYOUT
  5
22
102
{ACAD_REACTORS
330
1A
102
}
330
1A
100
AcDbPlotSettings
  1

  2
none_device
  4

  6

 40
0.0
 41
0.0
 42
0.0
 43
0.0
 44
0.0
 45
0.0
 46
0.0
 47
0.0
 48
0.0
 49
0.0
140
0.0
141
0.0
142
1.0
143
1.0
 70
  1712
 72
     0
 73
     0
 74
     0
  7

 75
     0
 76
     0
 77
     2
 78
   300
147
1.0
148
0.0
149
0.0
100
AcDbLayout
  1
Model
 70
     1
 71
     0
 10
0.0
 20
0.0
 11
297.0
 21
210.0
 12
0.0
 22
0.0
 32
0.0
 14
0.0
 24
0.0
 34
0.0
 15
297.0
 25
210.0
 35
0.0
146
0.0
 13
0.0
 23
0.0
 33
0.0
 16
1.0
 26
0.0
 36
0.0
 17
0.0
 27
1.0
 37
0.0
 76
     0
330
1F
331
29
  0
MATERIAL
  5
3D
102
{ACAD_REACTORS
330
3B
102
}
330
3B
100
AcDbMaterial
  1
ByBlock
 72
     1
 94
      127
  0
MATERIAL
  5
3C
102
{ACAD_REACTORS
330
3B
102
}
330
3B
100
AcDbMaterial
  1
ByLayer
 72
     1
 94
      127
  0
MATERIAL
  5
3E
102
{ACAD_REACTORS
330
3B
102
}
330
3B
100
AcDbMaterial
  1
Global
 72
     1
 94
      127
  0
MLINESTYLE
  5
18
102
{ACAD_REACTORS
330
17
102
}
330
17
100
AcDbMlineStyle
  2
Standard
 70
     0
  3

 62
   256
 51
90.0
 52
90.0
 71
     2
 49
0.5
 62
   256
  6
BYLAYER
 49
-0.5
 62
   256
  6
BYLAYER
  0
ACDBPLACEHOLDER
  5
F
102
{ACAD_REACTORS
330
E
102
}
330
E
  0
VISUALSTYLE
  5
2F
102
{ACAD_REACTORS
330
2A
102
}
330
2A
100
AcDbVisualStyle
  2
2dWireframe
 70
     4
 71
     0
 72
     2
 73
     0
 90
        0
 40
-0.6
 41
-30.0
 62
     5
 63
     7
421
 16777215
 74
     1
 91
        4
 64
     7
 65
   257
 75
     1
175
     1
 42
1.0
 92
        0
 66
   257
 43
1.0
 76
     1
 77
     6
 78
     2
 67
     7
 79
     5
170
     0
171
     0
290
     0
174
     0
 93
        1
 44
0.0
173
     0
291
     0
 45
0.0
  0
VISUALSTYLE
  5
31
102
{ACAD_REACTORS
330
2A
102
}
330
2A
100
AcDbVisualStyle
  2
3D Hidden
 70
     6
 71
     1
 72
     2
 73
     2
 90
        0
 40
-0.6
 41
-30.0
 62
     5
 63
     7
421
 16777215
 74
     2
 91
        2
 64
     7
 65
   257
 75
     2
175
     1
 42
40.0
 92
        0
 66
   257
 43
1.0
 76
     1
 77
     6
 78
     2
 67
     7
 79
     3
170
     0
171
     0
290
     0
174
     0
 93
        1
 44
0.0
173
     0
291
     0
 45
0.0
  0
VISUALSTYLE
  5
30
102
{ACAD_REACTORS
330
2A
102
}
330
2A
100
AcDbVisualStyle
  2
3dWireframe
 70
     5
 71
     0
 72
     2
 73
     0
 90
        0
 40
-0.6
 41
-30.0
 62
     5
 63
     7
421
 16777215
 74
     1
 91
        4
 64
     7
 65
   257
 75
     1
175
     1
 42
1.0
 92
        0
 66
   257
 43
1.0
 76
     1
 77
     6
 78
     2
 67
     7
 79
     5
170
     0
171
     0
290
     0
174
     0
 93
        1
 44
0.0
173
     0
291
     0
 45
0.0
  0
VISUALSTYLE
  5
32
102
{ACAD_REACTORS
330
2A
102
}
330
2A
100
AcDbVisualStyle
  2
Basic
 70
     7
 71
     1
 72
     0
 73
     1
 90
        0
 40
-0.6
 41
-30.0
 62
     5
 63
     7
421
 16777215
 74
     0
 91
        4
 64
     7
 65
   257
 75
     1
175
     1
 42
1.0
 92
        8
 66
     7
 43
1.0
 76
     1
 77
     6
 78
     2
 67
     7
 79
     5
170
     0
171
     0
290
     0
174
     0
 93
        1
 44
0.0
173
     0
291
     1
 45
0.0
  0
VISUALSTYLE
  5
36
102
{ACAD_REACTORS
330
2A
102
}
330
2A
100
AcDbVisualStyle
  2
Brighten
 70
    12
 71
     2
 72
     2
 73
     0
 90
        0
 40
-0.6
 41
-30.0
 62
     5
 63
     7
421
 16777215
 74
     1
 91
        4
 64
     7
 65
   257
 75
     1
175
     1
 42
1.0
 92
        8
 66
     7
 43
1.0
 76
     1
 77
     6
 78
     2
 67
     7
 79
     5
170
     0
171
     0
290
     0
174
     0
 93
        1
 44
50.0
173
     0
291
     1
 45
0.0
  0
VISUALSTYLE
  5
3A
102
{ACAD_REACTORS
330
2A
102
}
330
2A
100
AcDbVisualStyle
  2
ColorChange
 70
    16
 71
     2
 72
     2
 73
     3
 90
        0
 40
-0.6
 41
-30.0
 62
     5
 63
     8
421
  8421504
 74
     1
 91
        4
 64
     7
 65
   257
 75
     1
175
     1
 42
1.0
 92
        8
 66
     8
424
  8421504
 43
1.0
 76
     1
 77
     6
 78
     2
 67
     7
 79
     5
170
     0
171
     0
290
     0
174
     0
 93
        1
 44
0.0
173
     0
291
     1
 45
0.0
  0
VISUALSTYLE
  5
34
102
{ACAD_REACTORS
330
2A
102
}
330
2A
100
AcDbVisualStyle
  2
Conceptual
 70
     9
 71
     3
 72
     2
 73
     0
 90
        0
 40
-0.6
 41
-30.0
 62
     5
 63
     7
421
 16777215
 74
     2
 91
        2
 64
     7
 65
   257
 75
     1
175
     1
 42
40.0
 92
        8
 66
     7
 43
1.0
 76
     1
 77
     6
 78
     2
 67
     7
 79
     3
170
     0
171
     0
290
     0
174
     0
 93
        1
 44
0.0
173
     0
291
     0
 45
0.0
  0
VISUALSTYLE
  5
35
102
{ACAD_REACTORS
330
2A
102
}
330
2A
100
AcDbVisualStyle
  2
Dim
 70
    11
 71
     2
 72
     2
 73
     0
 90
        0
 40
-0.6
 41
-30.0
 62
     5
 63
     7
421
 16777215
 74
     1
 91
        4
 64
     7
 65
   257
 75
     1
175
     1
 42
1.0
 92
        8
 66
     7
 43
1.0
 76
     1
 77
     6
 78
     2
 67
     7
 79
     5
170
     0
171
     0
290
     0
174
     0
 93
        1
 44
-50.0
173
     0
291
     1
 45
0.0
  0
VISUALSTYLE
  5
39
102
{ACAD_REACTORS
330
2A
102
}
330
2A
100
AcDbVisualStyle
  2
Facepattern
 70
    15
 71
     2
 72
     2
 73
     0
 90
        0
 40
-0.6
 41
-30.0
 62
     5
 63
     7
421
 16777215
 74
     1
 91
        4
 64
     7
 65
   257
 75
     1
175
     1
 42
1.0
 92
        8
 66
     7
 43
1.0
 76
     1
 77
     6
 78
     2
 67
     7
 79
     5
170
     0
171
     0
290
     0
174
     0
 93
        1
 44
0.0
173
     0
291
     1
 45
0.0
  0
VISUALSTYLE
  5
2B
102
{ACAD_REACTORS
330
2A
102
}
330
2A
100
AcDbVisualStyle
  2
Flat
 70
     0
 71
     2
 72
     1
 73
     1
 90
        2
 40
-0.6
 41
30.0
 62
     5
 63
     7
421
 16777215
 74
     0
 91
        4
 64
     7
 65
   257
 75
     1
175
     1
 42
1.0
 92
        8
 66
     7
 43
1.0
 76
     1
 77
     6
 78
     2
 67
     7
 79
     5
170
     0
171
     0
290
     0
174
     0
 93
       13
 44
0.0
173
     0
291
     1
 45
0.0
  0
VISUALSTYLE
  5
2C
102
{ACAD_REACTORS
330
2A
102
}
330
2A
100
AcDbVisualStyle
  2
FlatWithEdges
 70
     1
 71
     2
 72
     1
 73
     1
 90
        2
 40
-0.6
 41
30.0
 62
     5
 63
     7
421
 16777215
 74
     1
 91
        4
 64
     7
 65
   257
 75
     1
175
     1
 42
1.0
 92
        0
 66
   257
 43
1.0
 76
     1
 77
     6
 78
     2
 67
     7
 79
     5
170
     0
171
     0
290
     0
174
     0
 93
       13
 44
0.0
173
     0
291
     1
 45
0.0
  0
VISUALSTYLE
  5
2D
102
{ACAD_REACTORS
330
2A
102
}
330
2A
100
AcDbVisualStyle
  2
Gouraud
 70
     2
 71
     2
 72
     2
 73
     1
 90
        2
 40
-0.6
 41
30.0
 62
     5
 63
     7
421
 16777215
 74
     0
 91
        4
 64
     7
 65
   257
 75
     1
175
     1
 42
1.0
 92
        0
 66
     7
 43
1.0
 76
     1
 77
     6
 78
     2
 67
     7
 79
     5
170
     0
171
     0
290
     0
174
     0
 93
       13
 44
0.0
173
     0
291
     1
 45
0.0
  0
VISUALSTYLE
  5
2E
102
{ACAD_REACTORS
330
2A
102
}
330
2A
100
AcDbVisualStyle
  2
GouraudWithEdges
 70
     3
 71
     2
 72
     2
 73
     1
 90
        2
 40
-0.6
 41
30.0
 62
     5
 63
     7
421
 16777215
 74
     1
 91
        4
 64
     7
 65
   257
 75
     1
175
     1
 42
1.0
 92
        0
 66
   257
 43
1.0
 76
     1
 77
     6
 78
     2
 67
     7
 79
     5
170
     0
171
     0
290
     0
174
     0
 93
       13
 44
0.0
173
     0
291
     1
 45
0.0
  0
VISUALSTYLE
  5
38
102
{ACAD_REACTORS
330
2A
102
}
330
2A
100
AcDbVisualStyle
  2
Linepattern
 70
    14
 71
     2
 72
     2
 73
     0
 90
        0
 40
-0.6
 41
-30.0
 62
     5
 63
     7
421
 16777215
 74
     1
 91
        4
 64
     7
 65
   257
 75
     7
175
     7
 42
1.0
 92
        8
 66
     7
 43
1.0
 76
     1
 77
     6
 78
     2
 67
     7
 79
     5
170
     0
171
     0
290
     0
174
     0
 93
        1
 44
0.0
173
     0
291
     1
 45
0.0
  0
VISUALSTYLE
  5
33
102
{ACAD_REACTORS
330
2A
102
}
330
2A
100
AcDbVisualStyle
  2
Realistic
 70
     8
 71
     2
 72
     2
 73
     0
 90
        0
 40
-0.6
 41
-30.0
 62
     5
 63
     7
421
 16777215
 74
     1
 91
        0
 64
     7
 65
   257
 75
     1
175
     1
 42
1.0
 92
        8
 66
     8
424
  7895160
 43
1.0
 76
     1
 77
     6
 78
     2
 67
     7
 79
     5
170
     0
171
     0
290
     0
174
     0
 93
       13
 44
0.0
173
     0
291
     0
 45
0.0
  0
VISUALSTYLE
  5
37
102
{ACAD_REACTORS
330
2A
102
}
330
2A
100
AcDbVisualStyle
  2
Thicken
 70
    13
 71
     2
 72
     2
 73
     0
 90
        0
 40
-0.6
 41
-30.0
 62
     5
 63
     7
421
 16777215
 74
     1
 91
        4
 64
     7
 65
   257
 75
     1
175
     1
 42
1.0
 92
       12
 66
     7
 43
1.0
 76
     1
 77
     6
 78
     2
 67
     7
 79
     5
170
     0
171
     0
290
     0
174
     0
 93
        1
 44
0.0
173
     0
291
     1
 45
0.0
  0
ENDSEC
  0
EOF
