999
DXF file: 84707118.dxf
999
Pro/ENGINEER 2018400 by Parametric Technology Corporation
  0
SECTION
  2
HEADER
  9
$ACADVER
  1
AC1027
  9
$DWGCODEPAGE
  3
ANSI_1252
  9
$EXTMAX
 10
420.0
 20
297.0
 30
0.0
  9
$EXTMIN
 10
0.0
 20
0.0
 30
0.0
  9
$LIMMIN
 10
0.0
 20
0.0
  9
$LIMMAX
 10
420.0
 20
297.0
  9
$VIEWCTR
 10
210.0
 20
148.5
  9
$VIEWSIZE
 40
297.0
  9
$CLAYER
  8
0
  9
$LTSCALE
 40
23.1
  9
$CELTYPE
  6
BYLAYER
  9
$DIMSCALE
 40
1.0
  9
$DIMASZ
 40
3.5
  9
$DIMEXO
 40
0.0
  9
$DIMDLI
 40
15.96
  9
$DIMEXE
 40
1.5
  9
$DIMCEN
 40
3.78
  9
$DIMLFAC
 40
1.0
  9
$DIMBLK
  1
_FILLED
  9
$DIMALT
 70
0
  9
$DIMALTF
 40
0.0393700787
  9
$DIMTXT
 40
3.5
  9
$DIMTOL
 70
1
  9
$DIMLIM
 70
0
  9
$DIMTFAC
 40
1.0
  9
$DIMTP
 40
0.05
  9
$DIMTM
 40
0.05
  9
$DIMGAP
 40
0.625
  9
$DIMDSEP
 70
46
  9
$AUNITS
 70
0
  9
$PDMODE
 70
3
  9
$PDSIZE
 40
0.3125
  9
$HANDSEED
  5
2A2
  9
$TILEMODE
 70
1
  9
$MEASUREMENT
 70
1
  9
$INSUNITS
 70
4
  0
ENDSEC
  0
SECTION
  2
CLASSES
  0
CLASS
  1
ACDBDICTIONARYWDFLT
  2
AcDbDictionaryWithDefault
  3
AutoCAD 2000
 90
0
 91
1
280
0
281
0
  0
CLASS
  1
ACDBPLACEHOLDER
  2
AcDbPlaceHolder
  3
AutoCAD 2000
 90
0
 91
1
280
0
281
0
  0
CLASS
  1
LAYOUT
  2
AcDbLayout
  3
AutoCAD 2000
 90
0
 91
0
280
0
281
0
  0
ENDSEC
  0
SECTION
  2
TABLES
  0
TABLE
  2
VPORT
  5
8
100
AcDbSymbolTable
 70
2
  0
VPORT
  5
1F4
100
AcDbSymbolTableRecord
100
AcDbViewportTableRecord
  2
*ACTIVE
 70
0
 10
0.0
 20
0.0
 11
1.0
 21
1.0
 12
210.0
 22
148.5
 13
0.0
 23
0.0
 14
1.0
 24
1.0
 15
0.0
 25
0.0
 16
0.0
 26
0.0
 36
1.0
 17
0.0
 27
0.0
 37
0.0
 40
297.0
 41
1.4141414141
 42
50.0
 43
0.0
 44
0.0
 50
0.0
 51
0.0
 71
0
 72
100
 73
1
 74
1
 75
0
 76
0
 77
0
 78
0
  0
ENDTAB
  0
TABLE
  2
LTYPE
  5
5
100
AcDbSymbolTable
 70
6
  0
LTYPE
  5
14
100
AcDbSymbolTableRecord
100
AcDbLinetypeTableRecord
  2
BYBLOCK
 70
0
  3

 72
65
 73
0
 40
0.0
  0
LTYPE
  5
15
100
AcDbSymbolTableRecord
100
AcDbLinetypeTableRecord
  2
BYLAYER
 70
0
  3

 72
65
 73
0
 40
0.0
  0
LTYPE
  5
16
100
AcDbSymbolTableRecord
100
AcDbLinetypeTableRecord
  2
CONTINUOUS
 70
64
  3
Solid line
 72
65
 73
0
 40
0.0
  0
LTYPE
  5
1F5
100
AcDbSymbolTableRecord
100
AcDbLinetypeTableRecord
  2
CENTER
 70
64
  3
____ _ ____ _ ____ _ ____ _ ____ _ ____ _ ____
 72
65
 73
4
 40
0.6
 49
0.375
 74
0
 49
-0.075
 74
0
 49
0.075
 74
0
 49
-0.075
 74
0
  0
LTYPE
  5
1F6
100
AcDbSymbolTableRecord
100
AcDbLinetypeTableRecord
  2
HIDDEN
 70
64
  3
- - - - - - - - - - - - - - - - - - - -
 72
65
 73
2
 40
0.2
 49
0.1
 74
0
 49
-0.1
 74
0
  0
LTYPE
  5
1F7
100
AcDbSymbolTableRecord
100
AcDbLinetypeTableRecord
  2
PHANTOM
 70
64
  3
_____ _ _ _____ _ _ _____ _ _ _____
 72
65
 73
6
 40
0.8
 49
0.45
 74
0
 49
-0.05
 74
0
 49
0.1
 74
0
 49
-0.05
 74
0
 49
0.1
 74
0
 49
-0.05
 74
0
  0
LTYPE
  5
1F8
100
AcDbSymbolTableRecord
100
AcDbLinetypeTableRecord
  2
DOT
 70
64
  3
. . . . . . . . . . . . . . . . . . . .
 72
65
 73
2
 40
0.2
 49
0.1
 74
0
 49
-0.1
 74
0
  0
LTYPE
  5
1F9
100
AcDbSymbolTableRecord
100
AcDbLinetypeTableRecord
  2
DASHED
 70
64
  3
- - - - - - - - - - - - - - - - - - - -
 72
65
 73
2
 40
0.2
 49
0.1
 74
0
 49
-0.1
 74
0
  0
ENDTAB
  0
TABLE
  2
LAYER
  5
2
100
AcDbSymbolTable
 70
36
  0
LAYER
  5
10
100
AcDbSymbolTableRecord
100
AcDbLayerTableRecord
  2
0
 70
0
 62
7
  6
CONTINUOUS
370
-3
390
F
  0
LAYER
  5
1FA
100
AcDbSymbolTableRecord
100
AcDbLayerTableRecord
  2
DEFAULT_1
 70
0
 62
7
  6
CENTER
370
-3
390
F
  0
LAYER
  5
1FB
100
AcDbSymbolTableRecord
100
AcDbLayerTableRecord
  2
DEFAULT_2
 70
0
 62
1
  6
HIDDEN
370
-3
390
F
  0
LAYER
  5
1FC
100
AcDbSymbolTableRecord
100
AcDbLayerTableRecord
  2
DEFAULT_3
 70
0
 62
7
  6
PHANTOM
370
-3
390
F
  0
LAYER
  5
1FD
100
AcDbSymbolTableRecord
100
AcDbLayerTableRecord
  2
HILFEN
 70
0
 62
7
  6
CONTINUOUS
370
-3
390
F
  0
LAYER
  5
1FE
100
AcDbSymbolTableRecord
100
AcDbLayerTableRecord
  2
NOCUT
 70
0
 62
7
  6
CONTINUOUS
370
-3
390
F
  0
LAYER
  5
1FF
100
AcDbSymbolTableRecord
100
AcDbLayerTableRecord
  2
PLATZIERUNG
 70
0
 62
7
  6
CONTINUOUS
370
-3
390
F
  0
LAYER
  5
200
100
AcDbSymbolTableRecord
100
AcDbLayerTableRecord
  2
T_STARTBEZUEGE
 70
0
 62
7
  6
CONTINUOUS
370
-3
390
F
  0
LAYER
  5
201
100
AcDbSymbolTableRecord
100
AcDbLayerTableRecord
  2
_03_2D_ZEICHNUNG_BEMASSUNGEN
 70
0
 62
7
  6
CONTINUOUS
370
-3
390
F
  0
LAYER
  5
202
100
AcDbSymbolTableRecord
100
AcDbLayerTableRecord
  2
_04_NOTIZEN
 70
0
 62
7
  6
CONTINUOUS
370
-3
390
F
  0
LAYER
  5
203
100
AcDbSymbolTableRecord
100
AcDbLayerTableRecord
  2
_05_2D_ELEMENTE
 70
0
 62
7
  6
CONTINUOUS
370
-3
390
F
  0
LAYER
  5
204
100
AcDbSymbolTableRecord
100
AcDbLayerTableRecord
  2
_07_EINRASTLINIEN
 70
0
 62
7
  6
CONTINUOUS
370
-3
390
F
  0
LAYER
  5
205
100
AcDbSymbolTableRecord
100
AcDbLayerTableRecord
  2
_26_BEZUGSACHSEN
 70
0
 62
7
  6
CONTINUOUS
370
-3
390
F
  0
LAYER
  5
206
100
AcDbSymbolTableRecord
100
AcDbLayerTableRecord
  2
_27_BEZUGSEBENEN
 70
0
 62
7
  6
CONTINUOUS
370
-3
390
F
  0
LAYER
  5
207
100
AcDbSymbolTableRecord
100
AcDbLayerTableRecord
  2
_28_BEZUGSPUNKTE
 70
0
 62
7
  6
CONTINUOUS
370
-3
390
F
  0
LAYER
  5
208
100
AcDbSymbolTableRecord
100
AcDbLayerTableRecord
  2
_29_KOORDINATENSYSTEME
 70
0
 62
7
  6
CONTINUOUS
370
-3
390
F
  0
LAYER
  5
209
100
AcDbSymbolTableRecord
100
AcDbLayerTableRecord
  2
_30_VOLUMEN
 70
0
 62
7
  6
CONTINUOUS
370
-3
390
F
  0
ENDTAB
  0
TABLE
  2
STYLE
  5
3
100
AcDbSymbolTable
 70
1
  0
STYLE
  5
11
100
AcDbSymbolTableRecord
100
AcDbTextStyleTableRecord
  2
STANDARD
 70
0
 40
0.0
 41
0.7
 50
0.0
 71
0
 42
0.2
  3
SIMPLEX.SHX
  4

  0
STYLE
  5
20A
100
AcDbSymbolTableRecord
100
AcDbTextStyleTableRecord
  2
TEXTSTYLE_1
 70
0
 40
0.0
 41
0.8
 50
0.0
 71
0
 42
0.2
  3
gdt
  4

  0
STYLE
  5
20B
100
AcDbSymbolTableRecord
100
AcDbTextStyleTableRecord
  2
TEXTSTYLE_2
 70
0
 40
0.0
 41
0.7
 50
0.0
 71
0
 42
0.2
  3
gdt
  4

  0
ENDTAB
  0
TABLE
  2
VIEW
  5
6
100
AcDbSymbolTable
 70
0
  0
ENDTAB
  0
TABLE
  2
UCS
  5
7
100
AcDbSymbolTable
 70
0
  0
ENDTAB
  0
TABLE
  2
APPID
  5
9
100
AcDbSymbolTable
 70
1
  0
APPID
  5
20C
100
AcDbSymbolTableRecord
100
AcDbRegAppTableRecord
  2
ACAD
 70
0
  0
ENDTAB
  0
TABLE
  2
BLOCK_RECORD
  5
1
100
AcDbSymbolTable
 70
0
  0
BLOCK_RECORD
  5
20D
100
AcDbSymbolTableRecord
100
AcDbBlockTableRecord
  2
*Model_Space
  0
BLOCK_RECORD
  5
20E
100
AcDbSymbolTableRecord
100
AcDbBlockTableRecord
  2
*Paper_Space
  0
BLOCK_RECORD
  5
20F
100
AcDbSymbolTableRecord
100
AcDbBlockTableRecord
  2
_FILLED
  0
BLOCK_RECORD
  5
210
100
AcDbSymbolTableRecord
100
AcDbBlockTableRecord
  2
*D0
  0
BLOCK_RECORD
  5
211
100
AcDbSymbolTableRecord
100
AcDbBlockTableRecord
  2
*D1
  0
BLOCK_RECORD
  5
212
100
AcDbSymbolTableRecord
100
AcDbBlockTableRecord
  2
*D2
  0
BLOCK_RECORD
  5
213
100
AcDbSymbolTableRecord
100
AcDbBlockTableRecord
  2
*D3
  0
BLOCK_RECORD
  5
214
100
AcDbSymbolTableRecord
100
AcDbBlockTableRecord
  2
*D4
  0
BLOCK_RECORD
  5
215
100
AcDbSymbolTableRecord
100
AcDbBlockTableRecord
  2
*D5
  0
BLOCK_RECORD
  5
216
100
AcDbSymbolTableRecord
100
AcDbBlockTableRecord
  2
*D6
  0
ENDTAB
  0
TABLE
  2
DIMSTYLE
  5
A
100
AcDbSymbolTable
 70
1
100
AcDbDimStyleTable
 71
0
  0
DIMSTYLE
105
217
100
AcDbSymbolTableRecord
100
AcDbDimStyleTableRecord
  2
STANDARD
 70
0
  3

  4

 40
1.0
 41
3.5
 42
0.0
 43
0.38
 44
1.5
 45
0.0
 46
0.0
 47
0.05
 48
0.05
140
3.5
141
0.09
142
0.0
143
25.4
144
1.0
145
0.0
146
1.0
147
0.625
 71
1.0
 72
0.0
 73
0
 74
0
 75
0
 76
0
 77
1
 78
8
 79
2
170
0
171
1
172
0
173
0
174
0
175
0
176
0
177
0
178
2
270
2
179
2
271
2
272
2
273
2
274
2
275
0
280
0
281
0
282
0
283
1
284
8
285
0
286
0
287
3
288
0
340
11
278
46
341
20F
342
20F
343
20F
344
20F
  0
DIMSTYLE
105
218
100
AcDbSymbolTableRecord
100
AcDbDimStyleTableRecord
  2
DIMSTYLE_1
 70
0
  3

  4

 40
1.0
 41
3.5
 42
0.0
 43
0.38
 44
1.5
 45
0.0
 46
0.0
 47
0.2
 48
0.2
140
3.5
141
0.09
142
0.0
143
25.4
144
1.0
145
0.0
146
1.0
147
0.875
 71
0.0
 72
0.0
 73
0
 74
0
 75
0
 76
0
 77
1
 78
8
 79
2
170
0
171
1
172
0
173
0
174
0
175
0
176
0
177
0
178
2
270
2
179
2
271
2
272
2
273
2
274
2
275
0
280
0
281
0
282
0
283
1
284
8
285
0
286
0
287
3
288
0
340
11
278
46
341
20F
342
20F
343
20F
344
20F
  0
DIMSTYLE
105
219
100
AcDbSymbolTableRecord
100
AcDbDimStyleTableRecord
  2
DIMSTYLE_2
 70
0
  3

  4

 40
1.0
 41
3.5
 42
0.0
 43
0.38
 44
1.5
 45
0.0
 46
0.0
 47
0.5
 48
0.5
140
3.5
141
0.09
142
0.0
143
25.4
144
1.0
145
0.0
146
1.0
147
0.875
 71
0.0
 72
0.0
 73
0
 74
0
 75
0
 76
0
 77
1
 78
8
 79
2
170
0
171
1
172
0
173
0
174
0
175
0
176
0
177
0
178
2
270
2
179
2
271
2
272
2
273
2
274
2
275
0
280
0
281
0
282
0
283
1
284
8
285
0
286
0
287
3
288
0
340
11
278
46
341
20F
342
20F
343
20F
344
20F
  0
DIMSTYLE
105
21A
100
AcDbSymbolTableRecord
100
AcDbDimStyleTableRecord
  2
DIMSTYLE_3
 70
0
  3

  4

 40
1.0
 41
3.5
 42
0.0
 43
0.38
 44
1.5
 45
0.0
 46
0.0
 47
0.3
 48
0.3
140
3.5
141
0.09
142
0.0
143
25.4
144
1.0
145
0.0
146
1.0
147
0.875
 71
0.0
 72
0.0
 73
0
 74
0
 75
0
 76
0
 77
1
 78
8
 79
2
170
0
171
1
172
0
173
0
174
0
175
0
176
0
177
0
178
2
270
2
179
2
271
2
272
2
273
2
274
2
275
0
280
0
281
0
282
0
283
1
284
8
285
0
286
0
287
3
288
0
340
11
278
46
341
20F
342
20F
343
20F
344
20F
  0
ENDTAB
  0
ENDSEC
  0
SECTION
  2
BLOCKS
  0
BLOCK
  5
20
100
AcDbEntity
  8
0
100
AcDbBlockBegin
  2
*Model_Space
 70
0
 10
0.0
 20
0.0
 30
0.0
  3
*Model_Space
  1

  0
ENDBLK
  5
21
100
AcDbEntity
  8
0
100
AcDbBlockEnd
  0
BLOCK
  5
1C
100
AcDbEntity
  8
0
100
AcDbBlockBegin
  2
*Paper_Space
 70
0
 10
0.0
 20
0.0
 30
0.0
  3
*Paper_Space
  1

  0
ENDBLK
  5
1D
100
AcDbEntity
  8
0
100
AcDbBlockEnd
  0
BLOCK
  5
21B
100
AcDbEntity
  8
0
100
AcDbBlockBegin
  2
_FILLED
 70
64
 10
0.0
 20
0.0
  3
_FILLED
  1

  0
SOLID
  5
21C
100
AcDbEntity
  8
0
  6
BYBLOCK
 62
0
100
AcDbTrace
 10
0.0
 20
0.0
 11
-1.0
 21
0.125
 12
-1.0
 22
-0.125
 13
-1.0
 23
-0.125
  0
ENDBLK
  5
21D
100
AcDbEntity
  8
0
  6
BYBLOCK
 62
0
100
AcDbBlockEnd
  0
BLOCK
  5
21E
100
AcDbEntity
  8
_03_2D_ZEICHNUNG_BEMASSUNGEN
100
AcDbBlockBegin
 62
7
  6
CONTINUOUS
  2
*D0
 70
65
 10
0.0
 20
0.0
  3
*D0
  1

  0
TEXT
  5
21F
100
AcDbEntity
  8
_03_2D_ZEICHNUNG_BEMASSUNGEN
100
AcDbText
 62
2
  6
CONTINUOUS
 10
168.125
 20
18.6560874886
  7
TEXTSTYLE_2
 40
3.5
  1
n
 50
90.0
 41
1.0
 72
0
100
AcDbText
  0
TEXT
  5
220
100
AcDbEntity
  8
_03_2D_ZEICHNUNG_BEMASSUNGEN
100
AcDbText
 62
2
  6
CONTINUOUS
 10
168.125
 20
23.3227541552
  7
STANDARD
 40
3.5
  1
18
 50
90.0
 41
0.6785714286
 72
0
100
AcDbText
  0
LINE
  5
221
100
AcDbEntity
  8
_03_2D_ZEICHNUNG_BEMASSUNGEN
100
AcDbLine
 62
7
  6
CONTINUOUS
 10
160.0
 20
9.0
 11
170.5
 21
9.0
  0
LINE
  5
222
100
AcDbEntity
  8
_03_2D_ZEICHNUNG_BEMASSUNGEN
100
AcDbLine
 62
7
  6
CONTINUOUS
 10
160.0
 20
-9.0
 11
170.5
 21
-9.0
  0
LINE
  5
223
100
AcDbEntity
  8
_03_2D_ZEICHNUNG_BEMASSUNGEN
100
AcDbLine
 62
7
  6
CONTINUOUS
 10
169.0
 20
9.0
 11
169.0
 21
28.0727541552
  0
LINE
  5
224
100
AcDbEntity
  8
_03_2D_ZEICHNUNG_BEMASSUNGEN
100
AcDbLine
 62
7
  6
CONTINUOUS
 10
169.0
 20
28.0727541552
 11
169.0
 21
-0.0
  0
LINE
  5
225
100
AcDbEntity
  8
_03_2D_ZEICHNUNG_BEMASSUNGEN
100
AcDbLine
 62
7
  6
CONTINUOUS
 10
169.0
 20
-9.0
 11
169.0
 21
-15.0
  0
LINE
  5
226
100
AcDbEntity
  8
_03_2D_ZEICHNUNG_BEMASSUNGEN
100
AcDbLine
 62
7
  6
CONTINUOUS
 10
169.0
 20
-15.0
 11
169.0
 21
-0.0
  0
INSERT
  5
227
100
AcDbEntity
  8
_03_2D_ZEICHNUNG_BEMASSUNGEN
100
AcDbBlockReference
 62
7
  6
CONTINUOUS
  2
_FILLED
 10
169.0
 20
9.0
 41
3.5
 42
3.5
 43
3.5
 50
270.0
  0
INSERT
  5
228
100
AcDbEntity
  8
_03_2D_ZEICHNUNG_BEMASSUNGEN
100
AcDbBlockReference
 62
7
  6
CONTINUOUS
  2
_FILLED
 10
169.0
 20
-9.0
 41
3.5
 42
3.5
 43
3.5
 50
90.0
  0
ENDBLK
  5
229
100
AcDbEntity
  8
0
  6
BYBLOCK
 62
0
100
AcDbBlockEnd
  0
BLOCK
  5
22A
100
AcDbEntity
  8
_03_2D_ZEICHNUNG_BEMASSUNGEN
100
AcDbBlockBegin
 62
7
  6
CONTINUOUS
  2
*D1
 70
65
 10
0.0
 20
0.0
  3
*D1
  1

  0
TEXT
  5
22B
100
AcDbEntity
  8
_03_2D_ZEICHNUNG_BEMASSUNGEN
100
AcDbText
 62
2
  6
CONTINUOUS
 10
91.25
 20
59.875
  7
STANDARD
 40
3.5
  1
131
 41
0.619047619
 72
1
 11
94.5
 21
59.875
100
AcDbText
  0
LINE
  5
22C
100
AcDbEntity
  8
_03_2D_ZEICHNUNG_BEMASSUNGEN
100
AcDbLine
 62
7
  6
CONTINUOUS
 10
160.0
 20
19.0
 11
160.0
 21
60.5
  0
LINE
  5
22D
100
AcDbEntity
  8
_03_2D_ZEICHNUNG_BEMASSUNGEN
100
AcDbLine
 62
7
  6
CONTINUOUS
 10
29.0
 20
48.774993593
 11
29.0
 21
60.5
  0
LINE
  5
22E
100
AcDbEntity
  8
_03_2D_ZEICHNUNG_BEMASSUNGEN
100
AcDbLine
 62
7
  6
CONTINUOUS
 10
160.0
 20
59.0
 11
94.5
 21
59.0
  0
LINE
  5
22F
100
AcDbEntity
  8
_03_2D_ZEICHNUNG_BEMASSUNGEN
100
AcDbLine
 62
7
  6
CONTINUOUS
 10
29.0
 20
59.0
 11
94.5
 21
59.0
  0
INSERT
  5
230
100
AcDbEntity
  8
_03_2D_ZEICHNUNG_BEMASSUNGEN
100
AcDbBlockReference
 62
7
  6
CONTINUOUS
  2
_FILLED
 10
160.0
 20
59.0
 41
3.5
 42
3.5
 43
3.5
  0
INSERT
  5
231
100
AcDbEntity
  8
_03_2D_ZEICHNUNG_BEMASSUNGEN
100
AcDbBlockReference
 62
7
  6
CONTINUOUS
  2
_FILLED
 10
29.0
 20
59.0
 41
3.5
 42
3.5
 43
3.5
 50
180.0
  0
ENDBLK
  5
232
100
AcDbEntity
  8
0
  6
BYBLOCK
 62
0
100
AcDbBlockEnd
  0
BLOCK
  5
233
100
AcDbEntity
  8
_03_2D_ZEICHNUNG_BEMASSUNGEN
100
AcDbBlockBegin
 62
7
  6
CONTINUOUS
  2
*D2
 70
65
 10
0.0
 20
0.0
  3
*D2
  1

  0
TEXT
  5
234
100
AcDbEntity
  8
_03_2D_ZEICHNUNG_BEMASSUNGEN
100
AcDbText
 62
2
  6
CONTINUOUS
 10
76.25
 20
68.875
  7
STANDARD
 40
3.5
  1
160
 41
0.7142857143
 72
1
 11
80.0
 21
68.875
100
AcDbText
  0
LINE
  5
235
100
AcDbEntity
  8
_03_2D_ZEICHNUNG_BEMASSUNGEN
100
AcDbLine
 62
7
  6
CONTINUOUS
 10
160.0
 20
19.0
 11
160.0
 21
69.5
  0
LINE
  5
236
100
AcDbEntity
  8
_03_2D_ZEICHNUNG_BEMASSUNGEN
100
AcDbLine
 62
7
  6
CONTINUOUS
 10
0.0
 20
19.0
 11
0.0
 21
69.5
  0
LINE
  5
237
100
AcDbEntity
  8
_03_2D_ZEICHNUNG_BEMASSUNGEN
100
AcDbLine
 62
7
  6
CONTINUOUS
 10
160.0
 20
68.0
 11
80.0
 21
68.0
  0
LINE
  5
238
100
AcDbEntity
  8
_03_2D_ZEICHNUNG_BEMASSUNGEN
100
AcDbLine
 62
7
  6
CONTINUOUS
 10
0.0
 20
68.0
 11
80.0
 21
68.0
  0
INSERT
  5
239
100
AcDbEntity
  8
_03_2D_ZEICHNUNG_BEMASSUNGEN
100
AcDbBlockReference
 62
7
  6
CONTINUOUS
  2
_FILLED
 10
160.0
 20
68.0
 41
3.5
 42
3.5
 43
3.5
  0
INSERT
  5
23A
100
AcDbEntity
  8
_03_2D_ZEICHNUNG_BEMASSUNGEN
100
AcDbBlockReference
 62
7
  6
CONTINUOUS
  2
_FILLED
 10
0.0
 20
68.0
 41
3.5
 42
3.5
 43
3.5
 50
180.0
  0
ENDBLK
  5
23B
100
AcDbEntity
  8
0
  6
BYBLOCK
 62
0
100
AcDbBlockEnd
  0
BLOCK
  5
23C
100
AcDbEntity
  8
_03_2D_ZEICHNUNG_BEMASSUNGEN
100
AcDbBlockBegin
 62
7
  6
CONTINUOUS
  2
*D3
 70
65
 10
0.0
 20
0.0
  3
*D3
  1

  0
TEXT
  5
23D
100
AcDbEntity
  8
_03_2D_ZEICHNUNG_BEMASSUNGEN
100
AcDbText
 62
2
  6
CONTINUOUS
 10
51.25
 20
77.875
  7
STANDARD
 40
3.5
  1
210
 41
0.7142857143
 72
1
 11
55.0
 21
77.875
100
AcDbText
  0
LINE
  5
23E
100
AcDbEntity
  8
_03_2D_ZEICHNUNG_BEMASSUNGEN
100
AcDbLine
 62
7
  6
CONTINUOUS
 10
160.0
 20
19.0
 11
160.0
 21
78.5
  0
LINE
  5
23F
100
AcDbEntity
  8
_03_2D_ZEICHNUNG_BEMASSUNGEN
100
AcDbLine
 62
7
  6
CONTINUOUS
 10
-50.0
 20
35.5011845569
 11
-50.0
 21
78.5
  0
LINE
  5
240
100
AcDbEntity
  8
_03_2D_ZEICHNUNG_BEMASSUNGEN
100
AcDbLine
 62
7
  6
CONTINUOUS
 10
160.0
 20
77.0
 11
55.0
 21
77.0
  0
LINE
  5
241
100
AcDbEntity
  8
_03_2D_ZEICHNUNG_BEMASSUNGEN
100
AcDbLine
 62
7
  6
CONTINUOUS
 10
-50.0
 20
77.0
 11
55.0
 21
77.0
  0
INSERT
  5
242
100
AcDbEntity
  8
_03_2D_ZEICHNUNG_BEMASSUNGEN
100
AcDbBlockReference
 62
7
  6
CONTINUOUS
  2
_FILLED
 10
160.0
 20
77.0
 41
3.5
 42
3.5
 43
3.5
  0
INSERT
  5
243
100
AcDbEntity
  8
_03_2D_ZEICHNUNG_BEMASSUNGEN
100
AcDbBlockReference
 62
7
  6
CONTINUOUS
  2
_FILLED
 10
-50.0
 20
77.0
 41
3.5
 42
3.5
 43
3.5
 50
180.0
  0
ENDBLK
  5
244
100
AcDbEntity
  8
0
  6
BYBLOCK
 62
0
100
AcDbBlockEnd
  0
BLOCK
  5
245
100
AcDbEntity
  8
_03_2D_ZEICHNUNG_BEMASSUNGEN
100
AcDbBlockBegin
 62
7
  6
CONTINUOUS
  2
*D4
 70
65
 10
0.0
 20
0.0
  3
*D4
  1

  0
TEXT
  5
246
100
AcDbEntity
  8
_03_2D_ZEICHNUNG_BEMASSUNGEN
100
AcDbText
 62
2
  6
CONTINUOUS
 10
-60.875
 20
-7.875
  7
STANDARD
 40
3.5
  1
HSK
 50
90.0
 41
0.7857142857
 72
1
 11
-60.875
 21
-3.75
100
AcDbText
  0
TEXT
  5
247
100
AcDbEntity
  8
_03_2D_ZEICHNUNG_BEMASSUNGEN
100
AcDbText
 62
2
  6
CONTINUOUS
 10
-60.875
 20
0.375
  7
STANDARD
 40
3.5
  1
100
 50
90.0
 41
0.7142857143
 72
1
 11
-60.875
 21
4.125
100
AcDbText
  0
LINE
  5
248
100
AcDbEntity
  8
_03_2D_ZEICHNUNG_BEMASSUNGEN
100
AcDbLine
 62
7
  6
CONTINUOUS
 10
0.0
 20
50.0
 11
-61.5
 21
50.0
  0
LINE
  5
249
100
AcDbEntity
  8
_03_2D_ZEICHNUNG_BEMASSUNGEN
100
AcDbLine
 62
7
  6
CONTINUOUS
 10
-0.0
 20
-50.0
 11
-61.5
 21
-50.0
  0
LINE
  5
24A
100
AcDbEntity
  8
_03_2D_ZEICHNUNG_BEMASSUNGEN
100
AcDbLine
 62
7
  6
CONTINUOUS
 10
-60.0
 20
50.0
 11
-60.0
 21
0.0
  0
LINE
  5
24B
100
AcDbEntity
  8
_03_2D_ZEICHNUNG_BEMASSUNGEN
100
AcDbLine
 62
7
  6
CONTINUOUS
 10
-60.0
 20
-50.0
 11
-60.0
 21
0.0
  0
INSERT
  5
24C
100
AcDbEntity
  8
_03_2D_ZEICHNUNG_BEMASSUNGEN
100
AcDbBlockReference
 62
7
  6
CONTINUOUS
  2
_FILLED
 10
-60.0
 20
50.0
 41
3.5
 42
3.5
 43
3.5
 50
90.0
  0
INSERT
  5
24D
100
AcDbEntity
  8
_03_2D_ZEICHNUNG_BEMASSUNGEN
100
AcDbBlockReference
 62
7
  6
CONTINUOUS
  2
_FILLED
 10
-60.0
 20
-50.0
 41
3.5
 42
3.5
 43
3.5
 50
270.0
  0
ENDBLK
  5
24E
100
AcDbEntity
  8
0
  6
BYBLOCK
 62
0
100
AcDbBlockEnd
  0
BLOCK
  5
24F
100
AcDbEntity
  8
_03_2D_ZEICHNUNG_BEMASSUNGEN
100
AcDbBlockBegin
 62
7
  6
CONTINUOUS
  2
*D5
 70
65
 10
0.0
 20
0.0
  3
*D5
  1

  0
TEXT
  5
250
100
AcDbEntity
  8
_03_2D_ZEICHNUNG_BEMASSUNGEN
100
AcDbText
 62
2
  6
CONTINUOUS
 10
186.125
 20
-5.0833333333
  7
TEXTSTYLE_2
 40
3.5
  1
n
 50
90.0
 41
1.0
 72
1
 11
186.125
 21
-2.75
100
AcDbText
  0
TEXT
  5
251
100
AcDbEntity
  8
_03_2D_ZEICHNUNG_BEMASSUNGEN
100
AcDbText
 62
2
  6
CONTINUOUS
 10
186.125
 20
-0.4166666667
  7
STANDARD
 40
3.5
  1
48
 50
90.0
 41
0.7857142857
 72
1
 11
186.125
 21
2.3333333333
100
AcDbText
  0
LINE
  5
252
100
AcDbEntity
  8
_03_2D_ZEICHNUNG_BEMASSUNGEN
100
AcDbLine
 62
7
  6
CONTINUOUS
 10
149.2774653975
 20
24.0
 11
188.5
 21
24.0
  0
LINE
  5
253
100
AcDbEntity
  8
_03_2D_ZEICHNUNG_BEMASSUNGEN
100
AcDbLine
 62
7
  6
CONTINUOUS
 10
149.2774653975
 20
-24.0
 11
188.5
 21
-24.0
  0
LINE
  5
254
100
AcDbEntity
  8
_03_2D_ZEICHNUNG_BEMASSUNGEN
100
AcDbLine
 62
7
  6
CONTINUOUS
 10
187.0
 20
24.0
 11
187.0
 21
-0.0
  0
LINE
  5
255
100
AcDbEntity
  8
_03_2D_ZEICHNUNG_BEMASSUNGEN
100
AcDbLine
 62
7
  6
CONTINUOUS
 10
187.0
 20
-24.0
 11
187.0
 21
-0.0
  0
INSERT
  5
256
100
AcDbEntity
  8
_03_2D_ZEICHNUNG_BEMASSUNGEN
100
AcDbBlockReference
 62
7
  6
CONTINUOUS
  2
_FILLED
 10
187.0
 20
24.0
 41
3.5
 42
3.5
 43
3.5
 50
90.0
  0
INSERT
  5
257
100
AcDbEntity
  8
_03_2D_ZEICHNUNG_BEMASSUNGEN
100
AcDbBlockReference
 62
7
  6
CONTINUOUS
  2
_FILLED
 10
187.0
 20
-24.0
 41
3.5
 42
3.5
 43
3.5
 50
270.0
  0
ENDBLK
  5
258
100
AcDbEntity
  8
0
  6
BYBLOCK
 62
0
100
AcDbBlockEnd
  0
BLOCK
  5
259
100
AcDbEntity
  8
_03_2D_ZEICHNUNG_BEMASSUNGEN
100
AcDbBlockBegin
 62
7
  6
CONTINUOUS
  2
*D6
 70
65
 10
0.0
 20
0.0
  3
*D6
  1

  0
TEXT
  5
25A
100
AcDbEntity
  8
_03_2D_ZEICHNUNG_BEMASSUNGEN
100
AcDbText
 62
2
  6
CONTINUOUS
 10
177.125
 20
-4.9583333333
  7
TEXTSTYLE_2
 40
3.5
  1
n
 50
90.0
 41
1.0
 72
1
 11
177.125
 21
-2.625
100
AcDbText
  0
TEXT
  5
25B
100
AcDbEntity
  8
_03_2D_ZEICHNUNG_BEMASSUNGEN
100
AcDbText
 62
2
  6
CONTINUOUS
 10
177.125
 20
-0.2916666667
  7
STANDARD
 40
3.5
  1
38
 50
90.0
 41
0.75
 72
1
 11
177.125
 21
2.3333333333
100
AcDbText
  0
LINE
  5
25C
100
AcDbEntity
  8
_03_2D_ZEICHNUNG_BEMASSUNGEN
100
AcDbLine
 62
7
  6
CONTINUOUS
 10
160.0
 20
19.0
 11
179.5
 21
19.0
  0
LINE
  5
25D
100
AcDbEntity
  8
_03_2D_ZEICHNUNG_BEMASSUNGEN
100
AcDbLine
 62
7
  6
CONTINUOUS
 10
160.0
 20
-19.0
 11
179.5
 21
-19.0
  0
LINE
  5
25E
100
AcDbEntity
  8
_03_2D_ZEICHNUNG_BEMASSUNGEN
100
AcDbLine
 62
7
  6
CONTINUOUS
 10
178.0
 20
19.0
 11
178.0
 21
-0.0
  0
LINE
  5
25F
100
AcDbEntity
  8
_03_2D_ZEICHNUNG_BEMASSUNGEN
100
AcDbLine
 62
7
  6
CONTINUOUS
 10
178.0
 20
-19.0
 11
178.0
 21
-0.0
  0
INSERT
  5
260
100
AcDbEntity
  8
_03_2D_ZEICHNUNG_BEMASSUNGEN
100
AcDbBlockReference
 62
7
  6
CONTINUOUS
  2
_FILLED
 10
178.0
 20
19.0
 41
3.5
 42
3.5
 43
3.5
 50
90.0
  0
INSERT
  5
261
100
AcDbEntity
  8
_03_2D_ZEICHNUNG_BEMASSUNGEN
100
AcDbBlockReference
 62
7
  6
CONTINUOUS
  2
_FILLED
 10
178.0
 20
-19.0
 41
3.5
 42
3.5
 43
3.5
 50
270.0
  0
ENDBLK
  5
262
100
AcDbEntity
  8
0
  6
BYBLOCK
 62
0
100
AcDbBlockEnd
  0
ENDSEC
  0
SECTION
  2
ENTITIES
  0
DIMENSION
  5
263
100
AcDbEntity
  8
_03_2D_ZEICHNUNG_BEMASSUNGEN
100
AcDbDimension
 62
7
  6
CONTINUOUS
  2
*D0
 10
169.0
 20
-9.0
 11
169.0
 21
23.3644208219
 70
160
 71
1
 72
2
 41
0.9
 42
18.0
  1
%%c<>
  3
DIMSTYLE_1
100
AcDbAlignedDimension
 13
160.0
 23
9.0
 14
160.0
 24
-9.0
 50
270.0
100
AcDbRotatedDimension
  0
DIMENSION
  5
264
100
AcDbEntity
  8
_03_2D_ZEICHNUNG_BEMASSUNGEN
100
AcDbDimension
 62
7
  6
CONTINUOUS
  2
*D1
 10
29.0
 20
59.0
 11
94.0000003052
 21
59.0
 70
160
 71
2
 72
2
 41
0.9
 42
131.0
  3
DIMSTYLE_2
100
AcDbAlignedDimension
 13
160.0
 23
19.0
 14
29.0
 24
48.774993593
 50
180.0
100
AcDbRotatedDimension
  0
DIMENSION
  5
265
100
AcDbEntity
  8
_03_2D_ZEICHNUNG_BEMASSUNGEN
100
AcDbDimension
 62
7
  6
CONTINUOUS
  2
*D2
 10
0.0
 20
68.0
 11
79.4999995422
 21
68.0
 70
160
 71
2
 72
2
 41
0.9
 42
160.0
  3
DIMSTYLE_2
100
AcDbAlignedDimension
 13
160.0
 23
19.0
 14
0.0
 24
19.0
 50
180.0
100
AcDbRotatedDimension
  0
DIMENSION
  5
266
100
AcDbEntity
  8
_03_2D_ZEICHNUNG_BEMASSUNGEN
100
AcDbDimension
 62
7
  6
CONTINUOUS
  2
*D3
 10
-50.0
 20
77.0
 11
54.5000003815
 21
77.0
 70
160
 71
2
 72
2
 41
0.9
 42
210.0
  3
DIMSTYLE_2
100
AcDbAlignedDimension
 13
160.0
 23
19.0
 14
-50.0
 24
35.5011845569
 50
180.0
100
AcDbRotatedDimension
  0
DIMENSION
  5
267
100
AcDbEntity
  8
_03_2D_ZEICHNUNG_BEMASSUNGEN
100
AcDbDimension
 62
7
  6
CONTINUOUS
  2
*D4
 10
-60.0
 20
-50.0
 11
-60.0
 21
0.0
 70
160
 71
2
 72
2
 41
0.9
 42
100.0
  1
HSK<>
  3
DIMSTYLE_3
100
AcDbAlignedDimension
 13
0.0
 23
50.0
 14
-0.0
 24
-50.0
 50
270.0
100
AcDbRotatedDimension
  0
DIMENSION
  5
268
100
AcDbEntity
  8
_03_2D_ZEICHNUNG_BEMASSUNGEN
100
AcDbDimension
 62
7
  6
CONTINUOUS
  2
*D5
 10
187.0
 20
-24.0
 11
187.0
 21
-0.0
 70
160
 71
2
 72
2
 41
0.9
 42
48.0
  1
%%c<>
  3
DIMSTYLE_3
100
AcDbAlignedDimension
 13
149.2774653975
 23
24.0
 14
149.2774653975
 24
-24.0
 50
270.0
100
AcDbRotatedDimension
  0
DIMENSION
  5
269
100
AcDbEntity
  8
_03_2D_ZEICHNUNG_BEMASSUNGEN
100
AcDbDimension
 62
7
  6
CONTINUOUS
  2
*D6
 10
178.0
 20
-19.0
 11
178.0
 21
-0.0
 70
160
 71
2
 72
2
 41
0.9
 42
38.0
  1
%%c<>
  3
DIMSTYLE_3
100
AcDbAlignedDimension
 13
160.0
 23
19.0
 14
160.0
 24
-19.0
 50
270.0
100
AcDbRotatedDimension
  0
LINE
  5
26A
100
AcDbEntity
  8
NOCUT
100
AcDbLine
 62
7
  6
CONTINUOUS
 10
-50.0
 20
35.5011845569
 11
-50.0
 21
0.0
  0
LINE
  5
26B
100
AcDbEntity
  8
_30_VOLUMEN
100
AcDbLine
 62
4
  6
CONTINUOUS
 10
-50.0
 20
-35.5008953778
 11
-50.0
 21
35.5008953778
  0
LINE
  5
26C
100
AcDbEntity
  8
_30_VOLUMEN
100
AcDbLine
 62
4
  6
CONTINUOUS
 10
-10.0
 20
-37.5065
 11
-10.0
 21
37.5065
  0
LINE
  5
26D
100
AcDbEntity
  8
NOCUT
100
AcDbLine
 62
7
  6
CONTINUOUS
 10
0.0
 20
50.0
 11
0.0
 21
37.5065
  0
LINE
  5
26E
100
AcDbEntity
  8
_30_VOLUMEN
100
AcDbLine
 62
4
  6
CONTINUOUS
 10
-0.0
 20
-49.999708157
 11
0.0
 21
49.999708157
  0
LINE
  5
26F
100
AcDbEntity
  8
_30_VOLUMEN
100
AcDbLine
 62
4
  6
CONTINUOUS
 10
-0.0
 20
-50.0
 11
5.0
 21
-50.0
  0
LINE
  5
270
100
AcDbEntity
  8
_30_VOLUMEN
100
AcDbLine
 62
4
  6
CONTINUOUS
 10
15.0
 20
-48.9897948557
 11
16.7524047358
 21
-48.9897948557
  0
LINE
  5
271
100
AcDbEntity
  8
_30_VOLUMEN
100
AcDbLine
 62
4
  6
CONTINUOUS
 10
23.2475952642
 20
-48.9897948557
 11
29.0
 21
-48.9897948557
  0
LINE
  5
272
100
AcDbEntity
  8
_30_VOLUMEN
100
AcDbLine
 62
4
  6
CONTINUOUS
 10
16.7524047358
 20
-48.9897948557
 11
16.7524047358
 21
48.774993593
  0
LINE
  5
273
100
AcDbEntity
  8
_30_VOLUMEN
100
AcDbLine
 62
4
  6
CONTINUOUS
 10
18.125
 20
-44.8998886413
 11
21.875
 21
-44.8998886413
  0
LINE
  5
274
100
AcDbEntity
  8
_30_VOLUMEN
100
AcDbLine
 62
4
  6
CONTINUOUS
 10
-50.0
 20
-35.5011845569
 11
-10.0
 21
-37.5065
  0
LINE
  5
275
100
AcDbEntity
  8
_30_VOLUMEN
100
AcDbLine
 62
4
  6
CONTINUOUS
 10
18.125
 20
46.3347772164
 11
18.125
 21
-46.5608374033
  0
LINE
  5
276
100
AcDbEntity
  8
_30_VOLUMEN
100
AcDbLine
 62
4
  6
CONTINUOUS
 10
21.875
 20
-46.5608374033
 11
21.875
 21
46.3347772164
  0
LINE
  5
277
100
AcDbEntity
  8
_30_VOLUMEN
100
AcDbLine
 62
4
  6
CONTINUOUS
 10
23.2475952642
 20
48.774993593
 11
23.2475952642
 21
-48.9897948557
  0
LINE
  5
278
100
AcDbEntity
  8
_30_VOLUMEN
100
AcDbLine
 62
4
  6
CONTINUOUS
 10
-10.0
 20
-37.5065
 11
-0.0
 21
-37.5065
  0
LINE
  5
279
100
AcDbEntity
  8
_30_VOLUMEN
100
AcDbLine
 62
4
  6
CONTINUOUS
 10
29.0
 20
48.774993593
 11
29.0
 21
-48.9897948557
  0
LINE
  5
27A
100
AcDbEntity
  8
NOCUT
100
AcDbLine
 62
7
  6
CONTINUOUS
 10
29.0
 20
32.895
 11
29.0
 21
50.0
  0
LINE
  5
27B
100
AcDbEntity
  8
_30_VOLUMEN
100
AcDbLine
 62
7
  6
CONTINUOUS
 10
32.5829696545
 20
-28.1
 11
32.5829696545
 21
28.1
  0
LINE
  5
27C
100
AcDbEntity
  8
_30_VOLUMEN
100
AcDbLine
 62
4
  6
CONTINUOUS
 10
60.923576564
 20
-24.0
 11
149.2774653975
 21
-24.0
  0
LINE
  5
27D
100
AcDbEntity
  8
_26_BEZUGSACHSEN
100
AcDbLine
 62
7
  6
CENTER
 10
-53.0
 20
0.0
 11
163.0
 21
-0.0
  0
LINE
  5
27E
100
AcDbEntity
  8
_30_VOLUMEN
100
AcDbLine
 62
7
  6
CONTINUOUS
 10
60.923576564
 20
-24.0
 11
60.923576564
 21
24.0
  0
LINE
  5
27F
100
AcDbEntity
  8
NOCUT
100
AcDbLine
 62
7
  6
CONTINUOUS
 10
149.2774653975
 20
24.0
 11
60.923576564
 21
24.0
  0
LINE
  5
280
100
AcDbEntity
  8
_30_VOLUMEN
100
AcDbLine
 62
4
  6
CONTINUOUS
 10
60.923576564
 20
24.0
 11
149.2774653975
 21
24.0
  0
LINE
  5
281
100
AcDbEntity
  8
_30_VOLUMEN
100
AcDbLine
 62
4
  6
CONTINUOUS
 10
-10.0
 20
37.5065
 11
0.0
 21
37.5065
  0
LINE
  5
282
100
AcDbEntity
  8
NOCUT
100
AcDbLine
 62
7
  6
CONTINUOUS
 10
0.0
 20
37.5065
 11
-10.0
 21
37.5065
  0
LINE
  5
283
100
AcDbEntity
  8
_30_VOLUMEN
100
AcDbLine
 62
4
  6
CONTINUOUS
 10
-50.0
 20
35.5011845569
 11
-10.0
 21
37.5065
  0
LINE
  5
284
100
AcDbEntity
  8
NOCUT
100
AcDbLine
 62
7
  6
CONTINUOUS
 10
-10.0
 20
37.5065
 11
-50.0
 21
35.5011845569
  0
LINE
  5
285
100
AcDbEntity
  8
_30_VOLUMEN
100
AcDbLine
 62
4
  6
CONTINUOUS
 10
18.125
 20
44.6654228683
 11
21.875
 21
44.6654228683
  0
LINE
  5
286
100
AcDbEntity
  8
_30_VOLUMEN
100
AcDbLine
 62
4
  6
CONTINUOUS
 10
16.0
 20
48.774993593
 11
16.7524047358
 21
48.774993593
  0
LINE
  5
287
100
AcDbEntity
  8
_30_VOLUMEN
100
AcDbLine
 62
4
  6
CONTINUOUS
 10
23.2475952642
 20
48.774993593
 11
29.0
 21
48.774993593
  0
LINE
  5
288
100
AcDbEntity
  8
_30_VOLUMEN
100
AcDbLine
 62
4
  6
CONTINUOUS
 10
0.0
 20
50.0
 11
5.0
 21
50.0
  0
LINE
  5
289
100
AcDbEntity
  8
NOCUT
100
AcDbLine
 62
7
  6
CONTINUOUS
 10
29.0
 20
50.0
 11
0.0
 21
50.0
  0
LINE
  5
28A
100
AcDbEntity
  8
_30_VOLUMEN
100
AcDbLine
 62
4
  6
CONTINUOUS
 10
149.2774653975
 20
-24.0
 11
158.8452365235
 21
-19.5384750525
  0
LINE
  5
28B
100
AcDbEntity
  8
NOCUT
100
AcDbLine
 62
7
  6
CONTINUOUS
 10
158.8452365235
 20
19.5384750525
 11
149.2774653975
 21
24.0
  0
LINE
  5
28C
100
AcDbEntity
  8
_30_VOLUMEN
100
AcDbLine
 62
4
  6
CONTINUOUS
 10
149.2774653975
 20
24.0
 11
158.8452365235
 21
19.5384750525
  0
LINE
  5
28D
100
AcDbEntity
  8
_30_VOLUMEN
100
AcDbLine
 62
4
  6
CONTINUOUS
 10
149.2774653975
 20
-24.0
 11
149.2774653975
 21
24.0
  0
LINE
  5
28E
100
AcDbEntity
  8
_30_VOLUMEN
100
AcDbLine
 62
7
  6
CONTINUOUS
 10
158.8452365235
 20
-19.5384750525
 11
158.8452365235
 21
19.5384750525
  0
LINE
  5
28F
100
AcDbEntity
  8
_30_VOLUMEN
100
AcDbLine
 62
4
  6
CONTINUOUS
 10
160.0
 20
17.7258594784
 11
160.0
 21
-17.7258594784
  0
LINE
  5
290
100
AcDbEntity
  8
NOCUT
100
AcDbLine
 62
7
  6
CONTINUOUS
 10
160.0
 20
-0.0
 11
160.0
 21
17.7258594784
  0
ARC
  5
291
100
AcDbEntity
  8
_30_VOLUMEN
100
AcDbCircle
 62
4
  6
CONTINUOUS
 10
60.923576564
 20
-124.0
 40
100.0
100
AcDbArc
 50
90.0
 51
106.4635952023
  0
ARC
  5
292
100
AcDbEntity
  8
_30_VOLUMEN
100
AcDbCircle
 62
4
  6
CONTINUOUS
 10
60.923576564
 20
124.0
 40
100.0
100
AcDbArc
 50
253.5364047977
 51
270.0
  0
ARC
  5
293
100
AcDbEntity
  8
NOCUT
100
AcDbCircle
 62
7
  6
CONTINUOUS
 10
60.923576564
 20
124.0
 40
100.0
100
AcDbArc
 50
253.5364047977
 51
270.0
  0
ARC
  5
294
100
AcDbEntity
  8
_30_VOLUMEN
100
AcDbCircle
 62
4
  6
CONTINUOUS
 10
34.0
 20
-32.895
 40
5.0
100
AcDbArc
 50
106.4635952023
 51
180.0
  0
ARC
  5
295
100
AcDbEntity
  8
_30_VOLUMEN
100
AcDbCircle
 62
4
  6
CONTINUOUS
 10
34.0
 20
32.895
 40
5.0
100
AcDbArc
 50
180.0
 51
253.5364047977
  0
ARC
  5
296
100
AcDbEntity
  8
NOCUT
100
AcDbCircle
 62
7
  6
CONTINUOUS
 10
34.0
 20
32.895
 40
5.0
100
AcDbArc
 50
180.0
 51
253.5364047977
  0
ARC
  5
297
100
AcDbEntity
  8
_30_VOLUMEN
100
AcDbCircle
 62
4
  6
CONTINUOUS
 10
158.0
 20
-17.7258594784
 40
2.0
100
AcDbArc
 50
295.0
 51
360.0
  0
ARC
  5
298
100
AcDbEntity
  8
_30_VOLUMEN
100
AcDbCircle
 62
4
  6
CONTINUOUS
 10
158.0
 20
17.7258594784
 40
2.0
100
AcDbArc
 50
0.0
 51
65.0
  0
ARC
  5
299
100
AcDbEntity
  8
NOCUT
100
AcDbCircle
 62
7
  6
CONTINUOUS
 10
158.0
 20
17.7258594784
 40
2.0
100
AcDbArc
 50
0.0
 51
65.0
  0
SPLINE
  5
29A
100
AcDbEntity
  8
_30_VOLUMEN
100
AcDbSpline
 62
4
  6
CONTINUOUS
 70
0
 71
3
 72
8
 73
4
 74
0
 42
0.0000001
 43
0.0000001
 44
0.0000000001
 40
0.0
 40
0.0
 40
0.0
 40
0.0
 40
1.0
 40
1.0
 40
1.0
 40
1.0
 10
18.125
 20
-46.5608374033
 30
0.0
 10
17.6678478756
 20
-47.3707042978
 30
0.0
 10
17.2102977898
 20
-48.1803466469
 30
0.0
 10
16.7524047358
 20
-48.9897948557
 30
0.0
  0
SPLINE
  5
29B
100
AcDbEntity
  8
_30_VOLUMEN
100
AcDbSpline
 62
4
  6
CONTINUOUS
 70
0
 71
3
 72
8
 73
4
 74
0
 42
0.0000001
 43
0.0000001
 44
0.0000000001
 40
0.0
 40
0.0
 40
0.0
 40
0.0
 40
1.0
 40
1.0
 40
1.0
 40
1.0
 10
16.7524047358
 20
48.774993593
 30
0.0
 10
17.2103786772
 20
47.9618370177
 30
0.0
 10
17.6679329436
 20
47.1484438884
 30
0.0
 10
18.125
 20
46.3347772164
 30
0.0
  0
SPLINE
  5
29C
100
AcDbEntity
  8
_30_VOLUMEN
100
AcDbSpline
 62
4
  6
CONTINUOUS
 70
0
 71
3
 72
28
 73
24
 74
0
 42
0.0000001
 43
0.0000001
 44
0.0000000001
 40
0.0
 40
0.0
 40
0.0
 40
0.0
 40
0.1941059936
 40
0.380739571
 40
0.4690540474
 40
0.5529191755
 40
0.6315660247
 40
0.7042673563
 40
0.7703323884
 40
0.8291184035
 40
0.8800260952
 40
0.9225090804
 40
0.9404414134
 40
0.9560943181
 40
0.9694202389
 40
0.9803824627
 40
0.9889450771
 40
0.9923164382
 40
0.9950783411
 40
0.9972292176
 40
0.9987674992
 40
0.9996916166
 40
1.0
 40
1.0
 40
1.0
 40
1.0
 10
16.0
 20
48.774993593
 30
0.0
 10
15.2824896659
 20
48.774993593
 30
0.0
 10
13.8749012177
 20
48.806087077
 30
0.0
 10
12.1442110711
 20
48.9190582449
 30
0.0
 10
10.8238652128
 20
49.0458428213
 30
0.0
 10
9.9027259206
 20
49.1519573982
 30
0.0
 10
9.0408220609
 20
49.2666696368
 30
0.0
 10
8.2459721804
 20
49.3855944636
 30
0.0
 10
7.5253989161
 20
49.5042244482
 30
0.0
 10
6.8857464572
 20
49.6180766566
 30
0.0
 10
6.3330698779
 20
49.7229028954
 30
0.0
 10
5.9295096011
 20
49.8033854904
 30
0.0
 10
5.6540939197
 20
49.8600736306
 30
0.0
 10
5.484372904
 20
49.8955963218
 30
0.0
 10
5.3399247157
 20
49.9262543698
 30
0.0
 10
5.2212639368
 20
49.9517334078
 30
0.0
 10
5.1384089506
 20
49.9697448475
 30
0.0
 10
5.0855518018
 20
49.9812111149
 30
0.0
 10
5.0551726842
 20
49.9879600445
 30
0.0
 10
5.0330760064
 20
49.992517801
 30
0.0
 10
5.0137083701
 20
49.9974155196
 30
0.0
 10
5.0084689882
 20
49.9974442676
 30
0.0
 10
4.9990849562
 20
50.0006798138
 30
0.0
 10
5.0000000001
 20
49.9999999999
 30
0.0
  0
SPLINE
  5
29D
100
AcDbEntity
  8
_30_VOLUMEN
100
AcDbSpline
 62
4
  6
CONTINUOUS
 70
0
 71
3
 72
8
 73
4
 74
0
 42
0.0000001
 43
0.0000001
 44
0.0000000001
 40
0.0
 40
0.0
 40
0.0
 40
0.0
 40
1.0
 40
1.0
 40
1.0
 40
1.0
 10
21.875
 20
-46.5608374033
 30
0.0
 10
22.3321521244
 20
-47.3707042978
 30
0.0
 10
22.7897022102
 20
-48.1803466469
 30
0.0
 10
23.2475952642
 20
-48.9897948557
 30
0.0
  0
SPLINE
  5
29E
100
AcDbEntity
  8
_30_VOLUMEN
100
AcDbSpline
 62
4
  6
CONTINUOUS
 70
0
 71
3
 72
8
 73
4
 74
0
 42
0.0000001
 43
0.0000001
 44
0.0000000001
 40
0.0
 40
0.0
 40
0.0
 40
0.0
 40
1.0
 40
1.0
 40
1.0
 40
1.0
 10
23.2475952642
 20
48.774993593
 30
0.0
 10
22.7896213228
 20
47.9618370177
 30
0.0
 10
22.3320670564
 20
47.1484438884
 30
0.0
 10
21.875
 20
46.3347772164
 30
0.0
  0
SPLINE
  5
29F
100
AcDbEntity
  8
_30_VOLUMEN
100
AcDbSpline
 62
4
  6
CONTINUOUS
 70
0
 71
3
 72
28
 73
24
 74
0
 42
0.0000001
 43
0.0000001
 44
0.0000000001
 40
0.0
 40
0.0
 40
0.0
 40
0.0
 40
0.0003072221
 40
0.0012279008
 40
0.0027605354
 40
0.0049036261
 40
0.0076556733
 40
0.011015178
 40
0.0195484755
 40
0.0304750408
 40
0.043760372
 40
0.0593691984
 40
0.077255644
 40
0.1196480942
 40
0.1704771779
 40
0.2292065267
 40
0.2952429811
 40
0.367945927
 40
0.4466224353
 40
0.5305403788
 40
0.6189240694
 40
0.8057223283
 40
1.0
 40
1.0
 40
1.0
 40
1.0
 10
5.0000000001
 20
-49.9999999999
 30
0.0
 10
4.9991532653
 20
-50.0005881164
 30
0.0
 10
5.0077132751
 20
-49.99785148
 30
0.0
 10
5.0124338884
 20
-49.9978910178
 30
0.0
 10
5.0300433634
 20
-49.9938115514
 30
0.0
 10
5.0501009264
 20
-49.9900647878
 30
0.0
 10
5.077694098
 20
-49.9844869015
 30
0.0
 10
5.1256990836
 20
-49.9750232749
 30
0.0
 10
5.2009584776
 20
-49.9601502527
 30
0.0
 10
5.3087468031
 20
-49.9391142373
 30
0.0
 10
5.4399755725
 20
-49.9138006332
 30
0.0
 10
5.5941849749
 20
-49.8844701139
 30
0.0
 10
5.8445038847
 20
-49.837654681
 30
0.0
 10
6.2113778239
 20
-49.7711891024
 30
0.0
 10
6.7138865071
 20
-49.684636339
 30
0.0
 10
7.295596634
 20
-49.5906502665
 30
0.0
 10
7.9509863852
 20
-49.4927503035
 30
0.0
 10
8.6739658275
 20
-49.3946510461
 30
0.0
 10
9.4578976236
 20
-49.3000782265
 30
0.0
 10
10.2955930377
 20
-49.2126486974
 30
0.0
 10
11.4961433499
 20
-49.108254762
 30
0.0
 10
13.0691516026
 20
-49.0153461289
 30
0.0
 10
14.3480646527
 20
-48.9897948557
 30
0.0
 10
15.0
 20
-48.9897948557
 30
0.0
  0
ENDSEC
  0
SECTION
  2
OBJECTS
  0
DICTIONARY
  5
C
100
AcDbDictionary
280
0
281
1
  3
ACAD_GROUP
350
D
  3
ACAD_MLINESTYLE
350
17
  3
ACAD_LAYOUT
350
1A
  3
ACAD_PLOTSETTINGS
350
19
  3
ACAD_PLOTSTYLENAME
350
E
  0
DICTIONARY
  5
D
102
{ACAD_REACTORS
330
C
102
}
100
AcDbDictionary
280
0
281
1
  0
ACDBDICTIONARYWDFLT
  5
E
102
{ACAD_REACTORS
330
C
102
}
100
AcDbDictionary
281
1
  3
Normal
350
F
100
AcDbDictionaryWithDefault
340
F
  0
DICTIONARY
  5
17
102
{ACAD_REACTORS
330
C
102
}
100
AcDbDictionary
280
0
281
1
  3
Standard
350
18
  0
DICTIONARY
  5
19
102
{ACAD_REACTORS
330
C
102
}
100
AcDbDictionary
281
1
  0
DICTIONARY
  5
1A
102
{ACAD_REACTORS
330
C
102
}
100
AcDbDictionary
281
1
  3
Model
350
2A0
  3
Layout1
350
2A1
  0
ACDBPLACEHOLDER
  5
F
102
{ACAD_REACTORS
330
E
102
}
  0
MLINESTYLE
  5
18
102
{ACAD_REACTORS
330
17
102
}
100
AcDbMlineStyle
  2
STANDARD
 70
0
  3

 62
256
 51
90.0
 52
90.0
 71
2
 49
0.5
 62
256
  6
BYLAYER
 49
-0.5
 62
256
  6
BYLAYER
  0
LAYOUT
  5
2A0
102
{ACAD_REACTORS
330
1A
102
}
100
AcDbPlotSettings
  1

  2
none_device
  4
ISO_A3_(420.00_x_297.00_MM)
  6

 40
0.0
 41
0.0
 42
0.0
 43
0.0
 44
420.0
 45
297.0
 46
0.0
 47
0.0
 48
0.0
 49
0.0
140
0.0
141
0.0
142
1.0
143
1.0
 70
1024
 72
1
 73
0
 74
0
  7

 75
0
147
1.0
148
0.0
149
0.0
100
AcDbLayout
  1
Model
 70
0
 71
0
 10
0.0
 20
0.0
 11
420.0
 21
297.0
 12
0.0
 22
0.0
 32
0.0
 14
0.0
 24
0.0
 34
0.0
 15
0.0
 25
0.0
 35
0.0
146
0.0
 13
0.0
 23
0.0
 33
0.0
 16
1.0
 26
0.0
 36
0.0
 17
0.0
 27
1.0
 37
0.0
 76
0
330
20D
345
0
346
0
  0
LAYOUT
  5
2A1
102
{ACAD_REACTORS
330
1A
102
}
100
AcDbPlotSettings
  1

  2
none_device
  4
ISO_A3_(420.00_x_297.00_MM)
  6

 40
0.0
 41
0.0
 42
0.0
 43
0.0
 44
420.0
 45
297.0
 46
0.0
 47
0.0
 48
0.0
 49
0.0
140
0.0
141
0.0
142
1.0
143
1.0
 70
0
 72
1
 73
0
 74
0
  7

 75
0
147
1.0
148
0.0
149
0.0
100
AcDbLayout
  1
Layout1
 70
0
 71
1
 10
0.0
 20
0.0
 11
420.0
 21
297.0
 12
0.0
 22
0.0
 32
0.0
 14
0.0
 24
0.0
 34
0.0
 15
0.0
 25
0.0
 35
0.0
146
0.0
 13
0.0
 23
0.0
 33
0.0
 16
1.0
 26
0.0
 36
0.0
 17
0.0
 27
1.0
 37
0.0
 76
0
330
20E
345
0
346
0
  0
ENDSEC
  0
EOF
