  0
SECTION
  2
HEADER
  9
$ACADVER
  1
AC1021
  9
$ACADMAINTVER
 70
    25
  9
$DWGCODEPAGE
  3
ANSI_1252
  9
$INSBASE
 10
0.0
 20
0.0
 30
0.0
  9
$EXTMIN
 10
0.0
 20
0.0
 30
0.0
  9
$EXTMAX
 10
297.0
 20
210.0
 30
0.0
  9
$LIMMIN
 10
0.0
 20
0.0
  9
$LIMMAX
 10
297.0
 20
210.0
  9
$ORTHOMODE
 70
     0
  9
$REGENMODE
 70
     1
  9
$FILLMODE
 70
     1
  9
$QTEXTMODE
 70
     0
  9
$MIRRTEXT
 70
     1
  9
$LTSCALE
 40
1.0
  9
$ATTMODE
 70
     1
  9
$TEXTSIZE
 40
3.5
  9
$TRACEWID
 40
1.0
  9
$TEXTSTYLE
  7
Standard
  9
$CLAYER
  8
0
  9
$CELTYPE
  6
ByLayer
  9
$CECOLOR
 62
   256
  9
$CELTSCALE
 40
1.0
  9
$DISPSILH
 70
     0
  9
$DIMSCALE
 40
1.0
  9
$DIMASZ
 40
3.302
  9
$DIMEXO
 40
1.0
  9
$DIMDLI
 40
3.75
  9
$DIMRND
 40
0.0
  9
$DIMDLE
 40
0.0
  9
$DIMEXE
 40
1.0
  9
$DIMTP
 40
0.0
  9
$DIMTM
 40
0.0
  9
$DIMTXT
 40
3.5
  9
$DIMCEN
 40
2.5
  9
$DIMTSZ
 40
0.0
  9
$DIMTOL
 70
     0
  9
$DIMLIM
 70
     0
  9
$DIMTIH
 70
     1
  9
$DIMTOH
 70
     1
  9
$DIMSE1
 70
     0
  9
$DIMSE2
 70
     0
  9
$DIMTAD
 70
     1
  9
$DIMZIN
 70
     0
  9
$DIMBLK
  1

  9
$DIMASO
 70
     1
  9
$DIMSHO
 70
     1
  9
$DIMPOST
  1

  9
$DIMAPOST
  1

  9
$DIMALT
 70
     0
  9
$DIMALTD
 70
     3
  9
$DIMALTF
 40
0.0393700787
  9
$DIMLFAC
 40
1.0
  9
$DIMTOFL
 70
     1
  9
$DIMTVP
 40
0.0
  9
$DIMTIX
 70
     0
  9
$DIMSOXD
 70
     0
  9
$DIMSAH
 70
     0
  9
$DIMBLK1
  1

  9
$DIMBLK2
  1

  9
$DIMSTYLE
  2
ISO-25
  9
$DIMCLRD
 70
     0
  9
$DIMCLRE
 70
     0
  9
$DIMCLRT
 70
     0
  9
$DIMTFAC
 40
1.0
  9
$DIMGAP
 40
1.524
  9
$DIMJUST
 70
     0
  9
$DIMSD1
 70
     0
  9
$DIMSD2
 70
     0
  9
$DIMTOLJ
 70
     0
  9
$DIMTZIN
 70
     0
  9
$DIMALTZ
 70
     0
  9
$DIMALTTZ
 70
     0
  9
$DIMUPT
 70
     0
  9
$DIMDEC
 70
     2
  9
$DIMTDEC
 70
     2
  9
$DIMALTU
 70
     2
  9
$DIMALTTD
 70
     3
  9
$DIMTXSTY
  7
Standard
  9
$DIMAUNIT
 70
     0
  9
$DIMADEC
 70
     2
  9
$DIMALTRND
 40
0.0
  9
$DIMAZIN
 70
     0
  9
$DIMDSEP
 70
    44
  9
$DIMATFIT
 70
     3
  9
$DIMFRAC
 70
     0
  9
$DIMLDRBLK
  1

  9
$DIMLUNIT
 70
     2
  9
$DIMLWD
 70
    -2
  9
$DIMLWE
 70
    -2
  9
$DIMTMOVE
 70
     0
  9
$DIMFXL
 40
1.0
  9
$DIMFXLON
 70
     0
  9
$DIMJOGANG
 40
0.7853981634
  9
$DIMTFILL
 70
     0
  9
$DIMTFILLCLR
 70
     0
  9
$DIMARCSYM
 70
     0
  9
$DIMLTYPE
  6

  9
$DIMLTEX1
  6

  9
$DIMLTEX2
  6

  9
$LUNITS
 70
     2
  9
$LUPREC
 70
     2
  9
$SKETCHINC
 40
1.0
  9
$FILLETRAD
 40
10.0
  9
$AUNITS
 70
     0
  9
$AUPREC
 70
     2
  9
$MENU
  1
.
  9
$ELEVATION
 40
0.0
  9
$PELEVATION
 40
0.0
  9
$THICKNESS
 40
0.0
  9
$LIMCHECK
 70
     0
  9
$CHAMFERA
 40
10.0
  9
$CHAMFERB
 40
10.0
  9
$CHAMFERC
 40
20.0
  9
$CHAMFERD
 40
0.0
  9
$SKPOLY
 70
     0
  9
$TDCREATE
 40
2456456.481485567
  9
$TDUCREATE
 40
2456456.398152234
  9
$TDUPDATE
 40
2456456.481486585
  9
$TDUUPDATE
 40
2456456.398153252
  9
$TDINDWG
 40
0.0000000116
  9
$TDUSRTIMER
 40
0.0000000116
  9
$USRTIMER
 70
     1
  9
$ANGBASE
 50
0.0
  9
$ANGDIR
 70
     0
  9
$PDMODE
 70
     0
  9
$PDSIZE
 40
-1.0
  9
$PLINEWID
 40
0.0
  9
$SPLFRAME
 70
     0
  9
$SPLINETYPE
 70
     6
  9
$SPLINESEGS
 70
     8
  9
$HANDSEED
  5
21E
  9
$SURFTAB1
 70
     6
  9
$SURFTAB2
 70
     6
  9
$SURFTYPE
 70
     6
  9
$SURFU
 70
     6
  9
$SURFV
 70
     6
  9
$UCSBASE
  2

  9
$UCSNAME
  2

  9
$UCSORG
 10
0.0
 20
0.0
 30
0.0
  9
$UCSXDIR
 10
1.0
 20
0.0
 30
0.0
  9
$UCSYDIR
 10
0.0
 20
1.0
 30
0.0
  9
$UCSORTHOREF
  2

  9
$UCSORTHOVIEW
 70
     0
  9
$UCSORGTOP
 10
0.0
 20
0.0
 30
0.0
  9
$UCSORGBOTTOM
 10
0.0
 20
0.0
 30
0.0
  9
$UCSORGLEFT
 10
0.0
 20
0.0
 30
0.0
  9
$UCSORGRIGHT
 10
0.0
 20
0.0
 30
0.0
  9
$UCSORGFRONT
 10
0.0
 20
0.0
 30
0.0
  9
$UCSORGBACK
 10
0.0
 20
0.0
 30
0.0
  9
$PUCSBASE
  2

  9
$PUCSNAME
  2

  9
$PUCSORG
 10
0.0
 20
0.0
 30
0.0
  9
$PUCSXDIR
 10
1.0
 20
0.0
 30
0.0
  9
$PUCSYDIR
 10
0.0
 20
1.0
 30
0.0
  9
$PUCSORTHOREF
  2

  9
$PUCSORTHOVIEW
 70
     0
  9
$PUCSORGTOP
 10
0.0
 20
0.0
 30
0.0
  9
$PUCSORGBOTTOM
 10
0.0
 20
0.0
 30
0.0
  9
$PUCSORGLEFT
 10
0.0
 20
0.0
 30
0.0
  9
$PUCSORGRIGHT
 10
0.0
 20
0.0
 30
0.0
  9
$PUCSORGFRONT
 10
0.0
 20
0.0
 30
0.0
  9
$PUCSORGBACK
 10
0.0
 20
0.0
 30
0.0
  9
$USERI1
 70
     0
  9
$USERI2
 70
     0
  9
$USERI3
 70
     0
  9
$USERI4
 70
     0
  9
$USERI5
 70
     0
  9
$USERR1
 40
0.0
  9
$USERR2
 40
0.0
  9
$USERR3
 40
0.0
  9
$USERR4
 40
0.0
  9
$USERR5
 40
0.0
  9
$WORLDVIEW
 70
     1
  9
$SHADEDGE
 70
     3
  9
$SHADEDIF
 70
    70
  9
$TILEMODE
 70
     1
  9
$MAXACTVP
 70
    64
  9
$PINSBASE
 10
0.0
 20
0.0
 30
0.0
  9
$PLIMCHECK
 70
     0
  9
$PEXTMIN
 10
1.0000000000E+20
 20
1.0000000000E+20
 30
1.0000000000E+20
  9
$PEXTMAX
 10
-1.0000000000E+20
 20
-1.0000000000E+20
 30
-1.0000000000E+20
  9
$PLIMMIN
 10
0.0
 20
0.0
  9
$PLIMMAX
 10
420.0
 20
297.0
  9
$UNITMODE
 70
     0
  9
$VISRETAIN
 70
     1
  9
$PLINEGEN
 70
     0
  9
$PSLTSCALE
 70
     1
  9
$TREEDEPTH
 70
  3020
  9
$CMLSTYLE
  2
Standard
  9
$CMLJUST
 70
     0
  9
$CMLSCALE
 40
20.0
  9
$PROXYGRAPHICS
 70
     1
  9
$MEASUREMENT
 70
     1
  9
$CELWEIGHT
370
    -1
  9
$ENDCAPS
280
     0
  9
$JOINSTYLE
280
     0
  9
$LWDISPLAY
290
     1
  9
$INSUNITS
 70
     4
  9
$HYPERLINKBASE
  1

  9
$STYLESHEET
  1

  9
$XEDIT
290
     1
  9
$CEPSNTYPE
380
     0
  9
$PSTYLEMODE
290
     1
  9
$FINGERPRINTGUID
  2
{E45BB980-0E63-4C93-8BAF-0352D83B8D03}
  9
$VERSIONGUID
  2
{FAEB1C32-E019-11D5-929B-00C0DF256EC4}
  9
$EXTNAMES
290
     1
  9
$PSVPSCALE
 40
0.0
  9
$OLESTARTUP
290
     0
  9
$SORTENTS
280
   127
  9
$INDEXCTL
280
     0
  9
$HIDETEXT
280
     1
  9
$XCLIPFRAME
290
     0
  9
$HALOGAP
280
     0
  9
$OBSCOLOR
 70
   257
  9
$OBSLTYPE
280
     0
  9
$INTERSECTIONDISPLAY
280
     0
  9
$INTERSECTIONCOLOR
 70
   257
  9
$DIMASSOC
280
     2
  9
$PROJECTNAME
  1

  9
$CAMERADISPLAY
290
     0
  9
$LENSLENGTH
 40
50.0
  9
$CAMERAHEIGHT
 40
0.0
  9
$STEPSPERSEC
 40
2.0
  9
$STEPSIZE
 40
6.0
  9
$3DDWFPREC
 40
2.0
  9
$PSOLWIDTH
 40
5.0
  9
$PSOLHEIGHT
 40
80.0
  9
$LOFTANG1
 40
1.5707963268
  9
$LOFTANG2
 40
1.5707963268
  9
$LOFTMAG1
 40
0.0
  9
$LOFTMAG2
 40
0.0
  9
$LOFTPARAM
 70
     7
  9
$LOFTNORMALS
280
     1
  9
$LATITUDE
 40
37.795
  9
$LONGITUDE
 40
-122.394
  9
$NORTHDIRECTION
 40
0.0
  9
$TIMEZONE
 70
 -8000
  9
$LIGHTGLYPHDISPLAY
280
     1
  9
$TILEMODELIGHTSYNCH
280
     1
  9
$SOLIDHIST
280
     1
  9
$SHOWHIST
280
     1
  9
$DWFFRAME
280
     2
  9
$DGNFRAME
280
     2
  9
$REALWORLDSCALE
290
     1
  9
$INTERFERECOLOR
 62
   256
  9
$CSHADOW
280
     0
  9
$SHADOWPLANELOCATION
 40
0.0
  0
ENDSEC
  0
SECTION
  2
CLASSES
  0
CLASS
  1
ACDBDICTIONARYWDFLT
  2
AcDbDictionaryWithDefault
  3
ObjectDBX Classes
 90
        0
 91
        4
280
     0
281
     0
  0
CLASS
  1
VISUALSTYLE
  2
AcDbVisualStyle
  3
ObjectDBX Classes
 90
     4095
 91
        4
280
     0
281
     0
  0
CLASS
  1
MATERIAL
  2
AcDbMaterial
  3
ObjectDBX Classes
 90
     1153
 91
        4
280
     0
281
     0
  0
ENDSEC
  0
SECTION
  2
TABLES
  0
TABLE
  2
VPORT
  5
8
330
0
100
AcDbSymbolTable
 70
     1
  0
VPORT
  5
29
330
8
100
AcDbSymbolTableRecord
100
AcDbViewportTableRecord
  2
*Active
 70
     0
 10
0.0
 20
0.0
 11
1.0
 21
1.0
 12
148.5
 22
105.0
 13
0.0
 23
0.0
 14
10.0
 24
10.0
 15
10.0
 25
10.0
 16
0.0
 26
0.0
 36
1.0
 17
0.0
 27
0.0
 37
0.0
 40
210.0
 41
1.4142857143
 42
50.0
 43
0.0
 44
0.0
 50
0.0
 51
0.0
 71
     0
 72
  2000
 73
     1
 74
     3
 75
     0
 76
     0
 77
     0
 78
     0
281
     0
 65
     1
110
0.0
120
0.0
130
0.0
111
1.0
121
0.0
131
0.0
112
0.0
122
1.0
132
0.0
 79
     0
146
0.0
 60
     3
 61
     5
292
     1
282
     1
141
0.0
142
0.0
 63
   250
  0
ENDTAB
  0
TABLE
  2
LTYPE
  5
5
330
0
100
AcDbSymbolTable
 70
     8
  0
LTYPE
  5
14
330
5
100
AcDbSymbolTableRecord
100
AcDbLinetypeTableRecord
  2
ByBlock
 70
     0
  3

 72
    65
 73
     0
 40
0.0
  0
LTYPE
  5
15
330
5
100
AcDbSymbolTableRecord
100
AcDbLinetypeTableRecord
  2
ByLayer
 70
     0
  3

 72
    65
 73
     0
 40
0.0
  0
LTYPE
  5
16
330
5
100
AcDbSymbolTableRecord
100
AcDbLinetypeTableRecord
  2
Continuous
 70
     0
  3
Solid line
 72
    65
 73
     0
 40
0.0
  0
LTYPE
  5
3F
330
5
100
AcDbSymbolTableRecord
100
AcDbLinetypeTableRecord
  2
SLD-Durchgehend
 70
     0
  3
SolidWorks Line Style
 72
    65
 73
     0
 40
0.0
  0
LTYPE
  5
40
330
5
100
AcDbSymbolTableRecord
100
AcDbLinetypeTableRecord
  2
SLD-Gestrichelt
 70
     0
  3
SolidWorks Line Style
 72
    65
 73
     2
 40
1.905
 49
1.27
 74
     0
 49
-0.635
 74
     0
  0
LTYPE
  5
41
330
5
100
AcDbSymbolTableRecord
100
AcDbLinetypeTableRecord
  2
SLD-Phantom
 70
     0
  3
SolidWorks Line Style
 72
    65
 73
     6
 40
12.7
 49
6.35
 74
     0
 49
-1.27
 74
     0
 49
1.27
 74
     0
 49
-1.27
 74
     0
 49
1.27
 74
     0
 49
-1.27
 74
     0
  0
LTYPE
  5
42
330
5
100
AcDbSymbolTableRecord
100
AcDbLinetypeTableRecord
  2
SLD-Kette
 70
     0
  3
SolidWorks Line Style
 72
    65
 73
     4
 40
10.16
 49
6.35
 74
     0
 49
-1.27
 74
     0
 49
1.27
 74
     0
 49
-1.27
 74
     0
  0
LTYPE
  5
43
330
5
100
AcDbSymbolTableRecord
100
AcDbLinetypeTableRecord
  2
SLD-Punktstrich
 70
     0
  3
SolidWorks Line Style
 72
    65
 73
     4
 40
19.05
 49
15.24
 74
     0
 49
-1.27
 74
     0
 49
1.27
 74
     0
 49
-1.27
 74
     0
  0
LTYPE
  5
44
330
5
100
AcDbSymbolTableRecord
100
AcDbLinetypeTableRecord
  2
SLD-Naht
 70
     0
  3
SolidWorks Line Style
 72
    65
 73
     2
 40
0.635
 49
0.0
 74
     0
 49
-0.635
 74
     0
  0
LTYPE
  5
45
330
5
100
AcDbSymbolTableRecord
100
AcDbLinetypeTableRecord
  2
SLD-Dicke-Dünne-Kette
 70
     0
  3
SolidWorks Line Style
 72
    65
 73
     4
 40
10.16
 49
6.35
 74
     0
 49
-1.27
 74
     0
 49
1.27
 74
     0
 49
-1.27
 74
     0
  0
ENDTAB
  0
TABLE
  2
LAYER
  5
2
330
0
100
AcDbSymbolTable
 70
     3
  0
LAYER
  5
10
330
2
100
AcDbSymbolTableRecord
100
AcDbLayerTableRecord
  2
0
 70
     0
 62
     7
  6
Continuous
370
    -3
390
F
347
3E
  0
LAYER
  5
46
330
2
100
AcDbSymbolTableRecord
100
AcDbLayerTableRecord
  2
1
 70
     0
 62
     4
  6
Continuous
370
    -1
390
F
347
3E
  0
LAYER
  5
47
330
2
100
AcDbSymbolTableRecord
100
AcDbLayerTableRecord
  2
2
 70
     0
 62
     7
  6
SLD-Durchgehend
370
    -3
390
F
347
3E
  0
ENDTAB
  0
TABLE
  2
STYLE
  5
3
330
0
100
AcDbSymbolTable
 70
     2
  0
STYLE
  5
11
330
3
100
AcDbSymbolTableRecord
100
AcDbTextStyleTableRecord
  2
Standard
 70
     0
 40
0.0
 41
1.0
 50
0.0
 71
     0
 42
3.5
  3
txt
  4

  0
STYLE
  5
1F1
330
3
100
AcDbSymbolTableRecord
100
AcDbTextStyleTableRecord
  2
SLDTEXTSTYLE0
 70
     0
 40
0.0
 41
0.75
 50
0.0
 71
     0
 42
0.2
  3
TXT
  4

  0
ENDTAB
  0
TABLE
  2
VIEW
  5
6
330
0
100
AcDbSymbolTable
 70
     0
  0
ENDTAB
  0
TABLE
  2
UCS
  5
7
330
0
100
AcDbSymbolTable
 70
     0
  0
ENDTAB
  0
TABLE
  2
APPID
  5
9
330
0
100
AcDbSymbolTable
 70
     1
  0
APPID
  5
12
330
9
100
AcDbSymbolTableRecord
100
AcDbRegAppTableRecord
  2
ACAD
 70
     0
  0
ENDTAB
  0
TABLE
  2
DIMSTYLE
  5
A
330
0
100
AcDbSymbolTable
 70
     2
100
AcDbDimStyleTable
  0
DIMSTYLE
105
27
330
A
100
AcDbSymbolTableRecord
100
AcDbDimStyleTableRecord
  2
ISO-25
 70
     0
 41
2.5
 42
0.625
 43
3.75
 44
1.25
 73
     0
 74
     0
 77
     1
 78
     8
140
2.5
141
2.5
143
0.0393700787
147
0.625
171
     3
172
     1
178
     0
271
     2
272
     2
274
     3
278
    44
283
     0
284
     8
340
11
  0
DIMSTYLE
105
1F2
102
{ACAD_REACTORS
330
1F0
330
1FC
330
206
330
211
102
}
330
A
100
AcDbSymbolTableRecord
100
AcDbDimStyleTableRecord
  2
SLDDIMSTYLE0
 70
     0
 41
3.302
 44
0.0
 45
0.000000001
 73
     0
 74
     0
 77
     1
 78
    12
 79
     3
140
3.5
147
0.875
173
     1
178
     0
271
     2
272
     2
276
     2
284
    12
340
1F1
  0
ENDTAB
  0
TABLE
  2
BLOCK_RECORD
  5
1
330
0
100
AcDbSymbolTable
 70
     5
  0
BLOCK_RECORD
  5
1F
330
1
100
AcDbSymbolTableRecord
100
AcDbBlockTableRecord
  2
*Model_Space
340
22
 70
     0
280
     1
281
     0
  0
BLOCK_RECORD
  5
1B
330
1
100
AcDbSymbolTableRecord
100
AcDbBlockTableRecord
  2
*Paper_Space
340
1E
 70
     0
280
     1
281
     0
  0
BLOCK_RECORD
  5
23
330
1
100
AcDbSymbolTableRecord
100
AcDbBlockTableRecord
  2
*Paper_Space0
340
26
 70
     0
280
     1
281
     0
  0
BLOCK_RECORD
  5
1F3
330
1
100
AcDbSymbolTableRecord
100
AcDbBlockTableRecord
  2
_D
340
0
 70
     0
280
     1
281
     0
  0
BLOCK_RECORD
  5
1FD
330
1
100
AcDbSymbolTableRecord
100
AcDbBlockTableRecord
  2
_D_1
340
0
 70
     0
280
     1
281
     0
  0
BLOCK_RECORD
  5
207
330
1
100
AcDbSymbolTableRecord
100
AcDbBlockTableRecord
  2
_D_2
340
0
 70
     0
280
     1
281
     0
  0
BLOCK_RECORD
  5
212
330
1
100
AcDbSymbolTableRecord
100
AcDbBlockTableRecord
  2
_D_3
340
0
 70
     0
280
     1
281
     0
  0
ENDTAB
  0
ENDSEC
  0
SECTION
  2
BLOCKS
  0
BLOCK
  5
20
330
1F
100
AcDbEntity
  8
0
100
AcDbBlockBegin
  2
*Model_Space
 70
     0
 10
0.0
 20
0.0
 30
0.0
  3
*Model_Space
  1

  0
ENDBLK
  5
21
330
1F
100
AcDbEntity
  8
0
100
AcDbBlockEnd
  0
BLOCK
  5
1C
330
1B
100
AcDbEntity
 67
     1
  8
0
100
AcDbBlockBegin
  2
*Paper_Space
 70
     0
 10
0.0
 20
0.0
 30
0.0
  3
*Paper_Space
  1

  0
ENDBLK
  5
1D
330
1B
100
AcDbEntity
 67
     1
  8
0
100
AcDbBlockEnd
  0
BLOCK
  5
24
330
23
100
AcDbEntity
  8
0
100
AcDbBlockBegin
  2
*Paper_Space0
 70
     0
 10
0.0
 20
0.0
 30
0.0
  3
*Paper_Space0
  1

  0
ENDBLK
  5
25
330
23
100
AcDbEntity
  8
0
100
AcDbBlockEnd
  0
BLOCK
  5
1F4
330
1F3
100
AcDbEntity
  8
0
100
AcDbBlockBegin
  2
_D
 70
     0
 10
0.0
 20
0.0
 30
0.0
  3
_D
  1

  0
SOLID
  5
1F6
330
1F3
100
AcDbEntity
  8
2
 62
     7
420
 16777215
100
AcDbTrace
 10
-31.9999291085
 20
43.5002015396
 30
0.0
 11
-28.6979291085
 21
42.9922015396
 31
0.0
 12
-28.6979291085
 22
44.0082015396
 32
0.0
 13
-28.6979291085
 23
44.0082015396
 33
0.0
  0
SOLID
  5
1F7
330
1F3
100
AcDbEntity
  8
2
 62
     7
420
 16777215
100
AcDbTrace
 10
100.0000708915
 20
43.5002015396
 30
0.0
 11
96.6980708915
 21
44.0082015396
 31
0.0
 12
96.6980708915
 22
42.9922015396
 32
0.0
 13
96.6980708915
 23
42.9922015396
 33
0.0
  0
LINE
  5
1F8
330
1F3
100
AcDbEntity
  8
2
 62
     7
420
 16777215
100
AcDbLine
 10
-31.9999291085
 20
1.0002015396
 30
0.0
 11
-31.9999291085
 21
44.5002015396
 31
0.0
  0
LINE
  5
1F9
330
1F3
100
AcDbEntity
  8
2
 62
     7
420
 16777215
100
AcDbLine
 10
100.0000708915
 20
1.0002015396
 30
0.0
 11
100.0000708915
 21
44.5002015396
 31
0.0
  0
LINE
  5
1FA
330
1F3
100
AcDbEntity
  8
2
 62
     7
420
 16777215
100
AcDbLine
 10
-31.9999291085
 20
43.5002015396
 30
0.0
 11
100.0000708915
 21
43.5002015396
 31
0.0
  0
MTEXT
  5
1FB
330
1F3
100
AcDbEntity
  8
2
 62
     7
420
 16777215
100
AcDbMText
 10
28.6990293629
 20
48.0119384542
 30
0.0
 40
3.5
 41
0.0
 46
0.0
 71
     1
 72
     1
  1
132
  7
SLDTEXTSTYLE0
 73
     1
 44
1.0
  0
ENDBLK
  5
1F5
330
1F3
100
AcDbEntity
  8
0
100
AcDbBlockEnd
  0
BLOCK
  5
1FE
330
1FD
100
AcDbEntity
  8
0
100
AcDbBlockBegin
  2
_D_1
 70
     0
 10
0.0
 20
0.0
 30
0.0
  3
_D_1
  1

  0
SOLID
  5
200
330
1FD
100
AcDbEntity
  8
2
 62
     7
420
 16777215
100
AcDbTrace
 10
100.0000708915
 20
37.5002015396
 30
0.0
 11
96.6980708915
 21
38.0082015396
 31
0.0
 12
96.6980708915
 22
36.9922015396
 32
0.0
 13
96.6980708915
 23
36.9922015396
 33
0.0
  0
SOLID
  5
201
330
1FD
100
AcDbEntity
  8
2
 62
     7
420
 16777215
100
AcDbTrace
 10
0.0000708915
 20
37.5002015396
 30
0.0
 11
3.3020708915
 21
36.9922015396
 31
0.0
 12
3.3020708915
 22
38.0082015396
 32
0.0
 13
3.3020708915
 23
38.0082015396
 33
0.0
  0
LINE
  5
202
330
1FD
100
AcDbEntity
  8
2
 62
     7
420
 16777215
100
AcDbLine
 10
100.0000708915
 20
1.0002015396
 30
0.0
 11
100.0000708915
 21
38.5002015396
 31
0.0
  0
LINE
  5
203
330
1FD
100
AcDbEntity
  8
2
 62
     7
420
 16777215
100
AcDbLine
 10
0.0000708915
 20
1.0002015396
 30
0.0
 11
0.0000708915
 21
38.5002015396
 31
0.0
  0
LINE
  5
204
330
1FD
100
AcDbEntity
  8
2
 62
     7
420
 16777215
100
AcDbLine
 10
100.0000708915
 20
37.5002015396
 30
0.0
 11
0.0000708915
 21
37.5002015396
 31
0.0
  0
MTEXT
  5
205
330
1FD
100
AcDbEntity
  8
2
 62
     7
420
 16777215
100
AcDbMText
 10
44.6990293629
 20
42.0119384542
 30
0.0
 40
3.5
 41
0.0
 46
0.0
 71
     1
 72
     1
  1
100
  7
SLDTEXTSTYLE0
 73
     1
 44
1.0
  0
ENDBLK
  5
1FF
330
1FD
100
AcDbEntity
  8
0
100
AcDbBlockEnd
  0
BLOCK
  5
208
330
207
100
AcDbEntity
  8
0
100
AcDbBlockBegin
  2
_D_2
 70
     0
 10
0.0
 20
0.0
 30
0.0
  3
_D_2
  1

  0
SOLID
  5
20A
330
207
100
AcDbEntity
  8
2
 62
     7
420
 16777215
100
AcDbTrace
 10
106.0000708915
 20
22.5002015396
 30
0.0
 11
105.4920708915
 21
19.1982015396
 31
0.0
 12
106.5080708915
 22
19.1982015396
 32
0.0
 13
106.5080708915
 23
19.1982015396
 33
0.0
  0
SOLID
  5
20B
330
207
100
AcDbEntity
  8
2
 62
     7
420
 16777215
100
AcDbTrace
 10
106.0000708915
 20
-22.4997984604
 30
0.0
 11
106.5080708915
 21
-19.1977984604
 31
0.0
 12
105.4920708915
 22
-19.1977984604
 32
0.0
 13
105.4920708915
 23
-19.1977984604
 33
0.0
  0
LINE
  5
20C
330
207
100
AcDbEntity
  8
2
 62
     7
420
 16777215
100
AcDbLine
 10
47.0000708915
 20
22.5002015396
 30
0.0
 11
107.0000708915
 21
22.5002015396
 31
0.0
  0
LINE
  5
20D
330
207
100
AcDbEntity
  8
2
 62
     7
420
 16777215
100
AcDbLine
 10
47.0000708915
 20
-22.4997984604
 30
0.0
 11
107.0000708915
 21
-22.4997984604
 31
0.0
  0
LINE
  5
20E
330
207
100
AcDbEntity
  8
2
 62
     7
420
 16777215
100
AcDbLine
 10
106.0000708915
 20
22.5002015396
 30
0.0
 11
106.0000708915
 21
-22.4997984604
 31
0.0
  0
MTEXT
  5
20F
330
207
100
AcDbEntity
  8
2
 62
     7
420
 16777215
100
AcDbMText
 10
101.4883338023
 20
-6.6470034406
 30
0.0
 40
3.5
 41
0.0
 46
0.0
 71
     1
 72
     1
  1
%%c
  7
SLDTEXTSTYLE0
 11
-7.044195017643634E-15
 21
1.0
 31
0.0
 73
     1
 44
1.0
  0
MTEXT
  5
210
330
207
100
AcDbEntity
  8
2
 62
     7
420
 16777215
100
AcDbMText
 10
101.4348616256
 20
-1.3685660423
 30
0.0
 40
3.5
 41
0.0
 46
0.0
 71
     1
 72
     1
  1
45
  7
SLDTEXTSTYLE0
 11
-7.044195017643634E-15
 21
1.0
 31
0.0
 73
     1
 44
1.0
  0
ENDBLK
  5
209
330
207
100
AcDbEntity
  8
0
100
AcDbBlockEnd
  0
BLOCK
  5
213
330
212
100
AcDbEntity
  8
0
100
AcDbBlockBegin
  2
_D_3
 70
     0
 10
0.0
 20
0.0
 30
0.0
  3
_D_3
  1

  0
SOLID
  5
215
330
212
100
AcDbEntity
  8
2
 62
     7
420
 16777215
100
AcDbTrace
 10
112.0000708915
 20
25.0002015321
 30
0.0
 11
111.4920708915
 21
21.6982015321
 31
0.0
 12
112.5080708915
 22
21.6982015321
 32
0.0
 13
112.5080708915
 23
21.6982015321
 33
0.0
  0
SOLID
  5
216
330
212
100
AcDbEntity
  8
2
 62
     7
420
 16777215
100
AcDbTrace
 10
112.0000708915
 20
-24.9997984529
 30
0.0
 11
112.5080708915
 21
-21.6977984529
 31
0.0
 12
111.4920708915
 22
-21.6977984529
 32
0.0
 13
111.4920708915
 23
-21.6977984529
 33
0.0
  0
LINE
  5
217
330
212
100
AcDbEntity
  8
2
 62
     7
420
 16777215
100
AcDbLine
 10
80.5000708909
 20
25.0002015321
 30
0.0
 11
113.0000708915
 21
25.0002015321
 31
0.0
  0
LINE
  5
218
330
212
100
AcDbEntity
  8
2
 62
     7
420
 16777215
100
AcDbLine
 10
80.5000708909
 20
-24.9997984529
 30
0.0
 11
113.0000708915
 21
-24.9997984529
 31
0.0
  0
LINE
  5
219
330
212
100
AcDbEntity
  8
2
 62
     7
420
 16777215
100
AcDbLine
 10
112.0000708915
 20
25.0002015321
 30
0.0
 11
112.0000708915
 21
-24.9997984529
 31
0.0
  0
MTEXT
  5
21A
330
212
100
AcDbEntity
  8
2
 62
     7
420
 16777215
100
AcDbMText
 10
107.4883338023
 20
-6.6470034406
 30
0.0
 40
3.5
 41
0.0
 46
0.0
 71
     1
 72
     1
  1
%%c
  7
SLDTEXTSTYLE0
 11
-7.044195017643634E-15
 21
1.0
 31
0.0
 73
     1
 44
1.0
  0
MTEXT
  5
21B
330
212
100
AcDbEntity
  8
2
 62
     7
420
 16777215
100
AcDbMText
 10
107.4348616256
 20
-1.3685660423
 30
0.0
 40
3.5
 41
0.0
 46
0.0
 71
     1
 72
     1
  1
50
  7
SLDTEXTSTYLE0
 11
-7.044195017643634E-15
 21
1.0
 31
0.0
 73
     1
 44
1.0
  0
ENDBLK
  5
214
330
212
100
AcDbEntity
  8
0
100
AcDbBlockEnd
  0
ENDSEC
  0
SECTION
  2
ENTITIES
  0
LINE
  5
48
330
1F
100
AcDbEntity
  8
0
  6
SLD-Punktstrich
 62
     7
100
AcDbLine
 10
-31.9999291085
 20
0.0002015396
 30
0.0
 11
100.0000708915
 21
0.0002015396
 31
0.0
  0
POINT
  5
49
330
1F
100
AcDbEntity
  8
1
 62
     4
420
    65535
100
AcDbPoint
 10
-31.9999291085
 20
0.0002015396
 30
0.0
  0
POINT
  5
4A
330
1F
100
AcDbEntity
  8
1
 62
     4
420
    65535
100
AcDbPoint
 10
100.0000708915
 20
0.0002015396
 30
0.0
  0
POINT
  5
4B
330
1F
100
AcDbEntity
  8
1
 62
     4
420
    65535
100
AcDbPoint
 10
0.0000708915
 20
0.0002015396
 30
0.0
  0
POINT
  5
4C
330
1F
100
AcDbEntity
  8
1
 62
     4
420
    65535
100
AcDbPoint
 10
100.0000708915
 20
0.0002015396
 30
0.0
  0
LINE
  5
4D
330
1F
100
AcDbEntity
  8
1
 62
     4
420
    65535
100
AcDbLine
 10
79.5000708909
 20
-24.9997984529
 30
0.0
 11
80.0000708915
 21
-24.9997984529
 31
0.0
  0
LINE
  5
4E
330
1F
100
AcDbEntity
  8
1
 62
     4
420
    65535
100
AcDbLine
 10
80.0099107876
 20
25.0002015321
 30
0.0
 11
79.5000708909
 21
25.0002015321
 31
0.0
  0
LINE
  5
4F
330
1F
100
AcDbEntity
  8
1
 62
     4
420
    65535
100
AcDbLine
 10
99.8928912146
 20
19.1858421799
 30
0.0
 11
98.265397152
 21
22.0047445853
 31
0.0
  0
LINE
  5
50
330
1F
100
AcDbEntity
  8
1
 62
     4
420
    65535
100
AcDbLine
 10
98.2653029192
 20
-22.004504722
 30
0.0
 11
99.8928912146
 21
-19.1854391007
 31
0.0
  0
LINE
  5
51
330
1F
100
AcDbEntity
  8
1
 62
     4
420
    65535
100
AcDbLine
 10
77.5000708915
 20
-19.2497984546
 30
0.0
 11
86.7500708955
 21
-19.2497984546
 31
0.0
  0
LINE
  5
52
330
1F
100
AcDbEntity
  8
1
 62
     4
420
    65535
100
AcDbLine
 10
86.7500708955
 20
19.2502015338
 30
0.0
 11
77.5000708915
 21
19.2502015338
 31
0.0
  0
LINE
  5
53
330
1F
100
AcDbEntity
  8
1
 62
     4
420
    65535
100
AcDbLine
 10
87.0000708954
 20
19.0002015339
 30
0.0
 11
86.7500708955
 21
19.2502015338
 31
0.0
  0
LINE
  5
54
330
1F
100
AcDbEntity
  8
1
 62
     4
420
    65535
100
AcDbLine
 10
86.7500708955
 20
-19.2497984546
 30
0.0
 11
87.0000708954
 21
-18.9997984547
 31
0.0
  0
LINE
  5
55
330
1F
100
AcDbEntity
  8
1
 62
     4
420
    65535
100
AcDbLine
 10
88.0000708951
 20
-18.9997984547
 30
0.0
 11
90.0259039194
 21
-20.1694136966
 31
0.0
  0
LINE
  5
56
330
1F
100
AcDbEntity
  8
1
 62
     4
420
    65535
100
AcDbLine
 10
90.0259039194
 20
20.1698167758
 30
0.0
 11
88.0000708951
 21
19.0002015339
 31
0.0
  0
LINE
  5
57
330
1F
100
AcDbEntity
  8
1
 62
     4
420
    65535
100
AcDbLine
 10
87.0000708954
 20
-18.9997984547
 30
0.0
 11
88.0000708951
 21
-18.9997984547
 31
0.0
  0
LINE
  5
58
330
1F
100
AcDbEntity
  8
1
 62
     4
420
    65535
100
AcDbLine
 10
88.0000708951
 20
19.0002015339
 30
0.0
 11
87.0000708954
 21
19.0002015339
 31
0.0
  0
LINE
  5
59
330
1F
100
AcDbEntity
  8
1
 62
     4
420
    65535
100
AcDbLine
 10
90.3259039193
 20
-20.2497984543
 30
0.0
 11
91.4000708941
 21
-20.2497984543
 31
0.0
  0
LINE
  5
5A
330
1F
100
AcDbEntity
  8
1
 62
     4
420
    65535
100
AcDbLine
 10
91.4000708941
 20
20.2502015335
 30
0.0
 11
90.3259039193
 21
20.2502015335
 31
0.0
  0
LINE
  5
5B
330
1F
100
AcDbEntity
  8
1
 62
     4
420
    65535
100
AcDbLine
 10
92.0000708939
 20
-14.9997984559
 30
0.0
 11
93.6000708934
 21
-14.9997984559
 31
0.0
  0
LINE
  5
5C
330
1F
100
AcDbEntity
  8
1
 62
     4
420
    65535
100
AcDbLine
 10
93.6000708934
 20
15.0002015351
 30
0.0
 11
92.0000708939
 21
15.0002015351
 31
0.0
  0
ARC
  5
5D
330
1F
100
AcDbEntity
  8
1
 62
     4
420
    65535
100
AcDbCircle
 10
90.3259039193
 20
-19.6497984545
 30
0.0
 40
0.5999999998200103
100
AcDbArc
 50
240.0
 51
270.0
  0
ARC
  5
5E
330
1F
100
AcDbEntity
  8
1
 62
     4
420
    65535
100
AcDbCircle
 10
90.3259039193
 20
19.6502015337
 30
0.0
 40
0.5999999998199996
100
AcDbArc
 50
90.0
 51
120.0
  0
LINE
  5
5F
330
1F
100
AcDbEntity
  8
1
 62
     4
420
    65535
100
AcDbLine
 10
93.6000708934
 20
-16.4997984554
 30
0.0
 11
94.8000708931
 21
-16.4997984554
 31
0.0
  0
LINE
  5
60
330
1F
100
AcDbEntity
  8
1
 62
     4
420
    65535
100
AcDbLine
 10
94.8000708931
 20
16.5002015347
 30
0.0
 11
93.6000708934
 21
16.5002015347
 31
0.0
  0
ARC
  5
61
330
1F
100
AcDbEntity
  8
1
 62
     4
420
    65535
100
AcDbCircle
 10
79.5000708909
 20
-22.9997984535
 30
0.0
 40
1.999999999372186
100
AcDbArc
 50
180.0
 51
270.0
  0
ARC
  5
62
330
1F
100
AcDbEntity
  8
1
 62
     4
420
    65535
100
AcDbCircle
 10
79.5000708909
 20
23.0002015327
 30
0.0
 40
1.999999999372186
100
AcDbArc
 50
90.0
 51
180.0
  0
LINE
  5
63
330
1F
100
AcDbEntity
  8
1
 62
     4
420
    65535
100
AcDbLine
 10
99.6324926448
 20
13.5002015355
 30
0.0
 11
94.8000708931
 21
16.2902015347
 31
0.0
  0
LINE
  5
64
330
1F
100
AcDbEntity
  8
1
 62
     4
420
    65535
100
AcDbLine
 10
94.8000708931
 20
-16.2897984555
 30
0.0
 11
99.6324926448
 21
-13.4997984563
 31
0.0
  0
LINE
  5
65
330
1F
100
AcDbEntity
  8
1
 62
     4
420
    65535
100
AcDbLine
 10
99.6324926448
 20
-13.4997984563
 30
0.0
 11
99.8000708916
 21
-13.4997984563
 31
0.0
  0
LINE
  5
66
330
1F
100
AcDbEntity
  8
1
 62
     4
420
    65535
100
AcDbLine
 10
99.8000708916
 20
13.5002015355
 30
0.0
 11
99.6324926448
 21
13.5002015355
 31
0.0
  0
LINE
  5
67
330
1F
100
AcDbEntity
  8
1
 62
     4
420
    65535
100
AcDbLine
 10
80.0000708915
 20
25.0002015321
 30
0.0
 11
80.0000708915
 21
22.0002015396
 31
0.0
  0
LINE
  5
68
330
1F
100
AcDbEntity
  8
1
 62
     4
420
    65535
100
AcDbLine
 10
80.0000708915
 20
12.4996129512
 30
0.0
 11
80.0000708915
 21
11.0002015396
 31
0.0
  0
LINE
  5
69
330
1F
100
AcDbEntity
  8
1
 62
     4
420
    65535
100
AcDbLine
 10
80.0000708915
 20
-10.9997984604
 30
0.0
 11
80.0000708915
 21
-12.4992098719
 31
0.0
  0
ARC
  5
6A
330
1F
100
AcDbEntity
  8
1
 62
     4
420
    65535
100
AcDbCircle
 10
91.4000708941
 20
-19.6497984545
 30
0.0
 40
0.5999999998199819
100
AcDbArc
 50
270.0
 51
0.0
  0
ARC
  5
6B
330
1F
100
AcDbEntity
  8
1
 62
     4
420
    65535
100
AcDbCircle
 10
91.4000708941
 20
19.6502015337
 30
0.0
 40
0.5999999998199783
100
AcDbArc
 50
0.0
 51
90.0
  0
LINE
  5
6C
330
1F
100
AcDbEntity
  8
1
 62
     4
420
    65535
100
AcDbLine
 10
80.0000708915
 20
-21.9997984604
 30
0.0
 11
80.0000708915
 21
-24.9997984529
 31
0.0
  0
LINE
  5
6D
330
1F
100
AcDbEntity
  8
1
 62
     4
420
    65535
100
AcDbLine
 10
80.0000708915
 20
-10.9997984604
 30
0.0
 11
80.0000708915
 21
-12.4992098719
 31
0.0
  0
LINE
  5
6E
330
1F
100
AcDbEntity
  8
1
 62
     4
420
    65535
100
AcDbLine
 10
80.0000708915
 20
12.4996129512
 30
0.0
 11
80.0000708915
 21
11.0002015396
 31
0.0
  0
ARC
  5
6F
330
1F
100
AcDbEntity
  8
1
 62
     4
420
    65535
100
AcDbCircle
 10
99.8000708916
 20
-13.6997984563
 30
0.0
 40
0.1999999999399709
100
AcDbArc
 50
0.0
 51
90.0
  0
ARC
  5
70
330
1F
100
AcDbEntity
  8
1
 62
     4
420
    65535
100
AcDbCircle
 10
99.8000708916
 20
13.7002015355
 30
0.0
 40
0.1999999999399709
100
AcDbArc
 50
270.0
 51
0.0
  0
ARC
  5
71
330
1F
100
AcDbEntity
  8
1
 62
     4
420
    65535
100
AcDbCircle
 10
99.2000708917
 20
-18.7854391008
 30
0.0
 40
0.7999999997599291
100
AcDbArc
 50
330.0
 51
0.0
  0
ARC
  5
72
330
1F
100
AcDbEntity
  8
1
 62
     4
420
    65535
100
AcDbCircle
 10
99.2000708917
 20
18.78584218
 30
0.0
 40
0.7999999997599291
100
AcDbArc
 50
0.0
 51
30.0
  0
LINE
  5
73
330
1F
100
AcDbEntity
  8
1
 62
     4
420
    65535
100
AcDbLine
 10
14.6225718167
 20
-31.4997984604
 30
0.0
 11
16.1250708915
 21
-28.8973937246
 31
0.0
  0
ARC
  5
74
330
1F
100
AcDbEntity
  8
1
 62
     4
420
    65535
100
AcDbCircle
 10
29.0000708915
 20
25.5002015396
 30
0.0
 40
3.0
100
AcDbArc
 50
180.0
 51
270.0
  0
ARC
  5
75
330
1F
100
AcDbEntity
  8
1
 62
     4
420
    65535
100
AcDbCircle
 10
29.0000708915
 20
-25.4997984604
 30
0.0
 40
2.999999999999996
100
AcDbArc
 50
90.0
 51
180.0
  0
ARC
  5
76
330
1F
100
AcDbEntity
  8
1
 62
     4
420
    65535
100
AcDbCircle
 10
86.5000708954
 20
16.4348449085
 30
0.0
 40
0.5
100
AcDbArc
 50
278.0
 51
0.0
  0
ARC
  5
77
330
1F
100
AcDbEntity
  8
1
 62
     4
420
    65535
100
AcDbCircle
 10
86.5000708954
 20
-16.4344418293
 30
0.0
 40
0.5000000000000013
100
AcDbArc
 50
0.0
 51
82.0
  0
ARC
  5
78
330
1F
100
AcDbEntity
  8
1
 62
     4
420
    65535
100
AcDbCircle
 10
17.3250708915
 20
-28.6997984604
 30
0.0
 40
1.199999999999999
100
AcDbArc
 50
90.0
 51
180.0
  0
LINE
  5
79
330
1F
100
AcDbEntity
  8
1
 62
     4
420
    65535
100
AcDbLine
 10
19.8750708915
 20
-28.8973937246
 30
0.0
 11
21.3775699663
 21
-31.4997984604
 31
0.0
  0
ARC
  5
7A
330
1F
100
AcDbEntity
  8
1
 62
     4
420
    65535
100
AcDbCircle
 10
18.6750708915
 20
-28.6997984604
 30
0.0
 40
1.199999999999999
100
AcDbArc
 50
0.0
 51
90.0
  0
LINE
  5
7B
330
1F
100
AcDbEntity
  8
1
 62
     4
420
    65535
100
AcDbLine
 10
21.3775699663
 20
-31.4997984604
 30
0.0
 11
26.0000708915
 21
-31.4997984604
 31
0.0
  0
LINE
  5
7C
330
1F
100
AcDbEntity
  8
1
 62
     4
420
    65535
100
AcDbLine
 10
18.6750708915
 20
27.5002015396
 30
0.0
 11
17.3250708915
 21
27.5002015396
 31
0.0
  0
LINE
  5
7D
330
1F
100
AcDbEntity
  8
1
 62
     4
420
    65535
100
AcDbLine
 10
14.6225718167
 20
31.5002015396
 30
0.0
 11
0.0000708915
 21
31.5002015396
 31
0.0
  0
LINE
  5
7E
330
1F
100
AcDbEntity
  8
1
 62
     4
420
    65535
100
AcDbLine
 10
0.0000708915
 20
-31.4997984604
 30
0.0
 11
14.6225718167
 21
-31.4997984604
 31
0.0
  0
LINE
  5
7F
330
1F
100
AcDbEntity
  8
1
 62
     4
420
    65535
100
AcDbLine
 10
17.3250708915
 20
-27.4997984604
 30
0.0
 11
18.6750708915
 21
-27.4997984604
 31
0.0
  0
LINE
  5
80
330
1F
100
AcDbEntity
  8
1
 62
     4
420
    65535
100
AcDbLine
 10
-30.859971279
 20
17.0002015396
 30
0.0
 11
-31.9999291085
 21
18.1401593691
 31
0.0
  0
ARC
  5
81
330
1F
100
AcDbEntity
  8
1
 62
     4
420
    65535
100
AcDbCircle
 10
-1.3013223677
 20
24.4955735285
 30
0.0
 40
0.5999999999999979
100
AcDbArc
 50
255.0
 51
270.0
  0
ARC
  5
82
330
1F
100
AcDbEntity
  8
1
 62
     4
420
    65535
100
AcDbCircle
 10
-1.3013223677
 20
-24.4951704493
 30
0.0
 40
0.6000000000000019
100
AcDbArc
 50
90.0
 51
105.0
  0
ARC
  5
83
330
1F
100
AcDbEntity
  8
1
 62
     4
420
    65535
100
AcDbCircle
 10
18.6750708915
 20
28.7002015396
 30
0.0
 40
1.199999999999999
100
AcDbArc
 50
270.0
 51
0.0
  0
LINE
  5
84
330
1F
100
AcDbEntity
  8
1
 62
     4
420
    65535
100
AcDbLine
 10
-0.3940899497
 20
23.8955735285
 30
0.0
 11
-1.3013223677
 21
23.8955735285
 31
0.0
  0
LINE
  5
85
330
1F
100
AcDbEntity
  8
1
 62
     4
420
    65535
100
AcDbLine
 10
-1.3013223677
 20
-23.8951704493
 30
0.0
 11
-0.3940899497
 21
-23.8951704493
 31
0.0
  0
ARC
  5
86
330
1F
100
AcDbEntity
  8
1
 62
     4
420
    65535
100
AcDbCircle
 10
17.3250708915
 20
28.7002015396
 30
0.0
 40
1.199999999999999
100
AcDbArc
 50
180.0
 51
270.0
  0
ARC
  5
87
330
1F
100
AcDbEntity
  8
1
 62
     4
420
    65535
100
AcDbCircle
 10
-30.7999291085
 20
21.5762982544
 30
0.0
 40
1.199999999999997
100
AcDbArc
 50
92.868
 51
180.0
  0
LINE
  5
88
330
1F
100
AcDbEntity
  8
1
 62
     4
420
    65535
100
AcDbLine
 10
16.1250708915
 20
28.8977968038
 30
0.0
 11
14.6225718167
 21
31.5002015396
 31
0.0
  0
LINE
  5
89
330
1F
100
AcDbEntity
  8
1
 62
     4
420
    65535
100
AcDbLine
 10
0.2000708915
 20
24.5790773891
 30
0.0
 11
0.0000708915
 21
26.0021513336
 31
0.0
  0
LINE
  5
8A
330
1F
100
AcDbEntity
  8
1
 62
     4
420
    65535
100
AcDbLine
 10
0.0000708915
 20
-26.0017482544
 30
0.0
 11
0.2000708915
 21
-24.5786743099
 31
0.0
  0
LINE
  5
8B
330
1F
100
AcDbEntity
  8
1
 62
     4
420
    65535
100
AcDbLine
 10
21.3775699663
 20
31.5002015396
 30
0.0
 11
19.8750708915
 21
28.8977968038
 31
0.0
  0
LINE
  5
8C
330
1F
100
AcDbEntity
  8
1
 62
     4
420
    65535
100
AcDbLine
 10
26.0000708915
 20
31.5002015396
 30
0.0
 11
21.3775699663
 21
31.5002015396
 31
0.0
  0
LINE
  5
8D
330
1F
100
AcDbEntity
  8
1
 62
     4
420
    65535
100
AcDbLine
 10
-30.859971279
 20
-22.7743921246
 30
0.0
 11
-2.4999291085
 21
-24.1951704493
 31
0.0
  0
LINE
  5
8E
330
1F
100
AcDbEntity
  8
1
 62
     4
420
    65535
100
AcDbLine
 10
-2.4999291085
 20
24.1955735285
 30
0.0
 11
-30.859971279
 21
22.7747952038
 31
0.0
  0
LINE
  5
8F
330
1F
100
AcDbEntity
  8
1
 62
     4
420
    65535
100
AcDbLine
 10
-1.4566137947
 20
23.9160180328
 30
0.0
 11
-2.4999291085
 21
24.1955735285
 31
0.0
  0
LINE
  5
90
330
1F
100
AcDbEntity
  8
1
 62
     4
420
    65535
100
AcDbLine
 10
-2.4999291085
 20
-24.1951704493
 30
0.0
 11
-1.4566137947
 21
-23.9156149535
 31
0.0
  0
LINE
  5
91
330
1F
100
AcDbEntity
  8
1
 62
     4
420
    65535
100
AcDbLine
 10
-31.9999291085
 20
-18.1397562899
 30
0.0
 11
-30.859971279
 21
-16.9997984604
 31
0.0
  0
LINE
  5
92
330
1F
100
AcDbEntity
  8
1
 62
     4
420
    65535
100
AcDbLine
 10
0.2059100503
 20
-24.4951704493
 30
0.0
 11
0.2059100503
 21
24.4955735285
 31
0.0
  0
LINE
  5
93
330
1F
100
AcDbEntity
  8
1
 62
     4
420
    65535
100
AcDbLine
 10
0.2059100503
 20
-24.4951704493
 30
0.0
 11
0.2059100503
 21
24.4955735285
 31
0.0
  0
ARC
  5
94
330
1F
100
AcDbEntity
  8
1
 62
     4
420
    65535
100
AcDbCircle
 10
-0.3940899497
 20
24.4955735285
 30
0.0
 40
0.600000000000005
100
AcDbArc
 50
270.0
 51
0.0
  0
ARC
  5
95
330
1F
100
AcDbEntity
  8
1
 62
     4
420
    65535
100
AcDbCircle
 10
-0.3940899497
 20
24.4955735285
 30
0.0
 40
0.5999999999999968
100
AcDbArc
 50
0.0
 51
8.0
  0
ARC
  5
96
330
1F
100
AcDbEntity
  8
1
 62
     4
420
    65535
100
AcDbCircle
 10
-0.3940899497
 20
-24.4951704493
 30
0.0
 40
0.5999999999999963
100
AcDbArc
 50
0.0
 51
90.0
  0
ARC
  5
97
330
1F
100
AcDbEntity
  8
1
 62
     4
420
    65535
100
AcDbCircle
 10
-0.3940899497
 20
-24.4951704493
 30
0.0
 40
0.5999999999999973
100
AcDbArc
 50
352.0
 51
0.0
  0
LINE
  5
98
330
1F
100
AcDbEntity
  8
1
 62
     4
420
    65535
100
AcDbLine
 10
-30.859971279
 20
-16.9997984604
 30
0.0
 11
-18.9959545123
 21
-16.9997984604
 31
0.0
  0
LINE
  5
99
330
1F
100
AcDbEntity
  8
1
 62
     4
420
    65535
100
AcDbLine
 10
-18.9959545123
 20
17.0002015396
 30
0.0
 11
-30.859971279
 21
17.0002015396
 31
0.0
  0
LINE
  5
9A
330
1F
100
AcDbEntity
  8
1
 62
     4
420
    65535
100
AcDbLine
 10
-18.9959545123
 20
-16.9997984604
 30
0.0
 11
-17.4371087855
 21
-19.6997984604
 31
0.0
  0
LINE
  5
9B
330
1F
100
AcDbEntity
  8
1
 62
     4
420
    65535
100
AcDbLine
 10
-17.4371087855
 20
19.7002015396
 30
0.0
 11
-18.9959545123
 21
17.0002015396
 31
0.0
  0
ARC
  5
9C
330
1F
100
AcDbEntity
  8
1
 62
     4
420
    65535
100
AcDbCircle
 10
-30.7999291085
 20
-21.5758951752
 30
0.0
 40
1.199999999999997
100
AcDbArc
 50
180.0
 51
267.132
  0
LINE
  5
9D
330
1F
100
AcDbEntity
  8
1
 62
     4
420
    65535
100
AcDbLine
 10
-16.9174935432
 20
-19.9997984604
 30
0.0
 11
-6.0362773423
 21
-19.9997984604
 31
0.0
  0
LINE
  5
9E
330
1F
100
AcDbEntity
  8
1
 62
     4
420
    65535
100
AcDbLine
 10
-6.0362773423
 20
20.0002015396
 30
0.0
 11
-16.9174935432
 21
20.0002015396
 31
0.0
  0
LINE
  5
9F
330
1F
100
AcDbEntity
  8
1
 62
     4
420
    65535
100
AcDbLine
 10
0.0000708915
 20
-17.2497984604
 30
0.0
 11
10.0000708915
 21
-17.2497984604
 31
0.0
  0
LINE
  5
A0
330
1F
100
AcDbEntity
  8
1
 62
     4
420
    65535
100
AcDbLine
 10
10.0000708915
 20
17.2502015396
 30
0.0
 11
0.0000708915
 21
17.2502015396
 31
0.0
  0
LINE
  5
A1
330
1F
100
AcDbEntity
  8
1
 62
     4
420
    65535
100
AcDbLine
 10
10.5000708915
 20
8.5002015396
 30
0.0
 11
10.0000708915
 21
9.0002015396
 31
0.0
  0
LINE
  5
A2
330
1F
100
AcDbEntity
  8
1
 62
     4
420
    65535
100
AcDbLine
 10
10.0000708915
 20
-8.9997984604
 30
0.0
 11
10.5000708915
 21
-8.4997984604
 31
0.0
  0
ARC
  5
A3
330
1F
100
AcDbEntity
  8
1
 62
     4
420
    65535
100
AcDbCircle
 10
-16.9174935432
 20
-19.3997984604
 30
0.0
 40
0.6000000000000133
100
AcDbArc
 50
210.0
 51
270.0
  0
ARC
  5
A4
330
1F
100
AcDbEntity
  8
1
 62
     4
420
    65535
100
AcDbCircle
 10
-16.9174935432
 20
19.4002015396
 30
0.0
 40
0.6000000000000115
100
AcDbArc
 50
90.0
 51
150.0
  0
LINE
  5
A5
330
1F
100
AcDbEntity
  8
1
 62
     4
420
    65535
100
AcDbLine
 10
10.5000708915
 20
-8.4997984604
 30
0.0
 11
21.0000708915
 21
-8.4997984604
 31
0.0
  0
LINE
  5
A6
330
1F
100
AcDbEntity
  8
1
 62
     4
420
    65535
100
AcDbLine
 10
21.0000708915
 20
8.5002015396
 30
0.0
 11
10.5000708915
 21
8.5002015396
 31
0.0
  0
ARC
  5
A7
330
1F
100
AcDbEntity
  8
1
 62
     4
420
    65535
100
AcDbCircle
 10
-6.0362773423
 20
-11.9997984604
 30
0.0
 40
8.000000000000004
100
AcDbArc
 50
270.0
 51
318.9855003343
  0
ARC
  5
A8
330
1F
100
AcDbEntity
  8
1
 62
     4
420
    65535
100
AcDbCircle
 10
-6.0362773423
 20
12.0002015396
 30
0.0
 40
8.000000000000004
100
AcDbArc
 50
41.0144996657
 51
90.0
  0
LINE
  5
A9
330
1F
100
AcDbEntity
  8
1
 62
     4
420
    65535
100
AcDbLine
 10
21.0000708915
 20
-9.2997984604
 30
0.0
 11
22.0000708915
 21
-9.2997984604
 31
0.0
  0
LINE
  5
AA
330
1F
100
AcDbEntity
  8
1
 62
     4
420
    65535
100
AcDbLine
 10
22.0000708915
 20
9.3002015396
 30
0.0
 11
21.0000708915
 21
9.3002015396
 31
0.0
  0
LINE
  5
AB
330
1F
100
AcDbEntity
  8
1
 62
     4
420
    65535
100
AcDbLine
 10
22.0000708915
 20
-4.1997984604
 30
0.0
 11
26.0000708915
 21
-4.1997984604
 31
0.0
  0
LINE
  5
AC
330
1F
100
AcDbEntity
  8
1
 62
     4
420
    65535
100
AcDbLine
 10
26.0000708915
 20
4.2002015396
 30
0.0
 11
22.0000708915
 21
4.2002015396
 31
0.0
  0
LINE
  5
AD
330
1F
100
AcDbEntity
  8
1
 62
     4
420
    65535
100
AcDbLine
 10
50.5676945133
 20
-7.5367989834
 30
0.0
 11
53.0000708954
 21
-11.7497984604
 31
0.0
  0
LINE
  5
AE
330
1F
100
AcDbEntity
  8
1
 62
     4
420
    65535
100
AcDbLine
 10
53.0000708954
 20
11.7502015396
 30
0.0
 11
50.5676945133
 21
7.5372020626
 31
0.0
  0
LINE
  5
AF
330
1F
100
AcDbEntity
  8
1
 62
     4
420
    65535
100
AcDbLine
 10
56.7597495753
 20
11.7502015396
 30
0.0
 11
53.0000708954
 21
11.7502015396
 31
0.0
  0
LINE
  5
B0
330
1F
100
AcDbEntity
  8
1
 62
     4
420
    65535
100
AcDbLine
 10
53.0000708954
 20
-11.7497984604
 30
0.0
 11
56.7597495753
 21
-11.7497984604
 31
0.0
  0
LINE
  5
B1
330
1F
100
AcDbEntity
  8
1
 62
     4
420
    65535
100
AcDbLine
 10
56.7597495753
 20
-11.7497984604
 30
0.0
 11
86.5696574459
 21
-15.9393077949
 31
0.0
  0
LINE
  5
B2
330
1F
100
AcDbEntity
  8
1
 62
     4
420
    65535
100
AcDbLine
 10
86.5696574459
 20
15.9397108741
 30
0.0
 11
56.7597495753
 21
11.7502015396
 31
0.0
  0
LINE
  5
B3
330
1F
100
AcDbEntity
  8
1
 62
     4
420
    65535
100
AcDbLine
 10
86.0000708957
 20
20.0002015336
 30
0.0
 11
65.8432057479
 21
20.0002015336
 31
0.0
  0
LINE
  5
B4
330
1F
100
AcDbEntity
  8
1
 62
     4
420
    65535
100
AcDbLine
 10
65.8432057479
 20
-19.9997984544
 30
0.0
 11
86.0000708957
 21
-19.9997984544
 31
0.0
  0
LINE
  5
B5
330
1F
100
AcDbEntity
  8
1
 62
     4
420
    65535
100
AcDbLine
 10
87.0000708954
 20
19.0002015339
 30
0.0
 11
86.0000708957
 21
20.0002015336
 31
0.0
  0
LINE
  5
B6
330
1F
100
AcDbEntity
  8
1
 62
     4
420
    65535
100
AcDbLine
 10
86.0000708957
 20
-19.9997984544
 30
0.0
 11
87.0000708954
 21
-18.9997984547
 31
0.0
  0
LINE
  5
B7
330
1F
100
AcDbEntity
  8
1
 62
     4
420
    65535
100
AcDbLine
 10
46.0000708915
 20
22.5002015396
 30
0.0
 11
29.0000708915
 21
22.5002015396
 31
0.0
  0
LINE
  5
B8
330
1F
100
AcDbEntity
  8
1
 62
     4
420
    65535
100
AcDbLine
 10
29.0000708915
 20
-22.4997984604
 30
0.0
 11
46.0000708915
 21
-22.4997984604
 31
0.0
  0
LINE
  5
B9
330
1F
100
AcDbEntity
  8
1
 62
     4
420
    65535
100
AcDbLine
 10
50.5676945133
 20
7.5372020626
 30
0.0
 11
26.0000708915
 21
7.5372020626
 31
0.0
  0
LINE
  5
BA
330
1F
100
AcDbEntity
  8
1
 62
     4
420
    65535
100
AcDbLine
 10
26.0000708915
 20
-7.5367989834
 30
0.0
 11
50.5676945133
 21
-7.5367989834
 31
0.0
  0
ARC
  5
BB
330
1F
100
AcDbEntity
  8
1
 62
     4
420
    65535
100
AcDbCircle
 10
65.8432057479
 20
100.0002015336
 30
0.0
 40
80.0
100
AcDbArc
 50
255.6384884198
 51
270.0
  0
ARC
  5
BC
330
1F
100
AcDbEntity
  8
1
 62
     4
420
    65535
100
AcDbCircle
 10
65.8432057479
 20
-99.9997984544
 30
0.0
 40
80.00000000000003
100
AcDbArc
 50
90.0
 51
104.3615115802
  0
LINE
  5
BD
330
1F
100
AcDbEntity
  8
1
 62
     4
420
    65535
100
AcDbLine
 10
96.7669093851
 20
14.8064717168
 30
0.0
 11
96.7669093851
 21
24.4165894713
 31
0.0
  0
SPLINE
  5
BE
330
1F
100
AcDbEntity
  8
1
 62
     4
420
    65535
100
AcDbSpline
210
0.0
220
0.0
230
1.0
 70
     8
 71
     3
 72
    12
 73
     8
 74
     0
 42
0.00000001
 43
0.00000001
 12
1.0
 22
0.0
 32
0.0
 13
1.0
 23
0.0
 33
0.0
 40
0.0
 40
0.0
 40
0.0
 40
0.0
 40
0.5000000000000188
 40
0.5000000000000188
 40
0.7500000000000093
 40
0.7500000000000093
 40
1.0
 40
1.0
 40
1.0
 40
1.0
 10
96.7669093851073
 20
14.8064717167942
 30
0.0
 10
96.69662298611254
 20
14.86779926686649
 30
0.0
 10
96.59487926462201
 20
14.9188055114577
 30
0.0
 10
96.41419578029652
 20
14.97140592457105
 30
0.0
 10
96.34823767643749
 20
14.98517569127562
 30
0.0
 10
96.21372430036865
 20
15.00331318373278
 30
0.0
 10
96.14478658979358
 20
15.00795139316049
 30
0.0
 10
96.07408906207974
 20
15.00795139316049
 30
0.0
  0
LINE
  5
BF
330
1F
100
AcDbEntity
  8
1
 62
     4
420
    65535
100
AcDbLine
 10
96.0740890621
 20
-9.8113958912
 30
0.0
 11
96.0740890621
 21
9.8117989705
 31
0.0
  0
LINE
  5
C0
330
1F
100
AcDbEntity
  8
1
 62
     4
420
    65535
100
AcDbLine
 10
96.0740890621
 20
15.0079513932
 30
0.0
 11
96.0740890621
 21
24.819548824
 31
0.0
  0
SPLINE
  5
C1
330
1F
100
AcDbEntity
  8
1
 62
     4
420
    65535
100
AcDbSpline
210
0.0
220
0.0
230
1.0
 70
     8
 71
     3
 72
    10
 73
     6
 74
     0
 42
0.00000001
 43
0.00000001
 12
1.0
 22
0.0
 32
0.0
 13
1.0
 23
0.0
 33
0.0
 40
0.0
 40
0.0
 40
0.0
 40
0.0
 40
0.5
 40
0.5
 40
1.0
 40
1.0
 40
1.0
 40
1.0
 10
96.07408906207974
 20
9.811798970453896
 30
0.0
 10
96.21530405499034
 20
9.811798970453898
 30
0.0
 10
96.3540977107717
 20
9.792751026853656
 30
0.0
 10
96.59478083968352
 20
9.722679912738998
 30
0.0
 10
96.69670647054937
 20
9.67157400082104
 30
0.0
 10
96.76690938510731
 20
9.610319294087613
 30
0.0
  0
LINE
  5
C2
330
1F
100
AcDbEntity
  8
1
 62
     4
420
    65535
100
AcDbLine
 10
96.7669093851
 20
-9.6099162149
 30
0.0
 11
96.7669093851
 21
9.6103192941
 31
0.0
  0
LINE
  5
C3
330
1F
100
AcDbEntity
  8
1
 62
     4
420
    65535
100
AcDbLine
 10
96.0740890621
 20
15.0079513932
 30
0.0
 11
83.0000708915
 21
15.0079513932
 31
0.0
  0
SPLINE
  5
C4
330
1F
100
AcDbEntity
  8
1
 62
     4
420
    65535
100
AcDbSpline
210
0.0
220
0.0
230
1.0
 70
     8
 71
     3
 72
    12
 73
     8
 74
     0
 42
0.00000001
 43
0.00000001
 12
1.0
 22
0.0
 32
0.0
 13
1.0
 23
0.0
 33
0.0
 40
0.0
 40
0.0
 40
0.0
 40
0.0
 40
0.500000000000025
 40
0.500000000000025
 40
0.7500000000000124
 40
0.7500000000000124
 40
1.0
 40
1.0
 40
1.0
 40
1.0
 10
96.76690938510728
 20
-9.60991621486818
 30
0.0
 10
96.69662298611252
 20
-9.671243764940465
 30
0.0
 10
96.59487926462202
 20
-9.722250009531663
 30
0.0
 10
96.41419578029652
 20
-9.774850422645018
 30
0.0
 10
96.34823767643753
 20
-9.788620189349592
 30
0.0
 10
96.21372430036864
 20
-9.806757681806744
 30
0.0
 10
96.14478658979354
 20
-9.811395891234454
 30
0.0
 10
96.07408906207974
 20
-9.811395891234458
 30
0.0
  0
LINE
  5
C5
330
1F
100
AcDbEntity
  8
1
 62
     4
420
    65535
100
AcDbLine
 10
79.5000708909
 20
25.0002015321
 30
0.0
 11
79.5000708909
 21
-24.9934134416
 31
0.0
  0
LINE
  5
C6
330
1F
100
AcDbEntity
  8
1
 62
     4
420
    65535
100
AcDbLine
 10
83.0000708915
 20
9.8117989705
 30
0.0
 11
96.0740890621
 21
9.8117989705
 31
0.0
  0
SPLINE
  5
C7
330
1F
100
AcDbEntity
  8
1
 62
     4
420
    65535
100
AcDbSpline
210
0.0
220
0.0
230
1.0
 70
     8
 71
     3
 72
    10
 73
     6
 74
     0
 42
0.00000001
 43
0.00000001
 12
1.0
 22
0.0
 32
0.0
 13
1.0
 23
0.0
 33
0.0
 40
0.0
 40
0.0
 40
0.0
 40
0.0
 40
0.5
 40
0.5
 40
1.0
 40
1.0
 40
1.0
 40
1.0
 10
96.07408906207974
 20
24.8195488240044
 30
0.0
 10
96.21341260183
 20
24.8195488240044
 30
0.0
 10
96.35257981673234
 20
24.78238025602484
 30
0.0
 10
96.59666625650738
 20
24.6401693268386
 30
0.0
 10
96.69763833772822
 20
24.53747270579398
 30
0.0
 10
96.7669093851073
 20
24.41658947127184
 30
0.0
  0
LINE
  5
C8
330
1F
100
AcDbEntity
  8
1
 62
     4
420
    65535
100
AcDbLine
 10
96.0740890621
 20
-9.8113958912
 30
0.0
 11
83.0000708915
 21
-9.8113958912
 31
0.0
  0
LINE
  5
C9
330
1F
100
AcDbEntity
  8
1
 62
     4
420
    65535
100
AcDbLine
 10
83.0000708915
 20
-15.0075483139
 30
0.0
 11
96.0740890621
 21
-15.0075483139
 31
0.0
  0
LINE
  5
CA
330
1F
100
AcDbEntity
  8
1
 62
     4
420
    65535
100
AcDbLine
 10
96.0740890621
 20
-24.8191457448
 30
0.0
 11
83.0000708915
 21
-24.8191457448
 31
0.0
  0
SPLINE
  5
CB
330
1F
100
AcDbEntity
  8
1
 62
     4
420
    65535
100
AcDbSpline
210
0.0
220
0.0
230
1.0
 70
     8
 71
     3
 72
    38
 73
    34
 74
     0
 42
0.00000001
 43
0.00000001
 12
1.0
 22
0.0
 32
0.0
 13
1.0
 23
0.0
 33
0.0
 40
0.0
 40
0.0
 40
0.0
 40
0.0
 40
0.0625
 40
0.0625
 40
0.125
 40
0.125
 40
0.1875
 40
0.1875
 40
0.25
 40
0.25
 40
0.3125
 40
0.3125
 40
0.375
 40
0.375
 40
0.4375
 40
0.4375
 40
0.5
 40
0.5
 40
0.5625
 40
0.5625
 40
0.625
 40
0.625
 40
0.6875
 40
0.6875
 40
0.75
 40
0.75
 40
0.8125
 40
0.8125
 40
0.875
 40
0.875
 40
0.9375
 40
0.9375
 40
1.0
 40
1.0
 40
1.0
 40
1.0
 10
83.00007089150725
 20
15.00795139316049
 30
0.0
 10
82.80166131642781
 20
15.00795139316049
 30
0.0
 10
82.60660375804778
 20
14.99226227138732
 30
0.0
 10
82.2229073668295
 20
14.93068341247653
 30
0.0
 10
82.03226616888519
 20
14.88403329886151
 30
0.0
 10
81.66901751286474
 20
14.76194788574054
 30
0.0
 10
81.49676278106824
 20
14.68709499423162
 30
0.0
 10
81.17076721729256
 20
14.50943943226755
 30
0.0
 10
81.01656076107386
 20
14.40576285333127
 30
0.0
 10
80.7401017358164
 20
14.17802156607108
 30
0.0
 10
80.61598338801217
 20
14.05315455757193
 30
0.0
 10
80.39667466516836
 20
13.78011724972655
 30
0.0
 10
80.30360036338222
 20
13.63411015032216
 30
0.0
 10
80.15395594456632
 20
13.32980729362523
 30
0.0
 10
80.09628837733396
 20
13.16925348686071
 30
0.0
 10
80.01921093819638
 20
12.83831408070384
 30
0.0
 10
80.00014287335402
 20
12.67077567319582
 30
0.0
 10
79.99999931257007
 20
12.3315316290656
 30
0.0
 10
80.01955479825327
 20
12.15803047835123
 30
0.0
 10
80.09624464435286
 20
11.82017330408115
 30
0.0
 10
80.152967535644
 20
11.6548330313863
 30
0.0
 10
80.30342380684017
 20
11.33173029252532
 30
0.0
 10
80.39733052360003
 20
11.17475859117117
 30
0.0
 10
80.61446815017483
 20
10.88255779006703
 30
0.0
 10
80.73855611822317
 20
10.74541213359501
 30
0.0
 10
81.0184707524144
 20
10.49102466870192
 30
0.0
 10
81.16984995077465
 20
10.37779398112867
 30
0.0
 10
81.49462328213302
 20
10.17878975452784
 30
0.0
 10
81.67010573067975
 20
10.09231399977726
 30
0.0
 10
82.03336682936998
 20
9.953572710685352
 30
0.0
 10
82.22039512358818
 20
9.901076638546009
 30
0.0
 10
82.60520404492846
 20
9.830001295070888
 30
0.0
 10
82.80418715223715
 20
9.811798970453895
 30
0.0
 10
83.00007089150725
 20
9.811798970453895
 30
0.0
  0
LINE
  5
CC
330
1F
100
AcDbEntity
  8
1
 62
     4
420
    65535
100
AcDbLine
 10
96.0740890621
 20
-24.8191457448
 30
0.0
 11
96.0740890621
 21
-15.0075483139
 31
0.0
  0
SPLINE
  5
CD
330
1F
100
AcDbEntity
  8
1
 62
     4
420
    65535
100
AcDbSpline
210
0.0
220
0.0
230
1.0
 70
    11
 71
     3
 72
    38
 73
    34
 74
     0
 42
0.00000001
 43
0.00000001
 12
1.0
 22
0.0
 32
0.0
 13
1.0
 23
0.0
 33
0.0
 40
0.0
 40
0.0
 40
0.0
 40
0.0
 40
0.0625
 40
0.0625
 40
0.125
 40
0.125
 40
0.1875
 40
0.1875
 40
0.25
 40
0.25
 40
0.3125
 40
0.3125
 40
0.375
 40
0.375
 40
0.4375
 40
0.4375
 40
0.5
 40
0.5
 40
0.5625
 40
0.5625
 40
0.625
 40
0.625
 40
0.6875
 40
0.6875
 40
0.75
 40
0.75
 40
0.8125
 40
0.8125
 40
0.875
 40
0.875
 40
0.9375
 40
0.9375
 40
1.0
 40
1.0
 40
1.0
 40
1.0
 10
83.00007089150726
 20
-24.81914574478546
 30
0.0
 10
82.80172460089747
 20
-24.81914574478546
 30
0.0
 10
82.60671159804069
 20
-24.82152194373521
 30
0.0
 10
82.2230715767276
 20
-24.83056472091975
 30
0.0
 10
82.03243935518547
 20
-24.83733884840306
 30
0.0
 10
81.66929520457464
 20
-24.8541354192595
 30
0.0
 10
81.4970619399955
 20
-24.86408179617062
 30
0.0
 10
81.17106250756542
 20
-24.88591550508347
 30
0.0
 10
81.0168934161584
 20
-24.89787125783986
 30
0.0
 10
80.74047318639931
 20
-24.92141192977257
 30
0.0
 10
80.61634318678185
 20
-24.93311446046751
 30
0.0
 10
80.39697277373591
 20
-24.95504257460757
 30
0.0
 10
80.30392496021788
 20
-24.96504768221273
 30
0.0
 10
80.15422155738054
 20
-24.9816583642775
 30
0.0
 10
80.09654110536468
 20
-24.98837610443494
 30
0.0
 10
80.0192660726288
 20
-24.9974728486545
 30
0.0
 10
79.99992524190465
 20
-24.99981593080617
 30
0.0
 10
80.00021817713912
 20
-24.99978077858747
 30
0.0
 10
80.01983740215447
 20
-24.99740525962005
 30
0.0
 10
80.09641146140062
 20
-24.9883917005846
 30
0.0
 10
80.15431134001943
 20
-24.98164641335617
 30
0.0
 10
80.30517447430778
 20
-24.96491104614995
 30
0.0
 10
80.39743514457896
 20
-24.95499753129418
 30
0.0
 10
80.61533805252566
 20
-24.93321376095773
 30
0.0
 10
80.74201507974081
 20
-24.92127154172955
 30
0.0
 10
81.01866419934699
 20
-24.89772963899632
 30
0.0
 10
81.16963781148083
 20
-24.8860137411222
 30
0.0
 10
81.49762918531627
 20
-24.86404099498164
 30
0.0
 10
81.67198054117658
 20
-24.85399975813706
 30
0.0
 10
82.03292896976699
 20
-24.83732775915636
 30
0.0
 10
82.22220203622021
 20
-24.83057777192709
 30
0.0
 10
82.6094958643533
 20
-24.82146379763257
 30
0.0
 10
82.80424508445302
 20
-24.81914574478546
 30
0.0
 10
83.00007089150724
 20
-24.81914574478546
 30
0.0
  0
LINE
  5
CE
330
1F
100
AcDbEntity
  8
1
 62
     4
420
    65535
100
AcDbLine
 10
96.0740890621
 20
-15.0075483139
 30
0.0
 11
96.0740890621
 21
-24.8191457448
 31
0.0
  0
SPLINE
  5
CF
330
1F
100
AcDbEntity
  8
1
 62
     4
420
    65535
100
AcDbSpline
210
0.0
220
0.0
230
1.0
 70
     8
 71
     3
 72
    38
 73
    34
 74
     0
 42
0.00000001
 43
0.00000001
 12
1.0
 22
0.0
 32
0.0
 13
1.0
 23
0.0
 33
0.0
 40
0.0
 40
0.0
 40
0.0
 40
0.0
 40
0.0625
 40
0.0625
 40
0.125
 40
0.125
 40
0.1875
 40
0.1875
 40
0.25
 40
0.25
 40
0.3125
 40
0.3125
 40
0.375
 40
0.375
 40
0.4375
 40
0.4375
 40
0.5
 40
0.5
 40
0.5625
 40
0.5625
 40
0.625
 40
0.625
 40
0.6875
 40
0.6875
 40
0.75
 40
0.75
 40
0.8125
 40
0.8125
 40
0.875
 40
0.875
 40
0.9375
 40
0.9375
 40
1.0
 40
1.0
 40
1.0
 40
1.0
 10
83.00007089150725
 20
-15.00754831394139
 30
0.0
 10
82.80166131642781
 20
-15.00754831394139
 30
0.0
 10
82.60660375804778
 20
-14.99185919216821
 30
0.0
 10
82.2229073668295
 20
-14.93028033325743
 30
0.0
 10
82.03226616888519
 20
-14.8836302196424
 30
0.0
 10
81.66901751286474
 20
-14.76154480652143
 30
0.0
 10
81.49676278106824
 20
-14.68669191501251
 30
0.0
 10
81.17076721729254
 20
-14.50903635304845
 30
0.0
 10
81.01656076107389
 20
-14.40535977411216
 30
0.0
 10
80.74010173581642
 20
-14.17761848685197
 30
0.0
 10
80.61598338801217
 20
-14.05275147835283
 30
0.0
 10
80.39667466516836
 20
-13.77971417050745
 30
0.0
 10
80.30360036338222
 20
-13.63370707110305
 30
0.0
 10
80.15395594456632
 20
-13.32940421440611
 30
0.0
 10
80.09628837733396
 20
-13.1688504076416
 30
0.0
 10
80.01921093819638
 20
-12.83791100148472
 30
0.0
 10
80.00014287335402
 20
-12.67037259397671
 30
0.0
 10
79.99999931257007
 20
-12.33112854984649
 30
0.0
 10
80.01955479825327
 20
-12.15762739913211
 30
0.0
 10
80.09624464435286
 20
-11.81977022486204
 30
0.0
 10
80.152967535644
 20
-11.65442995216718
 30
0.0
 10
80.30342380684017
 20
-11.3313272133062
 30
0.0
 10
80.39733052360003
 20
-11.17435551195205
 30
0.0
 10
80.61446815017483
 20
-10.88215471084791
 30
0.0
 10
80.73855611822317
 20
-10.74500905437589
 30
0.0
 10
81.0184707524144
 20
-10.4906215894828
 30
0.0
 10
81.16984995077465
 20
-10.37739090190955
 30
0.0
 10
81.49462328213302
 20
-10.17838667530871
 30
0.0
 10
81.67010573067975
 20
-10.09191092055813
 30
0.0
 10
82.03336682936998
 20
-9.953169631466226
 30
0.0
 10
82.22039512358818
 20
-9.900673559326886
 30
0.0
 10
82.60520404492846
 20
-9.829598215851759
 30
0.0
 10
82.80418715223715
 20
-9.811395891234769
 30
0.0
 10
83.00007089150725
 20
-9.811395891234767
 30
0.0
  0
LINE
  5
D0
330
1F
100
AcDbEntity
  8
1
 62
     4
420
    65535
100
AcDbLine
 10
96.0740890621
 20
9.8117989705
 30
0.0
 11
96.0740890621
 21
-9.8113958912
 31
0.0
  0
SPLINE
  5
D1
330
1F
100
AcDbEntity
  8
1
 62
     4
420
    65535
100
AcDbSpline
210
0.0
220
0.0
230
1.0
 70
     8
 71
     3
 72
    38
 73
    34
 74
     0
 42
0.00000001
 43
0.00000001
 12
1.0
 22
0.0
 32
0.0
 13
1.0
 23
0.0
 33
0.0
 40
0.0
 40
0.0
 40
0.0
 40
0.0
 40
0.0625
 40
0.0625
 40
0.125
 40
0.125
 40
0.1875
 40
0.1875
 40
0.25
 40
0.25
 40
0.3125
 40
0.3125
 40
0.375
 40
0.375
 40
0.4375
 40
0.4375
 40
0.5
 40
0.5
 40
0.5625
 40
0.5625
 40
0.625
 40
0.625
 40
0.6875
 40
0.6875
 40
0.75
 40
0.75
 40
0.8125
 40
0.8125
 40
0.875
 40
0.875
 40
0.9375
 40
0.9375
 40
1.0
 40
1.0
 40
1.0
 40
1.0
 10
83.00007089150725
 20
9.811798970453577
 30
0.0
 10
82.80166131642781
 20
9.811798970453578
 30
0.0
 10
82.60660375804778
 20
9.829865782877814
 30
0.0
 10
82.2229073668295
 20
9.900490848802143
 30
0.0
 10
82.03226616888519
 20
9.953916535370235
 30
0.0
 10
81.66901751286474
 20
10.0928066419293
 30
0.0
 10
81.49676278106824
 20
10.177609519748
 30
0.0
 10
81.17076721729256
 20
10.37710240924687
 30
0.0
 10
81.01656076107386
 20
10.49273941615013
 30
0.0
 10
80.7401017358164
 20
10.74402855814251
 30
0.0
 10
80.61598338801217
 20
10.88059905748731
 30
0.0
 10
80.39667466516836
 20
11.17556117620179
 30
0.0
 10
80.30360036338222
 20
11.33157729555849
 30
0.0
 10
80.15395594456632
 20
11.65248603614197
 30
0.0
 10
80.09628837733396
 20
11.8197567537083
 30
0.0
 10
80.01921093819638
 20
12.15977011168857
 30
0.0
 10
80.00014287335402
 20
12.32961876067033
 30
0.0
 10
79.99999931257007
 20
12.6688800320935
 30
0.0
 10
80.01955479825327
 20
12.84001300647474
 30
0.0
 10
80.09624464435286
 20
13.16884231244274
 30
0.0
 10
80.152967535644
 20
13.32757172079357
 30
0.0
 10
80.30342380684017
 20
13.63397501935441
 30
0.0
 10
80.39733052360003
 20
13.78085612221046
 30
0.0
 10
80.61446815017483
 20
14.05134545905521
 30
0.0
 10
80.73855611822317
 20
14.17676862561475
 30
0.0
 10
81.0184707524144
 20
14.40731593096958
 30
0.0
 10
81.16984995077465
 20
14.50881928420044
 30
0.0
 10
81.49462328213302
 20
14.68604819138228
 30
0.0
 10
81.67010573067975
 20
14.76238222501592
 30
0.0
 10
82.03336682936998
 20
14.88433421213422
 30
0.0
 10
82.22039512358818
 20
14.93017208001767
 30
0.0
 10
82.60520404492846
 20
14.9921446860559
 30
0.0
 10
82.80418715223715
 20
15.00795139316022
 30
0.0
 10
83.00007089150725
 20
15.00795139316022
 30
0.0
  0
LINE
  5
D2
330
1F
100
AcDbEntity
  8
1
 62
     4
420
    65535
100
AcDbLine
 10
96.0740890621
 20
24.819548824
 30
0.0
 11
83.0000708915
 21
24.819548824
 31
0.0
  0
LINE
  5
D3
330
1F
100
AcDbEntity
  8
1
 62
     4
420
    65535
100
AcDbLine
 10
96.0740890621
 20
24.819548824
 30
0.0
 11
96.0740890621
 21
15.0079513932
 31
0.0
  0
SPLINE
  5
D4
330
1F
100
AcDbEntity
  8
1
 62
     4
420
    65535
100
AcDbSpline
210
0.0
220
0.0
230
1.0
 70
    11
 71
     3
 72
    38
 73
    34
 74
     0
 42
0.00000001
 43
0.00000001
 12
1.0
 22
0.0
 32
0.0
 13
1.0
 23
0.0
 33
0.0
 40
0.0
 40
0.0
 40
0.0
 40
0.0
 40
0.0625
 40
0.0625
 40
0.125
 40
0.125
 40
0.1875000000000001
 40
0.1875000000000001
 40
0.2500000000000001
 40
0.2500000000000001
 40
0.3125000000000001
 40
0.3125000000000001
 40
0.3750000000000001
 40
0.3750000000000001
 40
0.4375000000000001
 40
0.4375000000000001
 40
0.5
 40
0.5
 40
0.5625
 40
0.5625
 40
0.625
 40
0.625
 40
0.6875
 40
0.6875
 40
0.75
 40
0.75
 40
0.8125000000000001
 40
0.8125000000000001
 40
0.8750000000000001
 40
0.8750000000000001
 40
0.9375000000000001
 40
0.9375000000000001
 40
1.0
 40
1.0
 40
1.0
 40
1.0
 10
83.00007089150725
 20
24.81954882400441
 30
0.0
 10
82.80170659385662
 20
24.81954882400441
 30
0.0
 10
82.60669279762081
 20
24.82192542993021
 30
0.0
 10
82.22308100892906
 20
24.83096761398178
 30
0.0
 10
82.03248204341371
 20
24.83774012272265
 30
0.0
 10
81.66929901421582
 20
24.85453815272531
 30
0.0
 10
81.49707315993952
 20
24.86448436891585
 30
0.0
 10
81.17112639977329
 20
24.88631406021996
 30
0.0
 10
81.01693379358022
 20
24.89827104448141
 30
0.0
 10
80.74048583603056
 20
24.92181378567399
 30
0.0
 10
80.61636709564219
 20
24.93351535199847
 30
0.0
 10
80.3970417714249
 20
24.95543855472602
 30
0.0
 10
80.30393892215189
 20
24.96544924877707
 30
0.0
 10
80.15423226815089
 20
24.98206021854098
 30
0.0
 10
80.0965272222469
 20
24.98878086504203
 30
0.0
 10
80.01934176778042
 20
24.99786697006849
 30
0.0
 10
80.00021346045905
 20
25.0001844238077
 30
0.0
 10
79.99992989529723
 20
25.00021845161834
 30
0.0
 10
80.01940373212376
 20
24.99786008600593
 30
0.0
 10
80.09592365952487
 20
24.98885150778964
 30
0.0
 10
80.15255523141093
 20
24.98225050958694
 30
0.0
 10
80.30280666295693
 20
24.96557074622196
 30
0.0
 10
80.39661612666195
 20
24.95548813749114
 30
0.0
 10
80.61354794585118
 20
24.93379021512827
 30
0.0
 10
80.73750170447661
 20
24.92207545714198
 30
0.0
 10
81.01722611207582
 20
24.89823868422401
 30
0.0
 10
81.16850802509464
 20
24.88651112468834
 30
0.0
 10
81.49307535393211
 20
24.86473084907032
 30
0.0
 10
81.66844132822933
 20
24.85458436403328
 30
0.0
 10
82.03154989793241
 20
24.83777672730066
 30
0.0
 10
82.21850055015013
 20
24.83110737016061
 30
0.0
 10
82.60314736535885
 20
24.82197787517457
 30
0.0
 10
82.80170696361218
 20
24.8195488240044
 30
0.0
 10
83.00007089150725
 20
24.8195488240044
 30
0.0
  0
LINE
  5
D5
330
1F
100
AcDbEntity
  8
1
 62
     4
420
    65535
100
AcDbLine
 10
99.8928912146
 20
19.1858421799
 30
0.0
 11
99.8928912146
 21
-19.1854391007
 31
0.0
  0
SPLINE
  5
D6
330
1F
100
AcDbEntity
  8
1
 62
     4
420
    65535
100
AcDbSpline
210
0.0
220
0.0
230
1.0
 70
     8
 71
     3
 72
     8
 73
     4
 74
     0
 42
0.00000001
 43
0.00000001
 12
1.0
 22
0.0
 32
0.0
 13
1.0
 23
0.0
 33
0.0
 40
0.0
 40
0.0
 40
0.0
 40
0.0
 40
1.0
 40
1.0
 40
1.0
 40
1.0
 10
98.15046965413724
 20
8.4021253282564
 30
0.0
 10
98.30648494438493
 20
10.13417613582526
 30
0.0
 10
98.30648494438493
 20
11.86622694339413
 30
0.0
 10
98.15046965413724
 20
13.598277750963
 30
0.0
  0
SPLINE
  5
D7
330
1F
100
AcDbEntity
  8
1
 62
     4
420
    65535
100
AcDbSpline
210
0.0
220
0.0
230
1.0
 70
     8
 71
     3
 72
     8
 73
     4
 74
     0
 42
0.00000001
 43
0.00000001
 12
1.0
 22
0.0
 32
0.0
 13
1.0
 23
0.0
 33
0.0
 40
0.000000266057425
 40
0.000000266057425
 40
0.000000266057425
 40
0.000000266057425
 40
0.0027847174673659
 40
0.0027847174673659
 40
0.0027847174673659
 40
0.0027847174673659
 10
98.15046965413721
 20
13.59827775096299
 30
0.0
 10
97.6895970213311
 20
14.00109896169271
 30
0.0
 10
97.22837948424014
 20
14.40382154526469
 30
0.0
 10
96.7669093851073
 20
14.8064717167942
 30
0.0
  0
SPLINE
  5
D8
330
1F
100
AcDbEntity
  8
1
 62
     4
420
    65535
100
AcDbSpline
210
0.0
220
0.0
230
1.0
 70
    27
 71
     3
 72
    12
 73
     8
 74
     0
 42
0.00000001
 43
0.00000001
 12
1.0
 22
0.0
 32
0.0
 13
1.0
 23
0.0
 33
0.0
 40
0.0
 40
0.0
 40
0.0
 40
0.0
 40
0.25
 40
0.25
 40
0.5
 40
0.5
 40
1.0
 40
1.0
 40
1.0
 40
1.0
 10
98.15046965413721
 20
22.00020153960947
 30
0.0
 10
98.18955394662403
 20
22.00020153960947
 30
0.0
 10
98.21916568099132
 20
22.00020153960948
 30
0.0
 10
98.2584192789053
 20
22.00020153960946
 30
0.0
 10
98.26814820503436
 20
22.00020153960947
 30
0.0
 10
98.26776000592551
 20
22.00020153960948
 30
0.0
 10
98.22794572459448
 20
22.00020153960947
 30
0.0
 10
98.15046965413721
 20
22.00020153960947
 30
0.0
  0
SPLINE
  5
D9
330
1F
100
AcDbEntity
  8
1
 62
     4
420
    65535
100
AcDbSpline
210
0.0
220
0.0
230
1.0
 70
     8
 71
     3
 72
     8
 73
     4
 74
     0
 42
0.00000001
 43
0.00000001
 12
1.0
 22
0.0
 32
0.0
 13
1.0
 23
0.0
 33
0.0
 40
0.0
 40
0.0
 40
0.0
 40
0.0
 40
1.0
 40
1.0
 40
1.0
 40
1.0
 10
98.15046965413721
 20
22.00020153960947
 30
0.0
 10
97.6895970025284
 20
22.8058439939375
 30
0.0
 10
97.22837942453113
 20
23.61128923240959
 30
0.0
 10
96.7669093851073
 20
24.41658947127184
 30
0.0
  0
LINE
  5
DA
330
1F
100
AcDbEntity
  8
1
 62
     4
420
    65535
100
AcDbLine
 10
96.7669093851
 20
24.4165894713
 30
0.0
 11
96.7669093851
 21
14.8064717168
 31
0.0
  0
SPLINE
  5
DB
330
1F
100
AcDbEntity
  8
1
 62
     4
420
    65535
100
AcDbSpline
210
0.0
220
0.0
230
1.0
 70
     8
 71
     3
 72
     8
 73
     4
 74
     0
 42
0.00000001
 43
0.00000001
 12
1.0
 22
0.0
 32
0.0
 13
1.0
 23
0.0
 33
0.0
 40
0.0000004022580618
 40
0.0000004022580618
 40
0.0000004022580618
 40
0.0000004022580618
 40
0.0027848536680027
 40
0.0027848536680027
 40
0.0027848536680027
 40
0.0027848536680027
 10
96.7669093851073
 20
14.80647171679394
 30
0.0
 10
97.22837948424014
 20
14.40382154526444
 30
0.0
 10
97.6895970213311
 20
14.00109896169246
 30
0.0
 10
98.15046965413721
 20
13.59827775096276
 30
0.0
  0
SPLINE
  5
DC
330
1F
100
AcDbEntity
  8
1
 62
     4
420
    65535
100
AcDbSpline
210
0.0
220
0.0
230
1.0
 70
     8
 71
     3
 72
    38
 73
    34
 74
     0
 42
0.00000001
 43
0.00000001
 12
1.0
 22
0.0
 32
0.0
 13
1.0
 23
0.0
 33
0.0
 40
0.0
 40
0.0
 40
0.0
 40
0.0
 40
0.0625
 40
0.0625
 40
0.125
 40
0.125
 40
0.1875
 40
0.1875
 40
0.25
 40
0.25
 40
0.3125
 40
0.3125
 40
0.375
 40
0.375
 40
0.4375
 40
0.4375
 40
0.5
 40
0.5
 40
0.5625
 40
0.5625
 40
0.625
 40
0.625
 40
0.6875
 40
0.6875
 40
0.75
 40
0.75
 40
0.8125
 40
0.8125
 40
0.875
 40
0.875
 40
0.9375
 40
0.9375
 40
1.0
 40
1.0
 40
1.0
 40
1.0
 10
83.00007089150725
 20
-9.811395891234463
 30
0.0
 10
82.80166131642781
 20
-9.81139589123446
 30
0.0
 10
82.60660375804778
 20
-9.829462703658693
 30
0.0
 10
82.2229073668295
 20
-9.900087769583019
 30
0.0
 10
82.03226616888519
 20
-9.953513456151114
 30
0.0
 10
81.66901751286474
 20
-10.09240356271018
 30
0.0
 10
81.49676278106824
 20
-10.17720644052888
 30
0.0
 10
81.17076721729254
 20
-10.37669933002775
 30
0.0
 10
81.01656076107389
 20
-10.49233633693101
 30
0.0
 10
80.74010173581642
 20
-10.74362547892339
 30
0.0
 10
80.61598338801217
 20
-10.88019597826819
 30
0.0
 10
80.39667466516836
 20
-11.17515809698267
 30
0.0
 10
80.30360036338222
 20
-11.33117421633938
 30
0.0
 10
80.15395594456632
 20
-11.65208295692285
 30
0.0
 10
80.09628837733396
 20
-11.81935367448919
 30
0.0
 10
80.01921093819638
 20
-12.15936703246946
 30
0.0
 10
80.00014287335402
 20
-12.32921568145122
 30
0.0
 10
79.99999931257007
 20
-12.66847695287438
 30
0.0
 10
80.01955479825327
 20
-12.83960992725563
 30
0.0
 10
80.09624464435286
 20
-13.16843923322363
 30
0.0
 10
80.152967535644
 20
-13.32716864157446
 30
0.0
 10
80.30342380684017
 20
-13.63357194013531
 30
0.0
 10
80.39733052360003
 20
-13.78045304299135
 30
0.0
 10
80.61446815017483
 20
-14.05094237983611
 30
0.0
 10
80.73855611822317
 20
-14.17636554639565
 30
0.0
 10
81.0184707524144
 20
-14.40691285175048
 30
0.0
 10
81.16984995077465
 20
-14.50841620498134
 30
0.0
 10
81.49462328213302
 20
-14.68564511216318
 30
0.0
 10
81.67010573067975
 20
-14.76197914579683
 30
0.0
 10
82.03336682936998
 20
-14.88393113291513
 30
0.0
 10
82.22039512358818
 20
-14.92976900079857
 30
0.0
 10
82.60520404492846
 20
-14.9917416068368
 30
0.0
 10
82.80418715223715
 20
-15.00754831394112
 30
0.0
 10
83.00007089150725
 20
-15.00754831394112
 30
0.0
  0
SPLINE
  5
DD
330
1F
100
AcDbEntity
  8
1
 62
     4
420
    65535
100
AcDbSpline
210
0.0
220
0.0
230
1.0
 70
     8
 71
     3
 72
     8
 73
     4
 74
     0
 42
0.00000001
 43
0.00000001
 12
1.0
 22
0.0
 32
0.0
 13
1.0
 23
0.0
 33
0.0
 40
0.000000266057425
 40
0.000000266057425
 40
0.000000266057425
 40
0.000000266057425
 40
0.0027847174673658
 40
0.0027847174673658
 40
0.0027847174673658
 40
0.0027847174673658
 10
98.15046965413721
 20
8.402125328256119
 30
0.0
 10
97.6895970213311
 20
8.804946538985824
 30
0.0
 10
97.22837948424014
 20
9.207669122557794
 30
0.0
 10
96.7669093851073
 20
9.610319294087297
 30
0.0
  0
LINE
  5
DE
330
1F
100
AcDbEntity
  8
1
 62
     4
420
    65535
100
AcDbLine
 10
96.7669093851
 20
9.6103192941
 30
0.0
 11
96.7669093851
 21
-9.6099162149
 31
0.0
  0
SPLINE
  5
DF
330
1F
100
AcDbEntity
  8
1
 62
     4
420
    65535
100
AcDbSpline
210
0.0
220
0.0
230
1.0
 70
     8
 71
     3
 72
     8
 73
     4
 74
     0
 42
0.00000001
 43
0.00000001
 12
1.0
 22
0.0
 32
0.0
 13
1.0
 23
0.0
 33
0.0
 40
0.0000004022580618
 40
0.0000004022580618
 40
0.0000004022580618
 40
0.0000004022580618
 40
0.0027848536680027
 40
0.0027848536680027
 40
0.0027848536680027
 40
0.0027848536680027
 10
96.7669093851073
 20
-9.60991621486848
 30
0.0
 10
97.22837948424014
 20
-9.207266043338972
 30
0.0
 10
97.6895970213311
 20
-8.804543459766993
 30
0.0
 10
98.15046965413721
 20
-8.401722249037283
 30
0.0
  0
SPLINE
  5
E0
330
1F
100
AcDbEntity
  8
1
 62
     4
420
    65535
100
AcDbSpline
210
0.0
220
0.0
230
1.0
 70
     8
 71
     3
 72
     8
 73
     4
 74
     0
 42
0.00000001
 43
0.00000001
 12
1.0
 22
0.0
 32
0.0
 13
1.0
 23
0.0
 33
0.0
 40
0.0
 40
0.0
 40
0.0
 40
0.0
 40
1.0
 40
1.0
 40
1.0
 40
1.0
 10
96.7669093851073
 20
24.41658947127184
 30
0.0
 10
97.22837942453113
 20
23.61128923240958
 30
0.0
 10
97.6895970025284
 20
22.80584399393749
 30
0.0
 10
98.15046965413721
 20
22.00020153960946
 30
0.0
  0
SPLINE
  5
E1
330
1F
100
AcDbEntity
  8
1
 62
     4
420
    65535
100
AcDbSpline
210
0.0
220
0.0
230
1.0
 70
     8
 71
     3
 72
     8
 73
     4
 74
     0
 42
0.00000001
 43
0.00000001
 12
1.0
 22
0.0
 32
0.0
 13
1.0
 23
0.0
 33
0.0
 40
0.000000266057425
 40
0.000000266057425
 40
0.000000266057425
 40
0.000000266057425
 40
0.0027847174673659
 40
0.0027847174673659
 40
0.0027847174673659
 40
0.0027847174673659
 10
98.15046965413721
 20
-13.5978746717439
 30
0.0
 10
97.6895970213311
 20
-14.00069588247362
 30
0.0
 10
97.22837948424014
 20
-14.40341846604559
 30
0.0
 10
96.7669093851073
 20
-14.8060686375751
 30
0.0
  0
LINE
  5
E2
330
1F
100
AcDbEntity
  8
1
 62
     4
420
    65535
100
AcDbLine
 10
96.7669093851
 20
-14.8060686376
 30
0.0
 11
96.7669093851
 21
-24.4161863921
 31
0.0
  0
SPLINE
  5
E3
330
1F
100
AcDbEntity
  8
1
 62
     4
420
    65535
100
AcDbSpline
210
0.0
220
0.0
230
1.0
 70
     8
 71
     3
 72
     8
 73
     4
 74
     0
 42
0.00000001
 43
0.00000001
 12
1.0
 22
0.0
 32
0.0
 13
1.0
 23
0.0
 33
0.0
 40
0.0
 40
0.0
 40
0.0
 40
0.0
 40
1.0
 40
1.0
 40
1.0
 40
1.0
 10
96.7669093851073
 20
-24.41618639205288
 30
0.0
 10
97.22837960490023
 20
-23.61088583843283
 30
0.0
 10
97.68959715282975
 20
-22.80544065197968
 30
0.0
 10
98.15046965413721
 20
-21.9997984603905
 30
0.0
  0
SPLINE
  5
E4
330
1F
100
AcDbEntity
  8
1
 62
     4
420
    65535
100
AcDbSpline
210
0.0
220
0.0
230
1.0
 70
    27
 71
     3
 72
    12
 73
     8
 74
     0
 42
0.00000001
 43
0.00000001
 12
1.0
 22
0.0
 32
0.0
 13
1.0
 23
0.0
 33
0.0
 40
0.0
 40
0.0
 40
0.0
 40
0.0
 40
0.5000000000000001
 40
0.5000000000000001
 40
0.7500000000000002
 40
0.7500000000000002
 40
1.0
 40
1.0
 40
1.0
 40
1.0
 10
98.15046965413721
 20
-21.9997984603905
 30
0.0
 10
98.22794572459446
 20
-21.9997984603905
 30
0.0
 10
98.2677600059255
 20
-21.9997984603905
 30
0.0
 10
98.26814820503436
 20
-21.9997984603905
 30
0.0
 10
98.25841927890531
 20
-21.9997984603905
 30
0.0
 10
98.21916568099132
 20
-21.99979846039051
 30
0.0
 10
98.18955394662407
 20
-21.9997984603905
 30
0.0
 10
98.15046965413723
 20
-21.9997984603905
 30
0.0
  0
SPLINE
  5
E5
330
1F
100
AcDbEntity
  8
1
 62
     4
420
    65535
100
AcDbSpline
210
0.0
220
0.0
230
1.0
 70
     8
 71
     3
 72
     8
 73
     4
 74
     0
 42
0.00000001
 43
0.00000001
 12
1.0
 22
0.0
 32
0.0
 13
1.0
 23
0.0
 33
0.0
 40
0.0
 40
0.0
 40
0.0
 40
0.0
 40
1.0
 40
1.0
 40
1.0
 40
1.0
 10
98.15046965413721
 20
-21.9997984603905
 30
0.0
 10
97.68959715282975
 20
-22.80544065197968
 30
0.0
 10
97.22837960490023
 20
-23.61088583843283
 30
0.0
 10
96.7669093851073
 20
-24.41618639205288
 30
0.0
  0
LINE
  5
E6
330
1F
100
AcDbEntity
  8
1
 62
     4
420
    65535
100
AcDbLine
 10
96.7669093851
 20
-24.4161863921
 30
0.0
 11
96.7669093851
 21
-14.8060686376
 31
0.0
  0
SPLINE
  5
E7
330
1F
100
AcDbEntity
  8
1
 62
     4
420
    65535
100
AcDbSpline
210
0.0
220
0.0
230
1.0
 70
     8
 71
     3
 72
     8
 73
     4
 74
     0
 42
0.00000001
 43
0.00000001
 12
1.0
 22
0.0
 32
0.0
 13
1.0
 23
0.0
 33
0.0
 40
0.0000004022580618
 40
0.0000004022580618
 40
0.0000004022580618
 40
0.0000004022580618
 40
0.0027848536680027
 40
0.0027848536680027
 40
0.0027848536680027
 40
0.0027848536680027
 10
96.7669093851073
 20
-14.80606863757484
 30
0.0
 10
97.22837948424014
 20
-14.40341846604534
 30
0.0
 10
97.6895970213311
 20
-14.00069588247337
 30
0.0
 10
98.15046965413721
 20
-13.59787467174367
 30
0.0
  0
SPLINE
  5
E8
330
1F
100
AcDbEntity
  8
1
 62
     4
420
    65535
100
AcDbSpline
210
0.0
220
0.0
230
1.0
 70
     8
 71
     3
 72
     8
 73
     4
 74
     0
 42
0.00000001
 43
0.00000001
 12
1.0
 22
0.0
 32
0.0
 13
1.0
 23
0.0
 33
0.0
 40
0.000000266057425
 40
0.000000266057425
 40
0.000000266057425
 40
0.000000266057425
 40
0.0027847174673659
 40
0.0027847174673659
 40
0.0027847174673659
 40
0.0027847174673659
 10
98.15046965413721
 20
-8.401722249037007
 30
0.0
 10
97.6895970213311
 20
-8.804543459766709
 30
0.0
 10
97.22837948424014
 20
-9.207266043338677
 30
0.0
 10
96.7669093851073
 20
-9.609916214868177
 30
0.0
  0
SPLINE
  5
E9
330
1F
100
AcDbEntity
  8
1
 62
     4
420
    65535
100
AcDbSpline
210
0.0
220
0.0
230
1.0
 70
     8
 71
     3
 72
     8
 73
     4
 74
     0
 42
0.00000001
 43
0.00000001
 12
1.0
 22
0.0
 32
0.0
 13
1.0
 23
0.0
 33
0.0
 40
0.0000004022580618
 40
0.0000004022580618
 40
0.0000004022580618
 40
0.0000004022580618
 40
0.0027848536680027
 40
0.0027848536680027
 40
0.0027848536680027
 40
0.0027848536680027
 10
96.7669093851073
 20
9.610319294087606
 30
0.0
 10
97.22837948424014
 20
9.207669122558094
 30
0.0
 10
97.6895970213311
 20
8.80494653898611
 30
0.0
 10
98.15046965413721
 20
8.402125328256396
 30
0.0
  0
SPLINE
  5
EA
330
1F
100
AcDbEntity
  8
1
 62
     4
420
    65535
100
AcDbSpline
210
0.0
220
0.0
230
1.0
 70
     8
 71
     3
 72
     8
 73
     4
 74
     0
 42
0.00000001
 43
0.00000001
 12
1.0
 22
0.0
 32
0.0
 13
1.0
 23
0.0
 33
0.0
 40
0.0
 40
0.0
 40
0.0
 40
0.0
 40
1.0
 40
1.0
 40
1.0
 40
1.0
 10
98.15046965413724
 20
-8.401722249037284
 30
0.0
 10
98.30648494438493
 20
-10.13377305660616
 30
0.0
 10
98.30648494438493
 20
-11.86582386417503
 30
0.0
 10
98.15046965413724
 20
-13.5978746717439
 30
0.0
  0
SPLINE
  5
EB
330
1F
100
AcDbEntity
  8
1
 62
     4
420
    65535
100
AcDbSpline
210
0.0
220
0.0
230
1.0
 70
     8
 71
     3
 72
    10
 73
     6
 74
     0
 42
0.00000001
 43
0.00000001
 12
1.0
 22
0.0
 32
0.0
 13
1.0
 23
0.0
 33
0.0
 40
0.0
 40
0.0
 40
0.0
 40
0.0
 40
0.5
 40
0.5
 40
1.0
 40
1.0
 40
1.0
 40
1.0
 10
96.7669093851073
 20
-24.41618639205288
 30
0.0
 10
96.6970286285558
 20
-24.53813361535055
 30
0.0
 10
96.596259150316
 20
-24.64007332487769
 30
0.0
 10
96.35239552971284
 20
-24.78201449047089
 30
0.0
 10
96.21325714964856
 20
-24.81914574478545
 30
0.0
 10
96.07408906207974
 20
-24.81914574478545
 30
0.0
  0
SPLINE
  5
EC
330
1F
100
AcDbEntity
  8
1
 62
     4
420
    65535
100
AcDbSpline
210
0.0
220
0.0
230
1.0
 70
     8
 71
     3
 72
     8
 73
     4
 74
     0
 42
0.00000001
 43
0.00000001
 12
1.0
 22
0.0
 32
0.0
 13
1.0
 23
0.0
 33
0.0
 40
0.0
 40
0.0
 40
0.0
 40
0.0
 40
1.0
 40
1.0
 40
1.0
 40
1.0
 10
98.15046965413723
 20
13.59827775096276
 30
0.0
 10
98.30648494438492
 20
11.86622694339388
 30
0.0
 10
98.30648494438493
 20
10.134176135825
 30
0.0
 10
98.15046965413724
 20
8.402125328256123
 30
0.0
  0
SPLINE
  5
ED
330
1F
100
AcDbEntity
  8
1
 62
     4
420
    65535
100
AcDbSpline
210
0.0
220
0.0
230
1.0
 70
     8
 71
     3
 72
    12
 73
     8
 74
     0
 42
0.00000001
 43
0.00000001
 12
1.0
 22
0.0
 32
0.0
 13
1.0
 23
0.0
 33
0.0
 40
0.0
 40
0.0
 40
0.0
 40
0.0
 40
0.5000000000000008
 40
0.5000000000000008
 40
0.7500000000000003
 40
0.7500000000000003
 40
1.0
 40
1.0
 40
1.0
 40
1.0
 10
96.76690938510728
 20
-14.8060686375751
 30
0.0
 10
96.69662298611252
 20
-14.8673961876474
 30
0.0
 10
96.594879264622
 20
-14.91840243223859
 30
0.0
 10
96.41419578029654
 20
-14.97100284535194
 30
0.0
 10
96.34823767643753
 20
-14.98477261205651
 30
0.0
 10
96.21372430036865
 20
-15.00291010451367
 30
0.0
 10
96.14478658979358
 20
-15.00754831394139
 30
0.0
 10
96.07408906207974
 20
-15.00754831394139
 30
0.0
  0
SPLINE
  5
EE
330
1F
100
AcDbEntity
  8
1
 62
     4
420
    65535
100
AcDbSpline
210
0.0
220
0.0
230
1.0
 70
     8
 71
     3
 72
     8
 73
     4
 74
     0
 42
0.00000001
 43
0.00000001
 12
1.0
 22
0.0
 32
0.0
 13
1.0
 23
0.0
 33
0.0
 40
0.0
 40
0.0
 40
0.0
 40
0.0
 40
1.0
 40
1.0
 40
1.0
 40
1.0
 10
98.15046965413724
 20
-13.59787467174367
 30
0.0
 10
98.30648494438493
 20
-11.86582386417478
 30
0.0
 10
98.30648494438493
 20
-10.13377305660589
 30
0.0
 10
98.15046965413724
 20
-8.401722249037006
 30
0.0
  0
SPLINE
  5
EF
330
1F
100
AcDbEntity
  8
1
 62
     4
420
    65535
100
AcDbSpline
210
0.0
220
0.0
230
1.0
 70
     8
 71
     3
 72
    10
 73
     6
 74
     0
 42
0.00000001
 43
0.00000001
 12
1.0
 22
0.0
 32
0.0
 13
1.0
 23
0.0
 33
0.0
 40
0.0
 40
0.0
 40
0.0
 40
0.0
 40
0.5
 40
0.5
 40
1.0
 40
1.0
 40
1.0
 40
1.0
 10
96.07408906207974
 20
-15.00754831394112
 30
0.0
 10
96.21530405499036
 20
-15.00754831394112
 30
0.0
 10
96.35409771077171
 20
-14.98850037034088
 30
0.0
 10
96.59478083968352
 20
-14.91842925622622
 30
0.0
 10
96.69670647054933
 20
-14.86732334430829
 30
0.0
 10
96.76690938510731
 20
-14.80606863757484
 30
0.0
  0
SPLINE
  5
F0
330
1F
100
AcDbEntity
  8
1
 62
     4
420
    65535
100
AcDbSpline
210
0.0
220
0.0
230
1.0
 70
     8
 71
     3
 72
    12
 73
     8
 74
     0
 42
0.00000001
 43
0.00000001
 12
1.0
 22
0.0
 32
0.0
 13
1.0
 23
0.0
 33
0.0
 40
0.0
 40
0.0
 40
0.0
 40
0.0
 40
0.4999999999999992
 40
0.4999999999999992
 40
0.7499999999999996
 40
0.7499999999999996
 40
1.0
 40
1.0
 40
1.0
 40
1.0
 10
96.7669093851073
 20
9.610319294087299
 30
0.0
 10
96.69662298611252
 20
9.6716468441596
 30
0.0
 10
96.59487926462202
 20
9.722653088750791
 30
0.0
 10
96.41419578029657
 20
9.775253501864142
 30
0.0
 10
96.34823767643752
 20
9.789023268568709
 30
0.0
 10
96.21372430036865
 20
9.807160761025868
 30
0.0
 10
96.14478658979361
 20
9.811798970453582
 30
0.0
 10
96.07408906207974
 20
9.811798970453582
 30
0.0
  0
SPLINE
  5
F1
330
1F
100
AcDbEntity
  8
1
 62
     4
420
    65535
100
AcDbSpline
210
0.0
220
0.0
230
1.0
 70
     8
 71
     3
 72
    10
 73
     6
 74
     0
 42
0.00000001
 43
0.00000001
 12
1.0
 22
0.0
 32
0.0
 13
1.0
 23
0.0
 33
0.0
 40
0.0
 40
0.0
 40
0.0
 40
0.0
 40
0.5
 40
0.5
 40
1.0
 40
1.0
 40
1.0
 40
1.0
 10
96.07408906207974
 20
15.00795139316022
 30
0.0
 10
96.21530405499034
 20
15.00795139316022
 30
0.0
 10
96.35409771077171
 20
14.98890344955998
 30
0.0
 10
96.59478083968352
 20
14.91883233544533
 30
0.0
 10
96.69670647054937
 20
14.86772642352737
 30
0.0
 10
96.76690938510731
 20
14.80647171679395
 30
0.0
  0
SPLINE
  5
F2
330
1F
100
AcDbEntity
  8
1
 62
     4
420
    65535
100
AcDbSpline
210
0.0
220
0.0
230
1.0
 70
     8
 71
     3
 72
    10
 73
     6
 74
     0
 42
0.00000001
 43
0.00000001
 12
1.0
 22
0.0
 32
0.0
 13
1.0
 23
0.0
 33
0.0
 40
0.0
 40
0.0
 40
0.0
 40
0.0
 40
0.5
 40
0.5
 40
1.0
 40
1.0
 40
1.0
 40
1.0
 10
96.76690938510728
 20
24.41658947127184
 30
0.0
 10
96.6970153148955
 20
24.53855992791697
 30
0.0
 10
96.59538500044387
 20
24.64082979896056
 30
0.0
 10
96.35459565475567
 20
24.7812915359027
 30
0.0
 10
96.21414802609416
 20
24.81954882400442
 30
0.0
 10
96.07408906207974
 20
24.81954882400442
 30
0.0
  0
LINE
  5
F3
330
1F
100
AcDbEntity
  8
1
 62
     4
420
    65535
100
AcDbLine
 10
77.5000708915
 20
23.0002015327
 30
0.0
 11
77.5000708915
 21
-22.9933823094
 31
0.0
  0
SPLINE
  5
F4
330
1F
100
AcDbEntity
  8
1
 62
     4
420
    65535
100
AcDbSpline
210
0.0
220
0.0
230
1.0
 70
     8
 71
     3
 72
    10
 73
     6
 74
     0
 42
0.00000001
 43
0.00000001
 12
1.0
 22
0.0
 32
0.0
 13
1.0
 23
0.0
 33
0.0
 40
0.0
 40
0.0
 40
0.0
 40
0.0
 40
0.5
 40
0.5
 40
1.0
 40
1.0
 40
1.0
 40
1.0
 10
96.07408906207974
 20
-24.81914574478545
 30
0.0
 10
96.21476355809844
 20
-24.81914574478545
 30
0.0
 10
96.35331413676943
 20
-24.78166246668819
 30
0.0
 10
96.59689012561914
 20
-24.63952224672409
 30
0.0
 10
96.6977089855405
 20
-24.53694634078124
 30
0.0
 10
96.7669093851073
 20
-24.41618639205289
 30
0.0
  0
LINE
  5
F5
330
1F
100
AcDbEntity
  8
1
 62
     4
420
    65535
100
AcDbLine
 10
86.7500708955
 20
19.2502015338
 30
0.0
 11
86.7500708955
 21
-19.2497984546
 31
0.0
  0
LINE
  5
F6
330
1F
100
AcDbEntity
  8
1
 62
     4
420
    65535
100
AcDbLine
 10
87.0000708954
 20
19.0002015339
 30
0.0
 11
87.0000708954
 21
-18.9933947955
 31
0.0
  0
LINE
  5
F7
330
1F
100
AcDbEntity
  8
1
 62
     4
420
    65535
100
AcDbLine
 10
88.0000708951
 20
19.0002015339
 30
0.0
 11
88.0000708951
 21
-18.9933947955
 31
0.0
  0
LINE
  5
F8
330
1F
100
AcDbEntity
  8
1
 62
     4
420
    65535
100
AcDbLine
 10
90.0259039194
 20
20.1698167758
 30
0.0
 11
90.0259039194
 21
-20.163043916
 31
0.0
  0
LINE
  5
F9
330
1F
100
AcDbEntity
  8
1
 62
     4
420
    65535
100
AcDbLine
 10
77.5000708915
 20
19.2502015338
 30
0.0
 11
77.5000708915
 21
-19.2497984546
 31
0.0
  0
LINE
  5
FA
330
1F
100
AcDbEntity
  8
1
 62
     4
420
    65535
100
AcDbLine
 10
92.0000708939
 20
19.6502015337
 30
0.0
 11
92.0000708939
 21
-19.6433893335
 31
0.0
  0
SPLINE
  5
FB
330
1F
100
AcDbEntity
  8
1
 62
     4
420
    65535
100
AcDbSpline
210
0.0
220
0.0
230
1.0
 70
     8
 71
     3
 72
    10
 73
     6
 74
     0
 42
0.00000001
 43
0.00000001
 12
1.0
 22
0.0
 32
0.0
 13
1.0
 23
0.0
 33
0.0
 40
0.0
 40
0.0
 40
0.0
 40
0.0
 40
0.5
 40
0.5
 40
1.0
 40
1.0
 40
1.0
 40
1.0
 10
96.07408906207974
 20
-9.811395891234765
 30
0.0
 10
96.21530405499034
 20
-9.811395891234767
 30
0.0
 10
96.3540977107717
 20
-9.792347947634527
 30
0.0
 10
96.59478083968355
 20
-9.722276833519873
 30
0.0
 10
96.69670647054939
 20
-9.67117092160191
 30
0.0
 10
96.76690938510731
 20
-9.609916214868484
 30
0.0
  0
LINE
  5
FC
330
1F
100
AcDbEntity
  8
1
 62
     4
420
    65535
100
AcDbLine
 10
92.0000708939
 20
15.0002015351
 30
0.0
 11
92.0000708939
 21
-14.9997984559
 31
0.0
  0
LINE
  5
FD
330
1F
100
AcDbEntity
  8
1
 62
     4
420
    65535
100
AcDbLine
 10
93.6000708934
 20
15.0002015351
 30
0.0
 11
93.6000708934
 21
-14.9997984559
 31
0.0
  0
LINE
  5
FE
330
1F
100
AcDbEntity
  8
1
 62
     4
420
    65535
100
AcDbLine
 10
93.6000708934
 20
16.5002015347
 30
0.0
 11
93.6000708934
 21
-16.4934221541
 31
0.0
  0
LINE
  5
FF
330
1F
100
AcDbEntity
  8
1
 62
     4
420
    65535
100
AcDbLine
 10
94.8000708931
 20
16.5002015347
 30
0.0
 11
94.8000708931
 21
-16.4934221541
 31
0.0
  0
LINE
  5
100
330
1F
100
AcDbEntity
  8
1
 62
     4
420
    65535
100
AcDbLine
 10
94.8000708931
 20
16.2902015347
 30
0.0
 11
94.8000708931
 21
-16.2897984555
 31
0.0
  0
LINE
  5
101
330
1F
100
AcDbEntity
  8
1
 62
     4
420
    65535
100
AcDbLine
 10
99.6324926448
 20
13.5002015355
 30
0.0
 11
99.6324926448
 21
-13.4997984563
 31
0.0
  0
LINE
  5
102
330
1F
100
AcDbEntity
  8
1
 62
     4
420
    65535
100
AcDbLine
 10
99.8000708916
 20
13.5002015355
 30
0.0
 11
99.8000708916
 21
-13.4997984563
 31
0.0
  0
LINE
  5
103
330
1F
100
AcDbEntity
  8
1
 62
     4
420
    65535
100
AcDbLine
 10
100.0000708915
 20
13.7002015355
 30
0.0
 11
100.0000708915
 21
-13.6934263619
 31
0.0
  0
LINE
  5
104
330
1F
100
AcDbEntity
  8
1
 62
     4
420
    65535
100
AcDbLine
 10
100.0000708915
 20
18.78584218
 30
0.0
 11
100.0000708915
 21
-18.7854391008
 31
0.0
  0
LINE
  5
105
330
1F
100
AcDbEntity
  8
1
 62
     4
420
    65535
100
AcDbLine
 10
83.0000708915
 20
24.819548824
 30
0.0
 11
83.0000708915
 21
22.0002015396
 31
0.0
  0
LINE
  5
106
330
1F
100
AcDbEntity
  8
1
 62
     4
420
    65535
100
AcDbLine
 10
83.0000708915
 20
22.0002015396
 30
0.0
 11
80.0000708915
 21
22.0002015396
 31
0.0
  0
LINE
  5
107
330
1F
100
AcDbEntity
  8
1
 62
     4
420
    65535
100
AcDbLine
 10
90.3259039193
 20
20.2502015335
 30
0.0
 11
90.3259039193
 21
-20.2434032873
 31
0.0
  0
LINE
  5
108
330
1F
100
AcDbEntity
  8
1
 62
     4
420
    65535
100
AcDbLine
 10
98.1504696541
 20
22.0002015396
 30
0.0
 11
83.0000708915
 21
22.0002015396
 31
0.0
  0
LINE
  5
109
330
1F
100
AcDbEntity
  8
1
 62
     4
420
    65535
100
AcDbLine
 10
91.4000708941
 20
20.2502015335
 30
0.0
 11
91.4000708941
 21
-20.2434032873
 31
0.0
  0
LINE
  5
10A
330
1F
100
AcDbEntity
  8
1
 62
     4
420
    65535
100
AcDbLine
 10
83.0000708915
 20
9.8117989705
 30
0.0
 11
83.0000708915
 21
8.4021253283
 31
0.0
  0
LWPOLYLINE
  5
10B
330
1F
100
AcDbEntity
  8
1
 62
     4
420
    65535
100
AcDbPolyline
 90
       25
 70
   128
 43
0.0
 10
83.0000708915
 20
13.598277751
 10
82.6084923148
 20
13.5760508488
 10
82.2236137562
 20
13.5097504508
 10
81.8520205944
 20
13.4005109752
 10
81.5000708915
 20
13.2502015396
 10
81.1737866045
 20
13.0613939802
 10
80.8787505479
 20
12.8373188467
 10
80.6200108706
 20
12.5818101267
 10
80.4019946802
 20
12.2992396453
 10
80.228432294
 20
11.9944422617
 10
80.1022934126
 20
11.6726331437
 10
80.0257363074
 20
11.3393185346
 10
80.0000708915
 20
11.0002015396
 10
80.0257363074
 20
10.6610845446
 10
80.1022934126
 20
10.3277699355
 10
80.228432294
 20
10.0059608175
 10
80.4019946802
 20
9.7011634339
 10
80.6200108706
 20
9.4185929525
 10
80.8787505479
 20
9.1630842325
 10
81.1737866045
 20
8.939009099
 10
81.5000708915
 20
8.7502015396
 10
81.8520205944
 20
8.599892104
 10
82.2236137562
 20
8.4906526284
 10
82.6084923148
 20
8.4243522304
 10
83.0000708915
 20
8.4021253283
  0
LINE
  5
10C
330
1F
100
AcDbEntity
  8
1
 62
     4
420
    65535
100
AcDbLine
 10
83.0000708915
 20
15.0079513932
 30
0.0
 11
83.0000708915
 21
13.598277751
 31
0.0
  0
LINE
  5
10D
330
1F
100
AcDbEntity
  8
1
 62
     4
420
    65535
100
AcDbLine
 10
83.0000708915
 20
8.4021253283
 30
0.0
 11
98.1504696541
 21
8.4021253283
 31
0.0
  0
LINE
  5
10E
330
1F
100
AcDbEntity
  8
1
 62
     4
420
    65535
100
AcDbLine
 10
98.1504696541
 20
13.598277751
 30
0.0
 11
83.0000708915
 21
13.598277751
 31
0.0
  0
LWPOLYLINE
  5
10F
330
1F
100
AcDbEntity
  8
1
 62
     4
420
    65535
100
AcDbPolyline
 90
       25
 70
   128
 43
0.0
 10
83.0000708915
 20
-8.401722249
 10
82.6084923148
 20
-8.4239491512
 10
82.2236137562
 20
-8.4902495492
 10
81.8520205944
 20
-8.5994890248
 10
81.5000708915
 20
-8.7497984604
 10
81.1737866045
 20
-8.9386060198
 10
80.8787505479
 20
-9.1626811533
 10
80.6200108706
 20
-9.4181898733
 10
80.4019946802
 20
-9.7007603547
 10
80.228432294
 20
-10.0055577383
 10
80.1022934126
 20
-10.3273668563
 10
80.0257363074
 20
-10.6606814654
 10
80.0000708915
 20
-10.9997984604
 10
80.0257363074
 20
-11.3389154554
 10
80.1022934126
 20
-11.6722300645
 10
80.228432294
 20
-11.9940391825
 10
80.4019946802
 20
-12.2988365661
 10
80.6200108706
 20
-12.5814070475
 10
80.8787505479
 20
-12.8369157675
 10
81.1737866045
 20
-13.060990901
 10
81.5000708915
 20
-13.2497984604
 10
81.8520205944
 20
-13.400107896
 10
82.2236137562
 20
-13.5093473716
 10
82.6084923148
 20
-13.5756477696
 10
83.0000708915
 20
-13.5978746717
  0
LINE
  5
110
330
1F
100
AcDbEntity
  8
1
 62
     4
420
    65535
100
AcDbLine
 10
83.0000708915
 20
-13.5978746717
 30
0.0
 11
98.1504696541
 21
-13.5978746717
 31
0.0
  0
LINE
  5
111
330
1F
100
AcDbEntity
  8
1
 62
     4
420
    65535
100
AcDbLine
 10
83.0000708915
 20
-9.8113958912
 30
0.0
 11
83.0000708915
 21
-8.401722249
 31
0.0
  0
LINE
  5
112
330
1F
100
AcDbEntity
  8
1
 62
     4
420
    65535
100
AcDbLine
 10
83.0000708915
 20
-24.8191457448
 30
0.0
 11
83.0000708915
 21
-21.9997984604
 31
0.0
  0
LINE
  5
113
330
1F
100
AcDbEntity
  8
1
 62
     4
420
    65535
100
AcDbLine
 10
83.0000708915
 20
-15.0075483139
 30
0.0
 11
83.0000708915
 21
-13.5978746717
 31
0.0
  0
LINE
  5
114
330
1F
100
AcDbEntity
  8
1
 62
     4
420
    65535
100
AcDbLine
 10
98.1504696541
 20
-8.401722249
 30
0.0
 11
83.0000708915
 21
-8.401722249
 31
0.0
  0
LINE
  5
115
330
1F
100
AcDbEntity
  8
1
 62
     4
420
    65535
100
AcDbLine
 10
83.0000708915
 20
-21.9997984604
 30
0.0
 11
80.0000708915
 21
-21.9997984604
 31
0.0
  0
LINE
  5
116
330
1F
100
AcDbEntity
  8
1
 62
     4
420
    65535
100
AcDbLine
 10
98.1504696541
 20
-21.9997984604
 30
0.0
 11
83.0000708915
 21
-21.9997984604
 31
0.0
  0
LWPOLYLINE
  5
117
330
1F
100
AcDbEntity
  8
1
 62
     4
420
    65535
100
AcDbPolyline
 90
       25
 70
   128
 43
0.0
 10
83.0000708915
 20
-13.5978746717
 10
82.6084923148
 20
-13.5756477696
 10
82.2236137562
 20
-13.5093473716
 10
81.8520205944
 20
-13.400107896
 10
81.5000708915
 20
-13.2497984604
 10
81.1737866045
 20
-13.060990901
 10
80.8787505479
 20
-12.8369157675
 10
80.6200108706
 20
-12.5814070475
 10
80.4019946802
 20
-12.2988365661
 10
80.228432294
 20
-11.9940391825
 10
80.1022934126
 20
-11.6722300645
 10
80.0257363074
 20
-11.3389154554
 10
80.0000708915
 20
-10.9997984604
 10
80.0257363074
 20
-10.6606814654
 10
80.1022934126
 20
-10.3273668563
 10
80.228432294
 20
-10.0055577383
 10
80.4019946802
 20
-9.7007603547
 10
80.6200108706
 20
-9.4181898733
 10
80.8787505479
 20
-9.1626811533
 10
81.1737866045
 20
-8.9386060198
 10
81.5000708915
 20
-8.7497984604
 10
81.8520205944
 20
-8.5994890248
 10
82.2236137562
 20
-8.4902495492
 10
82.6084923148
 20
-8.4239491512
 10
83.0000708915
 20
-8.401722249
  0
LWPOLYLINE
  5
118
330
1F
100
AcDbEntity
  8
1
 62
     4
420
    65535
100
AcDbPolyline
 90
       25
 70
   128
 43
0.0
 10
83.0000708915
 20
8.4021253283
 10
82.6084923148
 20
8.4243522304
 10
82.2236137562
 20
8.4906526284
 10
81.8520205944
 20
8.599892104
 10
81.5000708915
 20
8.7502015396
 10
81.1737866045
 20
8.939009099
 10
80.8787505479
 20
9.1630842325
 10
80.6200108706
 20
9.4185929525
 10
80.4019946802
 20
9.7011634339
 10
80.228432294
 20
10.0059608175
 10
80.1022934126
 20
10.3277699355
 10
80.0257363074
 20
10.6610845446
 10
80.0000708915
 20
11.0002015396
 10
80.0257363074
 20
11.3393185346
 10
80.1022934126
 20
11.6726331437
 10
80.228432294
 20
11.9944422617
 10
80.4019946802
 20
12.2992396453
 10
80.6200108706
 20
12.5818101267
 10
80.8787505479
 20
12.8373188467
 10
81.1737866045
 20
13.0613939802
 10
81.5000708915
 20
13.2502015396
 10
81.8520205944
 20
13.4005109752
 10
82.2236137562
 20
13.5097504508
 10
82.6084923148
 20
13.5760508488
 10
83.0000708915
 20
13.598277751
  0
LINE
  5
119
330
1F
100
AcDbEntity
  8
1
 62
     4
420
    65535
100
AcDbLine
 10
86.5696574459
 20
15.9267839029
 30
0.0
 11
86.5696574459
 21
-15.9263808237
 31
0.0
  0
LINE
  5
11A
330
1F
100
AcDbEntity
  8
1
 62
     4
420
    65535
100
AcDbLine
 10
87.0000708954
 20
-16.4311931896
 30
0.0
 11
87.0000708954
 21
16.4315962688
 31
0.0
  0
LINE
  5
11B
330
1F
100
AcDbEntity
  8
1
 62
     4
420
    65535
100
AcDbLine
 10
26.0000708915
 20
-7.9997984604
 30
0.0
 11
26.0000708915
 21
-31.497396819
 31
0.0
  0
LINE
  5
11C
330
1F
100
AcDbEntity
  8
1
 62
     4
420
    65535
100
AcDbLine
 10
26.0000708915
 20
-7.9997984604
 30
0.0
 11
26.0000708915
 21
8.0002015396
 31
0.0
  0
LINE
  5
11D
330
1F
100
AcDbEntity
  8
1
 62
     4
420
    65535
100
AcDbLine
 10
29.0000708915
 20
22.4969921972
 30
0.0
 11
29.0000708915
 21
-22.496589118
 31
0.0
  0
LINE
  5
11E
330
1F
100
AcDbEntity
  8
1
 62
     4
420
    65535
100
AcDbLine
 10
26.0000708915
 20
20.0002015396
 30
0.0
 11
26.0000708915
 21
8.0002015396
 31
0.0
  0
LINE
  5
11F
330
1F
100
AcDbEntity
  8
1
 62
     4
420
    65535
100
AcDbLine
 10
26.0000708915
 20
20.0002015396
 30
0.0
 11
26.0000708915
 21
24.3363885869
 31
0.0
  0
LINE
  5
120
330
1F
100
AcDbEntity
  8
1
 62
     4
420
    65535
100
AcDbLine
 10
26.0000708915
 20
-25.4965887161
 30
0.0
 11
26.0000708915
 21
25.4969917953
 31
0.0
  0
LINE
  5
121
330
1F
100
AcDbEntity
  8
1
 62
     4
420
    65535
100
AcDbLine
 10
26.0000708915
 20
-8.9997984604
 30
0.0
 11
26.0000708915
 21
9.0002015396
 31
0.0
  0
LINE
  5
122
330
1F
100
AcDbEntity
  8
1
 62
     4
420
    65535
100
AcDbLine
 10
26.0000708915
 20
-4.1997984604
 30
0.0
 11
26.0000708915
 21
4.2002015396
 31
0.0
  0
LINE
  5
123
330
1F
100
AcDbEntity
  8
1
 62
     4
420
    65535
100
AcDbLine
 10
26.0000708915
 20
-7.5240475714
 30
0.0
 11
26.0000708915
 21
7.5244506506
 31
0.0
  0
LINE
  5
124
330
1F
100
AcDbEntity
  8
1
 62
     4
420
    65535
100
AcDbLine
 10
14.6225718167
 20
-7.9997984604
 30
0.0
 11
14.6225718167
 21
-31.497396819
 31
0.0
  0
SPLINE
  5
125
330
1F
100
AcDbEntity
  8
1
 62
     4
420
    65535
100
AcDbSpline
210
0.0
220
0.0
230
1.0
 70
    24
 71
     3
 72
     8
 73
     4
 74
     0
 42
0.00000001
 43
0.00000001
 12
1.0
 22
0.0
 32
0.0
 13
1.0
 23
0.0
 33
0.0
 40
0.0
 40
0.0
 40
0.0
 40
0.0
 40
1.0
 40
1.0
 40
1.0
 40
1.0
 10
14.62257181674794
 20
-7.99979846039053
 30
0.0
 10
15.12460128777857
 20
-7.99979846039053
 30
0.0
 10
15.62554410024518
 20
-7.99979846039053
 30
0.0
 10
16.12507089150725
 20
-7.99979846039053
 30
0.0
  0
LINE
  5
126
330
1F
100
AcDbEntity
  8
1
 62
     4
420
    65535
100
AcDbLine
 10
26.0000708915
 20
9.0002015396
 30
0.0
 11
26.0000708915
 21
31.4994258436
 31
0.0
  0
SPLINE
  5
127
330
1F
100
AcDbEntity
  8
1
 62
     4
420
    65535
100
AcDbSpline
210
0.0
220
0.0
230
1.0
 70
    24
 71
     3
 72
     8
 73
     4
 74
     0
 42
0.00000001
 43
0.00000001
 12
1.0
 22
0.0
 32
0.0
 13
1.0
 23
0.0
 33
0.0
 40
0.0
 40
0.0
 40
0.0
 40
0.0
 40
1.0
 40
1.0
 40
1.0
 40
1.0
 10
16.12507089150725
 20
-8.999798460390528
 30
0.0
 10
15.62592717217064
 20
-8.999798460390528
 30
0.0
 10
15.12495096683512
 20
-8.999798460390528
 30
0.0
 10
14.62257181674794
 20
-8.999798460390528
 30
0.0
  0
LINE
  5
128
330
1F
100
AcDbEntity
  8
1
 62
     4
420
    65535
100
AcDbLine
 10
16.1250708915
 20
-7.9997984604
 30
0.0
 11
16.1250708915
 21
-28.8926578723
 31
0.0
  0
SPLINE
  5
129
330
1F
100
AcDbEntity
  8
1
 62
     4
420
    65535
100
AcDbSpline
210
0.0
220
0.0
230
1.0
 70
    24
 71
     3
 72
    14
 73
    10
 74
     0
 42
0.00000001
 43
0.00000001
 12
1.0
 22
0.0
 32
0.0
 13
1.0
 23
0.0
 33
0.0
 40
0.0
 40
0.0
 40
0.0
 40
0.0
 40
0.25
 40
0.25
 40
0.5
 40
0.5
 40
0.75
 40
0.75
 40
1.0
 40
1.0
 40
1.0
 40
1.0
 10
16.12507089150725
 20
-7.99979846039053
 30
0.0
 10
16.12507089150725
 20
-7.99979846039053
 30
0.0
 10
16.13789966918842
 20
-7.999798460390532
 30
0.0
 10
16.18776921160984
 20
-7.99979846039053
 30
0.0
 10
16.22494517291933
 20
-7.99979846039053
 30
0.0
 10
16.32314005774419
 20
-7.999798460390532
 30
0.0
 10
16.38269674591254
 20
-7.99979846039053
 30
0.0
 10
16.52298980849035
 20
-7.99979846039053
 30
0.0
 10
16.60377796674062
 20
-7.99979846039053
 30
0.0
 10
16.69096562066988
 20
-7.99979846039053
 30
0.0
  0
LINE
  5
12A
330
1F
100
AcDbEntity
  8
1
 62
     4
420
    65535
100
AcDbLine
 10
16.1250708915
 20
-7.9997984604
 30
0.0
 11
16.1250708915
 21
-28.6950237435
 31
0.0
  0
SPLINE
  5
12B
330
1F
100
AcDbEntity
  8
1
 62
     4
420
    65535
100
AcDbSpline
210
0.0
220
0.0
230
1.0
 70
     8
 71
     3
 72
    12
 73
     8
 74
     0
 42
0.00000001
 43
0.00000001
 12
1.0
 22
0.0
 32
0.0
 13
1.0
 23
0.0
 33
0.0
 40
0.0
 40
0.0
 40
0.0
 40
0.0
 40
0.5000000000000033
 40
0.5000000000000033
 40
0.7500000000000017
 40
0.7500000000000017
 40
1.0
 40
1.0
 40
1.0
 40
1.0
 10
16.69096562066987
 20
-7.999798460390523
 30
0.0
 10
16.75743719013104
 20
-7.856641456985943
 30
0.0
 10
16.83320225923467
 20
-7.716550037671105
 30
0.0
 10
16.98173116941477
 20
-7.529705174453557
 30
0.0
 10
17.03742334244838
 20
-7.471290644286578
 30
0.0
 10
17.16794838294504
 20
-7.380064390290677
 30
0.0
 10
17.24602171904064
 20
-7.34826768874007
 30
0.0
 10
17.32507089150725
 20
-7.34826768874007
 30
0.0
  0
LINE
  5
12C
330
1F
100
AcDbEntity
  8
1
 62
     4
420
    65535
100
AcDbLine
 10
17.3250708915
 20
-7.3482676887
 30
0.0
 11
17.3250708915
 21
-27.4997984604
 31
0.0
  0
SPLINE
  5
12D
330
1F
100
AcDbEntity
  8
1
 62
     4
420
    65535
100
AcDbSpline
210
0.0
220
0.0
230
1.0
 70
     8
 71
     3
 72
    14
 73
    10
 74
     0
 42
0.00000001
 43
0.00000001
 12
1.0
 22
0.0
 32
0.0
 13
1.0
 23
0.0
 33
0.0
 40
0.0
 40
0.0
 40
0.0
 40
0.0
 40
0.5000000000000003
 40
0.5000000000000003
 40
0.7500000000000008
 40
0.7500000000000008
 40
0.8750000000000003
 40
0.8750000000000003
 40
1.0
 40
1.0
 40
1.0
 40
1.0
 10
16.36015324778341
 20
-8.999798460390554
 30
0.0
 10
16.43687737843113
 20
-8.677098279618097
 30
0.0
 10
16.53085572711377
 20
-8.359581202724204
 30
0.0
 10
16.73538138075791
 20
-7.89845106836138
 30
0.0
 10
16.81226532895282
 20
-7.749756871185013
 30
0.0
 10
16.96494530320735
 20
-7.548229874929019
 30
0.0
 10
17.0221405617659
 20
-7.484851919601582
 30
0.0
 10
17.15905646803602
 20
-7.383866270795618
 30
0.0
 10
17.23968188459738
 20
-7.348267688740082
 30
0.0
 10
17.32507089150725
 20
-7.348267688740083
 30
0.0
  0
SPLINE
  5
12E
330
1F
100
AcDbEntity
  8
1
 62
     4
420
    65535
100
AcDbSpline
210
0.0
220
0.0
230
1.0
 70
    24
 71
     3
 72
    12
 73
     8
 74
     0
 42
0.00000001
 43
0.00000001
 12
1.0
 22
0.0
 32
0.0
 13
1.0
 23
0.0
 33
0.0
 40
0.0
 40
0.0
 40
0.0
 40
0.0
 40
0.5000000000000037
 40
0.5000000000000037
 40
0.7500000000000018
 40
0.7500000000000018
 40
1.0
 40
1.0
 40
1.0
 40
1.0
 10
19.30917616234462
 20
-7.99979846039053
 30
0.0
 10
19.48379160146384
 20
-7.99979846039053
 30
0.0
 10
19.62854690716013
 20
-7.999798460390529
 30
0.0
 10
19.77556256048373
 20
-7.99979846039053
 30
0.0
 10
19.8123925619951
 20
-7.999798460390532
 30
0.0
 10
19.8624368675939
 20
-7.999798460390527
 30
0.0
 10
19.87507089150724
 20
-7.999798460390527
 30
0.0
 10
19.87507089150725
 20
-7.99979846039053
 30
0.0
  0
LINE
  5
12F
330
1F
100
AcDbEntity
  8
1
 62
     4
420
    65535
100
AcDbLine
 10
19.8750708915
 20
-7.9997984604
 30
0.0
 11
19.8750708915
 21
-28.6950237435
 31
0.0
  0
SPLINE
  5
130
330
1F
100
AcDbEntity
  8
1
 62
     4
420
    65535
100
AcDbSpline
210
0.0
220
0.0
230
1.0
 70
    24
 71
     3
 72
    10
 73
     6
 74
     0
 42
0.00000001
 43
0.00000001
 12
1.0
 22
0.0
 32
0.0
 13
1.0
 23
0.0
 33
0.0
 40
0.0
 40
0.0
 40
0.0
 40
0.0
 40
0.5
 40
0.5
 40
1.0
 40
1.0
 40
1.0
 40
1.0
 10
16.36015324778338
 20
-8.999798460390528
 30
0.0
 10
16.28308951765489
 20
-8.999798460390528
 30
0.0
 10
16.22390721455697
 20
-8.99979846039053
 30
0.0
 10
16.14533544256917
 20
-8.999798460390526
 30
0.0
 10
16.12507089150729
 20
-8.999798460390528
 30
0.0
 10
16.12507089150722
 20
-8.999798460390528
 30
0.0
  0
SPLINE
  5
131
330
1F
100
AcDbEntity
  8
1
 62
     4
420
    65535
100
AcDbSpline
210
0.0
220
0.0
230
1.0
 70
     8
 71
     3
 72
    16
 73
    12
 74
     0
 42
0.00000001
 43
0.00000001
 12
1.0
 22
0.0
 32
0.0
 13
1.0
 23
0.0
 33
0.0
 40
0.0
 40
0.0
 40
0.0
 40
0.0
 40
0.1249999999999994
 40
0.1249999999999994
 40
0.2499999999999988
 40
0.2499999999999988
 40
0.4999999999999977
 40
0.4999999999999977
 40
0.7499999999999988
 40
0.7499999999999988
 40
1.0
 40
1.0
 40
1.0
 40
1.0
 10
18.67507089150713
 20
-7.348267688740164
 30
0.0
 10
18.75931468709333
 20
-7.348267688740136
 30
0.0
 10
18.8412742755696
 20
-7.384113285314739
 30
0.0
 10
18.9768239990694
 20
-7.483876770712082
 30
0.0
 10
19.0341336077278
 20
-7.54704482183611
 30
0.0
 10
19.18628573835054
 20
-7.747229394519747
 30
0.0
 10
19.26428367323377
 20
-7.897647060525708
 30
0.0
 10
19.39974837560273
 20
-8.202532118638885
 30
0.0
 10
19.45714480937602
 20
-8.360357404723434
 30
0.0
 10
19.55821739115588
 20
-8.678533350159732
 30
0.0
 10
19.6016983091013
 20
-8.838750524238199
 30
0.0
 10
19.63998853523108
 20
-8.999798460390528
 30
0.0
  0
LINE
  5
132
330
1F
100
AcDbEntity
  8
1
 62
     4
420
    65535
100
AcDbLine
 10
19.8750708915
 20
-7.9997984604
 30
0.0
 11
19.8750708915
 21
-28.8926578723
 31
0.0
  0
SPLINE
  5
133
330
1F
100
AcDbEntity
  8
1
 62
     4
420
    65535
100
AcDbSpline
210
0.0
220
0.0
230
1.0
 70
     8
 71
     3
 72
    12
 73
     8
 74
     0
 42
0.00000001
 43
0.00000001
 12
1.0
 22
0.0
 32
0.0
 13
1.0
 23
0.0
 33
0.0
 40
0.0
 40
0.0
 40
0.0
 40
0.0
 40
0.2500000000000012
 40
0.2500000000000012
 40
0.5000000000000023
 40
0.5000000000000023
 40
1.0
 40
1.0
 40
1.0
 40
1.0
 10
18.67507089150726
 20
-7.34826768874058
 30
0.0
 10
18.75420446015209
 20
-7.348267688740586
 30
0.0
 10
18.83240447899074
 20
-7.38024273907034
 30
0.0
 10
18.96221029397917
 20
-7.470904740130385
 30
0.0
 10
19.01802891471272
 20
-7.529299706359564
 30
0.0
 10
19.16637344119504
 20
-7.715689527634937
 30
0.0
 10
19.24275086496917
 20
-7.856741111216897
 30
0.0
 10
19.30917616234462
 20
-7.999798460390534
 30
0.0
  0
SPLINE
  5
134
330
1F
100
AcDbEntity
  8
1
 62
     4
420
    65535
100
AcDbSpline
210
0.0
220
0.0
230
1.0
 70
    24
 71
     3
 72
    10
 73
     6
 74
     0
 42
0.00000001
 43
0.00000001
 12
1.0
 22
0.0
 32
0.0
 13
1.0
 23
0.0
 33
0.0
 40
0.0
 40
0.0
 40
0.0
 40
0.0
 40
0.5
 40
0.5
 40
1.0
 40
1.0
 40
1.0
 40
1.0
 10
19.87507089150725
 20
-8.999798460390528
 30
0.0
 10
19.87507089150725
 20
-8.999798460390528
 30
0.0
 10
19.85498868918127
 20
-8.99979846039053
 30
0.0
 10
19.77564494156695
 20
-8.999798460390526
 30
0.0
 10
19.71604320554948
 20
-8.999798460390528
 30
0.0
 10
19.63998853523108
 20
-8.999798460390528
 30
0.0
  0
LINE
  5
135
330
1F
100
AcDbEntity
  8
1
 62
     4
420
    65535
100
AcDbLine
 10
21.3775699663
 20
-7.9997984604
 30
0.0
 11
21.3775699663
 21
-31.497396819
 31
0.0
  0
LINE
  5
136
330
1F
100
AcDbEntity
  8
1
 62
     4
420
    65535
100
AcDbLine
 10
18.6750708915
 20
-7.3482676887
 30
0.0
 11
18.6750708915
 21
-27.4997984604
 31
0.0
  0
LINE
  5
137
330
1F
100
AcDbEntity
  8
1
 62
     4
420
    65535
100
AcDbLine
 10
21.3775699663
 20
-7.9997984604
 30
0.0
 11
26.0000708915
 21
-7.9997984604
 31
0.0
  0
LINE
  5
138
330
1F
100
AcDbEntity
  8
1
 62
     4
420
    65535
100
AcDbLine
 10
26.0000708915
 20
-8.9997984604
 30
0.0
 11
21.3775699663
 21
-8.9997984604
 31
0.0
  0
SPLINE
  5
139
330
1F
100
AcDbEntity
  8
1
 62
     4
420
    65535
100
AcDbSpline
210
0.0
220
0.0
230
1.0
 70
    24
 71
     3
 72
     8
 73
     4
 74
     0
 42
0.00000001
 43
0.00000001
 12
1.0
 22
0.0
 32
0.0
 13
1.0
 23
0.0
 33
0.0
 40
0.0
 40
0.0
 40
0.0
 40
0.0
 40
1.0
 40
1.0
 40
1.0
 40
1.0
 10
21.37756996626656
 20
-8.999798460390526
 30
0.0
 10
20.87519081617937
 20
-8.999798460390526
 30
0.0
 10
20.37421461084386
 20
-8.999798460390528
 30
0.0
 10
19.87507089150724
 20
-8.999798460390528
 30
0.0
  0
LINE
  5
13A
330
1F
100
AcDbEntity
  8
1
 62
     4
420
    65535
100
AcDbLine
 10
18.6750708915
 20
7.348670768
 30
0.0
 11
17.3250708915
 21
7.348670768
 31
0.0
  0
SPLINE
  5
13B
330
1F
100
AcDbEntity
  8
1
 62
     4
420
    65535
100
AcDbSpline
210
0.0
220
0.0
230
1.0
 70
    24
 71
     3
 72
     8
 73
     4
 74
     0
 42
0.00000001
 43
0.00000001
 12
1.0
 22
0.0
 32
0.0
 13
1.0
 23
0.0
 33
0.0
 40
0.0
 40
0.0
 40
0.0
 40
0.0
 40
1.0
 40
1.0
 40
1.0
 40
1.0
 10
19.87507089150725
 20
-7.99979846039053
 30
0.0
 10
20.37459768276931
 20
-7.99979846039053
 30
0.0
 10
20.87554049523594
 20
-7.99979846039053
 30
0.0
 10
21.37756996626656
 20
-7.99979846039053
 30
0.0
  0
LINE
  5
13C
330
1F
100
AcDbEntity
  8
1
 62
     4
420
    65535
100
AcDbLine
 10
0.0000708915
 20
-31.4869525345
 30
0.0
 11
0.0000708915
 21
31.4873556137
 31
0.0
  0
LINE
  5
13D
330
1F
100
AcDbEntity
  8
1
 62
     4
420
    65535
100
AcDbLine
 10
14.6225718167
 20
8.0002015396
 30
0.0
 11
13.0000708915
 21
8.0002015396
 31
0.0
  0
LINE
  5
13E
330
1F
100
AcDbEntity
  8
1
 62
     4
420
    65535
100
AcDbLine
 10
18.6750708915
 20
7.348670768
 30
0.0
 11
18.6750708915
 21
27.5002015396
 31
0.0
  0
LINE
  5
13F
330
1F
100
AcDbEntity
  8
1
 62
     4
420
    65535
100
AcDbLine
 10
13.0000708915
 20
-7.9997984604
 30
0.0
 11
14.6225718167
 21
-7.9997984604
 31
0.0
  0
SPLINE
  5
140
330
1F
100
AcDbEntity
  8
1
 62
     4
420
    65535
100
AcDbSpline
210
0.0
220
0.0
230
1.0
 70
     8
 71
     3
 72
    50
 73
    46
 74
     0
 42
0.00000001
 43
0.00000001
 12
1.0
 22
0.0
 32
0.0
 13
1.0
 23
0.0
 33
0.0
 40
0.0
 40
0.0
 40
0.0
 40
0.0
 40
0.0624999999999996
 40
0.0624999999999996
 40
0.0937499999999995
 40
0.0937499999999995
 40
0.1249999999999994
 40
0.1249999999999994
 40
0.1874999999999993
 40
0.1874999999999993
 40
0.2187499999999993
 40
0.2187499999999993
 40
0.2499999999999993
 40
0.2499999999999993
 40
0.3124999999999993
 40
0.3124999999999993
 40
0.3749999999999993
 40
0.3749999999999993
 40
0.4062499999999993
 40
0.4062499999999993
 40
0.4374999999999993
 40
0.4374999999999993
 40
0.4999999999999993
 40
0.4999999999999993
 40
0.5624999999999993
 40
0.5624999999999993
 40
0.6249999999999994
 40
0.6249999999999994
 40
0.6562499999999994
 40
0.6562499999999994
 40
0.6874999999999994
 40
0.6874999999999994
 40
0.7187499999999996
 40
0.7187499999999996
 40
0.7499999999999996
 40
0.7499999999999996
 40
0.8124999999999996
 40
0.8124999999999996
 40
0.8749999999999997
 40
0.8749999999999997
 40
0.9374999999999997
 40
0.9374999999999997
 40
0.9687499999999999
 40
0.9687499999999999
 40
1.0
 40
1.0
 40
1.0
 40
1.0
 10
13.00007089150725
 20
8.000201539609472
 30
0.0
 10
12.46930106091251
 20
8.000201539609474
 30
0.0
 10
11.94785373454056
 20
7.947907397656417
 30
0.0
 10
11.17898505861464
 20
7.79455486282366
 30
0.0
 10
10.92492840385276
 20
7.730857367472446
 30
0.0
 10
10.42135473657654
 20
7.577765717182633
 30
0.0
 10
10.17167147327379
 20
7.488109615221814
 30
0.0
 10
9.446037800363092
 20
7.186528227047766
 30
0.0
 10
8.987501648517394
 20
6.940786796613791
 30
0.0
 10
8.33664382563687
 20
6.505626730263123
 30
0.0
 10
8.12483249223786
 20
6.348485902801948
 30
0.0
 10
7.719855385909136
 20
6.015846810077642
 30
0.0
 10
7.526948627211219
 20
5.840780854637607
 30
0.0
 10
6.9760723435493
 20
5.289925323936003
 30
0.0
 10
6.645663652037761
 20
4.888740914749347
 30
0.0
 10
6.060641467750074
 20
4.015251708661954
 30
0.0
 10
5.813470927941967
 20
3.553211115679515
 30
0.0
 10
5.513539687169409
 20
2.832095702085598
 30
0.0
 10
5.425132530954876
 20
2.586535064402214
 30
0.0
 10
5.271973876722895
 20
2.084746765244017
 30
0.0
 10
5.206978818524916
 20
1.826985548927358
 30
0.0
 10
5.052009337898802
 20
1.051873084707587
 30
0.0
 10
5.000544095530516
 20
0.531443900987903
 30
0.0
 10
4.999604121560683
 20
-0.5166919397974638
 30
0.0
 10
5.051909170716656
 20
-1.049200270171231
 30
0.0
 10
5.256673224922799
 20
-2.07689053233783
 30
0.0
 10
5.408221181104587
 20
-2.576654712919564
 30
0.0
 10
5.710095196063934
 20
-3.305149712940033
 30
0.0
 10
5.823476338025935
 20
-3.544500705385518
 30
0.0
 10
6.070362213159868
 20
-4.005739176872384
 30
0.0
 10
6.204384036293975
 20
-4.22900583193965
 30
0.0
 10
6.493232051582136
 20
-4.661193437961718
 30
0.0
 10
6.648058465297716
 20
-4.870114018201698
 30
0.0
 10
6.978800526392208
 20
-5.273538943725405
 30
0.0
 10
7.155737230645935
 20
-5.46901860369477
 30
0.0
 10
7.711134282363773
 20
-6.024876817231008
 30
0.0
 10
8.11241760059924
 20
-6.354434203862573
 30
0.0
 10
8.976420699257122
 20
-6.933829701648524
 30
0.0
 10
9.44466200095103
 20
-7.185349673092899
 30
0.0
 10
10.4096224793164
 20
-7.586804169706462
 30
0.0
 10
10.90813153807228
 20
-7.739287165253574
 30
0.0
 10
11.68055873150825
 20
-7.894598114428808
 30
0.0
 10
11.94328998014595
 20
-7.934111561834963
 30
0.0
 10
12.47024680364954
 20
-7.986624909130735
 30
0.0
 10
12.73467844888554
 20
-7.99979846039053
 30
0.0
 10
13.00007089150724
 20
-7.999798460390532
 30
0.0
  0
LINE
  5
141
330
1F
100
AcDbEntity
  8
1
 62
     4
420
    65535
100
AcDbLine
 10
14.6225718167
 20
-8.9997984604
 30
0.0
 11
14.0000708915
 21
-8.9997984604
 31
0.0
  0
LINE
  5
142
330
1F
100
AcDbEntity
  8
1
 62
     4
420
    65535
100
AcDbLine
 10
14.0000708915
 20
9.0002015396
 30
0.0
 11
14.6225718167
 21
9.0002015396
 31
0.0
  0
SPLINE
  5
143
330
1F
100
AcDbEntity
  8
1
 62
     4
420
    65535
100
AcDbSpline
210
0.0
220
0.0
230
1.0
 70
     8
 71
     3
 72
    50
 73
    46
 74
     0
 42
0.00000001
 43
0.00000001
 12
1.0
 22
0.0
 32
0.0
 13
1.0
 23
0.0
 33
0.0
 40
0.0
 40
0.0
 40
0.0
 40
0.0
 40
0.0625000000000003
 40
0.0625000000000003
 40
0.0937500000000004
 40
0.0937500000000004
 40
0.1250000000000005
 40
0.1250000000000005
 40
0.1875000000000007
 40
0.1875000000000007
 40
0.2187500000000007
 40
0.2187500000000007
 40
0.2500000000000007
 40
0.2500000000000007
 40
0.3125000000000007
 40
0.3125000000000007
 40
0.3750000000000007
 40
0.3750000000000007
 40
0.4062500000000007
 40
0.4062500000000007
 40
0.4375000000000007
 40
0.4375000000000007
 40
0.5000000000000006
 40
0.5000000000000006
 40
0.5625000000000004
 40
0.5625000000000004
 40
0.6250000000000003
 40
0.6250000000000003
 40
0.6562500000000003
 40
0.6562500000000003
 40
0.6875000000000002
 40
0.6875000000000002
 40
0.7187500000000002
 40
0.7187500000000002
 40
0.7500000000000001
 40
0.7500000000000001
 40
0.8125000000000001
 40
0.8125000000000001
 40
0.875
 40
0.875
 40
0.9374999999999999
 40
0.9374999999999999
 40
0.9687499999999999
 40
0.9687499999999999
 40
1.0
 40
1.0
 40
1.0
 40
1.0
 10
14.00007089150724
 20
-8.999798460390524
 30
0.0
 10
13.40223995658221
 20
-8.999798460390524
 30
0.0
 10
12.81505684054776
 20
-8.940829466127495
 30
0.0
 10
11.9494394942475
 20
-8.768007189042168
 30
0.0
 10
11.66344445293516
 20
-8.696230928667996
 30
0.0
 10
11.0966174446139
 20
-8.523748182817787
 30
0.0
 10
10.81578520199259
 20
-8.422809493726048
 30
0.0
 10
9.999750570350956
 20
-8.083399032456361
 30
0.0
 10
9.484196184185619
 20
-7.806934499226125
 30
0.0
 10
8.752399063726656
 20
-7.317452781496175
 30
0.0
 10
8.514236123745764
 20
-7.140682878260179
 30
0.0
 10
8.059438245520683
 20
-6.767035498797926
 30
0.0
 10
7.842743298059458
 20
-6.570373056474201
 30
0.0
 10
7.223761761548972
 20
-5.951451091230018
 30
0.0
 10
6.852256041080571
 20
-5.500559610288541
 30
0.0
 10
6.194008808017612
 20
-4.518097378447294
 30
0.0
 10
5.91640954108369
 20
-3.999481193031581
 30
0.0
 10
5.578757426427606
 20
-3.188409477808309
 30
0.0
 10
5.479172500703788
 20
-2.912102280703229
 30
0.0
 10
5.306574731463523
 20
-2.347211386040801
 30
0.0
 10
5.233309522225414
 20
-2.056935973865165
 30
0.0
 10
5.058723762662101
 20
-1.184699360297292
 30
0.0
 10
5.000640045274077
 20
-0.598759200663209
 30
0.0
 10
4.999509982408432
 20
0.5819341638651412
 30
0.0
 10
5.058493690335918
 20
1.181737172436693
 30
0.0
 10
5.289149057936336
 20
2.338506503801469
 30
0.0
 10
5.459865543499857
 20
2.901126486526119
 30
0.0
 10
5.80004984616371
 20
3.721393968034475
 30
0.0
 10
5.927538610072267
 20
3.990270594508988
 30
0.0
 10
6.205142681920759
 20
4.508585141863088
 30
0.0
 10
6.355846138032875
 20
4.759532379643313
 30
0.0
 10
6.680700700258418
 20
5.245410985378597
 30
0.0
 10
6.854851821291204
 20
5.480342024405841
 30
0.0
 10
7.22697517767032
 20
5.934110010902825
 30
0.0
 10
7.426096635214867
 20
6.154003822580134
 30
0.0
 10
8.049490144350544
 20
6.777831583564886
 30
0.0
 10
8.500189866867514
 20
7.148173935722583
 30
0.0
 10
9.471759334241852
 20
7.799983273807157
 30
0.0
 10
9.998385732491288
 20
8.082989273527396
 30
0.0
 10
11.08277524473827
 20
8.534504544120468
 30
0.0
 10
11.6436494301243
 20
8.706383421839101
 30
0.0
 10
12.51401206405416
 20
8.881598413349622
 30
0.0
 10
12.81017228549267
 20
8.926174319585312
 30
0.0
 10
13.4033786988766
 20
8.985345232879974
 30
0.0
 10
13.70113998851324
 20
9.000201539609476
 30
0.0
 10
14.00007089150725
 20
9.000201539609478
 30
0.0
  0
LINE
  5
144
330
1F
100
AcDbEntity
  8
1
 62
     4
420
    65535
100
AcDbLine
 10
14.6225718167
 20
24.3363885869
 30
0.0
 11
5.8883569879
 21
24.3363885869
 31
0.0
  0
LINE
  5
145
330
1F
100
AcDbEntity
  8
1
 62
     4
420
    65535
100
AcDbLine
 10
14.6225718167
 20
9.0002015396
 30
0.0
 11
14.6225718167
 21
31.4994258436
 31
0.0
  0
SPLINE
  5
146
330
1F
100
AcDbEntity
  8
1
 62
     4
420
    65535
100
AcDbSpline
210
0.0
220
0.0
230
1.0
 70
     8
 71
     3
 72
    22
 73
    18
 74
     0
 42
0.00000001
 43
0.00000001
 12
1.0
 22
0.0
 32
0.0
 13
1.0
 23
0.0
 33
0.0
 40
0.0
 40
0.0
 40
0.0
 40
0.0
 40
0.1250000000000001
 40
0.1250000000000001
 40
0.1875000000000001
 40
0.1875000000000001
 40
0.2500000000000002
 40
0.2500000000000002
 40
0.3750000000000002
 40
0.3750000000000002
 40
0.5000000000000002
 40
0.5000000000000002
 40
0.6250000000000003
 40
0.6250000000000003
 40
0.7500000000000003
 40
0.7500000000000003
 40
1.0
 40
1.0
 40
1.0
 40
1.0
 10
13.00007089150725
 20
20.00020153960947
 30
0.0
 10
12.57611361445599
 20
20.00020153960947
 30
0.0
 10
12.15989024090078
 20
20.03367693708663
 30
0.0
 10
11.54646800447149
 20
20.13064671809224
 30
0.0
 10
11.34382445203039
 20
20.17080389805461
 30
0.0
 10
10.94221203972474
 20
20.26664888613869
 30
0.0
 10
10.74245521726021
 20
20.32265955665419
 30
0.0
 10
10.16085428018185
 20
20.50989001307327
 30
0.0
 10
9.793050169129486
 20
20.66076841606276
 30
0.0
 10
9.094000550678917
 20
21.00771450127496
 30
0.0
 10
8.761164940244676
 20
21.20538906877215
 30
0.0
 10
8.150151177676861
 20
21.62712701102477
 30
0.0
 10
7.869248639845519
 20
21.85223223543655
 30
0.0
 10
7.351197927021894
 20
22.32454318358538
 30
0.0
 10
7.114715841986731
 20
22.57165966759258
 30
0.0
 10
6.480895504915645
 20
23.31765565734761
 30
0.0
 10
6.150410599667574
 20
23.82772443325539
 30
0.0
 10
5.888356987851437
 20
24.33638858688539
 30
0.0
  0
LINE
  5
147
330
1F
100
AcDbEntity
  8
1
 62
     4
420
    65535
100
AcDbLine
 10
14.6225718167
 20
20.0002015396
 30
0.0
 11
13.0000708915
 21
20.0002015396
 31
0.0
  0
LINE
  5
148
330
1F
100
AcDbEntity
  8
1
 62
     4
420
    65535
100
AcDbLine
 10
14.6225718167
 20
20.0002015396
 30
0.0
 11
14.6225718167
 21
8.0002015396
 31
0.0
  0
LINE
  5
149
330
1F
100
AcDbEntity
  8
1
 62
     4
420
    65535
100
AcDbLine
 10
16.1250708915
 20
20.0002015396
 30
0.0
 11
16.1250708915
 21
8.0002015396
 31
0.0
  0
LINE
  5
14A
330
1F
100
AcDbEntity
  8
1
 62
     4
420
    65535
100
AcDbLine
 10
17.3250708915
 20
7.348670768
 30
0.0
 11
17.3250708915
 21
27.5002015396
 31
0.0
  0
SPLINE
  5
14B
330
1F
100
AcDbEntity
  8
1
 62
     4
420
    65535
100
AcDbSpline
210
0.0
220
0.0
230
1.0
 70
    24
 71
     3
 72
     8
 73
     4
 74
     0
 42
0.00000001
 43
0.00000001
 12
1.0
 22
0.0
 32
0.0
 13
1.0
 23
0.0
 33
0.0
 40
0.0
 40
0.0
 40
0.0
 40
0.0
 40
1.0
 40
1.0
 40
1.0
 40
1.0
 10
16.12507089150725
 20
8.000201539609474
 30
0.0
 10
15.62554410024518
 20
8.000201539609474
 30
0.0
 10
15.12460128777857
 20
8.000201539609474
 30
0.0
 10
14.62257181674794
 20
8.000201539609474
 30
0.0
  0
SPLINE
  5
14C
330
1F
100
AcDbEntity
  8
1
 62
     4
420
    65535
100
AcDbSpline
210
0.0
220
0.0
230
1.0
 70
    24
 71
     3
 72
     8
 73
     4
 74
     0
 42
0.00000001
 43
0.00000001
 12
1.0
 22
0.0
 32
0.0
 13
1.0
 23
0.0
 33
0.0
 40
0.0
 40
0.0
 40
0.0
 40
0.0
 40
1.0
 40
1.0
 40
1.0
 40
1.0
 10
16.12507089150725
 20
20.00020153960948
 30
0.0
 10
15.63928968630228
 20
20.00020153960948
 30
0.0
 10
15.13701997363744
 20
20.00020153960947
 30
0.0
 10
14.62257181674794
 20
20.00020153960947
 30
0.0
  0
SPLINE
  5
14D
330
1F
100
AcDbEntity
  8
1
 62
     4
420
    65535
100
AcDbSpline
210
0.0
220
0.0
230
1.0
 70
    24
 71
     3
 72
    10
 73
     6
 74
     0
 42
0.00000001
 43
0.00000001
 12
1.0
 22
0.0
 32
0.0
 13
1.0
 23
0.0
 33
0.0
 40
0.0
 40
0.0
 40
0.0
 40
0.0
 40
0.5
 40
0.5
 40
1.0
 40
1.0
 40
1.0
 40
1.0
 10
16.69096562066987
 20
8.000201539609474
 30
0.0
 10
16.51497390240311
 20
8.000201539609474
 30
0.0
 10
16.37139389186244
 20
8.000201539609474
 30
0.0
 10
16.17661682529479
 20
8.000201539609474
 30
0.0
 10
16.12507089150724
 20
8.000201539609474
 30
0.0
 10
16.12507089150724
 20
8.000201539609474
 30
0.0
  0
SPLINE
  5
14E
330
1F
100
AcDbEntity
  8
1
 62
     4
420
    65535
100
AcDbSpline
210
0.0
220
0.0
230
1.0
 70
    24
 71
     3
 72
    10
 73
     6
 74
     0
 42
0.00000001
 43
0.00000001
 12
1.0
 22
0.0
 32
0.0
 13
1.0
 23
0.0
 33
0.0
 40
0.0
 40
0.0
 40
0.0
 40
0.0
 40
0.5
 40
0.5
 40
1.0
 40
1.0
 40
1.0
 40
1.0
 10
16.19938461002682
 20
20.00020153960948
 30
0.0
 10
16.17462226210856
 20
20.00020153960947
 30
0.0
 10
16.15617799641532
 20
20.00020153960948
 30
0.0
 10
16.13138629709396
 20
20.00020153960948
 30
0.0
 10
16.12507089150725
 20
20.00020153960948
 30
0.0
 10
16.12507089150725
 20
20.00020153960948
 30
0.0
  0
SPLINE
  5
14F
330
1F
100
AcDbEntity
  8
1
 62
     4
420
    65535
100
AcDbSpline
210
0.0
220
0.0
230
1.0
 70
     8
 71
     3
 72
    10
 73
     6
 74
     0
 42
0.00000001
 43
0.00000001
 12
1.0
 22
0.0
 32
0.0
 13
1.0
 23
0.0
 33
0.0
 40
0.0
 40
0.0
 40
0.0
 40
0.0
 40
0.5
 40
0.5
 40
1.0
 40
1.0
 40
1.0
 40
1.0
 10
16.19938461002687
 20
20.00020153960948
 30
0.0
 10
16.17472729198919
 20
20.09462244185282
 30
0.0
 10
16.15623668549226
 20
20.19073399231086
 30
0.0
 10
16.13134703551454
 20
20.38627208198404
 30
0.0
 10
16.12507089150725
 20
20.48547323902698
 30
0.0
 10
16.12507089150725
 20
20.58393297975415
 30
0.0
  0
LINE
  5
150
330
1F
100
AcDbEntity
  8
1
 62
     4
420
    65535
100
AcDbLine
 10
16.1250708915
 20
20.0002015396
 30
0.0
 11
16.1250708915
 21
8.0002015396
 31
0.0
  0
SPLINE
  5
151
330
1F
100
AcDbEntity
  8
1
 62
     4
420
    65535
100
AcDbSpline
210
0.0
220
0.0
230
1.0
 70
     8
 71
     3
 72
    12
 73
     8
 74
     0
 42
0.00000001
 43
0.00000001
 12
1.0
 22
0.0
 32
0.0
 13
1.0
 23
0.0
 33
0.0
 40
0.0
 40
0.0
 40
0.0
 40
0.0
 40
0.2499999999999983
 40
0.2499999999999983
 40
0.4999999999999967
 40
0.4999999999999967
 40
1.0
 40
1.0
 40
1.0
 40
1.0
 10
17.32507089150725
 20
7.348670767959063
 30
0.0
 10
17.24512575789836
 20
7.348670767959062
 30
0.0
 10
17.1676718887482
 20
7.380523804389336
 30
0.0
 10
17.03638718679148
 20
7.472556198526837
 30
0.0
 10
16.98120094711886
 20
7.53067180863659
 30
0.0
 10
16.8324077711475
 20
7.718161402503075
 30
0.0
 10
16.75753103459951
 20
7.856842427348433
 30
0.0
 10
16.69096562066987
 20
8.000201539609476
 30
0.0
  0
LINE
  5
152
330
1F
100
AcDbEntity
  8
1
 62
     4
420
    65535
100
AcDbLine
 10
19.8750708915
 20
20.0002015396
 30
0.0
 11
19.8750708915
 21
8.0002015396
 31
0.0
  0
LINE
  5
153
330
1F
100
AcDbEntity
  8
1
 62
     4
420
    65535
100
AcDbLine
 10
16.1250708915
 20
9.0002015396
 30
0.0
 11
16.1250708915
 21
28.7001172371
 31
0.0
  0
SPLINE
  5
154
330
1F
100
AcDbEntity
  8
1
 62
     4
420
    65535
100
AcDbSpline
210
0.0
220
0.0
230
1.0
 70
    24
 71
     3
 72
    12
 73
     8
 74
     0
 42
0.00000001
 43
0.00000001
 12
1.0
 22
0.0
 32
0.0
 13
1.0
 23
0.0
 33
0.0
 40
0.0
 40
0.0
 40
0.0
 40
0.0
 40
0.5000000000000019
 40
0.5000000000000019
 40
0.7500000000000009
 40
0.7500000000000009
 40
1.0
 40
1.0
 40
1.0
 40
1.0
 10
19.87507089150725
 20
8.000201539609472
 30
0.0
 10
19.87507089150725
 20
8.000201539609474
 30
0.0
 10
19.82364514400873
 20
8.000201539609472
 30
0.0
 10
19.67798438246124
 20
8.000201539609474
 30
0.0
 10
19.61697102411866
 20
8.000201539609472
 30
0.0
 10
19.47706924628438
 20
8.000201539609472
 30
0.0
 10
19.39746071816897
 20
8.000201539609474
 30
0.0
 10
19.30917616234462
 20
8.000201539609472
 30
0.0
  0
SPLINE
  5
155
330
1F
100
AcDbEntity
  8
1
 62
     4
420
    65535
100
AcDbSpline
210
0.0
220
0.0
230
1.0
 70
    24
 71
     3
 72
    10
 73
     6
 74
     0
 42
0.00000001
 43
0.00000001
 12
1.0
 22
0.0
 32
0.0
 13
1.0
 23
0.0
 33
0.0
 40
0.0
 40
0.0
 40
0.0
 40
0.0
 40
0.5
 40
0.5
 40
1.0
 40
1.0
 40
1.0
 40
1.0
 10
16.12507089150725
 20
9.000201539609474
 30
0.0
 10
16.12507089150725
 20
9.000201539609474
 30
0.0
 10
16.14515309383328
 20
9.000201539609476
 30
0.0
 10
16.22449684144783
 20
9.000201539609472
 30
0.0
 10
16.28409857746547
 20
9.000201539609474
 30
0.0
 10
16.36015324778408
 20
9.000201539609474
 30
0.0
  0
SPLINE
  5
156
330
1F
100
AcDbEntity
  8
1
 62
     4
420
    65535
100
AcDbSpline
210
0.0
220
0.0
230
1.0
 70
     8
 71
     3
 72
    14
 73
    10
 74
     0
 42
0.00000001
 43
0.00000001
 12
1.0
 22
0.0
 32
0.0
 13
1.0
 23
0.0
 33
0.0
 40
0.0
 40
0.0
 40
0.0
 40
0.0
 40
0.4999999999999989
 40
0.4999999999999989
 40
0.7499999999999983
 40
0.7499999999999983
 40
0.8749999999999991
 40
0.8749999999999991
 40
1.0
 40
1.0
 40
1.0
 40
1.0
 10
19.63998853523126
 20
9.000201539610226
 30
0.0
 10
19.56266725839494
 20
8.674989773742032
 30
0.0
 10
19.46650917453028
 20
8.352330837971117
 30
0.0
 10
19.2625562618271
 20
7.89459949237179
 30
0.0
 10
19.18467067280774
 20
7.744968727947889
 30
0.0
 10
19.03259411343896
 20
7.545698107326274
 30
0.0
 10
18.97534539261862
 20
7.482967941882309
 30
0.0
 10
18.84066204621768
 20
7.384292934103716
 30
0.0
 10
18.76060858971308
 20
7.34867076795901
 30
0.0
 10
18.67507089150722
 20
7.348670767959018
 30
0.0
  0
SPLINE
  5
157
330
1F
100
AcDbEntity
  8
1
 62
     4
420
    65535
100
AcDbSpline
210
0.0
220
0.0
230
1.0
 70
     8
 71
     3
 72
    14
 73
    10
 74
     0
 42
0.00000001
 43
0.00000001
 12
1.0
 22
0.0
 32
0.0
 13
1.0
 23
0.0
 33
0.0
 40
0.0
 40
0.0
 40
0.0
 40
0.0
 40
0.1249999999999997
 40
0.1249999999999997
 40
0.2499999999999994
 40
0.2499999999999994
 40
0.4999999999999989
 40
0.4999999999999989
 40
1.0
 40
1.0
 40
1.0
 40
1.0
 10
17.32507089150725
 20
7.348670767959017
 30
0.0
 10
17.24066875047189
 20
7.348670767959013
 30
0.0
 10
17.15914402723008
 20
7.384357269948977
 30
0.0
 10
17.02344957025355
 20
7.484138568058613
 30
0.0
 10
16.96603919223588
 20
7.547403521336117
 30
0.0
 10
16.81373237787128
 20
7.747802324939382
 30
0.0
 10
16.73576703845152
 20
7.898285563920988
 30
0.0
 10
16.53315640091654
 20
8.354202037675961
 30
0.0
 10
16.43713808861263
 20
8.676404816954008
 30
0.0
 10
16.36015324778347
 20
9.000201539609218
 30
0.0
  0
SPLINE
  5
158
330
1F
100
AcDbEntity
  8
1
 62
     4
420
    65535
100
AcDbSpline
210
0.0
220
0.0
230
1.0
 70
     8
 71
     3
 72
    10
 73
     6
 74
     0
 42
0.00000001
 43
0.00000001
 12
1.0
 22
0.0
 32
0.0
 13
1.0
 23
0.0
 33
0.0
 40
0.0
 40
0.0
 40
0.0
 40
0.0
 40
0.5
 40
0.5
 40
1.0
 40
1.0
 40
1.0
 40
1.0
 10
19.87507089150725
 20
20.58393297975415
 30
0.0
 10
19.87507089150725
 20
20.48489815793211
 30
0.0
 10
19.86874714921605
 20
20.38593961675681
 30
0.0
 10
19.84398406250343
 20
20.19131293310539
 30
0.0
 10
19.82555262945136
 20
20.09515141888075
 30
0.0
 10
19.80075717298773
 20
20.00020153960946
 30
0.0
  0
SPLINE
  5
159
330
1F
100
AcDbEntity
  8
1
 62
     4
420
    65535
100
AcDbSpline
210
0.0
220
0.0
230
1.0
 70
    24
 71
     3
 72
    10
 73
     6
 74
     0
 42
0.00000001
 43
0.00000001
 12
1.0
 22
0.0
 32
0.0
 13
1.0
 23
0.0
 33
0.0
 40
0.0
 40
0.0
 40
0.0
 40
0.0
 40
0.5
 40
0.5
 40
1.0
 40
1.0
 40
1.0
 40
1.0
 10
19.63998853523207
 20
9.000201539609474
 30
0.0
 10
19.71705226536032
 20
9.000201539609474
 30
0.0
 10
19.77623456845804
 20
9.000201539609476
 30
0.0
 10
19.85480634044551
 20
9.000201539609472
 30
0.0
 10
19.87507089150727
 20
9.000201539609474
 30
0.0
 10
19.87507089150727
 20
9.000201539609474
 30
0.0
  0
SPLINE
  5
15A
330
1F
100
AcDbEntity
  8
1
 62
     4
420
    65535
100
AcDbSpline
210
0.0
220
0.0
230
1.0
 70
    24
 71
     3
 72
    10
 73
     6
 74
     0
 42
0.00000001
 43
0.00000001
 12
1.0
 22
0.0
 32
0.0
 13
1.0
 23
0.0
 33
0.0
 40
0.0
 40
0.0
 40
0.0
 40
0.0
 40
0.5
 40
0.5
 40
1.0
 40
1.0
 40
1.0
 40
1.0
 10
19.87507089150725
 20
20.00020153960948
 30
0.0
 10
19.87507089150724
 20
20.00020153960948
 30
0.0
 10
19.86888054182676
 20
20.00020153960948
 30
0.0
 10
19.84425960905101
 20
20.00020153960948
 30
0.0
 10
19.82580933216174
 20
20.00020153960948
 30
0.0
 10
19.80075717298762
 20
20.00020153960948
 30
0.0
  0
LINE
  5
15B
330
1F
100
AcDbEntity
  8
1
 62
     4
420
    65535
100
AcDbLine
 10
19.8750708915
 20
20.0002015396
 30
0.0
 11
19.8750708915
 21
8.0002015396
 31
0.0
  0
LINE
  5
15C
330
1F
100
AcDbEntity
  8
1
 62
     4
420
    65535
100
AcDbLine
 10
19.8750708915
 20
9.0002015396
 30
0.0
 11
19.8750708915
 21
28.7001172371
 31
0.0
  0
SPLINE
  5
15D
330
1F
100
AcDbEntity
  8
1
 62
     4
420
    65535
100
AcDbSpline
210
0.0
220
0.0
230
1.0
 70
     8
 71
     3
 72
    12
 73
     8
 74
     0
 42
0.00000001
 43
0.00000001
 12
1.0
 22
0.0
 32
0.0
 13
1.0
 23
0.0
 33
0.0
 40
0.0
 40
0.0
 40
0.0
 40
0.0
 40
0.5
 40
0.5
 40
0.75
 40
0.75
 40
1.0
 40
1.0
 40
1.0
 40
1.0
 10
19.30917616234523
 20
8.000201539609174
 30
0.0
 10
19.24231710010259
 20
7.856210009415249
 30
0.0
 10
19.16591442639365
 20
7.715515266862475
 30
0.0
 10
19.01825571146599
 20
7.529988049746798
 30
0.0
 10
18.96251973295744
 20
7.471499988161775
 30
0.0
 10
18.83186516896374
 20
7.380293139771276
 30
0.0
 10
18.75528422417633
 20
7.348670767959016
 30
0.0
 10
18.67507089150725
 20
7.348670767959016
 30
0.0
  0
LINE
  5
15E
330
1F
100
AcDbEntity
  8
1
 62
     4
420
    65535
100
AcDbLine
 10
21.3775699663
 20
20.0002015396
 30
0.0
 11
21.3775699663
 21
8.0002015396
 31
0.0
  0
LINE
  5
15F
330
1F
100
AcDbEntity
  8
1
 62
     4
420
    65535
100
AcDbLine
 10
26.0000708915
 20
8.0002015396
 30
0.0
 11
21.3775699663
 21
8.0002015396
 31
0.0
  0
LINE
  5
160
330
1F
100
AcDbEntity
  8
1
 62
     4
420
    65535
100
AcDbLine
 10
26.0000708915
 20
20.0002015396
 30
0.0
 11
21.3775699663
 21
20.0002015396
 31
0.0
  0
LINE
  5
161
330
1F
100
AcDbEntity
  8
1
 62
     4
420
    65535
100
AcDbLine
 10
17.3250708915
 20
-7.3482676887
 30
0.0
 11
18.6750708915
 21
-7.3482676887
 31
0.0
  0
LINE
  5
162
330
1F
100
AcDbEntity
  8
1
 62
     4
420
    65535
100
AcDbLine
 10
-22.9999291085
 20
-6.2697984604
 30
0.0
 11
-30.859971279
 21
-6.2697984604
 31
0.0
  0
SPLINE
  5
163
330
1F
100
AcDbEntity
  8
1
 62
     4
420
    65535
100
AcDbSpline
210
0.0
220
0.0
230
1.0
 70
    24
 71
     3
 72
     8
 73
     4
 74
     0
 42
0.00000001
 43
0.00000001
 12
1.0
 22
0.0
 32
0.0
 13
1.0
 23
0.0
 33
0.0
 40
0.0
 40
0.0
 40
0.0
 40
0.0
 40
1.0
 40
1.0
 40
1.0
 40
1.0
 10
21.37756996626656
 20
8.000201539609472
 30
0.0
 10
20.87554049523593
 20
8.000201539609472
 30
0.0
 10
20.37459768276931
 20
8.000201539609472
 30
0.0
 10
19.87507089150725
 20
8.000201539609472
 30
0.0
  0
LINE
  5
164
330
1F
100
AcDbEntity
  8
1
 62
     4
420
    65535
100
AcDbLine
 10
-22.9999291085
 20
-6.2697984604
 30
0.0
 11
-31.4999291085
 21
-6.2697984604
 31
0.0
  0
SPLINE
  5
165
330
1F
100
AcDbEntity
  8
1
 62
     4
420
    65535
100
AcDbSpline
210
0.0
220
0.0
230
1.0
 70
    24
 71
     3
 72
     8
 73
     4
 74
     0
 42
0.00000001
 43
0.00000001
 12
1.0
 22
0.0
 32
0.0
 13
1.0
 23
0.0
 33
0.0
 40
0.0
 40
0.0
 40
0.0
 40
0.0
 40
1.0
 40
1.0
 40
1.0
 40
1.0
 10
21.37756996626657
 20
20.00020153960948
 30
0.0
 10
20.86259631906988
 20
20.00020153960948
 30
0.0
 10
20.36021312848747
 20
20.00020153960948
 30
0.0
 10
19.87507089150728
 20
20.00020153960948
 30
0.0
  0
LINE
  5
166
330
1F
100
AcDbEntity
  8
1
 62
     4
420
    65535
100
AcDbLine
 10
-22.9999291085
 20
6.2702015396
 30
0.0
 11
-30.859971279
 21
6.2702015396
 31
0.0
  0
SPLINE
  5
167
330
1F
100
AcDbEntity
  8
1
 62
     4
420
    65535
100
AcDbSpline
210
0.0
220
0.0
230
1.0
 70
    24
 71
     3
 72
     8
 73
     4
 74
     0
 42
0.00000001
 43
0.00000001
 12
1.0
 22
0.0
 32
0.0
 13
1.0
 23
0.0
 33
0.0
 40
0.0
 40
0.0
 40
0.0
 40
0.0
 40
1.0
 40
1.0
 40
1.0
 40
1.0
 10
-30.85997127901308
 20
-6.269798460390531
 30
0.0
 10
-31.07296177852857
 20
-6.269798460390531
 30
0.0
 10
-31.28629379099182
 20
-6.269798460390531
 30
0.0
 10
-31.49992910849276
 20
-6.269798460390531
 30
0.0
  0
LINE
  5
168
330
1F
100
AcDbEntity
  8
1
 62
     4
420
    65535
100
AcDbLine
 10
-22.9999291085
 20
6.2702015396
 30
0.0
 11
-31.4999291085
 21
6.2702015396
 31
0.0
  0
SPLINE
  5
169
330
1F
100
AcDbEntity
  8
1
 62
     4
420
    65535
100
AcDbSpline
210
0.0
220
0.0
230
1.0
 70
    24
 71
     3
 72
     8
 73
     4
 74
     0
 42
0.00000001
 43
0.00000001
 12
1.0
 22
0.0
 32
0.0
 13
1.0
 23
0.0
 33
0.0
 40
0.0
 40
0.0
 40
0.0
 40
0.0
 40
1.0
 40
1.0
 40
1.0
 40
1.0
 10
-30.85997127901308
 20
6.270201539609471
 30
0.0
 10
-31.07296177852856
 20
6.270201539609471
 30
0.0
 10
-31.28629379099181
 20
6.270201539609471
 30
0.0
 10
-31.49992910849274
 20
6.270201539609471
 30
0.0
  0
LINE
  5
16A
330
1F
100
AcDbEntity
  8
1
 62
     4
420
    65535
100
AcDbLine
 10
-31.9999291085
 20
6.7702015396
 30
0.0
 11
-31.9999291085
 21
7.3914427825
 31
0.0
  0
LINE
  5
16B
330
1F
100
AcDbEntity
  8
1
 62
     4
420
    65535
100
AcDbLine
 10
-31.9999291085
 20
7.3914427825
 30
0.0
 11
-31.9999291085
 21
21.5631671793
 31
0.0
  0
LINE
  5
16C
330
1F
100
AcDbEntity
  8
1
 62
     4
420
    65535
100
AcDbLine
 10
-31.9999291085
 20
6.7702015396
 30
0.0
 11
-31.9999291085
 21
18.126833234
 31
0.0
  0
LINE
  5
16D
330
1F
100
AcDbEntity
  8
1
 62
     4
420
    65535
100
AcDbLine
 10
-31.9999291085
 20
7.3914427825
 30
0.0
 11
-31.9999291085
 21
6.7702015396
 31
0.0
  0
LINE
  5
16E
330
1F
100
AcDbEntity
  8
1
 62
     4
420
    65535
100
AcDbLine
 10
-30.859971279
 20
9.1179188474
 30
0.0
 11
-30.859971279
 21
22.7747952038
 31
0.0
  0
SPLINE
  5
16F
330
1F
100
AcDbEntity
  8
1
 62
     4
420
    65535
100
AcDbSpline
210
0.0
220
0.0
230
1.0
 70
     8
 71
     3
 72
    16
 73
    12
 74
     0
 42
0.00000001
 43
0.00000001
 12
1.0
 22
0.0
 32
0.0
 13
1.0
 23
0.0
 33
0.0
 40
0.0
 40
0.0
 40
0.0
 40
0.0
 40
0.1250000000000023
 40
0.1250000000000023
 40
0.2500000000000047
 40
0.2500000000000047
 40
0.5000000000000028
 40
0.5000000000000028
 40
0.7500000000000009
 40
0.7500000000000009
 40
1.0
 40
1.0
 40
1.0
 40
1.0
 10
-30.85997127901456
 20
9.117918847368959
 30
0.0
 10
-30.95755259052617
 20
9.106013346087709
 30
0.0
 10
-31.04773688390187
 20
9.065944380430743
 30
0.0
 10
-31.2101467922604
 20
8.960757123139642
 30
0.0
 10
-31.28270421928013
 20
8.896165109893385
 30
0.0
 10
-31.48336845061478
 20
8.686854053814328
 30
0.0
 10
-31.59215056184429
 20
8.531112141165522
 30
0.0
 10
-31.78104312626058
 20
8.20518554145655
 30
0.0
 10
-31.85678422580381
 20
8.039899264594444
 30
0.0
 10
-31.96690098452261
 20
7.708614224942388
 30
0.0
 10
-31.99992910849278
 20
7.544950233889148
 30
0.0
 10
-31.99992910849277
 20
7.391442782529002
 30
0.0
  0
SPLINE
  5
170
330
1F
100
AcDbEntity
  8
1
 62
     4
420
    65535
100
AcDbSpline
210
0.0
220
0.0
230
1.0
 70
     8
 71
     3
 72
    16
 73
    12
 74
     0
 42
0.00000001
 43
0.00000001
 12
1.0
 22
0.0
 32
0.0
 13
1.0
 23
0.0
 33
0.0
 40
0.0
 40
0.0
 40
0.0
 40
0.0
 40
0.2499999999999981
 40
0.2499999999999981
 40
0.4999999999999962
 40
0.4999999999999962
 40
0.7499999999999943
 40
0.7499999999999943
 40
0.8749999999999971
 40
0.8749999999999971
 40
1.0
 40
1.0
 40
1.0
 40
1.0
 10
-31.99992910849275
 20
7.391442782529001
 30
0.0
 10
-31.99992910849275
 20
7.544661483212241
 30
0.0
 10
-31.96715695716933
 20
7.707721596771233
 30
0.0
 10
-31.85683499322701
 20
8.039868728599844
 30
0.0
 10
-31.78032981961897
 20
8.20634303381006
 30
0.0
 10
-31.59343624964225
 20
8.528966803835123
 30
0.0
 10
-31.48253732119302
 20
8.687762293998128
 30
0.0
 10
-31.2828549945193
 20
8.895987148221002
 30
0.0
 10
-31.20973259329227
 20
8.961083480362813
 30
0.0
 10
-31.04737880275993
 20
9.066117925213295
 30
0.0
 10
-30.95727180409497
 20
9.10604760370511
 30
0.0
 10
-30.85997127901359
 20
9.117918847369078
 30
0.0
  0
SPLINE
  5
171
330
1F
100
AcDbEntity
  8
1
 62
     4
420
    65535
100
AcDbSpline
210
0.0
220
0.0
230
1.0
 70
    24
 71
     3
 72
     8
 73
     4
 74
     0
 42
0.00000001
 43
0.00000001
 12
1.0
 22
0.0
 32
0.0
 13
1.0
 23
0.0
 33
0.0
 40
0.0
 40
0.0
 40
0.0
 40
0.0
 40
1.0
 40
1.0
 40
1.0
 40
1.0
 10
-31.49992910849274
 20
6.270201539609471
 30
0.0
 10
-31.28629684471182
 20
6.270201539609471
 30
0.0
 10
-31.07296494581267
 20
6.270201539609471
 30
0.0
 10
-30.85997127901306
 20
6.270201539609471
 30
0.0
  0
SPLINE
  5
172
330
1F
100
AcDbEntity
  8
1
 62
     4
420
    65535
100
AcDbSpline
210
0.0
220
0.0
230
1.0
 70
    24
 71
     3
 72
     8
 73
     4
 74
     0
 42
0.00000001
 43
0.00000001
 12
1.0
 22
0.0
 32
0.0
 13
1.0
 23
0.0
 33
0.0
 40
0.0000003146741683
 40
0.0000003146741683
 40
0.0000003146741683
 40
0.0000003146741683
 40
0.0007854644454701
 40
0.0007854644454701
 40
0.0007854644454701
 40
0.0007854644454701
 10
-31.49992910849274
 20
6.270201539609469
 30
0.0
 10
-31.66626920649326
 20
6.436541637609993
 30
0.0
 10
-31.83294391185736
 20
6.603216342974092
 30
0.0
 10
-31.99992910849274
 20
6.770201539609478
 30
0.0
  0
LINE
  5
173
330
1F
100
AcDbEntity
  8
1
 62
     4
420
    65535
100
AcDbLine
 10
-1.4566137947
 20
-23.9156149535
 30
0.0
 11
-1.4566137947
 21
23.9160180328
 31
0.0
  0
SPLINE
  5
174
330
1F
100
AcDbEntity
  8
1
 62
     4
420
    65535
100
AcDbSpline
210
0.0
220
0.0
230
1.0
 70
    24
 71
     3
 72
     8
 73
     4
 74
     0
 42
0.00000001
 43
0.00000001
 12
1.0
 22
0.0
 32
0.0
 13
1.0
 23
0.0
 33
0.0
 40
0.0000003134581145
 40
0.0000003134581145
 40
0.0000003134581145
 40
0.0000003134581145
 40
0.0007854632294164
 40
0.0007854632294164
 40
0.0007854632294164
 40
0.0007854632294164
 10
-31.99992910849274
 20
6.770201539609477
 30
0.0
 10
-31.83294391185736
 20
6.603216342974091
 30
0.0
 10
-31.66626920649326
 20
6.436541637609993
 30
0.0
 10
-31.49992910849274
 20
6.270201539609469
 30
0.0
  0
LINE
  5
175
330
1F
100
AcDbEntity
  8
1
 62
     4
420
    65535
100
AcDbLine
 10
-1.3013223677
 20
-23.8951704493
 30
0.0
 11
-1.3013223677
 21
23.8955735285
 31
0.0
  0
LINE
  5
176
330
1F
100
AcDbEntity
  8
1
 62
     4
420
    65535
100
AcDbLine
 10
-30.859971279
 20
6.2702015396
 30
0.0
 11
-30.859971279
 21
17.0002015396
 31
0.0
  0
LINE
  5
177
330
1F
100
AcDbEntity
  8
1
 62
     4
420
    65535
100
AcDbLine
 10
0.0000708915
 20
-26.0017482544
 30
0.0
 11
0.0000708915
 21
26.0021513336
 31
0.0
  0
LINE
  5
178
330
1F
100
AcDbEntity
  8
1
 62
     4
420
    65535
100
AcDbLine
 10
16.1250708915
 20
9.0002015396
 30
0.0
 11
16.1250708915
 21
28.8970104358
 31
0.0
  0
LINE
  5
179
330
1F
100
AcDbEntity
  8
1
 62
     4
420
    65535
100
AcDbLine
 10
-0.3940899497
 20
-23.8951704493
 30
0.0
 11
-0.3940899497
 21
23.8955735285
 31
0.0
  0
SPLINE
  5
17A
330
1F
100
AcDbEntity
  8
1
 62
     4
420
    65535
100
AcDbSpline
210
0.0
220
0.0
230
1.0
 70
     8
 71
     3
 72
     8
 73
     4
 74
     0
 42
0.00000001
 43
0.00000001
 12
1.0
 22
0.0
 32
0.0
 13
1.0
 23
0.0
 33
0.0
 40
0.0
 40
0.0
 40
0.0
 40
0.0
 40
1.0
 40
1.0
 40
1.0
 40
1.0
 10
16.12507089150725
 20
20.85855746842203
 30
0.0
 10
15.63920734450672
 20
22.02444477447129
 30
0.0
 10
15.13681827805283
 20
23.1834930490116
 30
0.0
 10
14.62257181674793
 20
24.33638858688541
 30
0.0
  0
LINE
  5
17B
330
1F
100
AcDbEntity
  8
1
 62
     4
420
    65535
100
AcDbLine
 10
16.1250708915
 20
20.5839329798
 30
0.0
 11
16.1250708915
 21
20.8585574684
 31
0.0
  0
LINE
  5
17C
330
1F
100
AcDbEntity
  8
1
 62
     4
420
    65535
100
AcDbLine
 10
0.2000708915
 20
-24.5754516178
 30
0.0
 11
0.2000708915
 21
24.575854697
 31
0.0
  0
LINE
  5
17D
330
1F
100
AcDbEntity
  8
1
 62
     4
420
    65535
100
AcDbLine
 10
19.8750708915
 20
20.8585574684
 30
0.0
 11
19.8750708915
 21
20.5839329798
 31
0.0
  0
LINE
  5
17E
330
1F
100
AcDbEntity
  8
1
 62
     4
420
    65535
100
AcDbLine
 10
19.8750708915
 20
9.0002015396
 30
0.0
 11
19.8750708915
 21
28.8970104358
 31
0.0
  0
LINE
  5
17F
330
1F
100
AcDbEntity
  8
1
 62
     4
420
    65535
100
AcDbLine
 10
21.3775699663
 20
9.0002015396
 30
0.0
 11
21.3775699663
 21
31.4994258436
 31
0.0
  0
SPLINE
  5
180
330
1F
100
AcDbEntity
  8
1
 62
     4
420
    65535
100
AcDbSpline
210
0.0
220
0.0
230
1.0
 70
    24
 71
     3
 72
     8
 73
     4
 74
     0
 42
0.00000001
 43
0.00000001
 12
1.0
 22
0.0
 32
0.0
 13
1.0
 23
0.0
 33
0.0
 40
0.0
 40
0.0
 40
0.0
 40
0.0
 40
1.0
 40
1.0
 40
1.0
 40
1.0
 10
14.62257181674794
 20
9.000201539609474
 30
0.0
 10
15.12495096683512
 20
9.000201539609474
 30
0.0
 10
15.62592717217064
 20
9.000201539609474
 30
0.0
 10
16.12507089150725
 20
9.000201539609474
 30
0.0
  0
LINE
  5
181
330
1F
100
AcDbEntity
  8
1
 62
     4
420
    65535
100
AcDbLine
 10
26.0000708915
 20
24.3363885869
 30
0.0
 11
21.3775699663
 21
24.3363885869
 31
0.0
  0
SPLINE
  5
182
330
1F
100
AcDbEntity
  8
1
 62
     4
420
    65535
100
AcDbSpline
210
0.0
220
0.0
230
1.0
 70
     8
 71
     3
 72
     8
 73
     4
 74
     0
 42
0.00000001
 43
0.00000001
 12
1.0
 22
0.0
 32
0.0
 13
1.0
 23
0.0
 33
0.0
 40
0.0
 40
0.0
 40
0.0
 40
0.0
 40
1.0
 40
1.0
 40
1.0
 40
1.0
 10
21.37756996626656
 20
24.33638858688539
 30
0.0
 10
20.8632856199763
 20
23.18340811419169
 30
0.0
 10
20.36063834855441
 20
22.02373427145003
 30
0.0
 10
19.87507089150725
 20
20.85855746842207
 30
0.0
  0
LINE
  5
183
330
1F
100
AcDbEntity
  8
1
 62
     4
420
    65535
100
AcDbLine
 10
21.3775699663
 20
9.0002015396
 30
0.0
 11
26.0000708915
 21
9.0002015396
 31
0.0
  0
SPLINE
  5
184
330
1F
100
AcDbEntity
  8
1
 62
     4
420
    65535
100
AcDbSpline
210
0.0
220
0.0
230
1.0
 70
    24
 71
     3
 72
     8
 73
     4
 74
     0
 42
0.00000001
 43
0.00000001
 12
1.0
 22
0.0
 32
0.0
 13
1.0
 23
0.0
 33
0.0
 40
0.0
 40
0.0
 40
0.0
 40
0.0
 40
1.0
 40
1.0
 40
1.0
 40
1.0
 10
19.87507089150724
 20
9.000201539609474
 30
0.0
 10
20.37421461084386
 20
9.000201539609474
 30
0.0
 10
20.87519081617937
 20
9.000201539609472
 30
0.0
 10
21.37756996626656
 20
9.000201539609472
 30
0.0
  0
LINE
  5
185
330
1F
100
AcDbEntity
  8
1
 62
     4
420
    65535
100
AcDbLine
 10
-31.9999291085
 20
-6.7697984604
 30
0.0
 11
-31.9999291085
 21
-7.3910397033
 31
0.0
  0
LINE
  5
186
330
1F
100
AcDbEntity
  8
1
 62
     4
420
    65535
100
AcDbLine
 10
-31.9999291085
 20
-7.3910397033
 30
0.0
 11
-31.9999291085
 21
-21.5627641
 31
0.0
  0
LINE
  5
187
330
1F
100
AcDbEntity
  8
1
 62
     4
420
    65535
100
AcDbLine
 10
-31.9999291085
 20
-6.7697984604
 30
0.0
 11
-31.9999291085
 21
-18.1264301548
 31
0.0
  0
LINE
  5
188
330
1F
100
AcDbEntity
  8
1
 62
     4
420
    65535
100
AcDbLine
 10
-31.9999291085
 20
-7.3910397033
 30
0.0
 11
-31.9999291085
 21
-6.7697984604
 31
0.0
  0
SPLINE
  5
189
330
1F
100
AcDbEntity
  8
1
 62
     4
420
    65535
100
AcDbSpline
210
0.0
220
0.0
230
1.0
 70
     8
 71
     3
 72
    16
 73
    12
 74
     0
 42
0.00000001
 43
0.00000001
 12
1.0
 22
0.0
 32
0.0
 13
1.0
 23
0.0
 33
0.0
 40
0.0
 40
0.0
 40
0.0
 40
0.0
 40
0.2499999999999981
 40
0.2499999999999981
 40
0.4999999999999962
 40
0.4999999999999962
 40
0.7499999999999943
 40
0.7499999999999943
 40
0.8749999999999971
 40
0.8749999999999971
 40
1.0
 40
1.0
 40
1.0
 40
1.0
 10
-31.99992910849275
 20
-7.391039703310055
 30
0.0
 10
-31.99992910849275
 20
-7.544258403993293
 30
0.0
 10
-31.96715695716933
 20
-7.707318517552286
 30
0.0
 10
-31.85683499322701
 20
-8.039465649380897
 30
0.0
 10
-31.78032981961897
 20
-8.205939954591111
 30
0.0
 10
-31.59343624964225
 20
-8.528563724616177
 30
0.0
 10
-31.48253732119302
 20
-8.687359214779182
 30
0.0
 10
-31.2828549945193
 20
-8.895584069002053
 30
0.0
 10
-31.20973259329227
 20
-8.960680401143867
 30
0.0
 10
-31.04737880275993
 20
-9.065714845994348
 30
0.0
 10
-30.95727180409497
 20
-9.105644524486163
 30
0.0
 10
-30.85997127901359
 20
-9.11751576815013
 30
0.0
  0
LINE
  5
18A
330
1F
100
AcDbEntity
  8
1
 62
     4
420
    65535
100
AcDbLine
 10
-30.859971279
 20
-9.1175157681
 30
0.0
 11
-30.859971279
 21
-22.7743921246
 31
0.0
  0
SPLINE
  5
18B
330
1F
100
AcDbEntity
  8
1
 62
     4
420
    65535
100
AcDbSpline
210
0.0
220
0.0
230
1.0
 70
     8
 71
     3
 72
    16
 73
    12
 74
     0
 42
0.00000001
 43
0.00000001
 12
1.0
 22
0.0
 32
0.0
 13
1.0
 23
0.0
 33
0.0
 40
0.0
 40
0.0
 40
0.0
 40
0.0
 40
0.1250000000000023
 40
0.1250000000000023
 40
0.2500000000000047
 40
0.2500000000000047
 40
0.5000000000000028
 40
0.5000000000000028
 40
0.7500000000000009
 40
0.7500000000000009
 40
1.0
 40
1.0
 40
1.0
 40
1.0
 10
-30.85997127901456
 20
-9.117515768150012
 30
0.0
 10
-30.95755259052617
 20
-9.105610266868762
 30
0.0
 10
-31.04773688390187
 20
-9.065541301211796
 30
0.0
 10
-31.2101467922604
 20
-8.960354043920695
 30
0.0
 10
-31.28270421928013
 20
-8.895762030674438
 30
0.0
 10
-31.48336845061478
 20
-8.68645097459538
 30
0.0
 10
-31.59215056184429
 20
-8.530709061946576
 30
0.0
 10
-31.78104312626058
 20
-8.204782462237604
 30
0.0
 10
-31.85678422580381
 20
-8.039496185375498
 30
0.0
 10
-31.96690098452261
 20
-7.708211145723442
 30
0.0
 10
-31.99992910849278
 20
-7.544547154670202
 30
0.0
 10
-31.99992910849277
 20
-7.391039703310056
 30
0.0
  0
LINE
  5
18C
330
1F
100
AcDbEntity
  8
1
 62
     4
420
    65535
100
AcDbLine
 10
-21.9999291085
 20
-10.5282238934
 30
0.0
 11
-21.9999291085
 21
-8.1531661874
 31
0.0
  0
LINE
  5
18D
330
1F
100
AcDbEntity
  8
1
 62
     4
420
    65535
100
AcDbLine
 10
-21.9999291085
 20
-12.2711742054
 30
0.0
 11
-21.9999291085
 21
-10.5282238934
 31
0.0
  0
LINE
  5
18E
330
1F
100
AcDbEntity
  8
1
 62
     4
420
    65535
100
AcDbLine
 10
-21.9999291085
 20
10.5286269727
 30
0.0
 11
-21.9999291085
 21
12.2715772846
 31
0.0
  0
LINE
  5
18F
330
1F
100
AcDbEntity
  8
1
 62
     4
420
    65535
100
AcDbLine
 10
-21.9999291085
 20
8.1535692666
 30
0.0
 11
-21.9999291085
 21
10.5286269727
 31
0.0
  0
LINE
  5
190
330
1F
100
AcDbEntity
  8
1
 62
     4
420
    65535
100
AcDbLine
 10
-21.9999291085
 20
-8.1531661874
 30
0.0
 11
-21.9999291085
 21
8.1535692666
 31
0.0
  0
LINE
  5
191
330
1F
100
AcDbEntity
  8
1
 62
     4
420
    65535
100
AcDbLine
 10
-21.9999291085
 20
12.2715772846
 30
0.0
 11
-23.39603441
 21
12.2397072272
 31
0.0
  0
SPLINE
  5
192
330
1F
100
AcDbEntity
  8
1
 62
     4
420
    65535
100
AcDbSpline
210
0.0
220
0.0
230
1.0
 70
     8
 71
     3
 72
    16
 73
    12
 74
     0
 42
0.00000001
 43
0.00000001
 12
1.0
 22
0.0
 32
0.0
 13
1.0
 23
0.0
 33
0.0
 40
0.0
 40
0.0
 40
0.0
 40
0.0
 40
0.2499999999999991
 40
0.2499999999999991
 40
0.4999999999999981
 40
0.4999999999999981
 40
0.6249999999999979
 40
0.6249999999999979
 40
0.7499999999999976
 40
0.7499999999999976
 40
1.0
 40
1.0
 40
1.0
 40
1.0
 10
-23.39603441000095
 20
12.23970722723625
 30
0.0
 10
-23.59354107459015
 20
12.1369167656891
 30
0.0
 10
-23.78636640298691
 20
12.02792842805877
 30
0.0
 10
-24.15749091637421
 20
11.79071979997575
 30
0.0
 10
-24.33633793011189
 20
11.66224678051867
 30
0.0
 10
-24.57935257702737
 20
11.44963669352038
 30
0.0
 10
-24.65630004968761
 20
11.3752817818472
 30
0.0
 10
-24.79879853961421
 20
11.21678361731274
 30
0.0
 10
-24.86484908998381
 20
11.13180700475979
 30
0.0
 10
-25.03147906124666
 20
10.86449940994184
 30
0.0
 10
-25.10154505358786
 20
10.66400467358392
 30
0.0
 10
-25.09862332129058
 20
10.45769417885941
 30
0.0
  0
SPLINE
  5
193
330
1F
100
AcDbEntity
  8
1
 62
     4
420
    65535
100
AcDbSpline
210
0.0
220
0.0
230
1.0
 70
     8
 71
     3
 72
    16
 73
    12
 74
     0
 42
0.00000001
 43
0.00000001
 12
1.0
 22
0.0
 32
0.0
 13
1.0
 23
0.0
 33
0.0
 40
0.0
 40
0.0
 40
0.0
 40
0.0
 40
0.1249999999999988
 40
0.1249999999999988
 40
0.2499999999999975
 40
0.2499999999999975
 40
0.4999999999999983
 40
0.4999999999999983
 40
0.7499999999999991
 40
0.7499999999999991
 40
1.0
 40
1.0
 40
1.0
 40
1.0
 10
-25.09862332129054
 20
10.45769417885937
 30
0.0
 10
-25.10008530374737
 20
10.56092825140989
 30
0.0
 10
-25.08413072254015
 20
10.66156135145254
 30
0.0
 10
-25.02208754240695
 20
10.85832736693485
 30
0.0
 10
-24.97607620364072
 20
10.95327600724911
 30
0.0
 10
-24.81023279658699
 20
11.21962249826132
 30
0.0
 10
-24.66057599811363
 20
11.37857104333803
 30
0.0
 10
-24.3361944084831
 20
11.66237676923001
 30
0.0
 10
-24.15845263733211
 20
11.79007215910673
 30
0.0
 10
-23.78665636274419
 20
12.02777593165334
 30
0.0
 10
-23.59363066411499
 20
12.13687013967448
 30
0.0
 10
-23.39603441000078
 20
12.23970722723622
 30
0.0
  0
LINE
  5
194
330
1F
100
AcDbEntity
  8
1
 62
     4
420
    65535
100
AcDbLine
 10
-23.39603441
 20
12.2397072272
 30
0.0
 11
-21.9999291085
 21
12.2715772846
 31
0.0
  0
LINE
  5
195
330
1F
100
AcDbEntity
  8
1
 62
     4
420
    65535
100
AcDbLine
 10
-21.9999291085
 20
12.2715772846
 30
0.0
 11
-21.9999291085
 21
10.5286269727
 31
0.0
  0
SPLINE
  5
196
330
1F
100
AcDbEntity
  8
1
 62
     4
420
    65535
100
AcDbSpline
210
0.0
220
0.0
230
1.0
 70
     8
 71
     3
 72
    18
 73
    14
 74
     0
 42
0.00000001
 43
0.00000001
 12
1.0
 22
0.0
 32
0.0
 13
1.0
 23
0.0
 33
0.0
 40
0.0
 40
0.0
 40
0.0
 40
0.0
 40
0.0312499999999998
 40
0.0312499999999998
 40
0.0624999999999995
 40
0.0624999999999995
 40
0.1249999999999991
 40
0.1249999999999991
 40
0.2499999999999981
 40
0.2499999999999981
 40
0.4999999999999981
 40
0.4999999999999981
 40
1.0
 40
1.0
 40
1.0
 40
1.0
 10
-25.0986233212905
 20
10.4576941788594
 30
0.0
 10
-25.09780710434158
 20
10.40005915093769
 30
0.0
 10
-25.1363764243881
 20
10.34767416481692
 30
0.0
 10
-25.22620133954069
 20
10.26550679633807
 30
0.0
 10
-25.27949208212613
 20
10.23179625381505
 30
0.0
 10
-25.44240682256137
 20
10.1419341889491
 30
0.0
 10
-25.55848310133514
 20
10.0954014359227
 30
0.0
 10
-25.91345064065163
 20
9.967876987910016
 30
0.0
 10
-26.15556886908851
 20
9.902418915509493
 30
0.0
 10
-26.88559219986837
 20
9.723218930192354
 30
0.0
 10
-27.37890352021751
 20
9.629737221362287
 30
0.0
 10
-28.8650424767581
 20
9.373637007584007
 30
0.0
 10
-29.86176047066306
 20
9.239706512167624
 30
0.0
 10
-30.85997127901306
 20
9.117918847364368
 30
0.0
  0
LINE
  5
197
330
1F
100
AcDbEntity
  8
1
 62
     4
420
    65535
100
AcDbLine
 10
-21.9999291085
 20
8.1535692666
 30
0.0
 11
-21.9999291085
 21
-8.1531661874
 31
0.0
  0
LINE
  5
198
330
1F
100
AcDbEntity
  8
1
 62
     4
420
    65535
100
AcDbLine
 10
-21.9999291085
 20
10.5286269727
 30
0.0
 11
-21.9999291085
 21
8.1535692666
 31
0.0
  0
SPLINE
  5
199
330
1F
100
AcDbEntity
  8
1
 62
     4
420
    65535
100
AcDbSpline
210
0.0
220
0.0
230
1.0
 70
     8
 71
     3
 72
    18
 73
    14
 74
     0
 42
0.00000001
 43
0.00000001
 12
1.0
 22
0.0
 32
0.0
 13
1.0
 23
0.0
 33
0.0
 40
0.0
 40
0.0
 40
0.0
 40
0.0
 40
0.4999999999999982
 40
0.4999999999999982
 40
0.7499999999999981
 40
0.7499999999999981
 40
0.8749999999999982
 40
0.8749999999999982
 40
0.9374999999999991
 40
0.9374999999999991
 40
0.9687499999999996
 40
0.9687499999999996
 40
1.0
 40
1.0
 40
1.0
 40
1.0
 10
-30.85997127901306
 20
9.117918847367424
 30
0.0
 10
-29.8610376683854
 20
9.239794698354423
 30
0.0
 10
-28.8633337121046
 20
9.373863548344243
 30
0.0
 10
-27.3762135538983
 20
9.63023485554096
 30
0.0
 10
-26.88157493559694
 20
9.723988033586691
 30
0.0
 10
-26.149994178429
 20
9.903897548422654
 30
0.0
 10
-25.90718823855839
 20
9.969797891968714
 30
0.0
 10
-25.55444695403321
 20
10.09702095460784
 30
0.0
 10
-25.43807374102844
 20
10.14387670330198
 30
0.0
 10
-25.27610864191512
 20
10.23389796388128
 30
0.0
 10
-25.22436356287923
 20
10.26682709629756
 30
0.0
 10
-25.13520142580243
 20
10.34912214512639
 30
0.0
 10
-25.09781872281735
 20
10.40087955925278
 30
0.0
 10
-25.09862332129056
 20
10.45769417885938
 30
0.0
  0
LINE
  5
19A
330
1F
100
AcDbEntity
  8
1
 62
     4
420
    65535
100
AcDbLine
 10
-21.9999291085
 20
-10.5282238934
 30
0.0
 11
-21.9999291085
 21
-12.2711742054
 31
0.0
  0
LINE
  5
19B
330
1F
100
AcDbEntity
  8
1
 62
     4
420
    65535
100
AcDbLine
 10
-21.9999291085
 20
-8.1531661874
 30
0.0
 11
-21.9999291085
 21
-10.5282238934
 31
0.0
  0
LINE
  5
19C
330
1F
100
AcDbEntity
  8
1
 62
     4
420
    65535
100
AcDbLine
 10
-21.9999291085
 20
-12.2711742054
 30
0.0
 11
-23.39603441
 21
-12.239304148
 31
0.0
  0
SPLINE
  5
19D
330
1F
100
AcDbEntity
  8
1
 62
     4
420
    65535
100
AcDbSpline
210
0.0
220
0.0
230
1.0
 70
     8
 71
     3
 72
    18
 73
    14
 74
     0
 42
0.00000001
 43
0.00000001
 12
1.0
 22
0.0
 32
0.0
 13
1.0
 23
0.0
 33
0.0
 40
0.0
 40
0.0
 40
0.0
 40
0.0
 40
0.4999999999999982
 40
0.4999999999999982
 40
0.7499999999999981
 40
0.7499999999999981
 40
0.8749999999999982
 40
0.8749999999999982
 40
0.9374999999999991
 40
0.9374999999999991
 40
0.9687499999999996
 40
0.9687499999999996
 40
1.0
 40
1.0
 40
1.0
 40
1.0
 10
-30.85997127901306
 20
-9.117515768148477
 30
0.0
 10
-29.8610376683854
 20
-9.239391619135477
 30
0.0
 10
-28.8633337121046
 20
-9.373460469125297
 30
0.0
 10
-27.3762135538983
 20
-9.629831776322014
 30
0.0
 10
-26.88157493559694
 20
-9.723584954367745
 30
0.0
 10
-26.149994178429
 20
-9.903494469203705
 30
0.0
 10
-25.90718823855839
 20
-9.969394812749766
 30
0.0
 10
-25.55444695403321
 20
-10.0966178753889
 30
0.0
 10
-25.43807374102844
 20
-10.14347362408304
 30
0.0
 10
-25.27610864191512
 20
-10.23349488466233
 30
0.0
 10
-25.22436356287923
 20
-10.26642401707861
 30
0.0
 10
-25.13520142580243
 20
-10.34871906590744
 30
0.0
 10
-25.09781872281735
 20
-10.40047648003383
 30
0.0
 10
-25.09862332129056
 20
-10.45729109964043
 30
0.0
  0
SPLINE
  5
19E
330
1F
100
AcDbEntity
  8
1
 62
     4
420
    65535
100
AcDbSpline
210
0.0
220
0.0
230
1.0
 70
     8
 71
     3
 72
    16
 73
    12
 74
     0
 42
0.00000001
 43
0.00000001
 12
1.0
 22
0.0
 32
0.0
 13
1.0
 23
0.0
 33
0.0
 40
0.0
 40
0.0
 40
0.0
 40
0.0
 40
0.1249999999999988
 40
0.1249999999999988
 40
0.2499999999999975
 40
0.2499999999999975
 40
0.4999999999999983
 40
0.4999999999999983
 40
0.7499999999999991
 40
0.7499999999999991
 40
1.0
 40
1.0
 40
1.0
 40
1.0
 10
-25.09862332129054
 20
-10.45729109964043
 30
0.0
 10
-25.10008530374737
 20
-10.56052517219094
 30
0.0
 10
-25.08413072254015
 20
-10.66115827223359
 30
0.0
 10
-25.02208754240695
 20
-10.8579242877159
 30
0.0
 10
-24.97607620364072
 20
-10.95287292803017
 30
0.0
 10
-24.81023279658699
 20
-11.21921941904237
 30
0.0
 10
-24.66057599811363
 20
-11.37816796411908
 30
0.0
 10
-24.3361944084831
 20
-11.66197369001106
 30
0.0
 10
-24.15845263733211
 20
-11.78966907988778
 30
0.0
 10
-23.78665636274419
 20
-12.0273728524344
 30
0.0
 10
-23.59363066411499
 20
-12.13646706045553
 30
0.0
 10
-23.39603441000078
 20
-12.23930414801727
 30
0.0
  0
LINE
  5
19F
330
1F
100
AcDbEntity
  8
1
 62
     4
420
    65535
100
AcDbLine
 10
-23.39603441
 20
-12.239304148
 30
0.0
 11
-21.9999291085
 21
-12.2711742054
 31
0.0
  0
LINE
  5
1A0
330
1F
100
AcDbEntity
  8
1
 62
     4
420
    65535
100
AcDbLine
 10
-2.4999291085
 20
-24.1951704493
 30
0.0
 11
-2.4999291085
 21
24.1955735285
 31
0.0
  0
SPLINE
  5
1A1
330
1F
100
AcDbEntity
  8
1
 62
     4
420
    65535
100
AcDbSpline
210
0.0
220
0.0
230
1.0
 70
     8
 71
     3
 72
    16
 73
    12
 74
     0
 42
0.00000001
 43
0.00000001
 12
1.0
 22
0.0
 32
0.0
 13
1.0
 23
0.0
 33
0.0
 40
0.0
 40
0.0
 40
0.0
 40
0.0
 40
0.2499999999999991
 40
0.2499999999999991
 40
0.4999999999999981
 40
0.4999999999999981
 40
0.6249999999999979
 40
0.6249999999999979
 40
0.7499999999999976
 40
0.7499999999999976
 40
1.0
 40
1.0
 40
1.0
 40
1.0
 10
-23.39603441000095
 20
-12.2393041480173
 30
0.0
 10
-23.59354107459015
 20
-12.13651368647015
 30
0.0
 10
-23.78636640298691
 20
-12.02752534883982
 30
0.0
 10
-24.15749091637421
 20
-11.79031672075681
 30
0.0
 10
-24.33633793011189
 20
-11.66184370129972
 30
0.0
 10
-24.57935257702737
 20
-11.44923361430143
 30
0.0
 10
-24.65630004968761
 20
-11.37487870262826
 30
0.0
 10
-24.79879853961421
 20
-11.21638053809379
 30
0.0
 10
-24.86484908998381
 20
-11.13140392554084
 30
0.0
 10
-25.03147906124666
 20
-10.86409633072289
 30
0.0
 10
-25.10154505358786
 20
-10.66360159436497
 30
0.0
 10
-25.09862332129058
 20
-10.45729109964046
 30
0.0
  0
SPLINE
  5
1A2
330
1F
100
AcDbEntity
  8
1
 62
     4
420
    65535
100
AcDbSpline
210
0.0
220
0.0
230
1.0
 70
    24
 71
     3
 72
     8
 73
     4
 74
     0
 42
0.00000001
 43
0.00000001
 12
1.0
 22
0.0
 32
0.0
 13
1.0
 23
0.0
 33
0.0
 40
0.0000003146741683
 40
0.0000003146741683
 40
0.0000003146741683
 40
0.0000003146741683
 40
0.0007854644454701
 40
0.0007854644454701
 40
0.0007854644454701
 40
0.0007854644454701
 10
-31.49992910849275
 20
-6.269798460390531
 30
0.0
 10
-31.66626920649328
 20
-6.436138558391053
 30
0.0
 10
-31.83294391185737
 20
-6.602813263755149
 30
0.0
 10
-31.99992910849275
 20
-6.769798460390534
 30
0.0
  0
SPLINE
  5
1A3
330
1F
100
AcDbEntity
  8
1
 62
     4
420
    65535
100
AcDbSpline
210
0.0
220
0.0
230
1.0
 70
    24
 71
     3
 72
     8
 73
     4
 74
     0
 42
0.00000001
 43
0.00000001
 12
1.0
 22
0.0
 32
0.0
 13
1.0
 23
0.0
 33
0.0
 40
0.0000003134581145
 40
0.0000003134581145
 40
0.0000003134581145
 40
0.0000003134581145
 40
0.0007854632294163
 40
0.0007854632294163
 40
0.0007854632294163
 40
0.0007854632294163
 10
-31.99992910849275
 20
-6.769798460390533
 30
0.0
 10
-31.83294391185737
 20
-6.602813263755148
 30
0.0
 10
-31.66626920649328
 20
-6.436138558391051
 30
0.0
 10
-31.49992910849275
 20
-6.269798460390529
 30
0.0
  0
SPLINE
  5
1A4
330
1F
100
AcDbEntity
  8
1
 62
     4
420
    65535
100
AcDbSpline
210
0.0
220
0.0
230
1.0
 70
    24
 71
     3
 72
     8
 73
     4
 74
     0
 42
0.00000001
 43
0.00000001
 12
1.0
 22
0.0
 32
0.0
 13
1.0
 23
0.0
 33
0.0
 40
0.0
 40
0.0
 40
0.0
 40
0.0
 40
1.0
 40
1.0
 40
1.0
 40
1.0
 10
-31.49992910849275
 20
-6.269798460390531
 30
0.0
 10
-31.28629684471183
 20
-6.269798460390531
 30
0.0
 10
-31.07296494581267
 20
-6.269798460390531
 30
0.0
 10
-30.85997127901306
 20
-6.269798460390531
 30
0.0
  0
SPLINE
  5
1A5
330
1F
100
AcDbEntity
  8
1
 62
     4
420
    65535
100
AcDbSpline
210
0.0
220
0.0
230
1.0
 70
     8
 71
     3
 72
    14
 73
    10
 74
     0
 42
0.00000001
 43
0.00000001
 12
1.0
 22
0.0
 32
0.0
 13
1.0
 23
0.0
 33
0.0
 40
0.0
 40
0.0
 40
0.0
 40
0.0
 40
0.25
 40
0.25
 40
0.5
 40
0.5
 40
0.75
 40
0.75
 40
1.0
 40
1.0
 40
1.0
 40
1.0
 10
-22.99992910849274
 20
6.27020153960947
 30
0.0
 10
-22.86370138232838
 20
6.27020153960947
 30
0.0
 10
-22.72995636153966
 20
6.24223769671011
 30
0.0
 10
-22.48495009000234
 20
6.137689974877079
 30
0.0
 10
-22.37407358258191
 20
6.060865913360477
 30
0.0
 10
-22.19297003490911
 20
5.874901750286829
 30
0.0
 10
-22.12119469760041
 20
5.764349415335956
 30
0.0
 10
-22.02511701028774
 20
5.527296193704935
 30
0.0
 10
-21.99992910849274
 20
5.399517480340227
 30
0.0
 10
-21.99992910849274
 20
5.270201539609468
 30
0.0
  0
LINE
  5
1A6
330
1F
100
AcDbEntity
  8
1
 62
     4
420
    65535
100
AcDbLine
 10
-21.9999291085
 20
5.2702015396
 30
0.0
 11
-21.9999291085
 21
-5.2697984604
 31
0.0
  0
SPLINE
  5
1A7
330
1F
100
AcDbEntity
  8
1
 62
     4
420
    65535
100
AcDbSpline
210
0.0
220
0.0
230
1.0
 70
     8
 71
     3
 72
    14
 73
    10
 74
     0
 42
0.00000001
 43
0.00000001
 12
1.0
 22
0.0
 32
0.0
 13
1.0
 23
0.0
 33
0.0
 40
0.0
 40
0.0
 40
0.0
 40
0.0
 40
0.25
 40
0.25
 40
0.5
 40
0.5
 40
0.75
 40
0.75
 40
1.0
 40
1.0
 40
1.0
 40
1.0
 10
-21.99992910849274
 20
-5.269798460390528
 30
0.0
 10
-21.99992910849274
 20
-5.399246878077332
 30
0.0
 10
-22.02457161513638
 20
-5.525300173220076
 30
0.0
 10
-22.12120054171583
 20
-5.764206663230517
 30
0.0
 10
-22.19221074539887
 20
-5.873612953139072
 30
0.0
 10
-22.37404300924285
 20
-6.060537030651254
 30
0.0
 10
-22.48451063265065
 20
-6.136993145196627
 30
0.0
 10
-22.72904815946765
 20
-6.241552718446848
 30
0.0
 10
-22.8635273843213
 20
-6.269798460390528
 30
0.0
 10
-22.99992910849274
 20
-6.269798460390528
 30
0.0
  0
SPLINE
  5
1A8
330
1F
100
AcDbEntity
  8
1
 62
     4
420
    65535
100
AcDbSpline
210
0.0
220
0.0
230
1.0
 70
     8
 71
     3
 72
    18
 73
    14
 74
     0
 42
0.00000001
 43
0.00000001
 12
1.0
 22
0.0
 32
0.0
 13
1.0
 23
0.0
 33
0.0
 40
0.0
 40
0.0
 40
0.0
 40
0.0
 40
0.0312499999999998
 40
0.0312499999999998
 40
0.0624999999999995
 40
0.0624999999999995
 40
0.1249999999999991
 40
0.1249999999999991
 40
0.2499999999999981
 40
0.2499999999999981
 40
0.4999999999999981
 40
0.4999999999999981
 40
1.0
 40
1.0
 40
1.0
 40
1.0
 10
-25.0986233212905
 20
-10.45729109964046
 30
0.0
 10
-25.09780710434158
 20
-10.39965607171874
 30
0.0
 10
-25.1363764243881
 20
-10.34727108559797
 30
0.0
 10
-25.22620133954069
 20
-10.26510371711912
 30
0.0
 10
-25.27949208212613
 20
-10.2313931745961
 30
0.0
 10
-25.44240682256137
 20
-10.14153110973015
 30
0.0
 10
-25.55848310133514
 20
-10.09499835670376
 30
0.0
 10
-25.91345064065163
 20
-9.967473908691067
 30
0.0
 10
-26.15556886908851
 20
-9.902015836290545
 30
0.0
 10
-26.88559219986837
 20
-9.722815850973408
 30
0.0
 10
-27.37890352021751
 20
-9.62933414214334
 30
0.0
 10
-28.8650424767581
 20
-9.37323392836506
 30
0.0
 10
-29.86176047066306
 20
-9.239303432948677
 30
0.0
 10
-30.85997127901306
 20
-9.117515768145422
 30
0.0
  0
SPLINE
  5
1A9
330
1F
100
AcDbEntity
  8
1
 62
     4
420
    65535
100
AcDbSpline
210
0.0
220
0.0
230
1.0
 70
     8
 71
     3
 72
    14
 73
    10
 74
     0
 42
0.00000001
 43
0.00000001
 12
1.0
 22
0.0
 32
0.0
 13
1.0
 23
0.0
 33
0.0
 40
0.0
 40
0.0
 40
0.0
 40
0.0
 40
0.25
 40
0.25
 40
0.5
 40
0.5
 40
0.75
 40
0.75
 40
1.0
 40
1.0
 40
1.0
 40
1.0
 10
-22.99992910849274
 20
-6.269798460390529
 30
0.0
 10
-22.86370138232838
 20
-6.269798460390528
 30
0.0
 10
-22.72995636153966
 20
-6.241834617491167
 30
0.0
 10
-22.48495009000234
 20
-6.137286895658134
 30
0.0
 10
-22.37407358258191
 20
-6.060462834141535
 30
0.0
 10
-22.19297003490911
 20
-5.874498671067885
 30
0.0
 10
-22.12119469760041
 20
-5.763946336117013
 30
0.0
 10
-22.02511701028774
 20
-5.526893114485991
 30
0.0
 10
-21.99992910849274
 20
-5.399114401121286
 30
0.0
 10
-21.99992910849274
 20
-5.269798460390528
 30
0.0
  0
LINE
  5
1AA
330
1F
100
AcDbEntity
  8
1
 62
     4
420
    65535
100
AcDbLine
 10
-21.9999291085
 20
-5.2697984604
 30
0.0
 11
-21.9999291085
 21
5.2702015396
 31
0.0
  0
SPLINE
  5
1AB
330
1F
100
AcDbEntity
  8
1
 62
     4
420
    65535
100
AcDbSpline
210
0.0
220
0.0
230
1.0
 70
     8
 71
     3
 72
    14
 73
    10
 74
     0
 42
0.00000001
 43
0.00000001
 12
1.0
 22
0.0
 32
0.0
 13
1.0
 23
0.0
 33
0.0
 40
0.0
 40
0.0
 40
0.0
 40
0.0
 40
0.25
 40
0.25
 40
0.5
 40
0.5
 40
0.75
 40
0.75
 40
1.0
 40
1.0
 40
1.0
 40
1.0
 10
-21.99992910849274
 20
5.27020153960947
 30
0.0
 10
-21.99992910849274
 20
5.399649957296273
 30
0.0
 10
-22.02457161513638
 20
5.525703252439017
 30
0.0
 10
-22.12120054171583
 20
5.764609742449463
 30
0.0
 10
-22.19221074539887
 20
5.874016032358016
 30
0.0
 10
-22.37404300924285
 20
6.060940109870197
 30
0.0
 10
-22.48451063265065
 20
6.137396224415569
 30
0.0
 10
-22.72904815946765
 20
6.241955797665791
 30
0.0
 10
-22.8635273843213
 20
6.270201539609471
 30
0.0
 10
-22.99992910849274
 20
6.27020153960947
 30
0.0
  0
LINE
  5
1AC
330
1F
100
AcDbEntity
  8
1
 62
     4
420
    65535
100
AcDbLine
 10
-18.9959545123
 20
-16.996601958
 30
0.0
 11
-18.9959545123
 21
16.9970050372
 31
0.0
  0
LINE
  5
1AD
330
1F
100
AcDbEntity
  8
1
 62
     4
420
    65535
100
AcDbLine
 10
-17.4371087855
 20
-19.6965875685
 30
0.0
 11
-17.4371087855
 21
19.6969906477
 31
0.0
  0
LINE
  5
1AE
330
1F
100
AcDbEntity
  8
1
 62
     4
420
    65535
100
AcDbLine
 10
-6.0362773423
 20
-19.9997984604
 30
0.0
 11
-6.0362773423
 21
20.0002015396
 31
0.0
  0
LINE
  5
1AF
330
1F
100
AcDbEntity
  8
1
 62
     4
420
    65535
100
AcDbLine
 10
0.0000708915
 20
-17.2465549506
 30
0.0
 11
0.0000708915
 21
17.2469580298
 31
0.0
  0
LINE
  5
1B0
330
1F
100
AcDbEntity
  8
1
 62
     4
420
    65535
100
AcDbLine
 10
10.0000708915
 20
-17.2465549506
 30
0.0
 11
10.0000708915
 21
17.2469580298
 31
0.0
  0
LINE
  5
1B1
330
1F
100
AcDbEntity
  8
1
 62
     4
420
    65535
100
AcDbLine
 10
10.0000708915
 20
-8.9966089605
 30
0.0
 11
10.0000708915
 21
8.9970120397
 31
0.0
  0
LINE
  5
1B2
330
1F
100
AcDbEntity
  8
1
 62
     4
420
    65535
100
AcDbLine
 10
10.5000708915
 20
-8.4965710701
 30
0.0
 11
10.5000708915
 21
8.4969741493
 31
0.0
  0
LINE
  5
1B3
330
1F
100
AcDbEntity
  8
1
 62
     4
420
    65535
100
AcDbLine
 10
21.0000708915
 20
-8.4965710701
 30
0.0
 11
21.0000708915
 21
8.4969741493
 31
0.0
  0
LINE
  5
1B4
330
1F
100
AcDbEntity
  8
1
 62
     4
420
    65535
100
AcDbLine
 10
21.0000708915
 20
-9.2997984604
 30
0.0
 11
21.0000708915
 21
9.3002015396
 31
0.0
  0
LINE
  5
1B5
330
1F
100
AcDbEntity
  8
1
 62
     4
420
    65535
100
AcDbLine
 10
22.0000708915
 20
-9.2997984604
 30
0.0
 11
22.0000708915
 21
9.3002015396
 31
0.0
  0
LINE
  5
1B6
330
1F
100
AcDbEntity
  8
1
 62
     4
420
    65535
100
AcDbLine
 10
22.0000708915
 20
-4.1997984604
 30
0.0
 11
22.0000708915
 21
4.2002015396
 31
0.0
  0
LINE
  5
1B7
330
1F
100
AcDbEntity
  8
1
 62
     4
420
    65535
100
AcDbLine
 10
-21.9999291085
 20
-5.2697984604
 30
0.0
 11
-21.9999291085
 21
-8.1531661874
 31
0.0
  0
LINE
  5
1B8
330
1F
100
AcDbEntity
  8
1
 62
     4
420
    65535
100
AcDbLine
 10
-30.859971279
 20
-6.2697984604
 30
0.0
 11
-30.859971279
 21
-16.9997984604
 31
0.0
  0
LINE
  5
1B9
330
1F
100
AcDbEntity
  8
1
 62
     4
420
    65535
100
AcDbLine
 10
-16.9174935432
 20
-19.9997984604
 30
0.0
 11
-16.9174935432
 21
20.0002015396
 31
0.0
  0
LINE
  5
1BA
330
1F
100
AcDbEntity
  8
1
 62
     4
420
    65535
100
AcDbLine
 10
-31.9999291085
 20
-6.7697984604
 30
0.0
 11
-31.4999291085
 21
-6.2697984604
 31
0.0
  0
LINE
  5
1BB
330
1F
100
AcDbEntity
  8
1
 62
     4
420
    65535
100
AcDbLine
 10
-31.4999291085
 20
6.2702015396
 30
0.0
 11
-31.9999291085
 21
6.7702015396
 31
0.0
  0
LINE
  5
1BC
330
1F
100
AcDbEntity
  8
1
 62
     4
420
    65535
100
AcDbLine
 10
-21.9999291085
 20
8.1535692666
 30
0.0
 11
-21.9999291085
 21
5.2702015396
 31
0.0
  0
LINE
  5
1BD
330
1F
100
AcDbEntity
  8
1
 62
     4
420
    65535
100
AcDbLine
 10
-31.9999291085
 20
6.7702015396
 30
0.0
 11
-31.4999291085
 21
6.2702015396
 31
0.0
  0
LINE
  5
1BE
330
1F
100
AcDbEntity
  8
1
 62
     4
420
    65535
100
AcDbLine
 10
-31.4999291085
 20
-6.2697984604
 30
0.0
 11
-31.9999291085
 21
-6.7697984604
 31
0.0
  0
LINE
  5
1BF
330
1F
100
AcDbEntity
  8
1
 62
     4
420
    65535
100
AcDbLine
 10
-21.9999291085
 20
-8.1531661874
 30
0.0
 11
-21.9999291085
 21
-5.2697984604
 31
0.0
  0
LINE
  5
1C0
330
1F
100
AcDbEntity
  8
1
 62
     4
420
    65535
100
AcDbLine
 10
-21.9999291085
 20
5.2702015396
 30
0.0
 11
-21.9999291085
 21
8.1535692666
 31
0.0
  0
LINE
  5
1C1
330
1F
100
AcDbEntity
  8
1
 62
     4
420
    65535
100
AcDbLine
 10
-22.9999291085
 20
6.2702015396
 30
0.0
 11
-22.9999291085
 21
8.4104332545
 31
0.0
  0
LINE
  5
1C2
330
1F
100
AcDbEntity
  8
1
 62
     4
420
    65535
100
AcDbLine
 10
-22.5350716756
 20
10.4576941789
 30
0.0
 11
-25.0986233213
 21
10.4576941789
 31
0.0
  0
SPLINE
  5
1C3
330
1F
100
AcDbEntity
  8
1
 62
     4
420
    65535
100
AcDbSpline
210
0.0
220
0.0
230
1.0
 70
     8
 71
     3
 72
    14
 73
    10
 74
     0
 42
0.00000001
 43
0.00000001
 12
1.0
 22
0.0
 32
0.0
 13
1.0
 23
0.0
 33
0.0
 40
0.0
 40
0.0
 40
0.0
 40
0.0
 40
0.25
 40
0.25
 40
0.5
 40
0.5
 40
0.75
 40
0.75
 40
1.0
 40
1.0
 40
1.0
 40
1.0
 10
-22.99992910849274
 20
8.410433254511018
 30
0.0
 10
-22.99992910849274
 20
8.586902919873426
 30
0.0
 10
-22.97052829403829
 20
8.763752981392685
 30
0.0
 10
-22.88759155151578
 20
9.111932839692187
 30
0.0
 10
-22.83249902079673
 20
9.286186738694282
 30
0.0
 10
-22.7198097717885
 20
9.625967437678803
 30
0.0
 10
-22.66130950644673
 20
9.792496356146668
 30
0.0
 10
-22.56786294007665
 20
10.12680739353464
 30
0.0
 10
-22.53483650983475
 20
10.29507742440034
 30
0.0
 10
-22.53507167556566
 20
10.45769417885983
 30
0.0
  0
LINE
  5
1C4
330
1F
100
AcDbEntity
  8
1
 62
     4
420
    65535
100
AcDbLine
 10
-22.3761611512
 20
12.2397072272
 30
0.0
 11
-23.39603441
 21
12.2397072272
 31
0.0
  0
LINE
  5
1C5
330
1F
100
AcDbEntity
  8
1
 62
     4
420
    65535
100
AcDbLine
 10
-22.3761611512
 20
-12.239304148
 30
0.0
 11
-23.39603441
 21
-12.239304148
 31
0.0
  0
SPLINE
  5
1C6
330
1F
100
AcDbEntity
  8
1
 62
     4
420
    65535
100
AcDbSpline
210
0.0
220
0.0
230
1.0
 70
     8
 71
     3
 72
    10
 73
     6
 74
     0
 42
0.00000001
 43
0.00000001
 12
1.0
 22
0.0
 32
0.0
 13
1.0
 23
0.0
 33
0.0
 40
0.0
 40
0.0
 40
0.0
 40
0.0
 40
0.5
 40
0.5
 40
1.0
 40
1.0
 40
1.0
 40
1.0
 10
-22.53507167556323
 20
10.45769417885937
 30
0.0
 10
-22.53539202723724
 20
10.75613449371921
 30
0.0
 10
-22.52522241418102
 20
11.05444551386698
 30
0.0
 10
-22.47789654128014
 20
11.64973832462426
 30
0.0
 10
-22.44266295749833
 20
11.9470985355799
 30
0.0
 10
-22.37616115115237
 20
12.23970722723618
 30
0.0
  0
LINE
  5
1C7
330
1F
100
AcDbEntity
  8
1
 62
     4
420
    65535
100
AcDbLine
 10
-22.5350716756
 20
-10.4572910996
 30
0.0
 11
-25.0986233213
 21
-10.4572910996
 31
0.0
  0
SPLINE
  5
1C8
330
1F
100
AcDbEntity
  8
1
 62
     4
420
    65535
100
AcDbSpline
210
0.0
220
0.0
230
1.0
 70
     8
 71
     3
 72
     8
 73
     4
 74
     0
 42
0.00000001
 43
0.00000001
 12
1.0
 22
0.0
 32
0.0
 13
1.0
 23
0.0
 33
0.0
 40
0.0
 40
0.0
 40
0.0
 40
0.0
 40
1.0
 40
1.0
 40
1.0
 40
1.0
 10
-22.37616115115233
 20
12.23970722723617
 30
0.0
 10
-22.24638435570837
 20
12.23970722723617
 30
0.0
 10
-22.12097779825646
 20
12.25034061258225
 30
0.0
 10
-21.99992910849274
 20
12.27157728463739
 30
0.0
  0
SPLINE
  5
1C9
330
1F
100
AcDbEntity
  8
1
 62
     4
420
    65535
100
AcDbSpline
210
0.0
220
0.0
230
1.0
 70
     8
 71
     3
 72
    10
 73
     6
 74
     0
 42
0.00000001
 43
0.00000001
 12
1.0
 22
0.0
 32
0.0
 13
1.0
 23
0.0
 33
0.0
 40
0.0
 40
0.0
 40
0.0
 40
0.0
 40
0.5
 40
0.5
 40
1.0
 40
1.0
 40
1.0
 40
1.0
 10
-22.3761611511523
 20
-12.23930414801729
 30
0.0
 10
-22.44266295749829
 20
-11.94669545636101
 30
0.0
 10
-22.47789654128014
 20
-11.64933524540532
 30
0.0
 10
-22.52522241418102
 20
-11.05404243464804
 30
0.0
 10
-22.53539202723725
 20
-10.75573141450026
 30
0.0
 10
-22.53507167556325
 20
-10.45729109964042
 30
0.0
  0
LINE
  5
1CA
330
1F
100
AcDbEntity
  8
1
 62
     4
420
    65535
100
AcDbLine
 10
-22.9999291085
 20
-8.4100301753
 30
0.0
 11
-22.9999291085
 21
-6.2697984604
 31
0.0
  0
SPLINE
  5
1CB
330
1F
100
AcDbEntity
  8
1
 62
     4
420
    65535
100
AcDbSpline
210
0.0
220
0.0
230
1.0
 70
     8
 71
     3
 72
     8
 73
     4
 74
     0
 42
0.00000001
 43
0.00000001
 12
1.0
 22
0.0
 32
0.0
 13
1.0
 23
0.0
 33
0.0
 40
0.0
 40
0.0
 40
0.0
 40
0.0
 40
1.0
 40
1.0
 40
1.0
 40
1.0
 10
-21.99992910849274
 20
-12.27117420541845
 30
0.0
 10
-22.12097779825646
 20
-12.24993753336331
 30
0.0
 10
-22.24638435570836
 20
-12.23930414801716
 30
0.0
 10
-22.37616115115232
 20
-12.23930414801716
 30
0.0
  0
SPLINE
  5
1CC
330
1F
100
AcDbEntity
  8
1
 62
     4
420
    65535
100
AcDbSpline
210
0.0
220
0.0
230
1.0
 70
     8
 71
     3
 72
    14
 73
    10
 74
     0
 42
0.00000001
 43
0.00000001
 12
1.0
 22
0.0
 32
0.0
 13
1.0
 23
0.0
 33
0.0
 40
0.0
 40
0.0
 40
0.0
 40
0.0
 40
0.25
 40
0.25
 40
0.5
 40
0.5
 40
0.75
 40
0.75
 40
1.0
 40
1.0
 40
1.0
 40
1.0
 10
-22.53507167556322
 20
-10.45729109964042
 30
0.0
 10
-22.53483650983237
 20
-10.29467434518073
 30
0.0
 10
-22.56786294007669
 20
-10.12640431431551
 30
0.0
 10
-22.66130950644678
 20
-9.792093276927572
 30
0.0
 10
-22.71980977178856
 20
-9.625564358459725
 30
0.0
 10
-22.83249902079676
 20
-9.285783659475245
 30
0.0
 10
-22.88759155151582
 20
-9.111529760473168
 30
0.0
 10
-22.9705282940383
 20
-8.763349902173703
 30
0.0
 10
-22.99992910849274
 20
-8.586499840654467
 30
0.0
 10
-22.99992910849274
 20
-8.410030175292077
 30
0.0
  0
LINE
  5
1CD
330
1F
100
AcDbEntity
  8
1
 62
     4
420
    65535
100
AcDbLine
 10
-22.9999291085
 20
-6.2697984604
 30
0.0
 11
-22.9999291085
 21
-8.4100301753
 31
0.0
  0
SPLINE
  5
1CE
330
1F
100
AcDbEntity
  8
1
 62
     4
420
    65535
100
AcDbSpline
210
0.0
220
0.0
230
1.0
 70
     8
 71
     3
 72
    10
 73
     6
 74
     0
 42
0.00000001
 43
0.00000001
 12
1.0
 22
0.0
 32
0.0
 13
1.0
 23
0.0
 33
0.0
 40
0.0
 40
0.0
 40
0.0
 40
0.0
 40
0.5
 40
0.5
 40
1.0
 40
1.0
 40
1.0
 40
1.0
 10
-22.53507167556323
 20
-10.45729109964042
 30
0.0
 10
-22.53539202723724
 20
-10.75573141450026
 30
0.0
 10
-22.52522241418102
 20
-11.05404243464804
 30
0.0
 10
-22.47789654128014
 20
-11.64933524540531
 30
0.0
 10
-22.44266295749833
 20
-11.94669545636095
 30
0.0
 10
-22.37616115115237
 20
-12.23930414801723
 30
0.0
  0
SPLINE
  5
1CF
330
1F
100
AcDbEntity
  8
1
 62
     4
420
    65535
100
AcDbSpline
210
0.0
220
0.0
230
1.0
 70
     8
 71
     3
 72
     8
 73
     4
 74
     0
 42
0.00000001
 43
0.00000001
 12
1.0
 22
0.0
 32
0.0
 13
1.0
 23
0.0
 33
0.0
 40
0.0
 40
0.0
 40
0.0
 40
0.0
 40
1.0
 40
1.0
 40
1.0
 40
1.0
 10
-22.37616115115233
 20
-12.23930414801722
 30
0.0
 10
-22.24638435570837
 20
-12.23930414801722
 30
0.0
 10
-22.12097779825646
 20
-12.24993753336331
 30
0.0
 10
-21.99992910849274
 20
-12.27117420541844
 30
0.0
  0
SPLINE
  5
1D0
330
1F
100
AcDbEntity
  8
1
 62
     4
420
    65535
100
AcDbSpline
210
0.0
220
0.0
230
1.0
 70
     8
 71
     3
 72
    14
 73
    10
 74
     0
 42
0.00000001
 43
0.00000001
 12
1.0
 22
0.0
 32
0.0
 13
1.0
 23
0.0
 33
0.0
 40
0.0
 40
0.0
 40
0.0
 40
0.0
 40
0.25
 40
0.25
 40
0.5
 40
0.5
 40
0.75
 40
0.75
 40
1.0
 40
1.0
 40
1.0
 40
1.0
 10
-22.99992910849274
 20
-8.410030175292071
 30
0.0
 10
-22.99992910849274
 20
-8.58649984065448
 30
0.0
 10
-22.97052829403829
 20
-8.763349902173736
 30
0.0
 10
-22.88759155151578
 20
-9.11152976047324
 30
0.0
 10
-22.83249902079673
 20
-9.285783659475335
 30
0.0
 10
-22.7198097717885
 20
-9.625564358459854
 30
0.0
 10
-22.66130950644673
 20
-9.792093276927721
 30
0.0
 10
-22.56786294007665
 20
-10.1264043143157
 30
0.0
 10
-22.53483650983475
 20
-10.2946743451814
 30
0.0
 10
-22.53507167556566
 20
-10.45729109964088
 30
0.0
  0
SPLINE
  5
1D1
330
1F
100
AcDbEntity
  8
1
 62
     4
420
    65535
100
AcDbSpline
210
0.0
220
0.0
230
1.0
 70
     8
 71
     3
 72
    14
 73
    10
 74
     0
 42
0.00000001
 43
0.00000001
 12
1.0
 22
0.0
 32
0.0
 13
1.0
 23
0.0
 33
0.0
 40
0.0
 40
0.0
 40
0.0
 40
0.0
 40
0.25
 40
0.25
 40
0.5
 40
0.5
 40
0.75
 40
0.75
 40
1.0
 40
1.0
 40
1.0
 40
1.0
 10
-22.53507167556322
 20
10.45769417885937
 30
0.0
 10
-22.53483650983237
 20
10.29507742439967
 30
0.0
 10
-22.56786294007669
 20
10.12680739353446
 30
0.0
 10
-22.66130950644678
 20
9.792496356146518
 30
0.0
 10
-22.71980977178856
 20
9.625967437678671
 30
0.0
 10
-22.83249902079676
 20
9.286186738694191
 30
0.0
 10
-22.88759155151582
 20
9.111932839692114
 30
0.0
 10
-22.9705282940383
 20
8.76375298139265
 30
0.0
 10
-22.99992910849274
 20
8.586902919873413
 30
0.0
 10
-22.99992910849274
 20
8.410433254511023
 30
0.0
  0
LINE
  5
1D2
330
1F
100
AcDbEntity
  8
1
 62
     4
420
    65535
100
AcDbLine
 10
-22.9999291085
 20
8.4104332545
 30
0.0
 11
-22.9999291085
 21
6.2702015396
 31
0.0
  0
SPLINE
  5
1D3
330
1F
100
AcDbEntity
  8
1
 62
     4
420
    65535
100
AcDbSpline
210
0.0
220
0.0
230
1.0
 70
     8
 71
     3
 72
    10
 73
     6
 74
     0
 42
0.00000001
 43
0.00000001
 12
1.0
 22
0.0
 32
0.0
 13
1.0
 23
0.0
 33
0.0
 40
0.0
 40
0.0
 40
0.0
 40
0.0
 40
0.5
 40
0.5
 40
1.0
 40
1.0
 40
1.0
 40
1.0
 10
-22.3761611511523
 20
12.23970722723623
 30
0.0
 10
-22.44266295749829
 20
11.94709853557996
 30
0.0
 10
-22.47789654128014
 20
11.64973832462427
 30
0.0
 10
-22.52522241418102
 20
11.05444551386699
 30
0.0
 10
-22.53539202723725
 20
10.75613449371921
 30
0.0
 10
-22.53507167556325
 20
10.45769417885937
 30
0.0
  0
ARC
  5
1D4
330
1F
100
AcDbEntity
  8
1
 62
     4
420
    65535
100
AcDbCircle
 10
-22.7664238856
 20
-7.2441044507
 30
0.0
 40
1.189078418144795
100
AcDbArc
 50
258.674944061
 51
310.136626076
  0
ARC
  5
1D5
330
1F
100
AcDbEntity
  8
1
 62
     4
420
    65535
100
AcDbCircle
 10
-22.9999291085
 20
-5.2697984604
 30
0.0
 40
1.0
100
AcDbArc
 50
270.0
 51
0.0
  0
SPLINE
  5
1D6
330
1F
100
AcDbEntity
  8
1
 62
     4
420
    65535
100
AcDbSpline
210
0.0
220
0.0
230
1.0
 70
     8
 71
     3
 72
     8
 73
     4
 74
     0
 42
0.00000001
 43
0.00000001
 12
1.0
 22
0.0
 32
0.0
 13
1.0
 23
0.0
 33
0.0
 40
0.0
 40
0.0
 40
0.0
 40
0.0
 40
1.0
 40
1.0
 40
1.0
 40
1.0
 10
-21.99992910849274
 20
12.27157728463739
 30
0.0
 10
-22.12097779825646
 20
12.25034061258226
 30
0.0
 10
-22.24638435570836
 20
12.23970722723611
 30
0.0
 10
-22.37616115115232
 20
12.2397072272361
 30
0.0
  0
ARC
  5
1D7
330
1F
100
AcDbEntity
  8
1
 62
     4
420
    65535
100
AcDbCircle
 10
-22.5233654019
 20
-12.4230953676
 30
0.0
 40
1.965839122859168
100
AcDbArc
 50
74.5578024558
 51
90.3411896899
  0
ARC
  5
1D8
330
1F
100
AcDbEntity
  8
1
 62
     4
420
    65535
100
AcDbCircle
 10
-22.9999291085
 20
5.2702015396
 30
0.0
 40
1.000000000000007
100
AcDbArc
 50
0.0
 51
90.0
  0
ARC
  5
1D9
330
1F
100
AcDbEntity
  8
1
 62
     4
420
    65535
100
AcDbCircle
 10
-22.5233654019
 20
12.4234984469
 30
0.0
 40
1.965839122859297
100
AcDbArc
 50
269.6588103101
 51
285.4421975442
  0
ARC
  5
1DA
330
1F
100
AcDbEntity
  8
1
 62
     4
420
    65535
100
AcDbCircle
 10
-22.9999291085
 20
-5.2697984604
 30
0.0
 40
1.000000000000003
100
AcDbArc
 50
270.0
 51
0.0
  0
ARC
  5
1DB
330
1F
100
AcDbEntity
  8
1
 62
     4
420
    65535
100
AcDbCircle
 10
-22.7664238856
 20
7.2445075299
 30
0.0
 40
1.189078418144804
100
AcDbArc
 50
49.863373924
 51
101.325055939
  0
ARC
  5
1DC
330
1F
100
AcDbEntity
  8
1
 62
     4
420
    65535
100
AcDbCircle
 10
-22.9999291085
 20
5.2702015396
 30
0.0
 40
1.0
100
AcDbArc
 50
0.0
 51
90.0
  0
ARC
  5
1DD
330
1F
100
AcDbEntity
  8
1
 62
     4
420
    65535
100
AcDbCircle
 10
14.0000708915
 20
0.0002015396
 30
0.0
 40
9.000000000000004
100
AcDbArc
 50
90.0
 51
270.0
  0
LINE
  5
1DE
330
1F
100
AcDbEntity
  8
1
 62
     4
420
    65535
100
AcDbLine
 10
16.3601532478
 20
9.0002015396
 30
0.0
 11
14.0000708915
 21
9.0002015396
 31
0.0
  0
LINE
  5
1DF
330
1F
100
AcDbEntity
  8
1
 62
     4
420
    65535
100
AcDbLine
 10
26.0000708915
 20
9.0002015396
 30
0.0
 11
19.6399885352
 21
9.0002015396
 31
0.0
  0
LINE
  5
1E0
330
1F
100
AcDbEntity
  8
1
 62
     4
420
    65535
100
AcDbLine
 10
14.0000708915
 20
-8.9997984604
 30
0.0
 11
16.3601532478
 21
-8.9997984604
 31
0.0
  0
LINE
  5
1E1
330
1F
100
AcDbEntity
  8
1
 62
     4
420
    65535
100
AcDbLine
 10
19.6399885352
 20
-8.9997984604
 30
0.0
 11
26.0000708915
 21
-8.9997984604
 31
0.0
  0
LINE
  5
1E2
330
1F
100
AcDbEntity
  8
1
 62
     4
420
    65535
100
AcDbLine
 10
19.800757173
 20
20.0002015396
 30
0.0
 11
26.0000708915
 21
20.0002015396
 31
0.0
  0
ARC
  5
1E3
330
1F
100
AcDbEntity
  8
1
 62
     4
420
    65535
100
AcDbCircle
 10
13.0000708915
 20
28.0002015396
 30
0.0
 40
8.000000000000014
100
AcDbArc
 50
207.2566193092
 51
270.0
  0
LINE
  5
1E4
330
1F
100
AcDbEntity
  8
1
 62
     4
420
    65535
100
AcDbLine
 10
13.0000708915
 20
20.0002015396
 30
0.0
 11
16.19938461
 21
20.0002015396
 31
0.0
  0
ARC
  5
1E5
330
1F
100
AcDbEntity
  8
1
 62
     4
420
    65535
100
AcDbCircle
 10
13.0000708915
 20
0.0002015396
 30
0.0
 40
8.000000000000004
100
AcDbArc
 50
90.0
 51
270.0
  0
LINE
  5
1E6
330
1F
100
AcDbEntity
  8
1
 62
     4
420
    65535
100
AcDbLine
 10
16.6909656207
 20
-7.9997984604
 30
0.0
 11
13.0000708915
 21
-7.9997984604
 31
0.0
  0
LINE
  5
1E7
330
1F
100
AcDbEntity
  8
1
 62
     4
420
    65535
100
AcDbLine
 10
26.0000708915
 20
-7.9997984604
 30
0.0
 11
19.3091761623
 21
-7.9997984604
 31
0.0
  0
LINE
  5
1E8
330
1F
100
AcDbEntity
  8
1
 62
     4
420
    65535
100
AcDbLine
 10
13.0000708915
 20
8.0002015396
 30
0.0
 11
16.6909656207
 21
8.0002015396
 31
0.0
  0
LINE
  5
1E9
330
1F
100
AcDbEntity
  8
1
 62
     4
420
    65535
100
AcDbLine
 10
19.3091761623
 20
8.0002015396
 30
0.0
 11
26.0000708915
 21
8.0002015396
 31
0.0
  0
LINE
  5
1EA
330
1F
100
AcDbEntity
  8
1
 62
     4
420
    65535
100
AcDbLine
 10
53.0000708954
 20
-11.7465693854
 30
0.0
 11
53.0000708954
 21
11.7469724646
 31
0.0
  0
LINE
  5
1EB
330
1F
100
AcDbEntity
  8
1
 62
     4
420
    65535
100
AcDbLine
 10
50.5676945133
 20
-7.5240475714
 30
0.0
 11
50.5676945133
 21
7.5244506506
 31
0.0
  0
LINE
  5
1EC
330
1F
100
AcDbEntity
  8
1
 62
     4
420
    65535
100
AcDbLine
 10
86.0000708957
 20
-19.9997984544
 30
0.0
 11
86.0000708957
 21
20.0002015336
 31
0.0
  0
LINE
  5
1ED
330
1F
100
AcDbEntity
  8
1
 62
     4
420
    65535
100
AcDbLine
 10
65.8432057479
 20
-19.9997984544
 30
0.0
 11
65.8432057479
 21
20.0002015336
 31
0.0
  0
LINE
  5
1EE
330
1F
100
AcDbEntity
  8
1
 62
     4
420
    65535
100
AcDbLine
 10
46.0000708915
 20
-22.496589118
 30
0.0
 11
46.0000708915
 21
22.4969921972
 31
0.0
  0
LINE
  5
1EF
330
1F
100
AcDbEntity
  8
1
 62
     4
420
    65535
100
AcDbLine
 10
56.7597495753
 20
-11.7465693854
 30
0.0
 11
56.7597495753
 21
11.7469724646
 31
0.0
  0
DIMENSION
  5
1F0
330
1F
100
AcDbEntity
  8
2
 62
     7
420
 16777215
100
AcDbDimension
  2
_D
 10
100.0000708915
 20
43.5002015396
 30
0.0
 11
34.0000708915
 21
43.5002015396
 31
0.0
 70
   160
  1
<>
 71
     2
 42
-1.0
 73
     0
 74
     0
 75
     0
  3
SLDDIMSTYLE0
100
AcDbAlignedDimension
 13
-31.9999291085
 23
0.0002015396
 33
0.0
 14
100.0000708915
 24
0.0002015396
 34
0.0
 50
0.0
100
AcDbRotatedDimension
  0
DIMENSION
  5
1FC
330
1F
100
AcDbEntity
  8
2
 62
     7
420
 16777215
100
AcDbDimension
  2
_D_1
 10
0.0000708915
 20
37.5002015396
 30
0.0
 11
50.0000708915
 21
37.5002015396
 31
0.0
 70
   160
  1
<>
 71
     2
 42
-1.0
 73
     0
 74
     0
 75
     0
  3
SLDDIMSTYLE0
100
AcDbAlignedDimension
 13
100.0000708915
 23
0.0002015396
 33
0.0
 14
0.0000708915
 24
0.0002015396
 34
0.0
100
AcDbRotatedDimension
  0
DIMENSION
  5
206
330
1F
100
AcDbEntity
  8
2
 62
     7
420
 16777215
100
AcDbDimension
  2
_D_2
 10
106.0000708915
 20
-22.4997984604
 30
0.0
 11
106.0000708915
 21
0.0002015396
 31
0.0
 70
   160
  1
%%c<>
 71
     2
 42
-1.0
 73
     0
 74
     0
 75
     0
  3
SLDDIMSTYLE0
100
AcDbAlignedDimension
 13
46.0000708915
 23
22.5002015396
 33
0.0
 14
46.0000708915
 24
-22.4997984604
 34
0.0
 50
90.0
100
AcDbRotatedDimension
  0
DIMENSION
  5
211
330
1F
100
AcDbEntity
  8
2
 62
     7
420
 16777215
100
AcDbDimension
  2
_D_3
 10
112.0000708915
 20
-24.9997984529
 30
0.0
 11
112.0000708915
 21
0.0002015396
 31
0.0
 70
   160
  1
%%c<>
 71
     2
 42
-1.0
 73
     0
 74
     0
 75
     0
  3
SLDDIMSTYLE0
100
AcDbAlignedDimension
 13
79.5000708909
 23
25.0002015321
 33
0.0
 14
79.5000708909
 24
-24.9997984529
 34
0.0
 50
90.0
100
AcDbRotatedDimension
  0
ENDSEC
  0
SECTION
  2
OBJECTS
  0
DICTIONARY
  5
C
330
0
100
AcDbDictionary
281
     1
  3
ACAD_GROUP
350
D
  3
ACAD_LAYOUT
350
1A
  3
ACAD_MATERIAL
350
3B
  3
ACAD_MLEADERSTYLE
350
21D
  3
ACAD_MLINESTYLE
350
17
  3
ACAD_PLOTSETTINGS
350
19
  3
ACAD_PLOTSTYLENAME
350
E
  3
ACAD_TABLESTYLE
350
21C
  3
ACAD_VISUALSTYLE
350
2A
  0
DICTIONARY
  5
D
102
{ACAD_REACTORS
330
C
102
}
330
C
100
AcDbDictionary
281
     1
  0
DICTIONARY
  5
1A
102
{ACAD_REACTORS
330
C
102
}
330
C
100
AcDbDictionary
281
     1
  3
Layout1
350
1E
  3
Layout2
350
26
  3
Model
350
22
  0
DICTIONARY
  5
3B
102
{ACAD_REACTORS
330
C
102
}
330
C
100
AcDbDictionary
281
     1
  3
ByBlock
350
3D
  3
ByLayer
350
3C
  3
Global
350
3E
  0
DICTIONARY
  5
21D
102
{ACAD_REACTORS
330
C
102
}
330
C
100
AcDbDictionary
281
     1
  0
DICTIONARY
  5
17
102
{ACAD_REACTORS
330
C
102
}
330
C
100
AcDbDictionary
281
     1
  3
Standard
350
18
  0
DICTIONARY
  5
19
102
{ACAD_REACTORS
330
C
102
}
330
C
100
AcDbDictionary
281
     1
  0
ACDBDICTIONARYWDFLT
  5
E
102
{ACAD_REACTORS
330
C
102
}
330
C
100
AcDbDictionary
281
     1
  3
Normal
350
F
100
AcDbDictionaryWithDefault
340
F
  0
DICTIONARY
  5
21C
102
{ACAD_REACTORS
330
C
102
}
330
C
100
AcDbDictionary
281
     1
  0
DICTIONARY
  5
2A
102
{ACAD_REACTORS
330
C
102
}
330
C
100
AcDbDictionary
281
     1
  3
2dWireframe
350
2F
  3
3D Hidden
350
31
  3
3dWireframe
350
30
  3
Basic
350
32
  3
Brighten
350
36
  3
ColorChange
350
3A
  3
Conceptual
350
34
  3
Dim
350
35
  3
Facepattern
350
39
  3
Flat
350
2B
  3
FlatWithEdges
350
2C
  3
Gouraud
350
2D
  3
GouraudWithEdges
350
2E
  3
Linepattern
350
38
  3
Realistic
350
33
  3
Thicken
350
37
  0
LAYOUT
  5
1E
102
{ACAD_REACTORS
330
1A
102
}
330
1A
100
AcDbPlotSettings
  1

  2
none_device
  4

  6

 40
0.0
 41
0.0
 42
0.0
 43
0.0
 44
0.0
 45
0.0
 46
0.0
 47
0.0
 48
0.0
 49
0.0
140
0.0
141
0.0
142
1.0
143
1.0
 70
   688
 72
     0
 73
     0
 74
     5
  7

 75
    16
 76
     0
 77
     2
 78
   300
147
1.0
148
0.0
149
0.0
100
AcDbLayout
  1
Layout1
 70
     1
 71
     1
 10
0.0
 20
0.0
 11
420.0
 21
297.0
 12
0.0
 22
0.0
 32
0.0
 14
1.0000000000E+20
 24
1.0000000000E+20
 34
1.0000000000E+20
 15
-1.0000000000E+20
 25
-1.0000000000E+20
 35
-1.0000000000E+20
146
0.0
 13
0.0
 23
0.0
 33
0.0
 16
1.0
 26
0.0
 36
0.0
 17
0.0
 27
1.0
 37
0.0
 76
     0
330
1B
  0
LAYOUT
  5
26
102
{ACAD_REACTORS
330
1A
102
}
330
1A
100
AcDbPlotSettings
  1

  2
none_device
  4

  6

 40
0.0
 41
0.0
 42
0.0
 43
0.0
 44
0.0
 45
0.0
 46
0.0
 47
0.0
 48
0.0
 49
0.0
140
0.0
141
0.0
142
1.0
143
1.0
 70
   688
 72
     0
 73
     0
 74
     5
  7

 75
    16
 76
     0
 77
     2
 78
   300
147
1.0
148
0.0
149
0.0
100
AcDbLayout
  1
Layout2
 70
     1
 71
     2
 10
0.0
 20
0.0
 11
0.0
 21
0.0
 12
0.0
 22
0.0
 32
0.0
 14
0.0
 24
0.0
 34
0.0
 15
0.0
 25
0.0
 35
0.0
146
0.0
 13
0.0
 23
0.0
 33
0.0
 16
1.0
 26
0.0
 36
0.0
 17
0.0
 27
1.0
 37
0.0
 76
     0
330
23
  0
LAYOUT
  5
22
102
{ACAD_REACTORS
330
1A
102
}
330
1A
100
AcDbPlotSettings
  1

  2
none_device
  4

  6

 40
0.0
 41
0.0
 42
0.0
 43
0.0
 44
0.0
 45
0.0
 46
0.0
 47
0.0
 48
0.0
 49
0.0
140
0.0
141
0.0
142
1.0
143
1.0
 70
  1712
 72
     0
 73
     0
 74
     0
  7

 75
     0
 76
     0
 77
     2
 78
   300
147
1.0
148
0.0
149
0.0
100
AcDbLayout
  1
Model
 70
     1
 71
     0
 10
0.0
 20
0.0
 11
297.0
 21
210.0
 12
0.0
 22
0.0
 32
0.0
 14
0.0
 24
0.0
 34
0.0
 15
297.0
 25
210.0
 35
0.0
146
0.0
 13
0.0
 23
0.0
 33
0.0
 16
1.0
 26
0.0
 36
0.0
 17
0.0
 27
1.0
 37
0.0
 76
     0
330
1F
331
29
  0
MATERIAL
  5
3D
102
{ACAD_REACTORS
330
3B
102
}
330
3B
100
AcDbMaterial
  1
ByBlock
 72
     1
 94
      127
  0
MATERIAL
  5
3C
102
{ACAD_REACTORS
330
3B
102
}
330
3B
100
AcDbMaterial
  1
ByLayer
 72
     1
 94
      127
  0
MATERIAL
  5
3E
102
{ACAD_REACTORS
330
3B
102
}
330
3B
100
AcDbMaterial
  1
Global
 72
     1
 94
      127
  0
MLINESTYLE
  5
18
102
{ACAD_REACTORS
330
17
102
}
330
17
100
AcDbMlineStyle
  2
Standard
 70
     0
  3

 62
   256
 51
90.0
 52
90.0
 71
     2
 49
0.5
 62
   256
  6
BYLAYER
 49
-0.5
 62
   256
  6
BYLAYER
  0
ACDBPLACEHOLDER
  5
F
102
{ACAD_REACTORS
330
E
102
}
330
E
  0
VISUALSTYLE
  5
2F
102
{ACAD_REACTORS
330
2A
102
}
330
2A
100
AcDbVisualStyle
  2
2dWireframe
 70
     4
 71
     0
 72
     2
 73
     0
 90
        0
 40
-0.6
 41
-30.0
 62
     5
 63
     7
421
 16777215
 74
     1
 91
        4
 64
     7
 65
   257
 75
     1
175
     1
 42
1.0
 92
        0
 66
   257
 43
1.0
 76
     1
 77
     6
 78
     2
 67
     7
 79
     5
170
     0
171
     0
290
     0
174
     0
 93
        1
 44
0.0
173
     0
291
     0
 45
0.0
  0
VISUALSTYLE
  5
31
102
{ACAD_REACTORS
330
2A
102
}
330
2A
100
AcDbVisualStyle
  2
3D Hidden
 70
     6
 71
     1
 72
     2
 73
     2
 90
        0
 40
-0.6
 41
-30.0
 62
     5
 63
     7
421
 16777215
 74
     2
 91
        2
 64
     7
 65
   257
 75
     2
175
     1
 42
40.0
 92
        0
 66
   257
 43
1.0
 76
     1
 77
     6
 78
     2
 67
     7
 79
     3
170
     0
171
     0
290
     0
174
     0
 93
        1
 44
0.0
173
     0
291
     0
 45
0.0
  0
VISUALSTYLE
  5
30
102
{ACAD_REACTORS
330
2A
102
}
330
2A
100
AcDbVisualStyle
  2
3dWireframe
 70
     5
 71
     0
 72
     2
 73
     0
 90
        0
 40
-0.6
 41
-30.0
 62
     5
 63
     7
421
 16777215
 74
     1
 91
        4
 64
     7
 65
   257
 75
     1
175
     1
 42
1.0
 92
        0
 66
   257
 43
1.0
 76
     1
 77
     6
 78
     2
 67
     7
 79
     5
170
     0
171
     0
290
     0
174
     0
 93
        1
 44
0.0
173
     0
291
     0
 45
0.0
  0
VISUALSTYLE
  5
32
102
{ACAD_REACTORS
330
2A
102
}
330
2A
100
AcDbVisualStyle
  2
Basic
 70
     7
 71
     1
 72
     0
 73
     1
 90
        0
 40
-0.6
 41
-30.0
 62
     5
 63
     7
421
 16777215
 74
     0
 91
        4
 64
     7
 65
   257
 75
     1
175
     1
 42
1.0
 92
        8
 66
     7
 43
1.0
 76
     1
 77
     6
 78
     2
 67
     7
 79
     5
170
     0
171
     0
290
     0
174
     0
 93
        1
 44
0.0
173
     0
291
     1
 45
0.0
  0
VISUALSTYLE
  5
36
102
{ACAD_REACTORS
330
2A
102
}
330
2A
100
AcDbVisualStyle
  2
Brighten
 70
    12
 71
     2
 72
     2
 73
     0
 90
        0
 40
-0.6
 41
-30.0
 62
     5
 63
     7
421
 16777215
 74
     1
 91
        4
 64
     7
 65
   257
 75
     1
175
     1
 42
1.0
 92
        8
 66
     7
 43
1.0
 76
     1
 77
     6
 78
     2
 67
     7
 79
     5
170
     0
171
     0
290
     0
174
     0
 93
        1
 44
50.0
173
     0
291
     1
 45
0.0
  0
VISUALSTYLE
  5
3A
102
{ACAD_REACTORS
330
2A
102
}
330
2A
100
AcDbVisualStyle
  2
ColorChange
 70
    16
 71
     2
 72
     2
 73
     3
 90
        0
 40
-0.6
 41
-30.0
 62
     5
 63
     8
421
  8421504
 74
     1
 91
        4
 64
     7
 65
   257
 75
     1
175
     1
 42
1.0
 92
        8
 66
     8
424
  8421504
 43
1.0
 76
     1
 77
     6
 78
     2
 67
     7
 79
     5
170
     0
171
     0
290
     0
174
     0
 93
        1
 44
0.0
173
     0
291
     1
 45
0.0
  0
VISUALSTYLE
  5
34
102
{ACAD_REACTORS
330
2A
102
}
330
2A
100
AcDbVisualStyle
  2
Conceptual
 70
     9
 71
     3
 72
     2
 73
     0
 90
        0
 40
-0.6
 41
-30.0
 62
     5
 63
     7
421
 16777215
 74
     2
 91
        2
 64
     7
 65
   257
 75
     1
175
     1
 42
40.0
 92
        8
 66
     7
 43
1.0
 76
     1
 77
     6
 78
     2
 67
     7
 79
     3
170
     0
171
     0
290
     0
174
     0
 93
        1
 44
0.0
173
     0
291
     0
 45
0.0
  0
VISUALSTYLE
  5
35
102
{ACAD_REACTORS
330
2A
102
}
330
2A
100
AcDbVisualStyle
  2
Dim
 70
    11
 71
     2
 72
     2
 73
     0
 90
        0
 40
-0.6
 41
-30.0
 62
     5
 63
     7
421
 16777215
 74
     1
 91
        4
 64
     7
 65
   257
 75
     1
175
     1
 42
1.0
 92
        8
 66
     7
 43
1.0
 76
     1
 77
     6
 78
     2
 67
     7
 79
     5
170
     0
171
     0
290
     0
174
     0
 93
        1
 44
-50.0
173
     0
291
     1
 45
0.0
  0
VISUALSTYLE
  5
39
102
{ACAD_REACTORS
330
2A
102
}
330
2A
100
AcDbVisualStyle
  2
Facepattern
 70
    15
 71
     2
 72
     2
 73
     0
 90
        0
 40
-0.6
 41
-30.0
 62
     5
 63
     7
421
 16777215
 74
     1
 91
        4
 64
     7
 65
   257
 75
     1
175
     1
 42
1.0
 92
        8
 66
     7
 43
1.0
 76
     1
 77
     6
 78
     2
 67
     7
 79
     5
170
     0
171
     0
290
     0
174
     0
 93
        1
 44
0.0
173
     0
291
     1
 45
0.0
  0
VISUALSTYLE
  5
2B
102
{ACAD_REACTORS
330
2A
102
}
330
2A
100
AcDbVisualStyle
  2
Flat
 70
     0
 71
     2
 72
     1
 73
     1
 90
        2
 40
-0.6
 41
30.0
 62
     5
 63
     7
421
 16777215
 74
     0
 91
        4
 64
     7
 65
   257
 75
     1
175
     1
 42
1.0
 92
        8
 66
     7
 43
1.0
 76
     1
 77
     6
 78
     2
 67
     7
 79
     5
170
     0
171
     0
290
     0
174
     0
 93
       13
 44
0.0
173
     0
291
     1
 45
0.0
  0
VISUALSTYLE
  5
2C
102
{ACAD_REACTORS
330
2A
102
}
330
2A
100
AcDbVisualStyle
  2
FlatWithEdges
 70
     1
 71
     2
 72
     1
 73
     1
 90
        2
 40
-0.6
 41
30.0
 62
     5
 63
     7
421
 16777215
 74
     1
 91
        4
 64
     7
 65
   257
 75
     1
175
     1
 42
1.0
 92
        0
 66
   257
 43
1.0
 76
     1
 77
     6
 78
     2
 67
     7
 79
     5
170
     0
171
     0
290
     0
174
     0
 93
       13
 44
0.0
173
     0
291
     1
 45
0.0
  0
VISUALSTYLE
  5
2D
102
{ACAD_REACTORS
330
2A
102
}
330
2A
100
AcDbVisualStyle
  2
Gouraud
 70
     2
 71
     2
 72
     2
 73
     1
 90
        2
 40
-0.6
 41
30.0
 62
     5
 63
     7
421
 16777215
 74
     0
 91
        4
 64
     7
 65
   257
 75
     1
175
     1
 42
1.0
 92
        0
 66
     7
 43
1.0
 76
     1
 77
     6
 78
     2
 67
     7
 79
     5
170
     0
171
     0
290
     0
174
     0
 93
       13
 44
0.0
173
     0
291
     1
 45
0.0
  0
VISUALSTYLE
  5
2E
102
{ACAD_REACTORS
330
2A
102
}
330
2A
100
AcDbVisualStyle
  2
GouraudWithEdges
 70
     3
 71
     2
 72
     2
 73
     1
 90
        2
 40
-0.6
 41
30.0
 62
     5
 63
     7
421
 16777215
 74
     1
 91
        4
 64
     7
 65
   257
 75
     1
175
     1
 42
1.0
 92
        0
 66
   257
 43
1.0
 76
     1
 77
     6
 78
     2
 67
     7
 79
     5
170
     0
171
     0
290
     0
174
     0
 93
       13
 44
0.0
173
     0
291
     1
 45
0.0
  0
VISUALSTYLE
  5
38
102
{ACAD_REACTORS
330
2A
102
}
330
2A
100
AcDbVisualStyle
  2
Linepattern
 70
    14
 71
     2
 72
     2
 73
     0
 90
        0
 40
-0.6
 41
-30.0
 62
     5
 63
     7
421
 16777215
 74
     1
 91
        4
 64
     7
 65
   257
 75
     7
175
     7
 42
1.0
 92
        8
 66
     7
 43
1.0
 76
     1
 77
     6
 78
     2
 67
     7
 79
     5
170
     0
171
     0
290
     0
174
     0
 93
        1
 44
0.0
173
     0
291
     1
 45
0.0
  0
VISUALSTYLE
  5
33
102
{ACAD_REACTORS
330
2A
102
}
330
2A
100
AcDbVisualStyle
  2
Realistic
 70
     8
 71
     2
 72
     2
 73
     0
 90
        0
 40
-0.6
 41
-30.0
 62
     5
 63
     7
421
 16777215
 74
     1
 91
        0
 64
     7
 65
   257
 75
     1
175
     1
 42
1.0
 92
        8
 66
     8
424
  7895160
 43
1.0
 76
     1
 77
     6
 78
     2
 67
     7
 79
     5
170
     0
171
     0
290
     0
174
     0
 93
       13
 44
0.0
173
     0
291
     0
 45
0.0
  0
VISUALSTYLE
  5
37
102
{ACAD_REACTORS
330
2A
102
}
330
2A
100
AcDbVisualStyle
  2
Thicken
 70
    13
 71
     2
 72
     2
 73
     0
 90
        0
 40
-0.6
 41
-30.0
 62
     5
 63
     7
421
 16777215
 74
     1
 91
        4
 64
     7
 65
   257
 75
     1
175
     1
 42
1.0
 92
       12
 66
     7
 43
1.0
 76
     1
 77
     6
 78
     2
 67
     7
 79
     5
170
     0
171
     0
290
     0
174
     0
 93
        1
 44
0.0
173
     0
291
     1
 45
0.0
  0
ENDSEC
  0
EOF
