  0
SECTION
  2
HEADER
  9
$ACADVER
  1
AC1021
  9
$ACADMAINTVER
 70
    25
  9
$DWGCODEPAGE
  3
ANSI_1252
  9
$INSBASE
 10
0.0
 20
0.0
 30
0.0
  9
$EXTMIN
 10
0.0
 20
0.0
 30
0.0
  9
$EXTMAX
 10
297.0
 20
210.0
 30
0.0
  9
$LIMMIN
 10
0.0
 20
0.0
  9
$LIMMAX
 10
297.0
 20
210.0
  9
$ORTHOMODE
 70
     0
  9
$REGENMODE
 70
     1
  9
$FILLMODE
 70
     1
  9
$QTEXTMODE
 70
     0
  9
$MIRRTEXT
 70
     1
  9
$LTSCALE
 40
1.0
  9
$ATTMODE
 70
     1
  9
$TEXTSIZE
 40
3.5
  9
$TRACEWID
 40
1.0
  9
$TEXTSTYLE
  7
Standard
  9
$CLAYER
  8
0
  9
$CELTYPE
  6
ByLayer
  9
$CECOLOR
 62
   256
  9
$CELTSCALE
 40
1.0
  9
$DISPSILH
 70
     0
  9
$DIMSCALE
 40
1.0
  9
$DIMASZ
 40
3.302
  9
$DIMEXO
 40
1.0
  9
$DIMDLI
 40
3.75
  9
$DIMRND
 40
0.0
  9
$DIMDLE
 40
0.0
  9
$DIMEXE
 40
1.0
  9
$DIMTP
 40
0.0
  9
$DIMTM
 40
0.0
  9
$DIMTXT
 40
3.5
  9
$DIMCEN
 40
2.5
  9
$DIMTSZ
 40
0.0
  9
$DIMTOL
 70
     0
  9
$DIMLIM
 70
     0
  9
$DIMTIH
 70
     1
  9
$DIMTOH
 70
     1
  9
$DIMSE1
 70
     0
  9
$DIMSE2
 70
     0
  9
$DIMTAD
 70
     1
  9
$DIMZIN
 70
     0
  9
$DIMBLK
  1

  9
$DIMASO
 70
     1
  9
$DIMSHO
 70
     1
  9
$DIMPOST
  1

  9
$DIMAPOST
  1

  9
$DIMALT
 70
     0
  9
$DIMALTD
 70
     3
  9
$DIMALTF
 40
0.0393700787
  9
$DIMLFAC
 40
1.0
  9
$DIMTOFL
 70
     1
  9
$DIMTVP
 40
0.0
  9
$DIMTIX
 70
     0
  9
$DIMSOXD
 70
     0
  9
$DIMSAH
 70
     0
  9
$DIMBLK1
  1

  9
$DIMBLK2
  1

  9
$DIMSTYLE
  2
ISO-25
  9
$DIMCLRD
 70
     0
  9
$DIMCLRE
 70
     0
  9
$DIMCLRT
 70
     0
  9
$DIMTFAC
 40
1.0
  9
$DIMGAP
 40
1.524
  9
$DIMJUST
 70
     0
  9
$DIMSD1
 70
     0
  9
$DIMSD2
 70
     0
  9
$DIMTOLJ
 70
     0
  9
$DIMTZIN
 70
     0
  9
$DIMALTZ
 70
     0
  9
$DIMALTTZ
 70
     0
  9
$DIMUPT
 70
     0
  9
$DIMDEC
 70
     2
  9
$DIMTDEC
 70
     2
  9
$DIMALTU
 70
     2
  9
$DIMALTTD
 70
     3
  9
$DIMTXSTY
  7
Standard
  9
$DIMAUNIT
 70
     0
  9
$DIMADEC
 70
     2
  9
$DIMALTRND
 40
0.0
  9
$DIMAZIN
 70
     0
  9
$DIMDSEP
 70
    44
  9
$DIMATFIT
 70
     3
  9
$DIMFRAC
 70
     0
  9
$DIMLDRBLK
  1

  9
$DIMLUNIT
 70
     2
  9
$DIMLWD
 70
    -2
  9
$DIMLWE
 70
    -2
  9
$DIMTMOVE
 70
     0
  9
$DIMFXL
 40
1.0
  9
$DIMFXLON
 70
     0
  9
$DIMJOGANG
 40
0.7853981634
  9
$DIMTFILL
 70
     0
  9
$DIMTFILLCLR
 70
     0
  9
$DIMARCSYM
 70
     0
  9
$DIMLTYPE
  6

  9
$DIMLTEX1
  6

  9
$DIMLTEX2
  6

  9
$LUNITS
 70
     2
  9
$LUPREC
 70
     2
  9
$SKETCHINC
 40
1.0
  9
$FILLETRAD
 40
10.0
  9
$AUNITS
 70
     0
  9
$AUPREC
 70
     2
  9
$MENU
  1
.
  9
$ELEVATION
 40
0.0
  9
$PELEVATION
 40
0.0
  9
$THICKNESS
 40
0.0
  9
$LIMCHECK
 70
     0
  9
$CHAMFERA
 40
10.0
  9
$CHAMFERB
 40
10.0
  9
$CHAMFERC
 40
20.0
  9
$CHAMFERD
 40
0.0
  9
$SKPOLY
 70
     0
  9
$TDCREATE
 40
2456456.493703067
  9
$TDUCREATE
 40
2456456.410369734
  9
$TDUPDATE
 40
2456456.493704028
  9
$TDUUPDATE
 40
2456456.410370694
  9
$TDINDWG
 40
0.0000000116
  9
$TDUSRTIMER
 40
0.0000000116
  9
$USRTIMER
 70
     1
  9
$ANGBASE
 50
0.0
  9
$ANGDIR
 70
     0
  9
$PDMODE
 70
     0
  9
$PDSIZE
 40
-1.0
  9
$PLINEWID
 40
0.0
  9
$SPLFRAME
 70
     0
  9
$SPLINETYPE
 70
     6
  9
$SPLINESEGS
 70
     8
  9
$HANDSEED
  5
212
  9
$SURFTAB1
 70
     6
  9
$SURFTAB2
 70
     6
  9
$SURFTYPE
 70
     6
  9
$SURFU
 70
     6
  9
$SURFV
 70
     6
  9
$UCSBASE
  2

  9
$UCSNAME
  2

  9
$UCSORG
 10
0.0
 20
0.0
 30
0.0
  9
$UCSXDIR
 10
1.0
 20
0.0
 30
0.0
  9
$UCSYDIR
 10
0.0
 20
1.0
 30
0.0
  9
$UCSORTHOREF
  2

  9
$UCSORTHOVIEW
 70
     0
  9
$UCSORGTOP
 10
0.0
 20
0.0
 30
0.0
  9
$UCSORGBOTTOM
 10
0.0
 20
0.0
 30
0.0
  9
$UCSORGLEFT
 10
0.0
 20
0.0
 30
0.0
  9
$UCSORGRIGHT
 10
0.0
 20
0.0
 30
0.0
  9
$UCSORGFRONT
 10
0.0
 20
0.0
 30
0.0
  9
$UCSORGBACK
 10
0.0
 20
0.0
 30
0.0
  9
$PUCSBASE
  2

  9
$PUCSNAME
  2

  9
$PUCSORG
 10
0.0
 20
0.0
 30
0.0
  9
$PUCSXDIR
 10
1.0
 20
0.0
 30
0.0
  9
$PUCSYDIR
 10
0.0
 20
1.0
 30
0.0
  9
$PUCSORTHOREF
  2

  9
$PUCSORTHOVIEW
 70
     0
  9
$PUCSORGTOP
 10
0.0
 20
0.0
 30
0.0
  9
$PUCSORGBOTTOM
 10
0.0
 20
0.0
 30
0.0
  9
$PUCSORGLEFT
 10
0.0
 20
0.0
 30
0.0
  9
$PUCSORGRIGHT
 10
0.0
 20
0.0
 30
0.0
  9
$PUCSORGFRONT
 10
0.0
 20
0.0
 30
0.0
  9
$PUCSORGBACK
 10
0.0
 20
0.0
 30
0.0
  9
$USERI1
 70
     0
  9
$USERI2
 70
     0
  9
$USERI3
 70
     0
  9
$USERI4
 70
     0
  9
$USERI5
 70
     0
  9
$USERR1
 40
0.0
  9
$USERR2
 40
0.0
  9
$USERR3
 40
0.0
  9
$USERR4
 40
0.0
  9
$USERR5
 40
0.0
  9
$WORLDVIEW
 70
     1
  9
$SHADEDGE
 70
     3
  9
$SHADEDIF
 70
    70
  9
$TILEMODE
 70
     1
  9
$MAXACTVP
 70
    64
  9
$PINSBASE
 10
0.0
 20
0.0
 30
0.0
  9
$PLIMCHECK
 70
     0
  9
$PEXTMIN
 10
1.0000000000E+20
 20
1.0000000000E+20
 30
1.0000000000E+20
  9
$PEXTMAX
 10
-1.0000000000E+20
 20
-1.0000000000E+20
 30
-1.0000000000E+20
  9
$PLIMMIN
 10
0.0
 20
0.0
  9
$PLIMMAX
 10
420.0
 20
297.0
  9
$UNITMODE
 70
     0
  9
$VISRETAIN
 70
     1
  9
$PLINEGEN
 70
     0
  9
$PSLTSCALE
 70
     1
  9
$TREEDEPTH
 70
  3020
  9
$CMLSTYLE
  2
Standard
  9
$CMLJUST
 70
     0
  9
$CMLSCALE
 40
20.0
  9
$PROXYGRAPHICS
 70
     1
  9
$MEASUREMENT
 70
     1
  9
$CELWEIGHT
370
    -1
  9
$ENDCAPS
280
     0
  9
$JOINSTYLE
280
     0
  9
$LWDISPLAY
290
     1
  9
$INSUNITS
 70
     4
  9
$HYPERLINKBASE
  1

  9
$STYLESHEET
  1

  9
$XEDIT
290
     1
  9
$CEPSNTYPE
380
     0
  9
$PSTYLEMODE
290
     1
  9
$FINGERPRINTGUID
  2
{8AC60273-6810-430B-97A5-3B59451AB245}
  9
$VERSIONGUID
  2
{FAEB1C32-E019-11D5-929B-00C0DF256EC4}
  9
$EXTNAMES
290
     1
  9
$PSVPSCALE
 40
0.0
  9
$OLESTARTUP
290
     0
  9
$SORTENTS
280
   127
  9
$INDEXCTL
280
     0
  9
$HIDETEXT
280
     1
  9
$XCLIPFRAME
290
     0
  9
$HALOGAP
280
     0
  9
$OBSCOLOR
 70
   257
  9
$OBSLTYPE
280
     0
  9
$INTERSECTIONDISPLAY
280
     0
  9
$INTERSECTIONCOLOR
 70
   257
  9
$DIMASSOC
280
     2
  9
$PROJECTNAME
  1

  9
$CAMERADISPLAY
290
     0
  9
$LENSLENGTH
 40
50.0
  9
$CAMERAHEIGHT
 40
0.0
  9
$STEPSPERSEC
 40
2.0
  9
$STEPSIZE
 40
6.0
  9
$3DDWFPREC
 40
2.0
  9
$PSOLWIDTH
 40
5.0
  9
$PSOLHEIGHT
 40
80.0
  9
$LOFTANG1
 40
1.5707963268
  9
$LOFTANG2
 40
1.5707963268
  9
$LOFTMAG1
 40
0.0
  9
$LOFTMAG2
 40
0.0
  9
$LOFTPARAM
 70
     7
  9
$LOFTNORMALS
280
     1
  9
$LATITUDE
 40
37.795
  9
$LONGITUDE
 40
-122.394
  9
$NORTHDIRECTION
 40
0.0
  9
$TIMEZONE
 70
 -8000
  9
$LIGHTGLYPHDISPLAY
280
     1
  9
$TILEMODELIGHTSYNCH
280
     1
  9
$SOLIDHIST
280
     1
  9
$SHOWHIST
280
     1
  9
$DWFFRAME
280
     2
  9
$DGNFRAME
280
     2
  9
$REALWORLDSCALE
290
     1
  9
$INTERFERECOLOR
 62
   256
  9
$CSHADOW
280
     0
  9
$SHADOWPLANELOCATION
 40
0.0
  0
ENDSEC
  0
SECTION
  2
CLASSES
  0
CLASS
  1
ACDBDICTIONARYWDFLT
  2
AcDbDictionaryWithDefault
  3
ObjectDBX Classes
 90
        0
 91
        4
280
     0
281
     0
  0
CLASS
  1
VISUALSTYLE
  2
AcDbVisualStyle
  3
ObjectDBX Classes
 90
     4095
 91
        4
280
     0
281
     0
  0
CLASS
  1
MATERIAL
  2
AcDbMaterial
  3
ObjectDBX Classes
 90
     1153
 91
        4
280
     0
281
     0
  0
ENDSEC
  0
SECTION
  2
TABLES
  0
TABLE
  2
VPORT
  5
8
330
0
100
AcDbSymbolTable
 70
     1
  0
VPORT
  5
29
330
8
100
AcDbSymbolTableRecord
100
AcDbViewportTableRecord
  2
*Active
 70
     0
 10
0.0
 20
0.0
 11
1.0
 21
1.0
 12
148.5
 22
105.0
 13
0.0
 23
0.0
 14
10.0
 24
10.0
 15
10.0
 25
10.0
 16
0.0
 26
0.0
 36
1.0
 17
0.0
 27
0.0
 37
0.0
 40
210.0
 41
1.4142857143
 42
50.0
 43
0.0
 44
0.0
 50
0.0
 51
0.0
 71
     0
 72
  2000
 73
     1
 74
     3
 75
     0
 76
     0
 77
     0
 78
     0
281
     0
 65
     1
110
0.0
120
0.0
130
0.0
111
1.0
121
0.0
131
0.0
112
0.0
122
1.0
132
0.0
 79
     0
146
0.0
 60
     3
 61
     5
292
     1
282
     1
141
0.0
142
0.0
 63
   250
  0
ENDTAB
  0
TABLE
  2
LTYPE
  5
5
330
0
100
AcDbSymbolTable
 70
     8
  0
LTYPE
  5
14
330
5
100
AcDbSymbolTableRecord
100
AcDbLinetypeTableRecord
  2
ByBlock
 70
     0
  3

 72
    65
 73
     0
 40
0.0
  0
LTYPE
  5
15
330
5
100
AcDbSymbolTableRecord
100
AcDbLinetypeTableRecord
  2
ByLayer
 70
     0
  3

 72
    65
 73
     0
 40
0.0
  0
LTYPE
  5
16
330
5
100
AcDbSymbolTableRecord
100
AcDbLinetypeTableRecord
  2
Continuous
 70
     0
  3
Solid line
 72
    65
 73
     0
 40
0.0
  0
LTYPE
  5
3F
330
5
100
AcDbSymbolTableRecord
100
AcDbLinetypeTableRecord
  2
SLD-Durchgehend
 70
     0
  3
SolidWorks Line Style
 72
    65
 73
     0
 40
0.0
  0
LTYPE
  5
40
330
5
100
AcDbSymbolTableRecord
100
AcDbLinetypeTableRecord
  2
SLD-Gestrichelt
 70
     0
  3
SolidWorks Line Style
 72
    65
 73
     2
 40
1.905
 49
1.27
 74
     0
 49
-0.635
 74
     0
  0
LTYPE
  5
41
330
5
100
AcDbSymbolTableRecord
100
AcDbLinetypeTableRecord
  2
SLD-Phantom
 70
     0
  3
SolidWorks Line Style
 72
    65
 73
     6
 40
12.7
 49
6.35
 74
     0
 49
-1.27
 74
     0
 49
1.27
 74
     0
 49
-1.27
 74
     0
 49
1.27
 74
     0
 49
-1.27
 74
     0
  0
LTYPE
  5
42
330
5
100
AcDbSymbolTableRecord
100
AcDbLinetypeTableRecord
  2
SLD-Kette
 70
     0
  3
SolidWorks Line Style
 72
    65
 73
     4
 40
10.16
 49
6.35
 74
     0
 49
-1.27
 74
     0
 49
1.27
 74
     0
 49
-1.27
 74
     0
  0
LTYPE
  5
43
330
5
100
AcDbSymbolTableRecord
100
AcDbLinetypeTableRecord
  2
SLD-Punktstrich
 70
     0
  3
SolidWorks Line Style
 72
    65
 73
     4
 40
19.05
 49
15.24
 74
     0
 49
-1.27
 74
     0
 49
1.27
 74
     0
 49
-1.27
 74
     0
  0
LTYPE
  5
44
330
5
100
AcDbSymbolTableRecord
100
AcDbLinetypeTableRecord
  2
SLD-Naht
 70
     0
  3
SolidWorks Line Style
 72
    65
 73
     2
 40
0.635
 49
0.0
 74
     0
 49
-0.635
 74
     0
  0
LTYPE
  5
45
330
5
100
AcDbSymbolTableRecord
100
AcDbLinetypeTableRecord
  2
SLD-Dicke-Dünne-Kette
 70
     0
  3
SolidWorks Line Style
 72
    65
 73
     4
 40
10.16
 49
6.35
 74
     0
 49
-1.27
 74
     0
 49
1.27
 74
     0
 49
-1.27
 74
     0
  0
ENDTAB
  0
TABLE
  2
LAYER
  5
2
330
0
100
AcDbSymbolTable
 70
     3
  0
LAYER
  5
10
330
2
100
AcDbSymbolTableRecord
100
AcDbLayerTableRecord
  2
0
 70
     0
 62
     7
  6
Continuous
370
    -3
390
F
347
3E
  0
LAYER
  5
46
330
2
100
AcDbSymbolTableRecord
100
AcDbLayerTableRecord
  2
1
 70
     0
 62
     4
  6
Continuous
370
    -1
390
F
347
3E
  0
LAYER
  5
47
330
2
100
AcDbSymbolTableRecord
100
AcDbLayerTableRecord
  2
2
 70
     0
 62
     7
  6
SLD-Durchgehend
370
    -3
390
F
347
3E
  0
ENDTAB
  0
TABLE
  2
STYLE
  5
3
330
0
100
AcDbSymbolTable
 70
     2
  0
STYLE
  5
11
330
3
100
AcDbSymbolTableRecord
100
AcDbTextStyleTableRecord
  2
Standard
 70
     0
 40
0.0
 41
1.0
 50
0.0
 71
     0
 42
3.5
  3
txt
  4

  0
STYLE
  5
1E5
330
3
100
AcDbSymbolTableRecord
100
AcDbTextStyleTableRecord
  2
SLDTEXTSTYLE0
 70
     0
 40
0.0
 41
0.75
 50
0.0
 71
     0
 42
0.2
  3
TXT
  4

  0
ENDTAB
  0
TABLE
  2
VIEW
  5
6
330
0
100
AcDbSymbolTable
 70
     0
  0
ENDTAB
  0
TABLE
  2
UCS
  5
7
330
0
100
AcDbSymbolTable
 70
     0
  0
ENDTAB
  0
TABLE
  2
APPID
  5
9
330
0
100
AcDbSymbolTable
 70
     1
  0
APPID
  5
12
330
9
100
AcDbSymbolTableRecord
100
AcDbRegAppTableRecord
  2
ACAD
 70
     0
  0
ENDTAB
  0
TABLE
  2
DIMSTYLE
  5
A
330
0
100
AcDbSymbolTable
 70
     2
100
AcDbDimStyleTable
  0
DIMSTYLE
105
27
330
A
100
AcDbSymbolTableRecord
100
AcDbDimStyleTableRecord
  2
ISO-25
 70
     0
 41
2.5
 42
0.625
 43
3.75
 44
1.25
 73
     0
 74
     0
 77
     1
 78
     8
140
2.5
141
2.5
143
0.0393700787
147
0.625
171
     3
172
     1
178
     0
271
     2
272
     2
274
     3
278
    44
283
     0
284
     8
340
11
  0
DIMSTYLE
105
1E6
102
{ACAD_REACTORS
330
1E4
330
1F0
330
1FA
330
205
102
}
330
A
100
AcDbSymbolTableRecord
100
AcDbDimStyleTableRecord
  2
SLDDIMSTYLE0
 70
     0
 41
3.302
 44
0.0
 45
0.000000001
 73
     0
 74
     0
 77
     1
 78
    12
 79
     3
140
3.5
147
0.875
173
     1
178
     0
271
     2
272
     2
276
     2
284
    12
340
1E5
  0
ENDTAB
  0
TABLE
  2
BLOCK_RECORD
  5
1
330
0
100
AcDbSymbolTable
 70
     5
  0
BLOCK_RECORD
  5
1F
330
1
100
AcDbSymbolTableRecord
100
AcDbBlockTableRecord
  2
*Model_Space
340
22
 70
     0
280
     1
281
     0
  0
BLOCK_RECORD
  5
1B
330
1
100
AcDbSymbolTableRecord
100
AcDbBlockTableRecord
  2
*Paper_Space
340
1E
 70
     0
280
     1
281
     0
  0
BLOCK_RECORD
  5
23
330
1
100
AcDbSymbolTableRecord
100
AcDbBlockTableRecord
  2
*Paper_Space0
340
26
 70
     0
280
     1
281
     0
  0
BLOCK_RECORD
  5
1E7
330
1
100
AcDbSymbolTableRecord
100
AcDbBlockTableRecord
  2
_D
340
0
 70
     0
280
     1
281
     0
  0
BLOCK_RECORD
  5
1F1
330
1
100
AcDbSymbolTableRecord
100
AcDbBlockTableRecord
  2
_D_1
340
0
 70
     0
280
     1
281
     0
  0
BLOCK_RECORD
  5
1FB
330
1
100
AcDbSymbolTableRecord
100
AcDbBlockTableRecord
  2
_D_2
340
0
 70
     0
280
     1
281
     0
  0
BLOCK_RECORD
  5
206
330
1
100
AcDbSymbolTableRecord
100
AcDbBlockTableRecord
  2
_D_3
340
0
 70
     0
280
     1
281
     0
  0
ENDTAB
  0
ENDSEC
  0
SECTION
  2
BLOCKS
  0
BLOCK
  5
20
330
1F
100
AcDbEntity
  8
0
100
AcDbBlockBegin
  2
*Model_Space
 70
     0
 10
0.0
 20
0.0
 30
0.0
  3
*Model_Space
  1

  0
ENDBLK
  5
21
330
1F
100
AcDbEntity
  8
0
100
AcDbBlockEnd
  0
BLOCK
  5
1C
330
1B
100
AcDbEntity
 67
     1
  8
0
100
AcDbBlockBegin
  2
*Paper_Space
 70
     0
 10
0.0
 20
0.0
 30
0.0
  3
*Paper_Space
  1

  0
ENDBLK
  5
1D
330
1B
100
AcDbEntity
 67
     1
  8
0
100
AcDbBlockEnd
  0
BLOCK
  5
24
330
23
100
AcDbEntity
  8
0
100
AcDbBlockBegin
  2
*Paper_Space0
 70
     0
 10
0.0
 20
0.0
 30
0.0
  3
*Paper_Space0
  1

  0
ENDBLK
  5
25
330
23
100
AcDbEntity
  8
0
100
AcDbBlockEnd
  0
BLOCK
  5
1E8
330
1E7
100
AcDbEntity
  8
0
100
AcDbBlockBegin
  2
_D
 70
     0
 10
0.0
 20
0.0
 30
0.0
  3
_D
  1

  0
SOLID
  5
1EA
330
1E7
100
AcDbEntity
  8
2
 62
     7
420
 16777215
100
AcDbTrace
 10
-49.9999291085
 20
62.0002015396
 30
0.0
 11
-46.6979291085
 21
61.4922015396
 31
0.0
 12
-46.6979291085
 22
62.5082015396
 32
0.0
 13
-46.6979291085
 23
62.5082015396
 33
0.0
  0
SOLID
  5
1EB
330
1E7
100
AcDbEntity
  8
2
 62
     7
420
 16777215
100
AcDbTrace
 10
200.0000708915
 20
62.0002015396
 30
0.0
 11
196.6980708915
 21
62.5082015396
 31
0.0
 12
196.6980708915
 22
61.4922015396
 32
0.0
 13
196.6980708915
 23
61.4922015396
 33
0.0
  0
LINE
  5
1EC
330
1E7
100
AcDbEntity
  8
2
 62
     7
420
 16777215
100
AcDbLine
 10
-49.9999291085
 20
1.0002015396
 30
0.0
 11
-49.9999291085
 21
63.0002015396
 31
0.0
  0
LINE
  5
1ED
330
1E7
100
AcDbEntity
  8
2
 62
     7
420
 16777215
100
AcDbLine
 10
200.0000708915
 20
1.0002015396
 30
0.0
 11
200.0000708915
 21
63.0002015396
 31
0.0
  0
LINE
  5
1EE
330
1E7
100
AcDbEntity
  8
2
 62
     7
420
 16777215
100
AcDbLine
 10
-49.9999291085
 20
62.0002015396
 30
0.0
 11
200.0000708915
 21
62.0002015396
 31
0.0
  0
MTEXT
  5
1EF
330
1E7
100
AcDbEntity
  8
2
 62
     7
420
 16777215
100
AcDbMText
 10
69.6990293629
 20
66.5119384542
 30
0.0
 40
3.5
 41
0.0
 46
0.0
 71
     1
 72
     1
  1
250
  7
SLDTEXTSTYLE0
 73
     1
 44
1.0
  0
ENDBLK
  5
1E9
330
1E7
100
AcDbEntity
  8
0
100
AcDbBlockEnd
  0
BLOCK
  5
1F2
330
1F1
100
AcDbEntity
  8
0
100
AcDbBlockBegin
  2
_D_1
 70
     0
 10
0.0
 20
0.0
 30
0.0
  3
_D_1
  1

  0
SOLID
  5
1F4
330
1F1
100
AcDbEntity
  8
2
 62
     7
420
 16777215
100
AcDbTrace
 10
200.0000708915
 20
56.0002015396
 30
0.0
 11
196.6980708915
 21
56.5082015396
 31
0.0
 12
196.6980708915
 22
55.4922015396
 32
0.0
 13
196.6980708915
 23
55.4922015396
 33
0.0
  0
SOLID
  5
1F5
330
1F1
100
AcDbEntity
  8
2
 62
     7
420
 16777215
100
AcDbTrace
 10
0.0000708915
 20
56.0002015396
 30
0.0
 11
3.3020708915
 21
55.4922015396
 31
0.0
 12
3.3020708915
 22
56.5082015396
 32
0.0
 13
3.3020708915
 23
56.5082015396
 33
0.0
  0
LINE
  5
1F6
330
1F1
100
AcDbEntity
  8
2
 62
     7
420
 16777215
100
AcDbLine
 10
200.0000708915
 20
1.0002015396
 30
0.0
 11
200.0000708915
 21
57.0002015396
 31
0.0
  0
LINE
  5
1F7
330
1F1
100
AcDbEntity
  8
2
 62
     7
420
 16777215
100
AcDbLine
 10
0.0000708915
 20
1.0002015396
 30
0.0
 11
0.0000708915
 21
57.0002015396
 31
0.0
  0
LINE
  5
1F8
330
1F1
100
AcDbEntity
  8
2
 62
     7
420
 16777215
100
AcDbLine
 10
200.0000708915
 20
56.0002015396
 30
0.0
 11
0.0000708915
 21
56.0002015396
 31
0.0
  0
MTEXT
  5
1F9
330
1F1
100
AcDbEntity
  8
2
 62
     7
420
 16777215
100
AcDbMText
 10
94.6990293629
 20
60.5119384542
 30
0.0
 40
3.5
 41
0.0
 46
0.0
 71
     1
 72
     1
  1
200
  7
SLDTEXTSTYLE0
 73
     1
 44
1.0
  0
ENDBLK
  5
1F3
330
1F1
100
AcDbEntity
  8
0
100
AcDbBlockEnd
  0
BLOCK
  5
1FC
330
1FB
100
AcDbEntity
  8
0
100
AcDbBlockBegin
  2
_D_2
 70
     0
 10
0.0
 20
0.0
 30
0.0
  3
_D_2
  1

  0
SOLID
  5
1FE
330
1FB
100
AcDbEntity
  8
2
 62
     7
420
 16777215
100
AcDbTrace
 10
206.0000708915
 20
18.5002015396
 30
0.0
 11
205.4920708915
 21
15.1982015396
 31
0.0
 12
206.5080708915
 22
15.1982015396
 32
0.0
 13
206.5080708915
 23
15.1982015396
 33
0.0
  0
SOLID
  5
1FF
330
1FB
100
AcDbEntity
  8
2
 62
     7
420
 16777215
100
AcDbTrace
 10
206.0000708915
 20
-18.4997984604
 30
0.0
 11
206.5080708915
 21
-15.1977984604
 31
0.0
 12
205.4920708915
 22
-15.1977984604
 32
0.0
 13
205.4920708915
 23
-15.1977984604
 33
0.0
  0
LINE
  5
200
330
1FB
100
AcDbEntity
  8
2
 62
     7
420
 16777215
100
AcDbLine
 10
95.0000708915
 20
18.5002015396
 30
0.0
 11
207.0000708915
 21
18.5002015396
 31
0.0
  0
LINE
  5
201
330
1FB
100
AcDbEntity
  8
2
 62
     7
420
 16777215
100
AcDbLine
 10
95.0000708915
 20
-18.4997984604
 30
0.0
 11
207.0000708915
 21
-18.4997984604
 31
0.0
  0
LINE
  5
202
330
1FB
100
AcDbEntity
  8
2
 62
     7
420
 16777215
100
AcDbLine
 10
206.0000708915
 20
18.5002015396
 30
0.0
 11
206.0000708915
 21
-18.4997984604
 31
0.0
  0
MTEXT
  5
203
330
1FB
100
AcDbEntity
  8
2
 62
     7
420
 16777215
100
AcDbMText
 10
201.4883338023
 20
-6.6470034406
 30
0.0
 40
3.5
 41
0.0
 46
0.0
 71
     1
 72
     1
  1
%%c
  7
SLDTEXTSTYLE0
 11
-7.044195017643634E-15
 21
1.0
 31
0.0
 73
     1
 44
1.0
  0
MTEXT
  5
204
330
1FB
100
AcDbEntity
  8
2
 62
     7
420
 16777215
100
AcDbMText
 10
201.4348616256
 20
-1.3685660423
 30
0.0
 40
3.5
 41
0.0
 46
0.0
 71
     1
 72
     1
  1
37
  7
SLDTEXTSTYLE0
 11
-7.044195017643634E-15
 21
1.0
 31
0.0
 73
     1
 44
1.0
  0
ENDBLK
  5
1FD
330
1FB
100
AcDbEntity
  8
0
100
AcDbBlockEnd
  0
BLOCK
  5
207
330
206
100
AcDbEntity
  8
0
100
AcDbBlockBegin
  2
_D_3
 70
     0
 10
0.0
 20
0.0
 30
0.0
  3
_D_3
  1

  0
SOLID
  5
209
330
206
100
AcDbEntity
  8
2
 62
     7
420
 16777215
100
AcDbTrace
 10
212.0000708915
 20
21.0002014052
 30
0.0
 11
211.4920708915
 21
17.6982014052
 31
0.0
 12
212.5080708915
 22
17.6982014052
 32
0.0
 13
212.5080708915
 23
17.6982014052
 33
0.0
  0
SOLID
  5
20A
330
206
100
AcDbEntity
  8
2
 62
     7
420
 16777215
100
AcDbTrace
 10
212.0000708915
 20
-20.999798326
 30
0.0
 11
212.5080708915
 21
-17.697798326
 31
0.0
 12
211.4920708915
 22
-17.697798326
 32
0.0
 13
211.4920708915
 23
-17.697798326
 33
0.0
  0
LINE
  5
20B
330
206
100
AcDbEntity
  8
2
 62
     7
420
 16777215
100
AcDbLine
 10
183.0000708915
 20
21.0002014052
 30
0.0
 11
213.0000708915
 21
21.0002014052
 31
0.0
  0
LINE
  5
20C
330
206
100
AcDbEntity
  8
2
 62
     7
420
 16777215
100
AcDbLine
 10
183.0000708915
 20
-20.999798326
 30
0.0
 11
213.0000708915
 21
-20.999798326
 31
0.0
  0
LINE
  5
20D
330
206
100
AcDbEntity
  8
2
 62
     7
420
 16777215
100
AcDbLine
 10
212.0000708915
 20
21.0002014052
 30
0.0
 11
212.0000708915
 21
-20.999798326
 31
0.0
  0
MTEXT
  5
20E
330
206
100
AcDbEntity
  8
2
 62
     7
420
 16777215
100
AcDbMText
 10
207.4883338023
 20
-6.6470034406
 30
0.0
 40
3.5
 41
0.0
 46
0.0
 71
     1
 72
     1
  1
%%c
  7
SLDTEXTSTYLE0
 11
-7.044195017643634E-15
 21
1.0
 31
0.0
 73
     1
 44
1.0
  0
MTEXT
  5
20F
330
206
100
AcDbEntity
  8
2
 62
     7
420
 16777215
100
AcDbMText
 10
207.4348616256
 20
-1.3685660423
 30
0.0
 40
3.5
 41
0.0
 46
0.0
 71
     1
 72
     1
  1
42
  7
SLDTEXTSTYLE0
 11
-7.044195017643634E-15
 21
1.0
 31
0.0
 73
     1
 44
1.0
  0
ENDBLK
  5
208
330
206
100
AcDbEntity
  8
0
100
AcDbBlockEnd
  0
ENDSEC
  0
SECTION
  2
ENTITIES
  0
LINE
  5
48
330
1F
100
AcDbEntity
  8
0
  6
SLD-Punktstrich
 62
     7
100
AcDbLine
 10
-49.9999291085
 20
0.0002015396
 30
0.0
 11
200.0000708915
 21
0.0002015396
 31
0.0
  0
POINT
  5
49
330
1F
100
AcDbEntity
  8
1
 62
     4
420
    65535
100
AcDbPoint
 10
-49.9999291085
 20
0.0002015396
 30
0.0
  0
POINT
  5
4A
330
1F
100
AcDbEntity
  8
1
 62
     4
420
    65535
100
AcDbPoint
 10
200.0000708915
 20
0.0002015396
 30
0.0
  0
POINT
  5
4B
330
1F
100
AcDbEntity
  8
1
 62
     4
420
    65535
100
AcDbPoint
 10
0.0000708915
 20
0.0002015396
 30
0.0
  0
POINT
  5
4C
330
1F
100
AcDbEntity
  8
1
 62
     4
420
    65535
100
AcDbPoint
 10
200.0000708915
 20
0.0002015396
 30
0.0
  0
LINE
  5
4D
330
1F
100
AcDbEntity
  8
1
 62
     4
420
    65535
100
AcDbLine
 10
182.0000708915
 20
-20.999798326
 30
0.0
 11
183.0000708915
 21
-20.999798326
 31
0.0
  0
LINE
  5
4E
330
1F
100
AcDbEntity
  8
1
 62
     4
420
    65535
100
AcDbLine
 10
183.0088231696
 20
21.0002014052
 30
0.0
 11
182.0000708915
 21
21.0002014052
 31
0.0
  0
LINE
  5
4F
330
1F
100
AcDbEntity
  8
1
 62
     4
420
    65535
100
AcDbLine
 10
199.8928912152
 20
15.1858420885
 30
0.0
 11
198.3820458667
 21
17.8027029945
 31
0.0
  0
LINE
  5
50
330
1F
100
AcDbEntity
  8
1
 62
     4
420
    65535
100
AcDbLine
 10
198.3819987728
 20
-17.8023814843
 30
0.0
 11
199.8928912152
 21
-15.1854390092
 31
0.0
  0
LINE
  5
51
330
1F
100
AcDbEntity
  8
1
 62
     4
420
    65535
100
AcDbLine
 10
180.8750708859
 20
-15.2497983628
 30
0.0
 11
187.7500708419
 21
-15.2497983628
 31
0.0
  0
LINE
  5
52
330
1F
100
AcDbEntity
  8
1
 62
     4
420
    65535
100
AcDbLine
 10
187.7500708419
 20
15.250201442
 30
0.0
 11
180.8750708859
 21
15.250201442
 31
0.0
  0
LINE
  5
53
330
1F
100
AcDbEntity
  8
1
 62
     4
420
    65535
100
AcDbLine
 10
188.0000708403
 20
15.0002014436
 30
0.0
 11
187.7500708419
 21
15.250201442
 31
0.0
  0
LINE
  5
54
330
1F
100
AcDbEntity
  8
1
 62
     4
420
    65535
100
AcDbLine
 10
187.7500708419
 20
-15.2497983628
 30
0.0
 11
188.0000708403
 21
-14.9997983644
 31
0.0
  0
LINE
  5
55
330
1F
100
AcDbEntity
  8
1
 62
     4
420
    65535
100
AcDbLine
 10
188.0000708403
 20
-14.9997983644
 30
0.0
 11
189.0000709619
 21
-14.9997983644
 31
0.0
  0
LINE
  5
56
330
1F
100
AcDbEntity
  8
1
 62
     4
420
    65535
100
AcDbLine
 10
189.0000709619
 20
15.0002014436
 30
0.0
 11
188.0000708403
 21
15.0002014436
 31
0.0
  0
LINE
  5
57
330
1F
100
AcDbEntity
  8
1
 62
     4
420
    65535
100
AcDbLine
 10
189.0000709619
 20
-14.9997983644
 30
0.0
 11
190.939301434
 21
-16.1194135995
 31
0.0
  0
LINE
  5
58
330
1F
100
AcDbEntity
  8
1
 62
     4
420
    65535
100
AcDbLine
 10
190.939301434
 20
16.1198166787
 30
0.0
 11
189.0000709619
 21
15.0002014436
 31
0.0
  0
LINE
  5
59
330
1F
100
AcDbEntity
  8
1
 62
     4
420
    65535
100
AcDbLine
 10
191.2393014321
 20
-16.1997983567
 30
0.0
 11
192.4000709401
 21
-16.1997983567
 31
0.0
  0
LINE
  5
5A
330
1F
100
AcDbEntity
  8
1
 62
     4
420
    65535
100
AcDbLine
 10
192.4000709401
 20
16.2002014359
 30
0.0
 11
191.2393014321
 21
16.2002014359
 31
0.0
  0
ARC
  5
5B
330
1F
100
AcDbEntity
  8
1
 62
     4
420
    65535
100
AcDbCircle
 10
191.2393014321
 20
-15.5997983605
 30
0.0
 40
0.5999999961606388
100
AcDbArc
 50
240.0
 51
270.0
  0
ARC
  5
5C
330
1F
100
AcDbEntity
  8
1
 62
     4
420
    65535
100
AcDbCircle
 10
191.2393014321
 20
15.6002014398
 30
0.0
 40
0.5999999961606424
100
AcDbArc
 50
90.0
 51
120.0
  0
ARC
  5
5D
330
1F
100
AcDbEntity
  8
1
 62
     4
420
    65535
100
AcDbCircle
 10
182.0000708787
 20
-16.9033929216
 30
0.0
 40
1.999999987199345
100
AcDbArc
 50
124.2288663279
 51
180.0
  0
ARC
  5
5E
330
1F
100
AcDbEntity
  8
1
 62
     4
420
    65535
100
AcDbCircle
 10
182.0000708787
 20
16.9037960008
 30
0.0
 40
1.999999987199345
100
AcDbArc
 50
180.0
 51
235.7711336721
  0
ARC
  5
5F
330
1F
100
AcDbEntity
  8
1
 62
     4
420
    65535
100
AcDbCircle
 10
182.0000708915
 20
-18.999798326
 30
0.0
 40
2.0
100
AcDbArc
 50
180.0
 51
270.0
  0
ARC
  5
60
330
1F
100
AcDbEntity
  8
1
 62
     4
420
    65535
100
AcDbCircle
 10
182.0000708915
 20
19.0002014052
 30
0.0
 40
2.000000000000004
100
AcDbArc
 50
90.0
 51
180.0
  0
LINE
  5
61
330
1F
100
AcDbEntity
  8
1
 62
     4
420
    65535
100
AcDbLine
 10
193.0000709363
 20
-11.4997983868
 30
0.0
 11
194.0000709299
 21
-11.4997983868
 31
0.0
  0
LINE
  5
62
330
1F
100
AcDbEntity
  8
1
 62
     4
420
    65535
100
AcDbLine
 10
194.0000709299
 20
11.500201466
 30
0.0
 11
193.0000709363
 21
11.500201466
 31
0.0
  0
LINE
  5
63
330
1F
100
AcDbEntity
  8
1
 62
     4
420
    65535
100
AcDbLine
 10
194.0000709299
 20
-13.499798374
 30
0.0
 11
195.2000709222
 21
-13.499798374
 31
0.0
  0
LINE
  5
64
330
1F
100
AcDbEntity
  8
1
 62
     4
420
    65535
100
AcDbLine
 10
195.2000709222
 20
13.5002014532
 30
0.0
 11
194.0000709299
 21
13.5002014532
 31
0.0
  0
LINE
  5
65
330
1F
100
AcDbEntity
  8
1
 62
     4
420
    65535
100
AcDbLine
 10
199.4435953736
 20
-10.4997983932
 30
0.0
 11
199.8000708928
 21
-10.4997983932
 31
0.0
  0
LINE
  5
66
330
1F
100
AcDbEntity
  8
1
 62
     4
420
    65535
100
AcDbLine
 10
199.8000708928
 20
10.5002014724
 30
0.0
 11
199.4435953736
 21
10.5002014724
 31
0.0
  0
LINE
  5
67
330
1F
100
AcDbEntity
  8
1
 62
     4
420
    65535
100
AcDbLine
 10
199.4435953736
 20
10.5002014724
 30
0.0
 11
195.2000709222
 21
12.9502014568
 31
0.0
  0
LINE
  5
68
330
1F
100
AcDbEntity
  8
1
 62
     4
420
    65535
100
AcDbLine
 10
195.2000709222
 20
-12.9497983775
 30
0.0
 11
199.4435953736
 21
-10.4997983932
 31
0.0
  0
ARC
  5
69
330
1F
100
AcDbEntity
  8
1
 62
     4
420
    65535
100
AcDbCircle
 10
192.4000709401
 20
-15.5997983605
 30
0.0
 40
0.5999999961603351
100
AcDbArc
 50
270.0
 51
0.0
  0
ARC
  5
6A
330
1F
100
AcDbEntity
  8
1
 62
     4
420
    65535
100
AcDbCircle
 10
192.4000709401
 20
15.6002014398
 30
0.0
 40
0.5999999961603386
100
AcDbArc
 50
0.0
 51
90.0
  0
ARC
  5
6B
330
1F
100
AcDbEntity
  8
1
 62
     4
420
    65535
100
AcDbCircle
 10
199.8000708928
 20
-10.6997983919
 30
0.0
 40
0.1999999987201129
100
AcDbArc
 50
0.0
 51
90.0
  0
ARC
  5
6C
330
1F
100
AcDbEntity
  8
1
 62
     4
420
    65535
100
AcDbCircle
 10
199.8000708928
 20
10.7002014712
 30
0.0
 40
0.1999999987201129
100
AcDbArc
 50
270.0
 51
0.0
  0
ARC
  5
6D
330
1F
100
AcDbEntity
  8
1
 62
     4
420
    65535
100
AcDbCircle
 10
199.2000708966
 20
-14.7854390118
 30
0.0
 40
0.7999999948798404
100
AcDbArc
 50
330.0
 51
0.0
  0
ARC
  5
6E
330
1F
100
AcDbEntity
  8
1
 62
     4
420
    65535
100
AcDbCircle
 10
199.2000708966
 20
14.785842091
 30
0.0
 40
0.7999999948798404
100
AcDbArc
 50
0.0
 51
30.0
  0
LINE
  5
6F
330
1F
100
AcDbEntity
  8
1
 62
     4
420
    65535
100
AcDbLine
 10
16.7524756273
 20
-49.9997984604
 30
0.0
 11
18.1250708915
 21
-47.6223937246
 31
0.0
  0
LINE
  5
70
330
1F
100
AcDbEntity
  8
1
 62
     4
420
    65535
100
AcDbLine
 10
19.3250708915
 20
-45.9997984604
 30
0.0
 11
20.6750708915
 21
-45.9997984604
 31
0.0
  0
ARC
  5
71
330
1F
100
AcDbEntity
  8
1
 62
     4
420
    65535
100
AcDbCircle
 10
32.0000708915
 20
-24.5166972687
 30
0.0
 40
3.0
100
AcDbArc
 50
104.327295869
 51
180.0
  0
ARC
  5
72
330
1F
100
AcDbEntity
  8
1
 62
     4
420
    65535
100
AcDbCircle
 10
32.0000708915
 20
24.5171003479
 30
0.0
 40
3.0
100
AcDbArc
 50
180.0
 51
255.672704131
  0
LINE
  5
73
330
1F
100
AcDbEntity
  8
1
 62
     4
420
    65535
100
AcDbLine
 10
21.8750708915
 20
-47.6223937246
 30
0.0
 11
23.2476661557
 21
-49.9997984604
 31
0.0
  0
LINE
  5
74
330
1F
100
AcDbEntity
  8
1
 62
     4
420
    65535
100
AcDbLine
 10
23.2476661557
 20
-49.9997984604
 30
0.0
 11
29.0000708915
 21
-49.9997984604
 31
0.0
  0
ARC
  5
75
330
1F
100
AcDbEntity
  8
1
 62
     4
420
    65535
100
AcDbCircle
 10
187.5000709683
 20
-12.9344418293
 30
0.0
 40
0.5
100
AcDbArc
 50
0.0
 51
82.0
  0
ARC
  5
76
330
1F
100
AcDbEntity
  8
1
 62
     4
420
    65535
100
AcDbCircle
 10
187.5000709683
 20
12.9348449085
 30
0.0
 40
0.5
100
AcDbArc
 50
278.0
 51
0.0
  0
ARC
  5
77
330
1F
100
AcDbEntity
  8
1
 62
     4
420
    65535
100
AcDbCircle
 10
19.3250708915
 20
-47.1997984604
 30
0.0
 40
1.200000000000003
100
AcDbArc
 50
90.0
 51
180.0
  0
LINE
  5
78
330
1F
100
AcDbEntity
  8
1
 62
     4
420
    65535
100
AcDbLine
 10
16.7524756273
 20
50.0002015396
 30
0.0
 11
0.0000708915
 21
50.0002015396
 31
0.0
  0
LINE
  5
79
330
1F
100
AcDbEntity
  8
1
 62
     4
420
    65535
100
AcDbLine
 10
0.0000708915
 20
-49.9997984604
 30
0.0
 11
16.7524756273
 21
-49.9997984604
 31
0.0
  0
ARC
  5
7A
330
1F
100
AcDbEntity
  8
1
 62
     4
420
    65535
100
AcDbCircle
 10
20.6750708915
 20
-47.1997984604
 30
0.0
 40
1.200000000000003
100
AcDbArc
 50
0.0
 51
90.0
  0
LINE
  5
7B
330
1F
100
AcDbEntity
  8
1
 62
     4
420
    65535
100
AcDbLine
 10
-48.0999993927
 20
17.0002015396
 30
0.0
 11
-49.9999291085
 21
18.9001312554
 31
0.0
  0
LINE
  5
7C
330
1F
100
AcDbEntity
  8
1
 62
     4
420
    65535
100
AcDbLine
 10
-0.3940899497
 20
37.5824357283
 30
0.0
 11
-1.3013223677
 21
37.5824357283
 31
0.0
  0
LINE
  5
7D
330
1F
100
AcDbEntity
  8
1
 62
     4
420
    65535
100
AcDbLine
 10
-1.3013223677
 20
-37.5820326491
 30
0.0
 11
-0.3940899497
 21
-37.5820326491
 31
0.0
  0
ARC
  5
7E
330
1F
100
AcDbEntity
  8
1
 62
     4
420
    65535
100
AcDbCircle
 10
-1.3013223677
 20
38.1824357283
 30
0.0
 40
0.6000000000000085
100
AcDbArc
 50
255.0
 51
270.0
  0
ARC
  5
7F
330
1F
100
AcDbEntity
  8
1
 62
     4
420
    65535
100
AcDbCircle
 10
-1.3013223677
 20
-38.1820326491
 30
0.0
 40
0.6000000000000053
100
AcDbArc
 50
90.0
 51
105.0
  0
LINE
  5
80
330
1F
100
AcDbEntity
  8
1
 62
     4
420
    65535
100
AcDbLine
 10
0.2000708915
 20
38.2659395888
 30
0.0
 11
0.0000708915
 21
39.6890135333
 31
0.0
  0
LINE
  5
81
330
1F
100
AcDbEntity
  8
1
 62
     4
420
    65535
100
AcDbLine
 10
0.0000708915
 20
-39.6886104541
 30
0.0
 11
0.2000708915
 21
-38.2655365096
 31
0.0
  0
ARC
  5
82
330
1F
100
AcDbEntity
  8
1
 62
     4
420
    65535
100
AcDbCircle
 10
-47.9999291085
 20
33.6004734244
 30
0.0
 40
2.000000000000007
100
AcDbArc
 50
92.868
 51
180.0
  0
LINE
  5
83
330
1F
100
AcDbEntity
  8
1
 62
     4
420
    65535
100
AcDbLine
 10
18.1250708915
 20
47.6227968038
 30
0.0
 11
16.7524756273
 21
50.0002015396
 31
0.0
  0
LINE
  5
84
330
1F
100
AcDbEntity
  8
1
 62
     4
420
    65535
100
AcDbLine
 10
20.6750708915
 20
46.0002015396
 30
0.0
 11
19.3250708915
 21
46.0002015396
 31
0.0
  0
LINE
  5
85
330
1F
100
AcDbEntity
  8
1
 62
     4
420
    65535
100
AcDbLine
 10
0.2059100503
 20
-38.1820326491
 30
0.0
 11
0.2059100503
 21
38.1824357283
 31
0.0
  0
LINE
  5
86
330
1F
100
AcDbEntity
  8
1
 62
     4
420
    65535
100
AcDbLine
 10
0.2059100503
 20
-38.1820326491
 30
0.0
 11
0.2059100503
 21
38.1824357283
 31
0.0
  0
ARC
  5
87
330
1F
100
AcDbEntity
  8
1
 62
     4
420
    65535
100
AcDbCircle
 10
-0.3940899497
 20
38.1824357283
 30
0.0
 40
0.6000000000000014
100
AcDbArc
 50
270.0
 51
0.0
  0
ARC
  5
88
330
1F
100
AcDbEntity
  8
1
 62
     4
420
    65535
100
AcDbCircle
 10
-0.3940899497
 20
38.1824357283
 30
0.0
 40
0.5999999999999978
100
AcDbArc
 50
0.0
 51
8.0
  0
ARC
  5
89
330
1F
100
AcDbEntity
  8
1
 62
     4
420
    65535
100
AcDbCircle
 10
-0.3940899497
 20
-38.1820326491
 30
0.0
 40
0.6000000000000014
100
AcDbArc
 50
0.0
 51
90.0
  0
ARC
  5
8A
330
1F
100
AcDbEntity
  8
1
 62
     4
420
    65535
100
AcDbCircle
 10
-0.3940899497
 20
-38.1820326491
 30
0.0
 40
0.5999999999999978
100
AcDbArc
 50
352.0
 51
0.0
  0
LINE
  5
8B
330
1F
100
AcDbEntity
  8
1
 62
     4
420
    65535
100
AcDbLine
 10
23.2476661557
 20
50.0002015396
 30
0.0
 11
21.8750708915
 21
47.6227968038
 31
0.0
  0
LINE
  5
8C
330
1F
100
AcDbEntity
  8
1
 62
     4
420
    65535
100
AcDbLine
 10
29.0000708915
 20
50.0002015396
 30
0.0
 11
23.2476661557
 21
50.0002015396
 31
0.0
  0
LINE
  5
8D
330
1F
100
AcDbEntity
  8
1
 62
     4
420
    65535
100
AcDbLine
 10
-48.0999993927
 20
-35.5975652609
 30
0.0
 11
-2.4999291085
 21
-37.8820326491
 31
0.0
  0
LINE
  5
8E
330
1F
100
AcDbEntity
  8
1
 62
     4
420
    65535
100
AcDbLine
 10
-2.4999291085
 20
37.8824357283
 30
0.0
 11
-48.0999993927
 21
35.5979683401
 31
0.0
  0
ARC
  5
8F
330
1F
100
AcDbEntity
  8
1
 62
     4
420
    65535
100
AcDbCircle
 10
19.3250708915
 20
47.2002015396
 30
0.0
 40
1.200000000000003
100
AcDbArc
 50
180.0
 51
270.0
  0
ARC
  5
90
330
1F
100
AcDbEntity
  8
1
 62
     4
420
    65535
100
AcDbCircle
 10
20.6750708915
 20
47.2002015396
 30
0.0
 40
1.200000000000003
100
AcDbArc
 50
270.0
 51
0.0
  0
LINE
  5
91
330
1F
100
AcDbEntity
  8
1
 62
     4
420
    65535
100
AcDbLine
 10
-49.9999291085
 20
-18.8997281762
 30
0.0
 11
-48.0999993927
 21
-16.9997984604
 31
0.0
  0
LINE
  5
92
330
1F
100
AcDbEntity
  8
1
 62
     4
420
    65535
100
AcDbLine
 10
-1.4566137947
 20
37.6028802325
 30
0.0
 11
-2.4999291085
 21
37.8824357283
 31
0.0
  0
LINE
  5
93
330
1F
100
AcDbEntity
  8
1
 62
     4
420
    65535
100
AcDbLine
 10
-2.4999291085
 20
-37.8820326491
 30
0.0
 11
-1.4566137947
 21
-37.6024771533
 31
0.0
  0
LINE
  5
94
330
1F
100
AcDbEntity
  8
1
 62
     4
420
    65535
100
AcDbLine
 10
-48.0999993927
 20
-16.9997984604
 30
0.0
 11
-34.0447566658
 21
-16.9997984604
 31
0.0
  0
LINE
  5
95
330
1F
100
AcDbEntity
  8
1
 62
     4
420
    65535
100
AcDbLine
 10
-34.0447566658
 20
17.0002015396
 30
0.0
 11
-48.0999993927
 21
17.0002015396
 31
0.0
  0
ARC
  5
96
330
1F
100
AcDbEntity
  8
1
 62
     4
420
    65535
100
AcDbCircle
 10
-47.9999291085
 20
-33.6000703452
 30
0.0
 40
2.000000000000007
100
AcDbArc
 50
180.0
 51
267.132
  0
LINE
  5
97
330
1F
100
AcDbEntity
  8
1
 62
     4
420
    65535
100
AcDbLine
 10
-34.0447566658
 20
-16.9997984604
 30
0.0
 11
-25.9618528971
 21
-30.9997984604
 31
0.0
  0
LINE
  5
98
330
1F
100
AcDbEntity
  8
1
 62
     4
420
    65535
100
AcDbLine
 10
-25.9618528971
 20
31.0002015396
 30
0.0
 11
-34.0447566658
 21
17.0002015396
 31
0.0
  0
LINE
  5
99
330
1F
100
AcDbEntity
  8
1
 62
     4
420
    65535
100
AcDbLine
 10
-25.0958274934
 20
-31.4997984604
 30
0.0
 11
-9.4466216514
 21
-31.4997984604
 31
0.0
  0
LINE
  5
9A
330
1F
100
AcDbEntity
  8
1
 62
     4
420
    65535
100
AcDbLine
 10
-9.4466216514
 20
31.5002015396
 30
0.0
 11
-25.0958274934
 21
31.5002015396
 31
0.0
  0
LINE
  5
9B
330
1F
100
AcDbEntity
  8
1
 62
     4
420
    65535
100
AcDbLine
 10
0.0000708915
 20
-26.8997984604
 30
0.0
 11
12.5000708915
 21
-26.8997984604
 31
0.0
  0
LINE
  5
9C
330
1F
100
AcDbEntity
  8
1
 62
     4
420
    65535
100
AcDbLine
 10
12.5000708915
 20
26.9002015396
 30
0.0
 11
0.0000708915
 21
26.9002015396
 31
0.0
  0
LINE
  5
9D
330
1F
100
AcDbEntity
  8
1
 62
     4
420
    65535
100
AcDbLine
 10
14.0000708915
 20
10.5002015396
 30
0.0
 11
12.5000708915
 21
12.0002015396
 31
0.0
  0
LINE
  5
9E
330
1F
100
AcDbEntity
  8
1
 62
     4
420
    65535
100
AcDbLine
 10
12.5000708915
 20
-11.9997984604
 30
0.0
 11
14.0000708915
 21
-10.4997984604
 31
0.0
  0
ARC
  5
9F
330
1F
100
AcDbEntity
  8
1
 62
     4
420
    65535
100
AcDbCircle
 10
-25.0958274934
 20
-30.4997984604
 30
0.0
 40
1.0
100
AcDbArc
 50
210.0
 51
270.0
  0
ARC
  5
A0
330
1F
100
AcDbEntity
  8
1
 62
     4
420
    65535
100
AcDbCircle
 10
-25.0958274934
 20
30.5002015396
 30
0.0
 40
1.0
100
AcDbArc
 50
90.0
 51
150.0
  0
LINE
  5
A1
330
1F
100
AcDbEntity
  8
1
 62
     4
420
    65535
100
AcDbLine
 10
14.0000708915
 20
-10.4997984604
 30
0.0
 11
27.5000708915
 21
-10.4997984604
 31
0.0
  0
LINE
  5
A2
330
1F
100
AcDbEntity
  8
1
 62
     4
420
    65535
100
AcDbLine
 10
27.5000708915
 20
10.5002015396
 30
0.0
 11
14.0000708915
 21
10.5002015396
 31
0.0
  0
ARC
  5
A3
330
1F
100
AcDbEntity
  8
1
 62
     4
420
    65535
100
AcDbCircle
 10
-9.4466216514
 20
-19.4997984604
 30
0.0
 40
12.00000000000001
100
AcDbArc
 50
270.0
 51
321.9268766771
  0
ARC
  5
A4
330
1F
100
AcDbEntity
  8
1
 62
     4
420
    65535
100
AcDbCircle
 10
-9.4466216514
 20
19.5002015396
 30
0.0
 40
12.0
100
AcDbArc
 50
38.0731233229
 51
90.0
  0
LINE
  5
A5
330
1F
100
AcDbEntity
  8
1
 62
     4
420
    65535
100
AcDbLine
 10
27.5000708915
 20
-12.2997984604
 30
0.0
 11
28.5000708915
 21
-12.2997984604
 31
0.0
  0
LINE
  5
A6
330
1F
100
AcDbEntity
  8
1
 62
     4
420
    65535
100
AcDbLine
 10
28.5000708915
 20
12.3002015396
 30
0.0
 11
27.5000708915
 21
12.3002015396
 31
0.0
  0
LINE
  5
A7
330
1F
100
AcDbEntity
  8
1
 62
     4
420
    65535
100
AcDbLine
 10
28.5000708915
 20
-5.9997984604
 30
0.0
 11
157.2680201939
 21
-5.9997984604
 31
0.0
  0
LINE
  5
A8
330
1F
100
AcDbEntity
  8
1
 62
     4
420
    65535
100
AcDbLine
 10
157.2680201939
 20
6.0002015396
 30
0.0
 11
28.5000708915
 21
6.0002015396
 31
0.0
  0
LINE
  5
A9
330
1F
100
AcDbEntity
  8
1
 62
     4
420
    65535
100
AcDbLine
 10
159.0000709683
 20
-8.9997984028
 30
0.0
 11
163.0962765301
 21
-8.9997984028
 31
0.0
  0
LINE
  5
AA
330
1F
100
AcDbEntity
  8
1
 62
     4
420
    65535
100
AcDbLine
 10
163.0962765301
 20
9.000201482
 30
0.0
 11
159.0000709683
 21
9.000201482
 31
0.0
  0
LINE
  5
AB
330
1F
100
AcDbEntity
  8
1
 62
     4
420
    65535
100
AcDbLine
 10
157.2680201939
 20
-5.9997984604
 30
0.0
 11
159.0000709683
 21
-8.9997984028
 31
0.0
  0
LINE
  5
AC
330
1F
100
AcDbEntity
  8
1
 62
     4
420
    65535
100
AcDbLine
 10
159.0000709683
 20
9.000201482
 30
0.0
 11
157.2680201939
 21
6.0002015396
 31
0.0
  0
LINE
  5
AD
330
1F
100
AcDbEntity
  8
1
 62
     4
420
    65535
100
AcDbLine
 10
163.0962765301
 20
-8.9997984028
 30
0.0
 11
187.5696575187
 21
-12.4393077949
 31
0.0
  0
LINE
  5
AE
330
1F
100
AcDbEntity
  8
1
 62
     4
420
    65535
100
AcDbLine
 10
187.5696575187
 20
12.4397108741
 30
0.0
 11
163.0962765301
 21
9.000201482
 31
0.0
  0
LINE
  5
AF
330
1F
100
AcDbEntity
  8
1
 62
     4
420
    65535
100
AcDbLine
 10
188.0000709683
 20
14.8951739344
 30
0.0
 11
186.8950433631
 21
16.0002015396
 31
0.0
  0
LINE
  5
B0
330
1F
100
AcDbEntity
  8
1
 62
     4
420
    65535
100
AcDbLine
 10
186.8950433631
 20
-15.9997984604
 30
0.0
 11
188.0000709683
 21
-14.8947708552
 31
0.0
  0
LINE
  5
B1
330
1F
100
AcDbEntity
  8
1
 62
     4
420
    65535
100
AcDbLine
 10
149.6215595447
 20
-15.9997984604
 30
0.0
 11
186.8950433631
 21
-15.9997984604
 31
0.0
  0
LINE
  5
B2
330
1F
100
AcDbEntity
  8
1
 62
     4
420
    65535
100
AcDbLine
 10
186.8950433631
 20
16.0002015396
 30
0.0
 11
149.6215595447
 21
16.0002015396
 31
0.0
  0
LINE
  5
B3
330
1F
100
AcDbEntity
  8
1
 62
     4
420
    65535
100
AcDbLine
 10
56.0037516591
 20
-18.4997984604
 30
0.0
 11
94.0000708915
 21
-18.4997984604
 31
0.0
  0
LINE
  5
B4
330
1F
100
AcDbEntity
  8
1
 62
     4
420
    65535
100
AcDbLine
 10
94.0000708915
 20
18.5002015396
 30
0.0
 11
56.0037516591
 21
18.5002015396
 31
0.0
  0
ARC
  5
B5
330
1F
100
AcDbEntity
  8
1
 62
     4
420
    65535
100
AcDbCircle
 10
149.6215595447
 20
-635.9997984604
 30
0.0
 40
620.0
100
AcDbArc
 50
90.0
 51
95.1470433984
  0
ARC
  5
B6
330
1F
100
AcDbEntity
  8
1
 62
     4
420
    65535
100
AcDbCircle
 10
149.6215595447
 20
636.0002015396
 30
0.0
 40
620.0
100
AcDbArc
 50
264.8529566016
 51
270.0
  0
ARC
  5
B7
330
1F
100
AcDbEntity
  8
1
 62
     4
420
    65535
100
AcDbCircle
 10
56.0037516591
 20
-118.4997984604
 30
0.0
 40
100.0
100
AcDbArc
 50
90.0
 51
104.327295869
  0
ARC
  5
B8
330
1F
100
AcDbEntity
  8
1
 62
     4
420
    65535
100
AcDbCircle
 10
56.0037516591
 20
118.5002015396
 30
0.0
 40
100.0
100
AcDbArc
 50
255.672704131
 51
270.0
  0
LINE
  5
B9
330
1F
100
AcDbEntity
  8
1
 62
     4
420
    65535
100
AcDbLine
 10
196.6803068658
 20
12.8642713028
 30
0.0
 11
196.6803068658
 21
20.5321886432
 31
0.0
  0
SPLINE
  5
BA
330
1F
100
AcDbEntity
  8
1
 62
     4
420
    65535
100
AcDbSpline
210
0.0
220
0.0
230
1.0
 70
     8
 71
     3
 72
     8
 73
     4
 74
     0
 42
0.00000001
 43
0.00000001
 12
1.0
 22
0.0
 32
0.0
 13
1.0
 23
0.0
 33
0.0
 40
0.0
 40
0.0
 40
0.0
 40
0.0
 40
1.0
 40
1.0
 40
1.0
 40
1.0
 10
196.6803068658258
 20
12.86427130276296
 30
0.0
 10
196.5925764558656
 20
12.94105480300651
 30
0.0
 10
196.4242062359172
 20
12.99058252847981
 30
0.0
 10
196.2472941639336
 20
12.99058252847981
 30
0.0
  0
LINE
  5
BB
330
1F
100
AcDbEntity
  8
1
 62
     4
420
    65535
100
AcDbLine
 10
182.0000708915
 20
21.0002014052
 30
0.0
 11
182.0000708915
 21
-20.9944349165
 31
0.0
  0
SPLINE
  5
BC
330
1F
100
AcDbEntity
  8
1
 62
     4
420
    65535
100
AcDbSpline
210
0.0
220
0.0
230
1.0
 70
     8
 71
     3
 72
    10
 73
     6
 74
     0
 42
0.00000001
 43
0.00000001
 12
1.0
 22
0.0
 32
0.0
 13
1.0
 23
0.0
 33
0.0
 40
0.0
 40
0.0
 40
0.0
 40
0.0
 40
0.5
 40
0.5
 40
1.0
 40
1.0
 40
1.0
 40
1.0
 10
196.6803068658258
 20
20.53218864320942
 30
0.0
 10
196.6369786358134
 20
20.60803219987847
 30
0.0
 10
196.5736589096175
 20
20.67240006333877
 30
0.0
 10
196.4224345551213
 20
20.76097482310519
 30
0.0
 10
196.3345173099722
 20
20.78481109464261
 30
0.0
 10
196.2472941639364
 20
20.78481109464311
 30
0.0
  0
LINE
  5
BD
330
1F
100
AcDbEntity
  8
1
 62
     4
420
    65535
100
AcDbLine
 10
196.2472941639
 20
7.7944301058
 30
0.0
 11
183.2058816902
 21
7.7944301058
 31
0.0
  0
LINE
  5
BE
330
1F
100
AcDbEntity
  8
1
 62
     4
420
    65535
100
AcDbLine
 10
196.2472941639
 20
12.9905825285
 30
0.0
 11
183.2058816902
 21
12.9905825285
 31
0.0
  0
LINE
  5
BF
330
1F
100
AcDbEntity
  8
1
 62
     4
420
    65535
100
AcDbLine
 10
196.2472941639
 20
-7.7940270266
 30
0.0
 11
183.2058816902
 21
-7.7940270266
 31
0.0
  0
SPLINE
  5
C0
330
1F
100
AcDbEntity
  8
1
 62
     4
420
    65535
100
AcDbSpline
210
0.0
220
0.0
230
1.0
 70
     8
 71
     3
 72
    12
 73
     8
 74
     0
 42
0.00000001
 43
0.00000001
 12
1.0
 22
0.0
 32
0.0
 13
1.0
 23
0.0
 33
0.0
 40
0.0
 40
0.0
 40
0.0
 40
0.0
 40
0.2499999999999998
 40
0.2499999999999998
 40
0.4999999999999996
 40
0.4999999999999996
 40
1.0
 40
1.0
 40
1.0
 40
1.0
 10
183.2058816901532
 20
12.99058252847981
 30
0.0
 10
183.1360086174588
 20
12.60020446667974
 30
0.0
 10
183.0849801435234
 20
12.19745697665889
 30
0.0
 10
183.0169869575751
 20
11.36696152736791
 30
0.0
 10
183.0000313158787
 20
10.93814479416395
 30
0.0
 10
183.000150250082
 20
9.619718563299697
 30
0.0
 10
183.0660901257909
 20
8.717441780298607
 30
0.0
 10
183.2058816901532
 20
7.79443010577322
 30
0.0
  0
LINE
  5
C1
330
1F
100
AcDbEntity
  8
1
 62
     4
420
    65535
100
AcDbLine
 10
196.2472941639
 20
-12.9901794493
 30
0.0
 11
183.2058816902
 21
-12.9901794493
 31
0.0
  0
SPLINE
  5
C2
330
1F
100
AcDbEntity
  8
1
 62
     4
420
    65535
100
AcDbSpline
210
0.0
220
0.0
230
1.0
 70
     8
 71
     3
 72
    12
 73
     8
 74
     0
 42
0.00000001
 43
0.00000001
 12
1.0
 22
0.0
 32
0.0
 13
1.0
 23
0.0
 33
0.0
 40
0.0
 40
0.0
 40
0.0
 40
0.0
 40
0.2500000000000002
 40
0.2500000000000002
 40
0.5000000000000004
 40
0.5000000000000004
 40
1.0
 40
1.0
 40
1.0
 40
1.0
 10
183.2058816901532
 20
-7.794027026553795
 30
0.0
 10
183.1360086174588
 20
-8.255382918277949
 30
0.0
 10
183.0849801435234
 20
-8.711942034826997
 30
0.0
 10
183.0169869575751
 20
-9.614663528458678
 30
0.0
 10
183.0000313158787
 20
-10.0618977439778
 30
0.0
 10
183.000150250082
 20
-11.38019573367543
 30
0.0
 10
183.0660901257908
 20
-12.20916957167227
 30
0.0
 10
183.2058816901532
 20
-12.99017944926045
 30
0.0
  0
LINE
  5
C3
330
1F
100
AcDbEntity
  8
1
 62
     4
420
    65535
100
AcDbLine
 10
196.2472941639
 20
12.9905825285
 30
0.0
 11
196.2472941639
 21
20.7848110947
 31
0.0
  0
LINE
  5
C4
330
1F
100
AcDbEntity
  8
1
 62
     4
420
    65535
100
AcDbLine
 10
196.2472941639
 20
-20.7844080154
 30
0.0
 11
183.2058816902
 21
-20.7844080154
 31
0.0
  0
LINE
  5
C5
330
1F
100
AcDbEntity
  8
1
 62
     4
420
    65535
100
AcDbLine
 10
196.2472941639
 20
-7.7940270266
 30
0.0
 11
196.2472941639
 21
7.7944301058
 31
0.0
  0
SPLINE
  5
C6
330
1F
100
AcDbEntity
  8
1
 62
     4
420
    65535
100
AcDbSpline
210
0.0
220
0.0
230
1.0
 70
    11
 71
     3
 72
    12
 73
     8
 74
     0
 42
0.00000001
 43
0.00000001
 12
1.0
 22
0.0
 32
0.0
 13
1.0
 23
0.0
 33
0.0
 40
0.0
 40
0.0
 40
0.0
 40
0.0
 40
0.25
 40
0.25
 40
0.5
 40
0.5
 40
1.0
 40
1.0
 40
1.0
 40
1.0
 10
183.2058816901532
 20
-20.7844080154241
 30
0.0
 10
183.1356576641864
 20
-20.85574234751302
 30
0.0
 10
183.0845673130358
 20
-20.90963220413398
 30
0.0
 10
183.0166752163142
 20
-20.98175850406739
 30
0.0
 10
182.9998838311159
 20
-21.00000002433705
 30
0.0
 10
183.0004497123129
 20
-20.99938986148388
 30
0.0
 10
183.0666112396464
 20
-20.92588045921871
 30
0.0
 10
183.2058816901532
 20
-20.7844080154241
 30
0.0
  0
LINE
  5
C7
330
1F
100
AcDbEntity
  8
1
 62
     4
420
    65535
100
AcDbLine
 10
196.2472941639
 20
-12.9901794493
 30
0.0
 11
196.2472941639
 21
-20.7844080154
 31
0.0
  0
LINE
  5
C8
330
1F
100
AcDbEntity
  8
1
 62
     4
420
    65535
100
AcDbLine
 10
196.2472941639
 20
-20.7844080154
 30
0.0
 11
196.2472941639
 21
-12.9901794493
 31
0.0
  0
LINE
  5
C9
330
1F
100
AcDbEntity
  8
1
 62
     4
420
    65535
100
AcDbLine
 10
196.2472941639
 20
7.7944301058
 30
0.0
 11
196.2472941639
 21
-7.7940270266
 31
0.0
  0
LINE
  5
CA
330
1F
100
AcDbEntity
  8
1
 62
     4
420
    65535
100
AcDbLine
 10
196.2472941639
 20
20.7848110947
 30
0.0
 11
183.2058816902
 21
20.7848110946
 31
0.0
  0
SPLINE
  5
CB
330
1F
100
AcDbEntity
  8
1
 62
     4
420
    65535
100
AcDbSpline
210
0.0
220
0.0
230
1.0
 70
     8
 71
     3
 72
    12
 73
     8
 74
     0
 42
0.00000001
 43
0.00000001
 12
1.0
 22
0.0
 32
0.0
 13
1.0
 23
0.0
 33
0.0
 40
0.0
 40
0.0
 40
0.0
 40
0.0
 40
0.25
 40
0.25
 40
0.5
 40
0.5
 40
1.0
 40
1.0
 40
1.0
 40
1.0
 10
183.2058816901532
 20
-12.99017944926069
 30
0.0
 10
183.1360086174588
 20
-12.59980138746061
 30
0.0
 10
183.0849801435233
 20
-12.19705389743977
 30
0.0
 10
183.0169869575751
 20
-11.36655844814878
 30
0.0
 10
183.0000313158788
 20
-10.93774171494481
 30
0.0
 10
183.000150250082
 20
-9.619315484080555
 30
0.0
 10
183.0660901257909
 20
-8.717038701079456
 30
0.0
 10
183.2058816901532
 20
-7.794027026554065
 30
0.0
  0
LINE
  5
CC
330
1F
100
AcDbEntity
  8
1
 62
     4
420
    65535
100
AcDbLine
 10
196.2472941639
 20
20.7848110947
 30
0.0
 11
196.2472941639
 21
12.9905825285
 31
0.0
  0
SPLINE
  5
CD
330
1F
100
AcDbEntity
  8
1
 62
     4
420
    65535
100
AcDbSpline
210
0.0
220
0.0
230
1.0
 70
    11
 71
     3
 72
    12
 73
     8
 74
     0
 42
0.00000001
 43
0.00000001
 12
1.0
 22
0.0
 32
0.0
 13
1.0
 23
0.0
 33
0.0
 40
0.0
 40
0.0
 40
0.0
 40
0.0
 40
0.5000000000000001
 40
0.5000000000000001
 40
0.75
 40
0.75
 40
1.0
 40
1.0
 40
1.0
 40
1.0
 10
183.2058816901532
 20
20.7848110946431
 30
0.0
 10
183.0645401887071
 20
20.92838733458786
 30
0.0
 10
183.0003501517235
 20
20.99990029210281
 30
0.0
 10
182.9999325749446
 20
21.00035054542833
 30
0.0
 10
183.0162375766165
 20
20.98263294326322
 30
0.0
 10
183.0837908083143
 20
20.9108539043901
 30
0.0
 10
183.135230285829
 20
20.85657956233237
 30
0.0
 10
183.2058816901532
 20
20.78481109464309
 30
0.0
  0
SPLINE
  5
CE
330
1F
100
AcDbEntity
  8
1
 62
     4
420
    65535
100
AcDbSpline
210
0.0
220
0.0
230
1.0
 70
     8
 71
     3
 72
    12
 73
     8
 74
     0
 42
0.00000001
 43
0.00000001
 12
1.0
 22
0.0
 32
0.0
 13
1.0
 23
0.0
 33
0.0
 40
0.0
 40
0.0
 40
0.0
 40
0.0
 40
0.2500000000000004
 40
0.2500000000000004
 40
0.5000000000000008
 40
0.5000000000000008
 40
1.0
 40
1.0
 40
1.0
 40
1.0
 10
183.2058816901532
 20
7.794430105772945
 30
0.0
 10
183.1360086174588
 20
8.255785997497096
 30
0.0
 10
183.0849801435234
 20
8.71234511404614
 30
0.0
 10
183.0169869575751
 20
9.615066607677816
 30
0.0
 10
183.0000313158788
 20
10.06230082319695
 30
0.0
 10
183.0001502500821
 20
11.38059881289456
 30
0.0
 10
183.0660901257909
 20
12.2095726508914
 30
0.0
 10
183.2058816901532
 20
12.99058252847959
 30
0.0
  0
SPLINE
  5
CF
330
1F
100
AcDbEntity
  8
1
 62
     4
420
    65535
100
AcDbSpline
210
0.0
220
0.0
230
1.0
 70
     8
 71
     3
 72
     8
 73
     4
 74
     0
 42
0.00000001
 43
0.00000001
 12
1.0
 22
0.0
 32
0.0
 13
1.0
 23
0.0
 33
0.0
 40
0.0000002657442793
 40
0.0000002657442793
 40
0.0000002657442793
 40
0.0000002657442793
 40
0.0031454022913601
 40
0.0031454022913601
 40
0.0031454022913601
 40
0.0031454022913601
 10
198.2385527917139
 20
11.49827775096298
 30
0.0
 10
197.7198594046189
 20
11.95381462687726
 30
0.0
 10
197.2003493999294
 20
12.4091191376
 30
0.0
 10
196.6803068658258
 20
12.86427130276296
 30
0.0
  0
SPLINE
  5
D0
330
1F
100
AcDbEntity
  8
1
 62
     4
420
    65535
100
AcDbSpline
210
0.0
220
0.0
230
1.0
 70
     8
 71
     3
 72
     8
 73
     4
 74
     0
 42
0.00000001
 43
0.00000001
 12
1.0
 22
0.0
 32
0.0
 13
1.0
 23
0.0
 33
0.0
 40
0.0
 40
0.0
 40
0.0
 40
0.0
 40
1.0
 40
1.0
 40
1.0
 40
1.0
 10
198.2385527917139
 20
17.8002015396095
 30
0.0
 10
197.7198594725045
 20
18.71127517219833
 30
0.0
 10
197.2003492008346
 20
19.62188466138737
 30
0.0
 10
196.6803068658258
 20
20.5321886432094
 30
0.0
  0
SPLINE
  5
D1
330
1F
100
AcDbEntity
  8
1
 62
     4
420
    65535
100
AcDbSpline
210
0.0
220
0.0
230
1.0
 70
    27
 71
     3
 72
    12
 73
     8
 74
     0
 42
0.00000001
 43
0.00000001
 12
1.0
 22
0.0
 32
0.0
 13
1.0
 23
0.0
 33
0.0
 40
0.0
 40
0.0
 40
0.0
 40
0.0
 40
0.25
 40
0.25
 40
0.5
 40
0.5
 40
1.0
 40
1.0
 40
1.0
 40
1.0
 10
198.2385527917139
 20
17.80020153960949
 30
0.0
 10
198.2865425831706
 20
17.80020153960949
 30
0.0
 10
198.3231314904426
 20
17.80020153960949
 30
0.0
 10
198.3716241555251
 20
17.80020153960949
 30
0.0
 10
198.3836549409209
 20
17.80020153960949
 30
0.0
 10
198.3831552382312
 20
17.8002015396095
 30
0.0
 10
198.3338070793239
 20
17.80020153960949
 30
0.0
 10
198.2385527917139
 20
17.80020153960949
 30
0.0
  0
LINE
  5
D2
330
1F
100
AcDbEntity
  8
1
 62
     4
420
    65535
100
AcDbLine
 10
196.6803068658
 20
20.5321886432
 30
0.0
 11
196.6803068658
 21
12.8642713028
 31
0.0
  0
SPLINE
  5
D3
330
1F
100
AcDbEntity
  8
1
 62
     4
420
    65535
100
AcDbSpline
210
0.0
220
0.0
230
1.0
 70
     8
 71
     3
 72
     8
 73
     4
 74
     0
 42
0.00000001
 43
0.00000001
 12
1.0
 22
0.0
 32
0.0
 13
1.0
 23
0.0
 33
0.0
 40
0.0000002657442793
 40
0.0000002657442793
 40
0.0000002657442793
 40
0.0000002657442793
 40
0.0031454022913601
 40
0.0031454022913601
 40
0.0031454022913601
 40
0.0031454022913601
 10
198.2385527917139
 20
11.49827775096278
 30
0.0
 10
197.7198594046189
 20
11.95381462687705
 30
0.0
 10
197.2003493999294
 20
12.40911913759978
 30
0.0
 10
196.6803068658258
 20
12.86427130276273
 30
0.0
  0
LINE
  5
D4
330
1F
100
AcDbEntity
  8
1
 62
     4
420
    65535
100
AcDbLine
 10
199.8928912152
 20
15.1858420885
 30
0.0
 11
199.8928912152
 21
-15.1854390092
 31
0.0
  0
SPLINE
  5
D5
330
1F
100
AcDbEntity
  8
1
 62
     4
420
    65535
100
AcDbSpline
210
0.0
220
0.0
230
1.0
 70
     8
 71
     3
 72
     9
 73
     5
 74
     0
 42
0.00000001
 43
0.00000001
 12
1.0
 22
0.0
 32
0.0
 13
1.0
 23
0.0
 33
0.0
 40
0.0
 40
0.0
 40
0.0
 40
0.0
 40
0.5
 40
1.0
 40
1.0
 40
1.0
 40
1.0
 10
198.2385527917139
 20
11.49827775096279
 30
0.0
 10
198.334505763254
 20
10.63225234717835
 30
0.0
 10
198.432474401424
 20
8.900201539609467
 30
0.0
 10
198.334505763254
 20
7.168150732040588
 30
0.0
 10
198.2385527917139
 20
6.302125328256144
 30
0.0
  0
SPLINE
  5
D6
330
1F
100
AcDbEntity
  8
1
 62
     4
420
    65535
100
AcDbSpline
210
0.0
220
0.0
230
1.0
 70
     8
 71
     3
 72
     8
 73
     4
 74
     0
 42
0.00000001
 43
0.00000001
 12
1.0
 22
0.0
 32
0.0
 13
1.0
 23
0.0
 33
0.0
 40
0.0000002657442793
 40
0.0000002657442793
 40
0.0000002657442793
 40
0.0000002657442793
 40
0.0031454022913601
 40
0.0031454022913601
 40
0.0031454022913601
 40
0.0031454022913601
 10
198.2385527917139
 20
6.302125328256144
 30
0.0
 10
197.7198594046189
 20
6.757662204170413
 30
0.0
 10
197.2003493999294
 20
7.212966714893147
 30
0.0
 10
196.6803068658258
 20
7.6681188800561
 30
0.0
  0
LINE
  5
D7
330
1F
100
AcDbEntity
  8
1
 62
     4
420
    65535
100
AcDbLine
 10
196.6803068658
 20
7.6681188801
 30
0.0
 11
196.6803068658
 21
-7.6677158008
 31
0.0
  0
SPLINE
  5
D8
330
1F
100
AcDbEntity
  8
1
 62
     4
420
    65535
100
AcDbSpline
210
0.0
220
0.0
230
1.0
 70
     8
 71
     3
 72
     8
 73
     4
 74
     0
 42
0.00000001
 43
0.00000001
 12
1.0
 22
0.0
 32
0.0
 13
1.0
 23
0.0
 33
0.0
 40
0.0000002657442793
 40
0.0000002657442793
 40
0.0000002657442793
 40
0.0000002657442793
 40
0.0031454022913601
 40
0.0031454022913601
 40
0.0031454022913601
 40
0.0031454022913601
 10
198.2385527917139
 20
-6.301722249037239
 30
0.0
 10
197.7198594046189
 20
-6.757259124951514
 30
0.0
 10
197.2003493999294
 20
-7.212563635674257
 30
0.0
 10
196.6803068658258
 20
-7.667715800837215
 30
0.0
  0
SPLINE
  5
D9
330
1F
100
AcDbEntity
  8
1
 62
     4
420
    65535
100
AcDbSpline
210
0.0
220
0.0
230
1.0
 70
     8
 71
     3
 72
     9
 73
     5
 74
     0
 42
0.00000001
 43
0.00000001
 12
1.0
 22
0.0
 32
0.0
 13
1.0
 23
0.0
 33
0.0
 40
0.0
 40
0.0
 40
0.0
 40
0.0
 40
0.5
 40
1.0
 40
1.0
 40
1.0
 40
1.0
 10
198.238552791714
 20
-6.30172224903724
 30
0.0
 10
198.334505763254
 20
-7.167747652821676
 30
0.0
 10
198.432474401424
 20
-8.899798460390548
 30
0.0
 10
198.3345057632541
 20
-10.63184926795943
 30
0.0
 10
198.238552791714
 20
-11.49787467174386
 30
0.0
  0
SPLINE
  5
DA
330
1F
100
AcDbEntity
  8
1
 62
     4
420
    65535
100
AcDbSpline
210
0.0
220
0.0
230
1.0
 70
     8
 71
     3
 72
     8
 73
     4
 74
     0
 42
0.00000001
 43
0.00000001
 12
1.0
 22
0.0
 32
0.0
 13
1.0
 23
0.0
 33
0.0
 40
0.0
 40
0.0
 40
0.0
 40
0.0
 40
1.0
 40
1.0
 40
1.0
 40
1.0
 10
198.2385527917139
 20
17.8002015396095
 30
0.0
 10
197.7198594725045
 20
18.71127517219834
 30
0.0
 10
197.2003492008346
 20
19.62188466138737
 30
0.0
 10
196.6803068658258
 20
20.5321886432094
 30
0.0
  0
LINE
  5
DB
330
1F
100
AcDbEntity
  8
1
 62
     4
420
    65535
100
AcDbLine
 10
196.6803068658
 20
-12.8638682235
 30
0.0
 11
196.6803068658
 21
-20.531785564
 31
0.0
  0
SPLINE
  5
DC
330
1F
100
AcDbEntity
  8
1
 62
     4
420
    65535
100
AcDbSpline
210
0.0
220
0.0
230
1.0
 70
     8
 71
     3
 72
     8
 73
     4
 74
     0
 42
0.00000001
 43
0.00000001
 12
1.0
 22
0.0
 32
0.0
 13
1.0
 23
0.0
 33
0.0
 40
0.0
 40
0.0
 40
0.0
 40
0.0
 40
1.0
 40
1.0
 40
1.0
 40
1.0
 10
198.2385527917139
 20
-17.79979846039047
 30
0.0
 10
197.7198599821276
 20
-18.71087119783736
 30
0.0
 10
197.2003499533889
 20
-19.62148026486574
 30
0.0
 10
196.6803068658258
 20
-20.53178556399041
 30
0.0
  0
SPLINE
  5
DD
330
1F
100
AcDbEntity
  8
1
 62
     4
420
    65535
100
AcDbSpline
210
0.0
220
0.0
230
1.0
 70
    27
 71
     3
 72
    12
 73
     8
 74
     0
 42
0.00000001
 43
0.00000001
 12
1.0
 22
0.0
 32
0.0
 13
1.0
 23
0.0
 33
0.0
 40
0.0
 40
0.0
 40
0.0
 40
0.0
 40
0.5
 40
0.5
 40
0.75
 40
0.75
 40
1.0
 40
1.0
 40
1.0
 40
1.0
 10
198.2385527917139
 20
-17.79979846039046
 30
0.0
 10
198.3338070793239
 20
-17.79979846039046
 30
0.0
 10
198.3831552382312
 20
-17.79979846039046
 30
0.0
 10
198.383654940921
 20
-17.79979846039047
 30
0.0
 10
198.3716241555251
 20
-17.79979846039047
 30
0.0
 10
198.3231314904426
 20
-17.79979846039047
 30
0.0
 10
198.2865425831706
 20
-17.79979846039047
 30
0.0
 10
198.2385527917139
 20
-17.79979846039046
 30
0.0
  0
LINE
  5
DE
330
1F
100
AcDbEntity
  8
1
 62
     4
420
    65535
100
AcDbLine
 10
196.6803068658
 20
-20.531785564
 30
0.0
 11
196.6803068658
 21
-12.8638682235
 31
0.0
  0
SPLINE
  5
DF
330
1F
100
AcDbEntity
  8
1
 62
     4
420
    65535
100
AcDbSpline
210
0.0
220
0.0
230
1.0
 70
     8
 71
     3
 72
     8
 73
     4
 74
     0
 42
0.00000001
 43
0.00000001
 12
1.0
 22
0.0
 32
0.0
 13
1.0
 23
0.0
 33
0.0
 40
0.0000002657442793
 40
0.0000002657442793
 40
0.0000002657442793
 40
0.0000002657442793
 40
0.0031454022913601
 40
0.0031454022913601
 40
0.0031454022913601
 40
0.0031454022913601
 10
198.2385527917139
 20
-11.49787467174366
 30
0.0
 10
197.7198594046189
 20
-11.95341154765793
 30
0.0
 10
197.2003493999294
 20
-12.40871605838066
 30
0.0
 10
196.6803068658258
 20
-12.86386822354361
 30
0.0
  0
SPLINE
  5
E0
330
1F
100
AcDbEntity
  8
1
 62
     4
420
    65535
100
AcDbSpline
210
0.0
220
0.0
230
1.0
 70
     8
 71
     3
 72
     8
 73
     4
 74
     0
 42
0.00000001
 43
0.00000001
 12
1.0
 22
0.0
 32
0.0
 13
1.0
 23
0.0
 33
0.0
 40
0.0000002657442793
 40
0.0000002657442793
 40
0.0000002657442793
 40
0.0000002657442793
 40
0.0031454022913601
 40
0.0031454022913601
 40
0.0031454022913601
 40
0.0031454022913601
 10
198.2385527917139
 20
-11.49787467174386
 30
0.0
 10
197.7198594046189
 20
-11.95341154765813
 30
0.0
 10
197.2003493999294
 20
-12.40871605838087
 30
0.0
 10
196.6803068658258
 20
-12.86386822354383
 30
0.0
  0
SPLINE
  5
E1
330
1F
100
AcDbEntity
  8
1
 62
     4
420
    65535
100
AcDbSpline
210
0.0
220
0.0
230
1.0
 70
     8
 71
     3
 72
     8
 73
     4
 74
     0
 42
0.00000001
 43
0.00000001
 12
1.0
 22
0.0
 32
0.0
 13
1.0
 23
0.0
 33
0.0
 40
0.0000002657442793
 40
0.0000002657442793
 40
0.0000002657442793
 40
0.0000002657442793
 40
0.0031454022913601
 40
0.0031454022913601
 40
0.0031454022913601
 40
0.0031454022913601
 10
198.2385527917139
 20
-6.301722249037002
 30
0.0
 10
197.7198594046189
 20
-6.757259124951267
 30
0.0
 10
197.2003493999294
 20
-7.212563635673998
 30
0.0
 10
196.6803068658258
 20
-7.667715800836946
 30
0.0
  0
SPLINE
  5
E2
330
1F
100
AcDbEntity
  8
1
 62
     4
420
    65535
100
AcDbSpline
210
0.0
220
0.0
230
1.0
 70
     8
 71
     3
 72
     8
 73
     4
 74
     0
 42
0.00000001
 43
0.00000001
 12
1.0
 22
0.0
 32
0.0
 13
1.0
 23
0.0
 33
0.0
 40
0.0
 40
0.0
 40
0.0
 40
0.0
 40
1.0
 40
1.0
 40
1.0
 40
1.0
 10
198.2385527917139
 20
-17.79979846039047
 30
0.0
 10
197.7198599821276
 20
-18.71087119783736
 30
0.0
 10
197.2003499533889
 20
-19.62148026486574
 30
0.0
 10
196.6803068658258
 20
-20.53178556399041
 30
0.0
  0
LINE
  5
E3
330
1F
100
AcDbEntity
  8
1
 62
     4
420
    65535
100
AcDbLine
 10
196.6803068658
 20
-7.6677158008
 30
0.0
 11
196.6803068658
 21
7.6681188801
 31
0.0
  0
SPLINE
  5
E4
330
1F
100
AcDbEntity
  8
1
 62
     4
420
    65535
100
AcDbSpline
210
0.0
220
0.0
230
1.0
 70
     8
 71
     3
 72
     8
 73
     4
 74
     0
 42
0.00000001
 43
0.00000001
 12
1.0
 22
0.0
 32
0.0
 13
1.0
 23
0.0
 33
0.0
 40
0.0000002657442793
 40
0.0000002657442793
 40
0.0000002657442793
 40
0.0000002657442793
 40
0.0031454022913601
 40
0.0031454022913601
 40
0.0031454022913601
 40
0.0031454022913601
 10
198.2385527917139
 20
6.30212532825638
 30
0.0
 10
197.7198594046189
 20
6.75766220417066
 30
0.0
 10
197.2003493999294
 20
7.212966714893406
 30
0.0
 10
196.6803068658258
 20
7.66811888005637
 30
0.0
  0
SPLINE
  5
E5
330
1F
100
AcDbEntity
  8
1
 62
     4
420
    65535
100
AcDbSpline
210
0.0
220
0.0
230
1.0
 70
     8
 71
     3
 72
     9
 73
     5
 74
     0
 42
0.00000001
 43
0.00000001
 12
1.0
 22
0.0
 32
0.0
 13
1.0
 23
0.0
 33
0.0
 40
0.0
 40
0.0
 40
0.0
 40
0.0
 40
0.4999999999999998
 40
1.0
 40
1.0
 40
1.0
 40
1.0
 10
198.238552791714
 20
-11.49787467174366
 30
0.0
 10
198.334505763254
 20
-10.63184926795922
 30
0.0
 10
198.432474401424
 20
-8.899798460390334
 30
0.0
 10
198.3345057632541
 20
-7.167747652821448
 30
0.0
 10
198.238552791714
 20
-6.301722249037003
 30
0.0
  0
SPLINE
  5
E6
330
1F
100
AcDbEntity
  8
1
 62
     4
420
    65535
100
AcDbSpline
210
0.0
220
0.0
230
1.0
 70
     8
 71
     3
 72
     9
 73
     5
 74
     0
 42
0.00000001
 43
0.00000001
 12
1.0
 22
0.0
 32
0.0
 13
1.0
 23
0.0
 33
0.0
 40
0.0
 40
0.0
 40
0.0
 40
0.0
 40
0.5
 40
1.0
 40
1.0
 40
1.0
 40
1.0
 10
198.2385527917139
 20
6.302125328256381
 30
0.0
 10
198.334505763254
 20
7.168150732040814
 30
0.0
 10
198.432474401424
 20
8.900201539609675
 30
0.0
 10
198.334505763254
 20
10.63225234717855
 30
0.0
 10
198.2385527917139
 20
11.49827775096298
 30
0.0
  0
SPLINE
  5
E7
330
1F
100
AcDbEntity
  8
1
 62
     4
420
    65535
100
AcDbSpline
210
0.0
220
0.0
230
1.0
 70
     8
 71
     3
 72
    10
 73
     6
 74
     0
 42
0.00000001
 43
0.00000001
 12
1.0
 22
0.0
 32
0.0
 13
1.0
 23
0.0
 33
0.0
 40
0.0
 40
0.0
 40
0.0
 40
0.0
 40
0.5
 40
0.5
 40
1.0
 40
1.0
 40
1.0
 40
1.0
 10
196.6803068658258
 20
-20.53178556399042
 30
0.0
 10
196.637053454893
 20
-20.60749815419497
 30
0.0
 10
196.5735820540633
 20
-20.67208744636317
 30
0.0
 10
196.4221262043303
 20
-20.76070678801402
 30
0.0
 10
196.3347615570266
 20
-20.7844080154241
 30
0.0
 10
196.2472941639336
 20
-20.7844080154241
 30
0.0
  0
SPLINE
  5
E8
330
1F
100
AcDbEntity
  8
1
 62
     4
420
    65535
100
AcDbSpline
210
0.0
220
0.0
230
1.0
 70
     8
 71
     3
 72
     8
 73
     4
 74
     0
 42
0.00000001
 43
0.00000001
 12
1.0
 22
0.0
 32
0.0
 13
1.0
 23
0.0
 33
0.0
 40
0.0
 40
0.0
 40
0.0
 40
0.0
 40
1.0
 40
1.0
 40
1.0
 40
1.0
 10
196.6803068658258
 20
7.668118880056372
 30
0.0
 10
196.5925764558663
 20
7.74490238029942
 30
0.0
 10
196.4242062359174
 20
7.794430105773216
 30
0.0
 10
196.2472941639336
 20
7.794430105773216
 30
0.0
  0
SPLINE
  5
E9
330
1F
100
AcDbEntity
  8
1
 62
     4
420
    65535
100
AcDbSpline
210
0.0
220
0.0
230
1.0
 70
     8
 71
     3
 72
    10
 73
     6
 74
     0
 42
0.00000001
 43
0.00000001
 12
1.0
 22
0.0
 32
0.0
 13
1.0
 23
0.0
 33
0.0
 40
0.0
 40
0.0
 40
0.0
 40
0.0
 40
0.5
 40
0.5
 40
1.0
 40
1.0
 40
1.0
 40
1.0
 10
196.6803068658258
 20
-20.53178556399042
 30
0.0
 10
196.637053454893
 20
-20.60749815419497
 30
0.0
 10
196.5735820540633
 20
-20.67208744636317
 30
0.0
 10
196.4221262043303
 20
-20.76070678801402
 30
0.0
 10
196.3347615570266
 20
-20.7844080154241
 30
0.0
 10
196.2472941639336
 20
-20.7844080154241
 30
0.0
  0
SPLINE
  5
EA
330
1F
100
AcDbEntity
  8
1
 62
     4
420
    65535
100
AcDbSpline
210
0.0
220
0.0
230
1.0
 70
     8
 71
     3
 72
     8
 73
     4
 74
     0
 42
0.00000001
 43
0.00000001
 12
1.0
 22
0.0
 32
0.0
 13
1.0
 23
0.0
 33
0.0
 40
0.0
 40
0.0
 40
0.0
 40
0.0
 40
1.0
 40
1.0
 40
1.0
 40
1.0
 10
196.6803068658258
 20
-12.86386822354384
 30
0.0
 10
196.5925764558652
 20
-12.94065172378773
 30
0.0
 10
196.424206235917
 20
-12.99017944926068
 30
0.0
 10
196.2472941639336
 20
-12.99017944926068
 30
0.0
  0
SPLINE
  5
EB
330
1F
100
AcDbEntity
  8
1
 62
     4
420
    65535
100
AcDbSpline
210
0.0
220
0.0
230
1.0
 70
     8
 71
     3
 72
     8
 73
     4
 74
     0
 42
0.00000001
 43
0.00000001
 12
1.0
 22
0.0
 32
0.0
 13
1.0
 23
0.0
 33
0.0
 40
0.0
 40
0.0
 40
0.0
 40
0.0
 40
1.0
 40
1.0
 40
1.0
 40
1.0
 10
196.6803068658258
 20
-7.667715800837224
 30
0.0
 10
196.5925764558652
 20
-7.744499301081109
 30
0.0
 10
196.424206235917
 20
-7.794027026554059
 30
0.0
 10
196.2472941639336
 20
-7.794027026554059
 30
0.0
  0
SPLINE
  5
EC
330
1F
100
AcDbEntity
  8
1
 62
     4
420
    65535
100
AcDbSpline
210
0.0
220
0.0
230
1.0
 70
     8
 71
     3
 72
     8
 73
     4
 74
     0
 42
0.00000001
 43
0.00000001
 12
1.0
 22
0.0
 32
0.0
 13
1.0
 23
0.0
 33
0.0
 40
0.0
 40
0.0
 40
0.0
 40
0.0
 40
1.0
 40
1.0
 40
1.0
 40
1.0
 10
196.6803068658258
 20
7.668118880056101
 30
0.0
 10
196.5925764558663
 20
7.744902380299147
 30
0.0
 10
196.4242062359174
 20
7.794430105772943
 30
0.0
 10
196.2472941639336
 20
7.794430105772943
 30
0.0
  0
SPLINE
  5
ED
330
1F
100
AcDbEntity
  8
1
 62
     4
420
    65535
100
AcDbSpline
210
0.0
220
0.0
230
1.0
 70
     8
 71
     3
 72
     8
 73
     4
 74
     0
 42
0.00000001
 43
0.00000001
 12
1.0
 22
0.0
 32
0.0
 13
1.0
 23
0.0
 33
0.0
 40
0.0
 40
0.0
 40
0.0
 40
0.0
 40
1.0
 40
1.0
 40
1.0
 40
1.0
 10
196.6803068658258
 20
12.86427130276274
 30
0.0
 10
196.5925764558656
 20
12.94105480300628
 30
0.0
 10
196.4242062359172
 20
12.99058252847958
 30
0.0
 10
196.2472941639336
 20
12.99058252847958
 30
0.0
  0
SPLINE
  5
EE
330
1F
100
AcDbEntity
  8
1
 62
     4
420
    65535
100
AcDbSpline
210
0.0
220
0.0
230
1.0
 70
     8
 71
     3
 72
    10
 73
     6
 74
     0
 42
0.00000001
 43
0.00000001
 12
1.0
 22
0.0
 32
0.0
 13
1.0
 23
0.0
 33
0.0
 40
0.0
 40
0.0
 40
0.0
 40
0.0
 40
0.5
 40
0.5
 40
1.0
 40
1.0
 40
1.0
 40
1.0
 10
196.6803068658258
 20
20.53218864320942
 30
0.0
 10
196.6369786358134
 20
20.60803219987847
 30
0.0
 10
196.5736589096175
 20
20.67240006333877
 30
0.0
 10
196.4224345551213
 20
20.76097482310519
 30
0.0
 10
196.3345173099722
 20
20.78481109464261
 30
0.0
 10
196.2472941639364
 20
20.78481109464311
 30
0.0
  0
LINE
  5
EF
330
1F
100
AcDbEntity
  8
1
 62
     4
420
    65535
100
AcDbLine
 10
180.0000708915
 20
19.0002014052
 30
0.0
 11
180.0000708915
 21
-18.999798326
 31
0.0
  0
LINE
  5
F0
330
1F
100
AcDbEntity
  8
1
 62
     4
420
    65535
100
AcDbLine
 10
180.0000708915
 20
16.9037960008
 30
0.0
 11
180.0000708915
 21
-16.9033929216
 31
0.0
  0
LINE
  5
F1
330
1F
100
AcDbEntity
  8
1
 62
     4
420
    65535
100
AcDbLine
 10
180.8750708859
 20
15.250201442
 30
0.0
 11
180.8750708859
 21
-15.2497983628
 31
0.0
  0
SPLINE
  5
F2
330
1F
100
AcDbEntity
  8
1
 62
     4
420
    65535
100
AcDbSpline
210
0.0
220
0.0
230
1.0
 70
     8
 71
     3
 72
     8
 73
     4
 74
     0
 42
0.00000001
 43
0.00000001
 12
1.0
 22
0.0
 32
0.0
 13
1.0
 23
0.0
 33
0.0
 40
0.0
 40
0.0
 40
0.0
 40
0.0
 40
1.0
 40
1.0
 40
1.0
 40
1.0
 10
196.6803068658258
 20
-7.667715800836956
 30
0.0
 10
196.5925764558652
 20
-7.744499301080839
 30
0.0
 10
196.424206235917
 20
-7.794027026553789
 30
0.0
 10
196.2472941639336
 20
-7.794027026553789
 30
0.0
  0
LINE
  5
F3
330
1F
100
AcDbEntity
  8
1
 62
     4
420
    65535
100
AcDbLine
 10
187.7500708419
 20
15.250201442
 30
0.0
 11
187.7500708419
 21
-15.2497983628
 31
0.0
  0
LINE
  5
F4
330
1F
100
AcDbEntity
  8
1
 62
     4
420
    65535
100
AcDbLine
 10
189.0000709619
 20
15.0002014436
 30
0.0
 11
189.0000709619
 21
-14.9943912795
 31
0.0
  0
LINE
  5
F5
330
1F
100
AcDbEntity
  8
1
 62
     4
420
    65535
100
AcDbLine
 10
190.939301434
 20
16.1198166787
 30
0.0
 11
190.939301434
 21
-16.1139807299
 31
0.0
  0
LINE
  5
F6
330
1F
100
AcDbEntity
  8
1
 62
     4
420
    65535
100
AcDbLine
 10
191.2393014321
 20
16.2002014359
 30
0.0
 11
191.2393014321
 21
-16.1997983567
 31
0.0
  0
LINE
  5
F7
330
1F
100
AcDbEntity
  8
1
 62
     4
420
    65535
100
AcDbLine
 10
192.4000709401
 20
16.2002014359
 30
0.0
 11
192.4000709401
 21
-16.1997983567
 31
0.0
  0
LINE
  5
F8
330
1F
100
AcDbEntity
  8
1
 62
     4
420
    65535
100
AcDbLine
 10
193.0000709363
 20
15.6002014398
 30
0.0
 11
193.0000709363
 21
-15.5943624137
 31
0.0
  0
LINE
  5
F9
330
1F
100
AcDbEntity
  8
1
 62
     4
420
    65535
100
AcDbLine
 10
193.0000709363
 20
11.500201466
 30
0.0
 11
193.0000709363
 21
-11.4944495485
 31
0.0
  0
LINE
  5
FA
330
1F
100
AcDbEntity
  8
1
 62
     4
420
    65535
100
AcDbLine
 10
194.0000709299
 20
11.500201466
 30
0.0
 11
194.0000709299
 21
-11.4944495485
 31
0.0
  0
LINE
  5
FB
330
1F
100
AcDbEntity
  8
1
 62
     4
420
    65535
100
AcDbLine
 10
194.0000709299
 20
13.5002014532
 30
0.0
 11
194.0000709299
 21
-13.4943917201
 31
0.0
  0
LINE
  5
FC
330
1F
100
AcDbEntity
  8
1
 62
     4
420
    65535
100
AcDbLine
 10
195.2000709222
 20
13.5002014532
 30
0.0
 11
195.2000709222
 21
-13.4943917201
 31
0.0
  0
LINE
  5
FD
330
1F
100
AcDbEntity
  8
1
 62
     4
420
    65535
100
AcDbLine
 10
195.2000709222
 20
12.9502014568
 30
0.0
 11
195.2000709222
 21
-12.944419936
 31
0.0
  0
LINE
  5
FE
330
1F
100
AcDbEntity
  8
1
 62
     4
420
    65535
100
AcDbLine
 10
199.4435953736
 20
10.5002014724
 30
0.0
 11
199.4435953736
 21
-10.4997983932
 31
0.0
  0
LINE
  5
FF
330
1F
100
AcDbEntity
  8
1
 62
     4
420
    65535
100
AcDbLine
 10
199.8000708928
 20
10.5002014724
 30
0.0
 11
199.8000708928
 21
-10.4997983932
 31
0.0
  0
LINE
  5
100
330
1F
100
AcDbEntity
  8
1
 62
     4
420
    65535
100
AcDbLine
 10
200.0000708915
 20
10.7002014712
 30
0.0
 11
200.0000708915
 21
-10.6944113955
 31
0.0
  0
LINE
  5
101
330
1F
100
AcDbEntity
  8
1
 62
     4
420
    65535
100
AcDbLine
 10
200.0000708915
 20
14.785842091
 30
0.0
 11
200.0000708915
 21
-14.7854390118
 31
0.0
  0
ARC
  5
102
330
1F
100
AcDbEntity
  8
1
 62
     4
420
    65535
100
AcDbCircle
 10
190.3321918788
 20
27.8002015396
 30
0.0
 40
9.999999999999996
100
AcDbArc
 50
224.550612545
 51
270.0
  0
ARC
  5
103
330
1F
100
AcDbEntity
  8
1
 62
     4
420
    65535
100
AcDbCircle
 10
190.3321918788
 20
27.8002015396
 30
0.0
 40
9.999999999999996
100
AcDbArc
 50
224.550612545
 51
270.0
  0
LINE
  5
104
330
1F
100
AcDbEntity
  8
1
 62
     4
420
    65535
100
AcDbLine
 10
190.3321918788
 20
17.8002015396
 30
0.0
 11
198.2385527917
 21
17.8002015396
 31
0.0
  0
LINE
  5
105
330
1F
100
AcDbEntity
  8
1
 62
     4
420
    65535
100
AcDbLine
 10
190.3321918788
 20
6.3021253283
 30
0.0
 11
190.3321918788
 21
11.498277751
 31
0.0
  0
ARC
  5
106
330
1F
100
AcDbEntity
  8
1
 62
     4
420
    65535
100
AcDbCircle
 10
189.9990064442
 20
22.4725838251
 30
0.0
 40
16.17389070481143
100
AcDbArc
 50
245.1650586297
 51
271.1803881955
  0
ARC
  5
107
330
1F
100
AcDbEntity
  8
1
 62
     4
420
    65535
100
AcDbCircle
 10
189.9990064442
 20
27.6687362478
 30
0.0
 40
16.17389070481144
100
AcDbArc
 50
245.1650586297
 51
271.1803881955
  0
LINE
  5
108
330
1F
100
AcDbEntity
  8
1
 62
     4
420
    65535
100
AcDbLine
 10
190.3321918788
 20
11.498277751
 30
0.0
 11
198.2385527917
 21
11.498277751
 31
0.0
  0
LINE
  5
109
330
1F
100
AcDbEntity
  8
1
 62
     4
420
    65535
100
AcDbLine
 10
188.0000708403
 20
15.0002014436
 30
0.0
 11
188.0000708403
 21
-14.9943912795
 31
0.0
  0
SPLINE
  5
10A
330
1F
100
AcDbEntity
  8
1
 62
     4
420
    65535
100
AcDbSpline
210
0.0
220
0.0
230
1.0
 70
     8
 71
     3
 72
     8
 73
     4
 74
     0
 42
0.00000001
 43
0.00000001
 12
1.0
 22
0.0
 32
0.0
 13
1.0
 23
0.0
 33
0.0
 40
0.0
 40
0.0
 40
0.0
 40
0.0
 40
1.0
 40
1.0
 40
1.0
 40
1.0
 10
196.6803068658258
 20
-12.86386822354361
 30
0.0
 10
196.5925764558652
 20
-12.9406517237875
 30
0.0
 10
196.424206235917
 20
-12.99017944926045
 30
0.0
 10
196.2472941639336
 20
-12.99017944926045
 30
0.0
  0
LINE
  5
10B
330
1F
100
AcDbEntity
  8
1
 62
     4
420
    65535
100
AcDbLine
 10
190.3321918788
 20
-11.4978746717
 30
0.0
 11
190.3321918788
 21
-6.301722249
 31
0.0
  0
ARC
  5
10C
330
1F
100
AcDbEntity
  8
1
 62
     4
420
    65535
100
AcDbCircle
 10
189.9990064442
 20
-22.4721807459
 30
0.0
 40
16.17389070481134
100
AcDbArc
 50
88.8196118045
 51
114.8349413703
  0
LINE
  5
10D
330
1F
100
AcDbEntity
  8
1
 62
     4
420
    65535
100
AcDbLine
 10
190.3321918788
 20
6.3021253283
 30
0.0
 11
198.2385527917
 21
6.3021253283
 31
0.0
  0
LINE
  5
10E
330
1F
100
AcDbEntity
  8
1
 62
     4
420
    65535
100
AcDbLine
 10
190.3321918788
 20
-6.301722249
 30
0.0
 11
198.2385527917
 21
-6.301722249
 31
0.0
  0
LINE
  5
10F
330
1F
100
AcDbEntity
  8
1
 62
     4
420
    65535
100
AcDbLine
 10
190.3321918788
 20
-11.4978746717
 30
0.0
 11
198.2385527917
 21
-11.4978746717
 31
0.0
  0
ARC
  5
110
330
1F
100
AcDbEntity
  8
1
 62
     4
420
    65535
100
AcDbCircle
 10
190.3321918788
 20
-27.7997984604
 30
0.0
 40
10.00000000000001
100
AcDbArc
 50
90.0
 51
135.449387455
  0
ARC
  5
111
330
1F
100
AcDbEntity
  8
1
 62
     4
420
    65535
100
AcDbCircle
 10
190.3321918788
 20
-27.7997984604
 30
0.0
 40
10.00000000000001
100
AcDbArc
 50
90.0
 51
135.449387455
  0
LINE
  5
112
330
1F
100
AcDbEntity
  8
1
 62
     4
420
    65535
100
AcDbLine
 10
190.3321918788
 20
-17.7997984604
 30
0.0
 11
198.2385527917
 21
-17.7997984604
 31
0.0
  0
ARC
  5
113
330
1F
100
AcDbEntity
  8
1
 62
     4
420
    65535
100
AcDbCircle
 10
189.9990064442
 20
-27.6683331686
 30
0.0
 40
16.1738907048116
100
AcDbArc
 50
88.8196118045
 51
114.8349413703
  0
LINE
  5
114
330
1F
100
AcDbEntity
  8
1
 62
     4
420
    65535
100
AcDbLine
 10
187.5696575187
 20
-12.4393077949
 30
0.0
 11
187.5696575187
 21
12.4397108741
 31
0.0
  0
LINE
  5
115
330
1F
100
AcDbEntity
  8
1
 62
     4
420
    65535
100
AcDbLine
 10
188.0000709683
 20
12.9348449085
 30
0.0
 11
188.0000709683
 21
-12.9099090629
 31
0.0
  0
LINE
  5
116
330
1F
100
AcDbEntity
  8
1
 62
     4
420
    65535
100
AcDbLine
 10
31.2576890121
 20
-21.6040646113
 30
0.0
 11
31.2576890121
 21
21.6044676905
 31
0.0
  0
LINE
  5
117
330
1F
100
AcDbEntity
  8
1
 62
     4
420
    65535
100
AcDbLine
 10
16.7524756273
 20
-9.9997984604
 30
0.0
 11
16.7524756273
 21
-49.997183043
 31
0.0
  0
SPLINE
  5
118
330
1F
100
AcDbEntity
  8
1
 62
     4
420
    65535
100
AcDbSpline
210
0.0
220
0.0
230
1.0
 70
    24
 71
     3
 72
     8
 73
     4
 74
     0
 42
0.00000001
 43
0.00000001
 12
1.0
 22
0.0
 32
0.0
 13
1.0
 23
0.0
 33
0.0
 40
0.0
 40
0.0
 40
0.0
 40
0.0
 40
1.0
 40
1.0
 40
1.0
 40
1.0
 10
16.7524756273156
 20
-9.999798460390531
 30
0.0
 10
17.21036903809769
 20
-9.999798460390531
 30
0.0
 10
17.66791910115431
 20
-9.999798460390531
 30
0.0
 10
18.12507089150725
 20
-9.999798460390531
 30
0.0
  0
LINE
  5
119
330
1F
100
AcDbEntity
  8
1
 62
     4
420
    65535
100
AcDbLine
 10
29.0000708915
 20
-24.510697412
 30
0.0
 11
29.0000708915
 21
24.5111004912
 31
0.0
  0
LINE
  5
11A
330
1F
100
AcDbEntity
  8
1
 62
     4
420
    65535
100
AcDbLine
 10
18.1250708915
 20
-9.9997984604
 30
0.0
 11
18.1250708915
 21
-47.6196347043
 31
0.0
  0
LINE
  5
11B
330
1F
100
AcDbEntity
  8
1
 62
     4
420
    65535
100
AcDbLine
 10
18.1250708915
 20
-9.9997984604
 30
0.0
 11
18.1250708915
 21
-47.1970121748
 31
0.0
  0
SPLINE
  5
11C
330
1F
100
AcDbEntity
  8
1
 62
     4
420
    65535
100
AcDbSpline
210
0.0
220
0.0
230
1.0
 70
    24
 71
     3
 72
    14
 73
    10
 74
     0
 42
0.00000001
 43
0.00000001
 12
1.0
 22
0.0
 32
0.0
 13
1.0
 23
0.0
 33
0.0
 40
0.0
 40
0.0
 40
0.0
 40
0.0
 40
0.25
 40
0.25
 40
0.5
 40
0.5
 40
0.75
 40
0.75
 40
1.0
 40
1.0
 40
1.0
 40
1.0
 10
18.12507089150725
 20
-9.999798460390531
 30
0.0
 10
18.12507089150725
 20
-9.999798460390528
 30
0.0
 10
18.15576655074622
 20
-9.999798460390533
 30
0.0
 10
18.27323294669129
 20
-9.999798460390528
 30
0.0
 10
18.36128372421066
 20
-9.999798460390531
 30
0.0
 10
18.58127776377108
 20
-9.999798460390535
 30
0.0
 10
18.7144142653273
 20
-9.999798460390531
 30
0.0
 10
19.00696287048929
 20
-9.999798460390533
 30
0.0
 10
19.16461699640074
 20
-9.999798460390531
 30
0.0
 10
19.32507089150724
 20
-9.999798460390531
 30
0.0
  0
LINE
  5
11D
330
1F
100
AcDbEntity
  8
1
 62
     4
420
    65535
100
AcDbLine
 10
19.3250708915
 20
-9.9997984604
 30
0.0
 11
19.3250708915
 21
-45.9891371126
 31
0.0
  0
LINE
  5
11E
330
1F
100
AcDbEntity
  8
1
 62
     4
420
    65535
100
AcDbLine
 10
19.3250708915
 20
-9.9997984604
 30
0.0
 11
20.6750708915
 21
-9.9997984604
 31
0.0
  0
LINE
  5
11F
330
1F
100
AcDbEntity
  8
1
 62
     4
420
    65535
100
AcDbLine
 10
20.6750708915
 20
-10.9997984604
 30
0.0
 11
19.3250708915
 21
-10.9997984604
 31
0.0
  0
SPLINE
  5
120
330
1F
100
AcDbEntity
  8
1
 62
     4
420
    65535
100
AcDbSpline
210
0.0
220
0.0
230
1.0
 70
    24
 71
     3
 72
    14
 73
    10
 74
     0
 42
0.00000001
 43
0.00000001
 12
1.0
 22
0.0
 32
0.0
 13
1.0
 23
0.0
 33
0.0
 40
0.0
 40
0.0
 40
0.0
 40
0.0
 40
0.25
 40
0.25
 40
0.5
 40
0.5
 40
0.75
 40
0.75
 40
1.0
 40
1.0
 40
1.0
 40
1.0
 10
19.32507089150724
 20
-10.99979846039053
 30
0.0
 10
19.1664877428352
 20
-10.99979846039052
 30
0.0
 10
19.00621217446041
 20
-10.99979846039053
 30
0.0
 10
18.7119163996048
 20
-10.99979846039052
 30
0.0
 10
18.57987222274425
 20
-10.99979846039053
 30
0.0
 10
18.35978554013376
 20
-10.99979846039053
 30
0.0
 10
18.27242445559252
 20
-10.99979846039053
 30
0.0
 10
18.15548983251417
 20
-10.99979846039053
 30
0.0
 10
18.12507089150725
 20
-10.99979846039053
 30
0.0
 10
18.12507089150725
 20
-10.99979846039053
 30
0.0
  0
SPLINE
  5
121
330
1F
100
AcDbEntity
  8
1
 62
     4
420
    65535
100
AcDbSpline
210
0.0
220
0.0
230
1.0
 70
    24
 71
     3
 72
    14
 73
    10
 74
     0
 42
0.00000001
 43
0.00000001
 12
1.0
 22
0.0
 32
0.0
 13
1.0
 23
0.0
 33
0.0
 40
0.0
 40
0.0
 40
0.0
 40
0.0
 40
0.25
 40
0.25
 40
0.5
 40
0.5
 40
0.75
 40
0.75
 40
1.0
 40
1.0
 40
1.0
 40
1.0
 10
20.67507089150725
 20
-9.999798460390531
 30
0.0
 10
20.83321898709194
 20
-9.999798460390528
 30
0.0
 10
20.99272158787825
 20
-9.999798460390533
 30
0.0
 10
21.28448168201529
 20
-9.999798460390528
 30
0.0
 10
21.41726637104012
 20
-9.999798460390531
 30
0.0
 10
21.639475977032
 20
-9.999798460390535
 30
0.0
 10
21.7264363913808
 20
-9.999798460390531
 30
0.0
 10
21.84481114694192
 20
-9.999798460390533
 30
0.0
 10
21.87507089150727
 20
-9.999798460390531
 30
0.0
 10
21.87507089150727
 20
-9.999798460390531
 30
0.0
  0
LINE
  5
122
330
1F
100
AcDbEntity
  8
1
 62
     4
420
    65535
100
AcDbLine
 10
21.8750708915
 20
-9.9997984604
 30
0.0
 11
21.8750708915
 21
-47.1970121748
 31
0.0
  0
SPLINE
  5
123
330
1F
100
AcDbEntity
  8
1
 62
     4
420
    65535
100
AcDbSpline
210
0.0
220
0.0
230
1.0
 70
    24
 71
     3
 72
     8
 73
     4
 74
     0
 42
0.00000001
 43
0.00000001
 12
1.0
 22
0.0
 32
0.0
 13
1.0
 23
0.0
 33
0.0
 40
0.0
 40
0.0
 40
0.0
 40
0.0
 40
1.0
 40
1.0
 40
1.0
 40
1.0
 10
18.12507089150725
 20
-10.99979846039053
 30
0.0
 10
17.66800360080381
 20
-10.99979846039053
 30
0.0
 10
17.21044925956594
 20
-10.99979846039053
 30
0.0
 10
16.7524756273156
 20
-10.99979846039053
 30
0.0
  0
LINE
  5
124
330
1F
100
AcDbEntity
  8
1
 62
     4
420
    65535
100
AcDbLine
 10
21.8750708915
 20
-9.9997984604
 30
0.0
 11
21.8750708915
 21
-47.6196347043
 31
0.0
  0
SPLINE
  5
125
330
1F
100
AcDbEntity
  8
1
 62
     4
420
    65535
100
AcDbSpline
210
0.0
220
0.0
230
1.0
 70
    24
 71
     3
 72
     8
 73
     4
 74
     0
 42
0.00000001
 43
0.00000001
 12
1.0
 22
0.0
 32
0.0
 13
1.0
 23
0.0
 33
0.0
 40
0.0
 40
0.0
 40
0.0
 40
0.0
 40
1.0
 40
1.0
 40
1.0
 40
1.0
 10
21.87507089150724
 20
-9.999798460390531
 30
0.0
 10
22.33222268186018
 20
-9.999798460390531
 30
0.0
 10
22.78977274491681
 20
-9.99979846039053
 30
0.0
 10
23.2476661556989
 20
-9.99979846039053
 30
0.0
  0
LINE
  5
126
330
1F
100
AcDbEntity
  8
1
 62
     4
420
    65535
100
AcDbLine
 10
23.2476661557
 20
-9.9997984604
 30
0.0
 11
23.2476661557
 21
-49.997183043
 31
0.0
  0
LINE
  5
127
330
1F
100
AcDbEntity
  8
1
 62
     4
420
    65535
100
AcDbLine
 10
23.2476661557
 20
-9.9997984604
 30
0.0
 11
29.0000708915
 21
-9.9997984604
 31
0.0
  0
SPLINE
  5
128
330
1F
100
AcDbEntity
  8
1
 62
     4
420
    65535
100
AcDbSpline
210
0.0
220
0.0
230
1.0
 70
    24
 71
     3
 72
    14
 73
    10
 74
     0
 42
0.00000001
 43
0.00000001
 12
1.0
 22
0.0
 32
0.0
 13
1.0
 23
0.0
 33
0.0
 40
0.0
 40
0.0
 40
0.0
 40
0.0
 40
0.25
 40
0.25
 40
0.5
 40
0.5
 40
0.75
 40
0.75
 40
1.0
 40
1.0
 40
1.0
 40
1.0
 10
21.87507089150726
 20
-10.99979846039053
 30
0.0
 10
21.87507089150726
 20
-10.99979846039052
 30
0.0
 10
21.84462406592519
 20
-10.99979846039053
 30
0.0
 10
21.72763074082786
 20
-10.99979846039052
 30
0.0
 10
21.63987101120473
 20
-10.99979846039053
 30
0.0
 10
21.42094787643988
 20
-10.99979846039053
 30
0.0
 10
21.28765186050627
 20
-10.99979846039053
 30
0.0
 10
20.99291137065381
 20
-10.99979846039053
 30
0.0
 10
20.8346252141714
 20
-10.99979846039053
 30
0.0
 10
20.67507089150725
 20
-10.99979846039053
 30
0.0
  0
LINE
  5
129
330
1F
100
AcDbEntity
  8
1
 62
     4
420
    65535
100
AcDbLine
 10
29.0000708915
 20
-9.9997984604
 30
0.0
 11
29.0000708915
 21
-49.997183043
 31
0.0
  0
LINE
  5
12A
330
1F
100
AcDbEntity
  8
1
 62
     4
420
    65535
100
AcDbLine
 10
29.0000708915
 20
-10.9997984604
 30
0.0
 11
23.2476661557
 21
-10.9997984604
 31
0.0
  0
LINE
  5
12B
330
1F
100
AcDbEntity
  8
1
 62
     4
420
    65535
100
AcDbLine
 10
0.0000708915
 20
-49.9760844461
 30
0.0
 11
0.0000708915
 21
49.9764875253
 31
0.0
  0
LINE
  5
12C
330
1F
100
AcDbEntity
  8
1
 62
     4
420
    65535
100
AcDbLine
 10
16.7524756273
 20
10.0002015396
 30
0.0
 11
15.0000708915
 21
10.0002015396
 31
0.0
  0
LINE
  5
12D
330
1F
100
AcDbEntity
  8
1
 62
     4
420
    65535
100
AcDbLine
 10
15.0000708915
 20
-9.9997984604
 30
0.0
 11
16.7524756273
 21
-9.9997984604
 31
0.0
  0
SPLINE
  5
12E
330
1F
100
AcDbEntity
  8
1
 62
     4
420
    65535
100
AcDbSpline
210
0.0
220
0.0
230
1.0
 70
    24
 71
     3
 72
     8
 73
     4
 74
     0
 42
0.00000001
 43
0.00000001
 12
1.0
 22
0.0
 32
0.0
 13
1.0
 23
0.0
 33
0.0
 40
0.0
 40
0.0
 40
0.0
 40
0.0
 40
1.0
 40
1.0
 40
1.0
 40
1.0
 10
23.2476661556989
 20
-10.99979846039053
 30
0.0
 10
22.78969252344855
 20
-10.99979846039053
 30
0.0
 10
22.33213818221068
 20
-10.99979846039053
 30
0.0
 10
21.87507089150724
 20
-10.99979846039053
 30
0.0
  0
LINE
  5
12F
330
1F
100
AcDbEntity
  8
1
 62
     4
420
    65535
100
AcDbLine
 10
16.7524756273
 20
-10.9997984604
 30
0.0
 11
16.0000708915
 21
-10.9997984604
 31
0.0
  0
LINE
  5
130
330
1F
100
AcDbEntity
  8
1
 62
     4
420
    65535
100
AcDbLine
 10
16.0000708915
 20
11.0002015396
 30
0.0
 11
16.7524756273
 21
11.0002015396
 31
0.0
  0
SPLINE
  5
131
330
1F
100
AcDbEntity
  8
1
 62
     4
420
    65535
100
AcDbSpline
210
0.0
220
0.0
230
1.0
 70
     8
 71
     3
 72
    54
 73
    50
 74
     0
 42
0.00000001
 43
0.00000001
 12
1.0
 22
0.0
 32
0.0
 13
1.0
 23
0.0
 33
0.0
 40
0.0
 40
0.0
 40
0.0
 40
0.0
 40
0.0625000000000004
 40
0.0625000000000004
 40
0.0937500000000006
 40
0.0937500000000006
 40
0.1250000000000008
 40
0.1250000000000008
 40
0.1875000000000011
 40
0.1875000000000011
 40
0.2187500000000011
 40
0.2187500000000011
 40
0.2500000000000011
 40
0.2500000000000011
 40
0.312500000000001
 40
0.312500000000001
 40
0.343750000000001
 40
0.343750000000001
 40
0.3750000000000009
 40
0.3750000000000009
 40
0.4062500000000009
 40
0.4062500000000009
 40
0.4375000000000009
 40
0.4375000000000009
 40
0.5000000000000009
 40
0.5000000000000009
 40
0.5625000000000009
 40
0.5625000000000009
 40
0.6250000000000008
 40
0.6250000000000008
 40
0.6562500000000008
 40
0.6562500000000008
 40
0.6875000000000008
 40
0.6875000000000008
 40
0.7187500000000008
 40
0.7187500000000008
 40
0.7500000000000007
 40
0.7500000000000007
 40
0.8125000000000007
 40
0.8125000000000007
 40
0.8437500000000006
 40
0.8437500000000006
 40
0.8750000000000004
 40
0.8750000000000004
 40
0.9375000000000002
 40
0.9375000000000002
 40
0.9687500000000001
 40
0.9687500000000001
 40
1.0
 40
1.0
 40
1.0
 40
1.0
 10
15.00007089150726
 20
10.00020153960947
 30
0.0
 10
14.3377213966342
 20
10.00020153960948
 30
0.0
 10
13.68678171307803
 20
9.935048656156782
 30
0.0
 10
12.72670586297248
 20
9.74382973299165
 30
0.0
 10
12.40942263046828
 20
9.66439119279403
 30
0.0
 10
11.78044452892079
 20
9.47342834732826
 30
0.0
 10
11.46827167319189
 20
9.361487398799824
 30
0.0
 10
10.56076943084718
 20
8.984728080572124
 30
0.0
 10
9.987141420558434
 20
8.677570516921415
 30
0.0
 10
9.172924555562151
 20
8.133522764162347
 30
0.0
 10
8.908046727494707
 20
7.937143218736538
 30
0.0
 10
8.400538696744473
 20
7.520439331266505
 30
0.0
 10
8.158881630822199
 20
7.301151815720434
 30
0.0
 10
7.469065454299526
 20
6.611323898466305
 30
0.0
 10
7.055713515155597
 20
6.109135883666474
 30
0.0
 10
6.507342993582236
 20
5.289960143516126
 30
0.0
 10
6.337636697426957
 20
5.007084261463166
 30
0.0
 10
6.029432252598152
 20
4.431260461275886
 30
0.0
 10
5.890029390333624
 20
4.136997227237084
 30
0.0
 10
5.640309668959912
 20
3.535849227258685
 30
0.0
 10
5.529992316456338
 20
3.228964758817795
 30
0.0
 10
5.338992814876417
 20
2.602291188448239
 30
0.0
 10
5.257988825067637
 20
2.280600652579413
 30
0.0
 10
5.064651594112589
 20
1.312061211857885
 30
0.0
 10
5.000604848223976
 20
0.6622233096145342
 30
0.0
 10
4.999543520574204
 20
-0.6455896634545021
 30
0.0
 10
5.064698142880124
 20
-1.310017162334442
 30
0.0
 10
5.320205634979675
 20
-2.593736261602503
 30
0.0
 10
5.509303986542085
 20
-3.217875977004755
 30
0.0
 10
5.885779869058798
 20
-4.127433254669872
 30
0.0
 10
6.027514219226496
 20
-4.427040348456686
 30
0.0
 10
6.336395761279423
 20
-5.004593881844769
 30
0.0
 10
6.504061487757465
 20
-5.284074630343853
 30
0.0
 10
6.865330406460285
 20
-5.82489482610665
 30
0.0
 10
7.058934244513142
 20
-6.086233659263046
 30
0.0
 10
7.472348326016114
 20
-6.590681379491941
 30
0.0
 10
7.693098303402541
 20
-6.834716999699262
 30
0.0
 10
8.389741736189935
 20
-7.532088140664432
 30
0.0
 10
8.892603705472734
 20
-7.944737673669468
 30
0.0
 10
9.703230870738807
 20
-8.487983745077837
 30
0.0
 10
9.98289835931939
 20
-8.656349306178784
 30
0.0
 10
10.56178415341873
 20
-8.96693309716081
 30
0.0
 10
10.86064278271365
 20
-9.108701839350223
 30
0.0
 10
11.76678001887456
 20
-9.485249080857937
 30
0.0
 10
12.38989615652608
 20
-9.675345713573007
 30
0.0
 10
13.35341190102968
 20
-9.868730564119112
 30
0.0
 10
13.68068348219311
 20
-9.917891177551574
 30
0.0
 10
14.3387833175863
 20
-9.983387245323398
 30
0.0
 10
14.66889398700054
 20
-9.999798460390537
 30
0.0
 10
15.00007089150726
 20
-9.999798460390533
 30
0.0
  0
LINE
  5
132
330
1F
100
AcDbEntity
  8
1
 62
     4
420
    65535
100
AcDbLine
 10
16.7524756273
 20
11.0002015396
 30
0.0
 11
16.7524756273
 21
49.9996473646
 31
0.0
  0
LINE
  5
133
330
1F
100
AcDbEntity
  8
1
 62
     4
420
    65535
100
AcDbLine
 10
16.7524756273
 20
38.8299581703
 30
0.0
 11
5.3631730323
 21
38.8299581703
 31
0.0
  0
SPLINE
  5
134
330
1F
100
AcDbEntity
  8
1
 62
     4
420
    65535
100
AcDbSpline
210
0.0
220
0.0
230
1.0
 70
     8
 71
     3
 72
    54
 73
    50
 74
     0
 42
0.00000001
 43
0.00000001
 12
1.0
 22
0.0
 32
0.0
 13
1.0
 23
0.0
 33
0.0
 40
0.0
 40
0.0
 40
0.0
 40
0.0
 40
0.0625000000000003
 40
0.0625000000000003
 40
0.0937500000000005
 40
0.0937500000000005
 40
0.1250000000000007
 40
0.1250000000000007
 40
0.1875000000000009
 40
0.1875000000000009
 40
0.218750000000001
 40
0.218750000000001
 40
0.2500000000000011
 40
0.2500000000000011
 40
0.3125000000000011
 40
0.3125000000000011
 40
0.3437500000000011
 40
0.3437500000000011
 40
0.3750000000000011
 40
0.3750000000000011
 40
0.4062500000000011
 40
0.4062500000000011
 40
0.4375000000000011
 40
0.4375000000000011
 40
0.5000000000000009
 40
0.5000000000000009
 40
0.5625000000000009
 40
0.5625000000000009
 40
0.6250000000000008
 40
0.6250000000000008
 40
0.6562500000000007
 40
0.6562500000000007
 40
0.6875000000000007
 40
0.6875000000000007
 40
0.7187500000000006
 40
0.7187500000000006
 40
0.7500000000000006
 40
0.7500000000000006
 40
0.8125000000000004
 40
0.8125000000000004
 40
0.8437500000000003
 40
0.8437500000000003
 40
0.8750000000000003
 40
0.8750000000000003
 40
0.9375000000000002
 40
0.9375000000000002
 40
0.9687500000000001
 40
0.9687500000000001
 40
1.0
 40
1.0
 40
1.0
 40
1.0
 10
16.00007089150726
 20
-10.99979846039052
 30
0.0
 10
15.27107004379315
 20
-10.99979846039052
 30
0.0
 10
14.55471022035598
 20
-10.92804993592156
 30
0.0
 10
13.49824690477682
 20
-10.71753206805961
 30
0.0
 10
13.14912696940188
 20
-10.63008080799663
 30
0.0
 10
12.45706641292001
 20
-10.41987059553078
 30
0.0
 10
12.11369809147031
 20
-10.29668553756599
 30
0.0
 10
11.11561611128652
 20
-9.88216708253065
 30
0.0
 10
10.48479555978069
 20
-9.544285014920309
 30
0.0
 10
9.589397329458848
 20
-8.945866640012301
 30
0.0
 10
9.29806212974972
 20
-8.729821627337074
 30
0.0
 10
8.740290520616382
 20
-8.271788239429528
 30
0.0
 10
8.474666250284466
 20
-8.030743530763154
 30
0.0
 10
7.716332139785551
 20
-7.272407843764872
 30
0.0
 10
7.261776075867712
 20
-6.720268855658682
 30
0.0
 10
6.658539450152934
 20
-5.819284690708971
 30
0.0
 10
6.472009480682335
 20
-5.508424996779974
 30
0.0
 10
6.133055878305524
 20
-4.875343075622416
 30
0.0
 10
5.979702188641946
 20
-4.551762303136559
 30
0.0
 10
5.704929276991177
 20
-3.890585386462069
 30
0.0
 10
5.583509364364497
 20
-3.552989657253836
 30
0.0
 10
5.373243337325418
 20
-2.863442618434483
 30
0.0
 10
5.28404736605783
 20
-2.509384194057773
 30
0.0
 10
5.071237240789027
 20
-1.443861494117158
 30
0.0
 10
5.000679798868243
 20
-0.7287803173046428
 30
0.0
 10
4.999469757131079
 20
0.7106898497864422
 30
0.0
 10
5.071225872043381
 20
1.442022454731266
 30
0.0
 10
5.352449737767724
 20
2.854437825760571
 30
0.0
 10
5.560581876995665
 20
3.541198068902264
 30
0.0
 10
5.975025273892494
 20
4.542101713643019
 30
0.0
 10
6.130944592982246
 20
4.871543039967819
 30
0.0
 10
6.470603835838702
 20
5.506459755882948
 30
0.0
 10
6.654980155740328
 20
5.813733317680182
 30
0.0
 10
7.052289663425943
 20
6.408405944023429
 30
0.0
 10
7.26522342302123
 20
6.695804391477856
 30
0.0
 10
7.719976942031407
 20
7.250629253580437
 30
0.0
 10
7.963008053280651
 20
7.519239234381372
 30
0.0
 10
8.728392988904037
 20
8.285364674081068
 30
0.0
 10
9.281055635748894
 20
8.739006246941925
 30
0.0
 10
10.17249420427781
 20
9.336545491310389
 30
0.0
 10
10.48012466330439
 20
9.521800417935319
 30
0.0
 10
11.11711259576865
 20
9.863637545589569
 30
0.0
 10
11.44548161574356
 20
10.01943485352138
 30
0.0
 10
12.44166226316994
 20
10.43356181862745
 30
0.0
 10
13.1270888629806
 20
10.64285560051237
 30
0.0
 10
14.18769222829998
 20
10.85585957494863
 30
0.0
 10
14.54815028392906
 20
10.91002823315035
 30
0.0
 10
15.27228376569916
 20
10.98212841212667
 30
0.0
 10
15.63556591586697
 20
11.00020153960948
 30
0.0
 10
16.00007089150727
 20
11.00020153960948
 30
0.0
  0
LINE
  5
135
330
1F
100
AcDbEntity
  8
1
 62
     4
420
    65535
100
AcDbLine
 10
16.7524756273
 20
31.5002015396
 30
0.0
 11
15.0000708915
 21
31.5002015396
 31
0.0
  0
SPLINE
  5
136
330
1F
100
AcDbEntity
  8
1
 62
     4
420
    65535
100
AcDbSpline
210
0.0
220
0.0
230
1.0
 70
     8
 71
     3
 72
    28
 73
    24
 74
     0
 42
0.00000001
 43
0.00000001
 12
1.0
 22
0.0
 32
0.0
 13
1.0
 23
0.0
 33
0.0
 40
0.0
 40
0.0
 40
0.0
 40
0.0
 40
0.1249999999999987
 40
0.1249999999999987
 40
0.1874999999999981
 40
0.1874999999999981
 40
0.2499999999999975
 40
0.2499999999999975
 40
0.3124999999999969
 40
0.3124999999999969
 40
0.3749999999999963
 40
0.3749999999999963
 40
0.4999999999999963
 40
0.4999999999999963
 40
0.5624999999999967
 40
0.5624999999999967
 40
0.6249999999999971
 40
0.6249999999999971
 40
0.7499999999999981
 40
0.7499999999999981
 40
0.8749999999999991
 40
0.8749999999999991
 40
1.0
 40
1.0
 40
1.0
 40
1.0
 10
15.00007089150727
 20
31.50020153960949
 30
0.0
 10
14.3505878355098
 20
31.5002015396095
 30
0.0
 10
13.71554761773677
 20
31.56285612809429
 30
0.0
 10
12.78328614271307
 20
31.74386647747327
 30
0.0
 10
12.47477260131537
 20
31.81917394865856
 30
0.0
 10
11.86987144625734
 20
31.99750307527021
 30
0.0
 10
11.57693768036824
 20
32.09936517001645
 30
0.0
 10
11.0087606970175
 20
32.32616162469587
 30
0.0
 10
10.73352385787337
 20
32.4511048395131
 30
0.0
 10
10.19998391030976
 20
32.72246039220465
 30
0.0
 10
9.94050026239239
 20
32.8696482265394
 30
0.0
 10
9.196156115107552
 20
33.3358035194688
 30
0.0
 10
8.747579818767198
 20
33.67682175119202
 30
0.0
 10
8.135849053057788
 20
34.2230326165542
 30
0.0
 10
7.941517242108412
 20
34.41168197628394
 30
0.0
 10
7.575833799479348
 20
34.7956513815118
 30
0.0
 10
7.404964736029647
 20
34.99030911214466
 30
0.0
 10
6.924568278763845
 20
35.58043758552089
 30
0.0
 10
6.647076677969224
 20
35.9819929829824
 30
0.0
 10
6.164099197793129
 20
36.79395651478185
 30
0.0
 10
5.958047037619436
 20
37.20616145191271
 30
0.0
 10
5.613191840107917
 20
38.02407189251297
 30
0.0
 10
5.474132783799518
 20
38.42950486184385
 30
0.0
 10
5.363173032302202
 20
38.82995817031731
 30
0.0
  0
LINE
  5
137
330
1F
100
AcDbEntity
  8
1
 62
     4
420
    65535
100
AcDbLine
 10
16.7524756273
 20
31.5002015396
 30
0.0
 11
16.7524756273
 21
10.0002015396
 31
0.0
  0
LINE
  5
138
330
1F
100
AcDbEntity
  8
1
 62
     4
420
    65535
100
AcDbLine
 10
18.1250708915
 20
31.5002015396
 30
0.0
 11
18.1250708915
 21
10.0002015396
 31
0.0
  0
SPLINE
  5
139
330
1F
100
AcDbEntity
  8
1
 62
     4
420
    65535
100
AcDbSpline
210
0.0
220
0.0
230
1.0
 70
    24
 71
     3
 72
     8
 73
     4
 74
     0
 42
0.00000001
 43
0.00000001
 12
1.0
 22
0.0
 32
0.0
 13
1.0
 23
0.0
 33
0.0
 40
0.0
 40
0.0
 40
0.0
 40
0.0
 40
1.0
 40
1.0
 40
1.0
 40
1.0
 10
18.12507089150725
 20
10.00020153960947
 30
0.0
 10
17.66791910115431
 20
10.00020153960947
 30
0.0
 10
17.21036903809769
 20
10.00020153960948
 30
0.0
 10
16.75247562731561
 20
10.00020153960948
 30
0.0
  0
LINE
  5
13A
330
1F
100
AcDbEntity
  8
1
 62
     4
420
    65535
100
AcDbLine
 10
18.1250708915
 20
31.5002015396
 30
0.0
 11
18.1250708915
 21
10.0002015396
 31
0.0
  0
SPLINE
  5
13B
330
1F
100
AcDbEntity
  8
1
 62
     4
420
    65535
100
AcDbSpline
210
0.0
220
0.0
230
1.0
 70
    24
 71
     3
 72
     8
 73
     4
 74
     0
 42
0.00000001
 43
0.00000001
 12
1.0
 22
0.0
 32
0.0
 13
1.0
 23
0.0
 33
0.0
 40
0.0
 40
0.0
 40
0.0
 40
0.0
 40
1.0
 40
1.0
 40
1.0
 40
1.0
 10
18.12507089150725
 20
31.50020153960949
 30
0.0
 10
17.67442218984009
 20
31.50020153960949
 30
0.0
 10
17.21648097193904
 20
31.50020153960949
 30
0.0
 10
16.7524756273156
 20
31.50020153960949
 30
0.0
  0
LINE
  5
13C
330
1F
100
AcDbEntity
  8
1
 62
     4
420
    65535
100
AcDbLine
 10
19.3250708915
 20
31.5002015396
 30
0.0
 11
19.3250708915
 21
10.0002015396
 31
0.0
  0
SPLINE
  5
13D
330
1F
100
AcDbEntity
  8
1
 62
     4
420
    65535
100
AcDbSpline
210
0.0
220
0.0
230
1.0
 70
    24
 71
     3
 72
    14
 73
    10
 74
     0
 42
0.00000001
 43
0.00000001
 12
1.0
 22
0.0
 32
0.0
 13
1.0
 23
0.0
 33
0.0
 40
0.0
 40
0.0
 40
0.0
 40
0.0
 40
0.25
 40
0.25
 40
0.5
 40
0.5
 40
0.75
 40
0.75
 40
1.0
 40
1.0
 40
1.0
 40
1.0
 10
19.32507089150724
 20
10.00020153960947
 30
0.0
 10
19.16692279592257
 20
10.00020153960947
 30
0.0
 10
19.00742019513627
 20
10.00020153960948
 30
0.0
 10
18.71566010099926
 20
10.00020153960947
 30
0.0
 10
18.58287541197445
 20
10.00020153960947
 30
0.0
 10
18.36066580598258
 20
10.00020153960947
 30
0.0
 10
18.27370539163377
 20
10.00020153960947
 30
0.0
 10
18.15533063607263
 20
10.00020153960947
 30
0.0
 10
18.12507089150726
 20
10.00020153960947
 30
0.0
 10
18.12507089150723
 20
10.00020153960947
 30
0.0
  0
LINE
  5
13E
330
1F
100
AcDbEntity
  8
1
 62
     4
420
    65535
100
AcDbLine
 10
20.6750708915
 20
10.0002015396
 30
0.0
 11
19.3250708915
 21
10.0002015396
 31
0.0
  0
LINE
  5
13F
330
1F
100
AcDbEntity
  8
1
 62
     4
420
    65535
100
AcDbLine
 10
20.6750708915
 20
31.5002015396
 30
0.0
 11
19.3250708915
 21
31.5002015396
 31
0.0
  0
LINE
  5
140
330
1F
100
AcDbEntity
  8
1
 62
     4
420
    65535
100
AcDbLine
 10
20.6750708915
 20
-9.9997984604
 30
0.0
 11
20.6750708915
 21
-45.9891371126
 31
0.0
  0
LINE
  5
141
330
1F
100
AcDbEntity
  8
1
 62
     4
420
    65535
100
AcDbLine
 10
21.8750708915
 20
31.5002015396
 30
0.0
 11
21.8750708915
 21
10.0002015396
 31
0.0
  0
SPLINE
  5
142
330
1F
100
AcDbEntity
  8
1
 62
     4
420
    65535
100
AcDbSpline
210
0.0
220
0.0
230
1.0
 70
    24
 71
     3
 72
    14
 73
    10
 74
     0
 42
0.00000001
 43
0.00000001
 12
1.0
 22
0.0
 32
0.0
 13
1.0
 23
0.0
 33
0.0
 40
0.0
 40
0.0
 40
0.0
 40
0.0
 40
0.25
 40
0.25
 40
0.5
 40
0.5
 40
0.75
 40
0.75
 40
1.0
 40
1.0
 40
1.0
 40
1.0
 10
19.32507089150724
 20
31.50020153960949
 30
0.0
 10
19.13750138991752
 20
31.5002015396095
 30
0.0
 10
18.95418263787207
 20
31.5002015396095
 30
0.0
 10
18.64356039819146
 20
31.50020153960948
 30
0.0
 10
18.51642001249502
 20
31.50020153960949
 30
0.0
 10
18.31656572744197
 20
31.50020153960948
 30
0.0
 10
18.24522102030301
 20
31.50020153960949
 30
0.0
 10
18.14844025225337
 20
31.5002015396095
 30
0.0
 10
18.12507089150725
 20
31.50020153960949
 30
0.0
 10
18.12507089150725
 20
31.50020153960949
 30
0.0
  0
SPLINE
  5
143
330
1F
100
AcDbEntity
  8
1
 62
     4
420
    65535
100
AcDbSpline
210
0.0
220
0.0
230
1.0
 70
    24
 71
     3
 72
    14
 73
    10
 74
     0
 42
0.00000001
 43
0.00000001
 12
1.0
 22
0.0
 32
0.0
 13
1.0
 23
0.0
 33
0.0
 40
0.0
 40
0.0
 40
0.0
 40
0.0
 40
0.25
 40
0.25
 40
0.5
 40
0.5
 40
0.75
 40
0.75
 40
1.0
 40
1.0
 40
1.0
 40
1.0
 10
21.87507089150725
 20
10.00020153960947
 30
0.0
 10
21.87507089150725
 20
10.00020153960947
 30
0.0
 10
21.84437523226828
 20
10.00020153960948
 30
0.0
 10
21.7269088363232
 20
10.00020153960947
 30
0.0
 10
21.63885805880384
 20
10.00020153960947
 30
0.0
 10
21.41886401924342
 20
10.00020153960947
 30
0.0
 10
21.28572751768719
 20
10.00020153960947
 30
0.0
 10
20.9931789125252
 20
10.00020153960947
 30
0.0
 10
20.83552478661375
 20
10.00020153960947
 30
0.0
 10
20.67507089150725
 20
10.00020153960947
 30
0.0
  0
LINE
  5
144
330
1F
100
AcDbEntity
  8
1
 62
     4
420
    65535
100
AcDbLine
 10
21.8750708915
 20
31.5002015396
 30
0.0
 11
21.8750708915
 21
10.0002015396
 31
0.0
  0
SPLINE
  5
145
330
1F
100
AcDbEntity
  8
1
 62
     4
420
    65535
100
AcDbSpline
210
0.0
220
0.0
230
1.0
 70
    24
 71
     3
 72
    16
 73
    12
 74
     0
 42
0.00000001
 43
0.00000001
 12
1.0
 22
0.0
 32
0.0
 13
1.0
 23
0.0
 33
0.0
 40
0.0
 40
0.0
 40
0.0
 40
0.0
 40
0.2500000000000022
 40
0.2500000000000022
 40
0.5000000000000044
 40
0.5000000000000044
 40
0.6250000000000043
 40
0.6250000000000043
 40
0.7500000000000042
 40
0.7500000000000042
 40
1.0
 40
1.0
 40
1.0
 40
1.0
 10
21.87507089150725
 20
31.50020153960949
 30
0.0
 10
21.87507089150726
 20
31.5002015396095
 30
0.0
 10
21.85165894215655
 20
31.50020153960949
 30
0.0
 10
21.75498890388494
 20
31.50020153960948
 30
0.0
 10
21.68377588915348
 20
31.5002015396095
 30
0.0
 10
21.53310044659118
 20
31.50020153960949
 30
0.0
 10
21.4765568374339
 20
31.5002015396095
 30
0.0
 10
21.34944152791808
 20
31.50020153960949
 30
0.0
 10
21.27773798349159
 20
31.50020153960949
 30
0.0
 10
21.04529481785906
 20
31.50020153960949
 30
0.0
 10
20.86269105635894
 20
31.5002015396095
 30
0.0
 10
20.67507089150725
 20
31.50020153960949
 30
0.0
  0
SPLINE
  5
146
330
1F
100
AcDbEntity
  8
1
 62
     4
420
    65535
100
AcDbSpline
210
0.0
220
0.0
230
1.0
 70
    24
 71
     3
 72
     8
 73
     4
 74
     0
 42
0.00000001
 43
0.00000001
 12
1.0
 22
0.0
 32
0.0
 13
1.0
 23
0.0
 33
0.0
 40
0.0
 40
0.0
 40
0.0
 40
0.0
 40
1.0
 40
1.0
 40
1.0
 40
1.0
 10
23.24766615569889
 20
10.00020153960947
 30
0.0
 10
22.78977274491681
 20
10.00020153960947
 30
0.0
 10
22.33222268186018
 20
10.00020153960947
 30
0.0
 10
21.87507089150724
 20
10.00020153960947
 30
0.0
  0
SPLINE
  5
147
330
1F
100
AcDbEntity
  8
1
 62
     4
420
    65535
100
AcDbSpline
210
0.0
220
0.0
230
1.0
 70
    24
 71
     3
 72
     8
 73
     4
 74
     0
 42
0.00000001
 43
0.00000001
 12
1.0
 22
0.0
 32
0.0
 13
1.0
 23
0.0
 33
0.0
 40
0.0
 40
0.0
 40
0.0
 40
0.0
 40
1.0
 40
1.0
 40
1.0
 40
1.0
 10
23.2476661556989
 20
31.50020153960949
 30
0.0
 10
22.78346221175548
 20
31.50020153960949
 30
0.0
 10
22.32542726699178
 20
31.50020153960949
 30
0.0
 10
21.87507089150723
 20
31.50020153960949
 30
0.0
  0
LINE
  5
148
330
1F
100
AcDbEntity
  8
1
 62
     4
420
    65535
100
AcDbLine
 10
29.0000708915
 20
31.5002015396
 30
0.0
 11
29.0000708915
 21
10.0002015396
 31
0.0
  0
LINE
  5
149
330
1F
100
AcDbEntity
  8
1
 62
     4
420
    65535
100
AcDbLine
 10
29.0000708915
 20
10.0002015396
 30
0.0
 11
23.2476661557
 21
10.0002015396
 31
0.0
  0
LINE
  5
14A
330
1F
100
AcDbEntity
  8
1
 62
     4
420
    65535
100
AcDbLine
 10
29.0000708915
 20
31.5002015396
 30
0.0
 11
23.2476661557
 21
31.5002015396
 31
0.0
  0
LINE
  5
14B
330
1F
100
AcDbEntity
  8
1
 62
     4
420
    65535
100
AcDbLine
 10
29.0000708915
 20
-9.9997984604
 30
0.0
 11
29.0000708915
 21
10.0002015396
 31
0.0
  0
LINE
  5
14C
330
1F
100
AcDbEntity
  8
1
 62
     4
420
    65535
100
AcDbLine
 10
29.0000708915
 20
31.5002015396
 30
0.0
 11
29.0000708915
 21
38.8299581703
 31
0.0
  0
LINE
  5
14D
330
1F
100
AcDbEntity
  8
1
 62
     4
420
    65535
100
AcDbLine
 10
29.0000708915
 20
11.0002015396
 30
0.0
 11
29.0000708915
 21
49.9996473646
 31
0.0
  0
LINE
  5
14E
330
1F
100
AcDbEntity
  8
1
 62
     4
420
    65535
100
AcDbLine
 10
29.0000708915
 20
-10.9997984604
 30
0.0
 11
29.0000708915
 21
11.0002015396
 31
0.0
  0
LINE
  5
14F
330
1F
100
AcDbEntity
  8
1
 62
     4
420
    65535
100
AcDbLine
 10
-35.9999291085
 20
-10.0097984604
 30
0.0
 11
-48.0999993927
 21
-10.0097984604
 31
0.0
  0
LINE
  5
150
330
1F
100
AcDbEntity
  8
1
 62
     4
420
    65535
100
AcDbLine
 10
-35.9999291085
 20
-10.0097984604
 30
0.0
 11
-49.4999291085
 21
-10.0097984604
 31
0.0
  0
LINE
  5
151
330
1F
100
AcDbEntity
  8
1
 62
     4
420
    65535
100
AcDbLine
 10
-35.9999291085
 20
10.0102015396
 30
0.0
 11
-48.0999993927
 21
10.0102015396
 31
0.0
  0
LINE
  5
152
330
1F
100
AcDbEntity
  8
1
 62
     4
420
    65535
100
AcDbLine
 10
-35.9999291085
 20
10.0102015396
 30
0.0
 11
-49.4999291085
 21
10.0102015396
 31
0.0
  0
SPLINE
  5
153
330
1F
100
AcDbEntity
  8
1
 62
     4
420
    65535
100
AcDbSpline
210
0.0
220
0.0
230
1.0
 70
    24
 71
     3
 72
     8
 73
     4
 74
     0
 42
0.00000001
 43
0.00000001
 12
1.0
 22
0.0
 32
0.0
 13
1.0
 23
0.0
 33
0.0
 40
0.0
 40
0.0
 40
0.0
 40
0.0
 40
1.0
 40
1.0
 40
1.0
 40
1.0
 10
-48.09999939269328
 20
-10.00979846039053
 30
0.0
 10
-48.56138483442543
 20
-10.00979846039053
 30
0.0
 10
-49.02850465057294
 20
-10.00979846039053
 30
0.0
 10
-49.49992910849276
 20
-10.00979846039053
 30
0.0
  0
LINE
  5
154
330
1F
100
AcDbEntity
  8
1
 62
     4
420
    65535
100
AcDbLine
 10
20.6750708915
 20
31.5002015396
 30
0.0
 11
20.6750708915
 21
10.0002015396
 31
0.0
  0
SPLINE
  5
155
330
1F
100
AcDbEntity
  8
1
 62
     4
420
    65535
100
AcDbSpline
210
0.0
220
0.0
230
1.0
 70
    24
 71
     3
 72
     8
 73
     4
 74
     0
 42
0.00000001
 43
0.00000001
 12
1.0
 22
0.0
 32
0.0
 13
1.0
 23
0.0
 33
0.0
 40
0.0
 40
0.0
 40
0.0
 40
0.0
 40
1.0
 40
1.0
 40
1.0
 40
1.0
 10
-48.09999939269328
 20
10.01020153960947
 30
0.0
 10
-48.56138483442542
 20
10.01020153960947
 30
0.0
 10
-49.02850465057294
 20
10.01020153960947
 30
0.0
 10
-49.49992910849276
 20
10.01020153960947
 30
0.0
  0
LINE
  5
156
330
1F
100
AcDbEntity
  8
1
 62
     4
420
    65535
100
AcDbLine
 10
-49.9999291085
 20
10.5102015396
 30
0.0
 11
-49.9999291085
 21
12.0745928864
 31
0.0
  0
LINE
  5
157
330
1F
100
AcDbEntity
  8
1
 62
     4
420
    65535
100
AcDbLine
 10
-49.9999291085
 20
10.5102015396
 30
0.0
 11
-49.9999291085
 21
18.8749384573
 31
0.0
  0
LINE
  5
158
330
1F
100
AcDbEntity
  8
1
 62
     4
420
    65535
100
AcDbLine
 10
-49.9999291085
 20
12.0745928864
 30
0.0
 11
-49.9999291085
 21
33.6004734244
 31
0.0
  0
LINE
  5
159
330
1F
100
AcDbEntity
  8
1
 62
     4
420
    65535
100
AcDbLine
 10
-48.0999993927
 20
15.0791437423
 30
0.0
 11
-48.0999993927
 21
35.5741791896
 31
0.0
  0
LINE
  5
15A
330
1F
100
AcDbEntity
  8
1
 62
     4
420
    65535
100
AcDbLine
 10
-49.9999291085
 20
12.0745928864
 30
0.0
 11
-49.9999291085
 21
10.5102015396
 31
0.0
  0
SPLINE
  5
15B
330
1F
100
AcDbEntity
  8
1
 62
     4
420
    65535
100
AcDbSpline
210
0.0
220
0.0
230
1.0
 70
     8
 71
     3
 72
    18
 73
    14
 74
     0
 42
0.00000001
 43
0.00000001
 12
1.0
 22
0.0
 32
0.0
 13
1.0
 23
0.0
 33
0.0
 40
0.0
 40
0.0
 40
0.0
 40
0.0
 40
0.1249999999999993
 40
0.1249999999999993
 40
0.2499999999999986
 40
0.2499999999999986
 40
0.4999999999999994
 40
0.4999999999999994
 40
0.7500000000000003
 40
0.7500000000000003
 40
0.8750000000000001
 40
0.8750000000000001
 40
1.0
 40
1.0
 40
1.0
 40
1.0
 10
-48.09999939269328
 20
15.07914374229945
 30
0.0
 10
-48.26567045344272
 20
15.05777975531318
 30
0.0
 10
-48.41732258072891
 20
14.98530087248388
 30
0.0
 10
-48.68805950282999
 20
14.79940499388041
 30
0.0
 10
-48.8088052420368
 20
14.68592147256616
 30
0.0
 10
-49.14086415912939
 20
14.32215921544237
 30
0.0
 10
-49.32152368859004
 20
14.05249008243863
 30
0.0
 10
-49.63514259016387
 20
13.488810182789
 30
0.0
 10
-49.76097314670179
 20
13.20345281755769
 30
0.0
 10
-49.89877009865733
 20
12.77191444466523
 30
0.0
 10
-49.93569010012843
 20
12.62738124769518
 30
0.0
 10
-49.98602570737062
 20
12.34660088481578
 30
0.0
 10
-49.99992910849276
 20
12.20913516449853
 30
0.0
 10
-49.99992910849276
 20
12.07459288635131
 30
0.0
  0
SPLINE
  5
15C
330
1F
100
AcDbEntity
  8
1
 62
     4
420
    65535
100
AcDbSpline
210
0.0
220
0.0
230
1.0
 70
     8
 71
     3
 72
    22
 73
    18
 74
     0
 42
0.00000001
 43
0.00000001
 12
1.0
 22
0.0
 32
0.0
 13
1.0
 23
0.0
 33
0.0
 40
0.0
 40
0.0
 40
0.0
 40
0.0
 40
0.125
 40
0.125
 40
0.25
 40
0.25
 40
0.375
 40
0.375
 40
0.5
 40
0.5
 40
0.625
 40
0.625
 40
0.75
 40
0.75
 40
0.875
 40
0.875
 40
1.0
 40
1.0
 40
1.0
 40
1.0
 10
-49.99992910849276
 20
12.07459288635131
 30
0.0
 10
-49.99992910849276
 20
12.20890952580616
 30
0.0
 10
-49.98578902410917
 20
12.3483703775121
 30
0.0
 10
-49.93536377395637
 20
12.62874726197611
 30
0.0
 10
-49.89905641704465
 20
12.77092977555871
 30
0.0
 10
-49.80704089930919
 20
13.05927015510665
 30
0.0
 10
-49.75156491788013
 20
13.20429791189117
 30
0.0
 10
-49.62630499255049
 20
13.48947623376812
 30
0.0
 10
-49.55620624025183
 20
13.63064725956616
 30
0.0
 10
-49.40104013238187
 20
13.90961023622796
 30
0.0
 10
-49.3154357235583
 20
14.04825506137598
 30
0.0
 10
-49.12932112194408
 20
14.31575520984373
 30
0.0
 10
-49.02926360991187
 20
14.44448993812874
 30
0.0
 10
-48.80846689696776
 20
14.6862165878356
 30
0.0
 10
-48.68723471343635
 20
14.80012759335577
 30
0.0
 10
-48.41615521108053
 20
14.98594499495198
 30
0.0
 10
-48.26529089044526
 20
15.05782870157381
 30
0.0
 10
-48.09999939269387
 20
15.07914374229938
 30
0.0
  0
SPLINE
  5
15D
330
1F
100
AcDbEntity
  8
1
 62
     4
420
    65535
100
AcDbSpline
210
0.0
220
0.0
230
1.0
 70
    24
 71
     3
 72
     8
 73
     4
 74
     0
 42
0.00000001
 43
0.00000001
 12
1.0
 22
0.0
 32
0.0
 13
1.0
 23
0.0
 33
0.0
 40
0.0000003023411862
 40
0.0000003023411862
 40
0.0000003023411862
 40
0.0000003023411862
 40
0.0007569777965789
 40
0.0007569777965789
 40
0.0007569777965789
 40
0.0007569777965789
 10
-49.99992910849276
 20
10.51020153960947
 30
0.0
 10
-49.83308183314251
 20
10.34335426425922
 30
0.0
 10
-49.66641102769056
 20
10.17668345880728
 30
0.0
 10
-49.49992910849276
 20
10.01020153960947
 30
0.0
  0
LINE
  5
15E
330
1F
100
AcDbEntity
  8
1
 62
     4
420
    65535
100
AcDbLine
 10
-48.0999993927
 20
10.0102015396
 30
0.0
 11
-48.0999993927
 21
16.9741539059
 31
0.0
  0
LINE
  5
15F
330
1F
100
AcDbEntity
  8
1
 62
     4
420
    65535
100
AcDbLine
 10
23.2476661557
 20
31.5002015396
 30
0.0
 11
23.2476661557
 21
10.0002015396
 31
0.0
  0
SPLINE
  5
160
330
1F
100
AcDbEntity
  8
1
 62
     4
420
    65535
100
AcDbSpline
210
0.0
220
0.0
230
1.0
 70
    24
 71
     3
 72
     8
 73
     4
 74
     0
 42
0.00000001
 43
0.00000001
 12
1.0
 22
0.0
 32
0.0
 13
1.0
 23
0.0
 33
0.0
 40
0.0000003030049228
 40
0.0000003030049228
 40
0.0000003030049228
 40
0.0000003030049228
 40
0.0007569784603155
 40
0.0007569784603155
 40
0.0007569784603155
 40
0.0007569784603155
 10
-49.49992910849276
 20
10.01020153960947
 30
0.0
 10
-49.66641102769056
 20
10.17668345880728
 30
0.0
 10
-49.83308183314251
 20
10.34335426425922
 30
0.0
 10
-49.99992910849276
 20
10.51020153960947
 30
0.0
  0
LINE
  5
161
330
1F
100
AcDbEntity
  8
1
 62
     4
420
    65535
100
AcDbLine
 10
-1.4566137947
 20
-37.6024771533
 30
0.0
 11
-1.4566137947
 21
37.6028802325
 31
0.0
  0
LINE
  5
162
330
1F
100
AcDbEntity
  8
1
 62
     4
420
    65535
100
AcDbLine
 10
-0.3940899497
 20
-37.5820326491
 30
0.0
 11
-0.3940899497
 21
37.5824357283
 31
0.0
  0
LINE
  5
163
330
1F
100
AcDbEntity
  8
1
 62
     4
420
    65535
100
AcDbLine
 10
0.2000708915
 20
-38.2595767524
 30
0.0
 11
0.2000708915
 21
38.2599798317
 31
0.0
  0
LINE
  5
164
330
1F
100
AcDbEntity
  8
1
 62
     4
420
    65535
100
AcDbLine
 10
-1.3013223677
 20
-37.5820326491
 30
0.0
 11
-1.3013223677
 21
37.5824357283
 31
0.0
  0
LINE
  5
165
330
1F
100
AcDbEntity
  8
1
 62
     4
420
    65535
100
AcDbLine
 10
18.1250708915
 20
11.0002015396
 30
0.0
 11
18.1250708915
 21
47.6178124442
 31
0.0
  0
SPLINE
  5
166
330
1F
100
AcDbEntity
  8
1
 62
     4
420
    65535
100
AcDbSpline
210
0.0
220
0.0
230
1.0
 70
    24
 71
     3
 72
     8
 73
     4
 74
     0
 42
0.00000001
 43
0.00000001
 12
1.0
 22
0.0
 32
0.0
 13
1.0
 23
0.0
 33
0.0
 40
0.0
 40
0.0
 40
0.0
 40
0.0
 40
1.0
 40
1.0
 40
1.0
 40
1.0
 10
-49.49992910849276
 20
10.01020153960947
 30
0.0
 10
-49.02818366036311
 20
10.01020153960947
 30
0.0
 10
-48.56103985892631
 20
10.01020153960947
 30
0.0
 10
-48.09999939269328
 20
10.01020153960947
 30
0.0
  0
LINE
  5
167
330
1F
100
AcDbEntity
  8
1
 62
     4
420
    65535
100
AcDbLine
 10
0.0000708915
 20
-39.6826977753
 30
0.0
 11
0.0000708915
 21
39.6831008545
 31
0.0
  0
SPLINE
  5
168
330
1F
100
AcDbEntity
  8
1
 62
     4
420
    65535
100
AcDbSpline
210
0.0
220
0.0
230
1.0
 70
     8
 71
     3
 72
     8
 73
     4
 74
     0
 42
0.00000001
 43
0.00000001
 12
1.0
 22
0.0
 32
0.0
 13
1.0
 23
0.0
 33
0.0
 40
0.0
 40
0.0
 40
0.0
 40
0.0
 40
1.0
 40
1.0
 40
1.0
 40
1.0
 10
18.12507089150725
 20
35.71660644963647
 30
0.0
 10
17.67429375516661
 20
36.7576474378783
 30
0.0
 10
17.21640164864552
 20
37.7952575829059
 30
0.0
 10
16.75247562731559
 20
38.82995817031735
 30
0.0
  0
LINE
  5
169
330
1F
100
AcDbEntity
  8
1
 62
     4
420
    65535
100
AcDbLine
 10
18.1250708915
 20
35.1511616972
 30
0.0
 11
18.1250708915
 21
35.7166064496
 31
0.0
  0
LINE
  5
16A
330
1F
100
AcDbEntity
  8
1
 62
     4
420
    65535
100
AcDbLine
 10
19.3250708915
 20
11.0002015396
 30
0.0
 11
19.3250708915
 21
45.9833653792
 31
0.0
  0
LINE
  5
16B
330
1F
100
AcDbEntity
  8
1
 62
     4
420
    65535
100
AcDbLine
 10
18.1250708915
 20
11.0002015396
 30
0.0
 11
18.1250708915
 21
47.190381166
 31
0.0
  0
SPLINE
  5
16C
330
1F
100
AcDbEntity
  8
1
 62
     4
420
    65535
100
AcDbSpline
210
0.0
220
0.0
230
1.0
 70
     8
 71
     3
 72
    16
 73
    12
 74
     0
 42
0.00000001
 43
0.00000001
 12
1.0
 22
0.0
 32
0.0
 13
1.0
 23
0.0
 33
0.0
 40
0.0
 40
0.0
 40
0.0
 40
0.0
 40
0.1249999999999995
 40
0.1249999999999995
 40
0.249999999999999
 40
0.249999999999999
 40
0.4999999999999993
 40
0.4999999999999993
 40
0.7499999999999997
 40
0.7499999999999997
 40
1.0
 40
1.0
 40
1.0
 40
1.0
 10
19.32507089150724
 20
33.52258212333294
 30
0.0
 10
19.23174558048279
 20
33.52258212333293
 30
0.0
 10
19.13906035282283
 20
33.53758036418084
 30
0.0
 10
18.9596548859057
 20
33.59566279604087
 30
0.0
 10
18.87646642440964
 20
33.63737519325309
 30
0.0
 10
18.64523074800605
 20
33.79164629026371
 30
0.0
 10
18.516513767211
 20
33.93350131770588
 30
0.0
 10
18.31653506806715
 20
34.24906154911591
 30
0.0
 10
18.24526160688917
 20
34.41960473558291
 30
0.0
 10
18.14843101081846
 20
34.78101019805194
 30
0.0
 10
18.12507089150725
 20
34.96474336575401
 30
0.0
 10
18.12507089150725
 20
35.15116169719264
 30
0.0
  0
LINE
  5
16D
330
1F
100
AcDbEntity
  8
1
 62
     4
420
    65535
100
AcDbLine
 10
20.6750708915
 20
11.0002015396
 30
0.0
 11
20.6750708915
 21
45.9833653792
 31
0.0
  0
LINE
  5
16E
330
1F
100
AcDbEntity
  8
1
 62
     4
420
    65535
100
AcDbLine
 10
20.6750708915
 20
33.5225821233
 30
0.0
 11
19.3250708915
 21
33.5225821233
 31
0.0
  0
LINE
  5
16F
330
1F
100
AcDbEntity
  8
1
 62
     4
420
    65535
100
AcDbLine
 10
19.3250708915
 20
11.0002015396
 30
0.0
 11
20.6750708915
 21
11.0002015396
 31
0.0
  0
SPLINE
  5
170
330
1F
100
AcDbEntity
  8
1
 62
     4
420
    65535
100
AcDbSpline
210
0.0
220
0.0
230
1.0
 70
    24
 71
     3
 72
    14
 73
    10
 74
     0
 42
0.00000001
 43
0.00000001
 12
1.0
 22
0.0
 32
0.0
 13
1.0
 23
0.0
 33
0.0
 40
0.0
 40
0.0
 40
0.0
 40
0.0
 40
0.25
 40
0.25
 40
0.5
 40
0.5
 40
0.75
 40
0.75
 40
1.0
 40
1.0
 40
1.0
 40
1.0
 10
18.12507089150724
 20
11.00020153960947
 30
0.0
 10
18.12507089150723
 20
11.00020153960947
 30
0.0
 10
18.15551771708931
 20
11.00020153960947
 30
0.0
 10
18.27251104218663
 20
11.00020153960947
 30
0.0
 10
18.36027077180975
 20
11.00020153960947
 30
0.0
 10
18.57919390657461
 20
11.00020153960947
 30
0.0
 10
18.71248992250821
 20
11.00020153960947
 30
0.0
 10
19.00723041236068
 20
11.00020153960947
 30
0.0
 10
19.16551656884309
 20
11.00020153960947
 30
0.0
 10
19.32507089150724
 20
11.00020153960947
 30
0.0
  0
LINE
  5
171
330
1F
100
AcDbEntity
  8
1
 62
     4
420
    65535
100
AcDbLine
 10
21.8750708915
 20
11.0002015396
 30
0.0
 11
21.8750708915
 21
47.190381166
 31
0.0
  0
SPLINE
  5
172
330
1F
100
AcDbEntity
  8
1
 62
     4
420
    65535
100
AcDbSpline
210
0.0
220
0.0
230
1.0
 70
    24
 71
     3
 72
     8
 73
     4
 74
     0
 42
0.00000001
 43
0.00000001
 12
1.0
 22
0.0
 32
0.0
 13
1.0
 23
0.0
 33
0.0
 40
0.0
 40
0.0
 40
0.0
 40
0.0
 40
1.0
 40
1.0
 40
1.0
 40
1.0
 10
16.75247562731561
 20
11.00020153960947
 30
0.0
 10
17.21044925956594
 20
11.00020153960947
 30
0.0
 10
17.66800360080381
 20
11.00020153960947
 30
0.0
 10
18.12507089150725
 20
11.00020153960947
 30
0.0
  0
LINE
  5
173
330
1F
100
AcDbEntity
  8
1
 62
     4
420
    65535
100
AcDbLine
 10
21.8750708915
 20
11.0002015396
 30
0.0
 11
21.8750708915
 21
47.6178124442
 31
0.0
  0
LINE
  5
174
330
1F
100
AcDbEntity
  8
1
 62
     4
420
    65535
100
AcDbLine
 10
21.8750708915
 20
35.7166064496
 30
0.0
 11
21.8750708915
 21
35.1511616972
 31
0.0
  0
SPLINE
  5
175
330
1F
100
AcDbEntity
  8
1
 62
     4
420
    65535
100
AcDbSpline
210
0.0
220
0.0
230
1.0
 70
     8
 71
     3
 72
    16
 73
    12
 74
     0
 42
0.00000001
 43
0.00000001
 12
1.0
 22
0.0
 32
0.0
 13
1.0
 23
0.0
 33
0.0
 40
0.0
 40
0.0
 40
0.0
 40
0.0
 40
0.25
 40
0.25
 40
0.5
 40
0.5
 40
0.75
 40
0.75
 40
0.875
 40
0.875
 40
1.0
 40
1.0
 40
1.0
 40
1.0
 10
21.87507089150725
 20
35.15116169719264
 30
0.0
 10
21.87507089150726
 20
34.96591890950041
 30
0.0
 10
21.85103608407881
 20
34.77860672907845
 30
0.0
 10
21.75572451876414
 20
34.42264161816629
 30
0.0
 10
21.68317696937408
 20
34.24845310865969
 30
0.0
 10
21.48440477045995
 20
33.9346574493452
 30
0.0
 10
21.3563724941091
 20
33.79289937560886
 30
0.0
 10
21.12466293672731
 20
33.63789657642148
 30
0.0
 10
21.03928818620652
 20
33.595197835062
 30
0.0
 10
20.86088229226078
 20
33.53759337705997
 30
0.0
 10
20.76926228402442
 20
33.52258212333292
 30
0.0
 10
20.67507089150724
 20
33.52258212333293
 30
0.0
  0
LINE
  5
176
330
1F
100
AcDbEntity
  8
1
 62
     4
420
    65535
100
AcDbLine
 10
23.2476661557
 20
11.0002015396
 30
0.0
 11
23.2476661557
 21
49.9996473646
 31
0.0
  0
LINE
  5
177
330
1F
100
AcDbEntity
  8
1
 62
     4
420
    65535
100
AcDbLine
 10
29.0000708915
 20
38.8299581703
 30
0.0
 11
23.2476661557
 21
38.8299581703
 31
0.0
  0
LINE
  5
178
330
1F
100
AcDbEntity
  8
1
 62
     4
420
    65535
100
AcDbLine
 10
23.2476661557
 20
11.0002015396
 30
0.0
 11
29.0000708915
 21
11.0002015396
 31
0.0
  0
SPLINE
  5
179
330
1F
100
AcDbEntity
  8
1
 62
     4
420
    65535
100
AcDbSpline
210
0.0
220
0.0
230
1.0
 70
     8
 71
     3
 72
     8
 73
     4
 74
     0
 42
0.00000001
 43
0.00000001
 12
1.0
 22
0.0
 32
0.0
 13
1.0
 23
0.0
 33
0.0
 40
0.0
 40
0.0
 40
0.0
 40
0.0
 40
1.0
 40
1.0
 40
1.0
 40
1.0
 10
23.2476661556989
 20
38.82995817031733
 30
0.0
 10
22.78374013436897
 20
37.79525758290593
 30
0.0
 10
22.32584802784788
 20
36.75764743787839
 30
0.0
 10
21.87507089150724
 20
35.71660644963662
 30
0.0
  0
SPLINE
  5
17A
330
1F
100
AcDbEntity
  8
1
 62
     4
420
    65535
100
AcDbSpline
210
0.0
220
0.0
230
1.0
 70
    24
 71
     3
 72
     8
 73
     4
 74
     0
 42
0.00000001
 43
0.00000001
 12
1.0
 22
0.0
 32
0.0
 13
1.0
 23
0.0
 33
0.0
 40
0.0
 40
0.0
 40
0.0
 40
0.0
 40
1.0
 40
1.0
 40
1.0
 40
1.0
 10
21.87507089150724
 20
11.00020153960947
 30
0.0
 10
22.33213818221068
 20
11.00020153960947
 30
0.0
 10
22.78969252344855
 20
11.00020153960947
 30
0.0
 10
23.2476661556989
 20
11.00020153960947
 30
0.0
  0
LINE
  5
17B
330
1F
100
AcDbEntity
  8
1
 62
     4
420
    65535
100
AcDbLine
 10
-49.9999291085
 20
-12.0741898071
 30
0.0
 11
-49.9999291085
 21
-33.6000703452
 31
0.0
  0
LINE
  5
17C
330
1F
100
AcDbEntity
  8
1
 62
     4
420
    65535
100
AcDbLine
 10
-49.9999291085
 20
-10.5097984604
 30
0.0
 11
-49.9999291085
 21
-12.0741898071
 31
0.0
  0
LINE
  5
17D
330
1F
100
AcDbEntity
  8
1
 62
     4
420
    65535
100
AcDbLine
 10
-49.9999291085
 20
-12.0741898071
 30
0.0
 11
-49.9999291085
 21
-10.5097984604
 31
0.0
  0
LINE
  5
17E
330
1F
100
AcDbEntity
  8
1
 62
     4
420
    65535
100
AcDbLine
 10
-49.9999291085
 20
-10.5097984604
 30
0.0
 11
-49.9999291085
 21
-18.8745353781
 31
0.0
  0
SPLINE
  5
17F
330
1F
100
AcDbEntity
  8
1
 62
     4
420
    65535
100
AcDbSpline
210
0.0
220
0.0
230
1.0
 70
     8
 71
     3
 72
    22
 73
    18
 74
     0
 42
0.00000001
 43
0.00000001
 12
1.0
 22
0.0
 32
0.0
 13
1.0
 23
0.0
 33
0.0
 40
0.0
 40
0.0
 40
0.0
 40
0.0
 40
0.125
 40
0.125
 40
0.25
 40
0.25
 40
0.375
 40
0.375
 40
0.5
 40
0.5
 40
0.625
 40
0.625
 40
0.75
 40
0.75
 40
0.875
 40
0.875
 40
1.0
 40
1.0
 40
1.0
 40
1.0
 10
-49.99992910849276
 20
-12.07418980713236
 30
0.0
 10
-49.99992910849276
 20
-12.20850644658721
 30
0.0
 10
-49.98578902410917
 20
-12.34796729829315
 30
0.0
 10
-49.93536377395637
 20
-12.62834418275716
 30
0.0
 10
-49.89905641704465
 20
-12.77052669633976
 30
0.0
 10
-49.80704089930919
 20
-13.05886707588771
 30
0.0
 10
-49.75156491788013
 20
-13.20389483267222
 30
0.0
 10
-49.62630499255049
 20
-13.48907315454917
 30
0.0
 10
-49.55620624025183
 20
-13.63024418034722
 30
0.0
 10
-49.40104013238187
 20
-13.90920715700902
 30
0.0
 10
-49.3154357235583
 20
-14.04785198215704
 30
0.0
 10
-49.12932112194408
 20
-14.31535213062478
 30
0.0
 10
-49.02926360991187
 20
-14.4440868589098
 30
0.0
 10
-48.80846689696776
 20
-14.68581350861665
 30
0.0
 10
-48.68723471343635
 20
-14.79972451413682
 30
0.0
 10
-48.41615521108053
 20
-14.98554191573304
 30
0.0
 10
-48.26529089044526
 20
-15.05742562235487
 30
0.0
 10
-48.09999939269387
 20
-15.07874066308043
 30
0.0
  0
LINE
  5
180
330
1F
100
AcDbEntity
  8
1
 62
     4
420
    65535
100
AcDbLine
 10
-48.0999993927
 20
-15.0787406631
 30
0.0
 11
-48.0999993927
 21
-35.5737761104
 31
0.0
  0
SPLINE
  5
181
330
1F
100
AcDbEntity
  8
1
 62
     4
420
    65535
100
AcDbSpline
210
0.0
220
0.0
230
1.0
 70
     8
 71
     3
 72
    18
 73
    14
 74
     0
 42
0.00000001
 43
0.00000001
 12
1.0
 22
0.0
 32
0.0
 13
1.0
 23
0.0
 33
0.0
 40
0.0
 40
0.0
 40
0.0
 40
0.0
 40
0.1249999999999993
 40
0.1249999999999993
 40
0.2499999999999986
 40
0.2499999999999986
 40
0.4999999999999994
 40
0.4999999999999994
 40
0.7500000000000003
 40
0.7500000000000003
 40
0.8750000000000001
 40
0.8750000000000001
 40
1.0
 40
1.0
 40
1.0
 40
1.0
 10
-48.09999939269328
 20
-15.0787406630805
 30
0.0
 10
-48.26567045344272
 20
-15.05737667609424
 30
0.0
 10
-48.41732258072891
 20
-14.98489779326494
 30
0.0
 10
-48.68805950282999
 20
-14.79900191466147
 30
0.0
 10
-48.8088052420368
 20
-14.68551839334721
 30
0.0
 10
-49.14086415912939
 20
-14.32175613622343
 30
0.0
 10
-49.32152368859004
 20
-14.05208700321968
 30
0.0
 10
-49.63514259016387
 20
-13.48840710357005
 30
0.0
 10
-49.76097314670179
 20
-13.20304973833874
 30
0.0
 10
-49.89877009865733
 20
-12.77151136544629
 30
0.0
 10
-49.93569010012843
 20
-12.62697816847623
 30
0.0
 10
-49.98602570737062
 20
-12.34619780559684
 30
0.0
 10
-49.99992910849276
 20
-12.20873208527958
 30
0.0
 10
-49.99992910849276
 20
-12.07418980713237
 30
0.0
  0
LINE
  5
182
330
1F
100
AcDbEntity
  8
1
 62
     4
420
    65535
100
AcDbLine
 10
-34.9999291085
 20
-17.1883757727
 30
0.0
 11
-34.9999291085
 21
-14.4820295867
 31
0.0
  0
LINE
  5
183
330
1F
100
AcDbEntity
  8
1
 62
     4
420
    65535
100
AcDbLine
 10
-34.9999291085
 20
-18.9398435115
 30
0.0
 11
-34.9999291085
 21
-17.1883757727
 31
0.0
  0
LINE
  5
184
330
1F
100
AcDbEntity
  8
1
 62
     4
420
    65535
100
AcDbLine
 10
-34.9999291085
 20
14.4824326659
 30
0.0
 11
-34.9999291085
 21
17.1887788519
 31
0.0
  0
LINE
  5
185
330
1F
100
AcDbEntity
  8
1
 62
     4
420
    65535
100
AcDbLine
 10
-34.9999291085
 20
17.1887788519
 30
0.0
 11
-34.9999291085
 21
18.9402465907
 31
0.0
  0
LINE
  5
186
330
1F
100
AcDbEntity
  8
1
 62
     4
420
    65535
100
AcDbLine
 10
-34.9999291085
 20
-14.4820295867
 30
0.0
 11
-34.9999291085
 21
14.4824326659
 31
0.0
  0
LINE
  5
187
330
1F
100
AcDbEntity
  8
1
 62
     4
420
    65535
100
AcDbLine
 10
-34.9999291085
 20
18.9402465907
 30
0.0
 11
-37.3036688135
 21
18.8876882267
 31
0.0
  0
SPLINE
  5
188
330
1F
100
AcDbEntity
  8
1
 62
     4
420
    65535
100
AcDbSpline
210
0.0
220
0.0
230
1.0
 70
     8
 71
     3
 72
    14
 73
    10
 74
     0
 42
0.00000001
 43
0.00000001
 12
1.0
 22
0.0
 32
0.0
 13
1.0
 23
0.0
 33
0.0
 40
0.0
 40
0.0
 40
0.0
 40
0.0
 40
0.25
 40
0.25
 40
0.5
 40
0.5
 40
0.75
 40
0.75
 40
1.0
 40
1.0
 40
1.0
 40
1.0
 10
-37.30366881351989
 20
18.88768822671522
 30
0.0
 10
-37.50595424601673
 20
18.77284394059345
 30
0.0
 10
-37.70458633935754
 20
18.65243715862898
 30
0.0
 10
-38.09163785677283
 20
18.39607400351507
 30
0.0
 10
-38.28018037377311
 20
18.25994815718904
 30
0.0
 10
-38.63440882644002
 20
17.97104245822344
 30
0.0
 10
-38.80109943657013
 20
17.81786781763876
 30
0.0
 10
-39.1021877143811
 20
17.48449794278935
 30
0.0
 10
-39.2383502949875
 20
17.3013104180587
 30
0.0
 10
-39.34067691270236
 20
17.10567517833848
 30
0.0
  0
SPLINE
  5
189
330
1F
100
AcDbEntity
  8
1
 62
     4
420
    65535
100
AcDbSpline
210
0.0
220
0.0
230
1.0
 70
    24
 71
     3
 72
    14
 73
    10
 74
     0
 42
0.00000001
 43
0.00000001
 12
1.0
 22
0.0
 32
0.0
 13
1.0
 23
0.0
 33
0.0
 40
0.0
 40
0.0
 40
0.0
 40
0.0
 40
0.25
 40
0.25
 40
0.5
 40
0.5
 40
0.75
 40
0.75
 40
1.0
 40
1.0
 40
1.0
 40
1.0
 10
20.67507089150725
 20
11.00020153960947
 30
0.0
 10
20.83365404017929
 20
11.00020153960947
 30
0.0
 10
20.99392960855408
 20
11.00020153960947
 30
0.0
 10
21.28822538340969
 20
11.00020153960947
 30
0.0
 10
21.42026956027024
 20
11.00020153960947
 30
0.0
 10
21.64035624288074
 20
11.00020153960947
 30
0.0
 10
21.72771732742196
 20
11.00020153960947
 30
0.0
 10
21.84465195050032
 20
11.00020153960947
 30
0.0
 10
21.87507089150725
 20
11.00020153960947
 30
0.0
 10
21.87507089150725
 20
11.00020153960947
 30
0.0
  0
SPLINE
  5
18A
330
1F
100
AcDbEntity
  8
1
 62
     4
420
    65535
100
AcDbSpline
210
0.0
220
0.0
230
1.0
 70
     8
 71
     3
 72
    12
 73
     8
 74
     0
 42
0.00000001
 43
0.00000001
 12
1.0
 22
0.0
 32
0.0
 13
1.0
 23
0.0
 33
0.0
 40
0.0
 40
0.0
 40
0.0
 40
0.0
 40
0.2499999999999992
 40
0.2499999999999992
 40
0.4999999999999984
 40
0.4999999999999984
 40
1.0
 40
1.0
 40
1.0
 40
1.0
 10
-39.34067691270263
 20
17.10567517833851
 30
0.0
 10
-39.23745842155972
 20
17.30301556453761
 30
0.0
 10
-39.10414883512299
 20
17.4822134055545
 30
0.0
 10
-38.80071106759525
 20
17.81841039357139
 30
0.0
 10
-38.63037250975053
 20
17.97462503337694
 30
0.0
 10
-38.09790335775455
 20
18.40801957197492
 30
0.0
 10
-37.70908307253985
 20
18.6575208311394
 30
0.0
 10
-37.30366881351994
 20
18.88768822671521
 30
0.0
  0
LINE
  5
18B
330
1F
100
AcDbEntity
  8
1
 62
     4
420
    65535
100
AcDbLine
 10
-37.3036688135
 20
18.8876882267
 30
0.0
 11
-34.9999291085
 21
18.9402465907
 31
0.0
  0
LINE
  5
18C
330
1F
100
AcDbEntity
  8
1
 62
     4
420
    65535
100
AcDbLine
 10
-34.9999291085
 20
18.9402465907
 30
0.0
 11
-34.9999291085
 21
17.1887788519
 31
0.0
  0
LINE
  5
18D
330
1F
100
AcDbEntity
  8
1
 62
     4
420
    65535
100
AcDbLine
 10
-34.9999291085
 20
17.1887788519
 30
0.0
 11
-34.9999291085
 21
14.4824326659
 31
0.0
  0
SPLINE
  5
18E
330
1F
100
AcDbEntity
  8
1
 62
     4
420
    65535
100
AcDbSpline
210
0.0
220
0.0
230
1.0
 70
     8
 71
     3
 72
    20
 73
    16
 74
     0
 42
0.00000001
 43
0.00000001
 12
1.0
 22
0.0
 32
0.0
 13
1.0
 23
0.0
 33
0.0
 40
0.0
 40
0.0
 40
0.0
 40
0.0
 40
0.0312499999999998
 40
0.0312499999999998
 40
0.0624999999999995
 40
0.0624999999999995
 40
0.1249999999999986
 40
0.1249999999999986
 40
0.2499999999999988
 40
0.2499999999999988
 40
0.4999999999999992
 40
0.4999999999999992
 40
0.7499999999999996
 40
0.7499999999999996
 40
1.0
 40
1.0
 40
1.0
 40
1.0
 10
-39.34067691270241
 20
17.10567517833852
 30
0.0
 10
-39.38201312644448
 20
17.02664569153291
 30
0.0
 10
-39.45165325401255
 20
16.96424118180126
 30
0.0
 10
-39.60059168368509
 20
16.85453597371053
 30
0.0
 10
-39.68119617470005
 20
16.80793470288402
 30
0.0
 10
-39.93117089541266
 20
16.67910767722277
 30
0.0
 10
-40.10800222067966
 20
16.60862705464353
 30
0.0
 10
-40.64025800086807
 20
16.41763685881081
 30
0.0
 10
-41.00422040604825
 20
16.31618622113067
 30
0.0
 10
-42.10522279851399
 20
16.03769287535695
 30
0.0
 10
-42.85150493545385
 20
15.88997786215121
 30
0.0
 10
-44.34449630007791
 20
15.62093194223822
 30
0.0
 10
-45.09364517501425
 20
15.50148043662429
 30
0.0
 10
-46.5948296529232
 20
15.27898506675165
 30
0.0
 10
-47.34692078672485
 20
15.17625642730773
 30
0.0
 10
-48.09999939269328
 20
15.07914374229946
 30
0.0
  0
SPLINE
  5
18F
330
1F
100
AcDbEntity
  8
1
 62
     4
420
    65535
100
AcDbSpline
210
0.0
220
0.0
230
1.0
 70
     8
 71
     3
 72
    20
 73
    16
 74
     0
 42
0.00000001
 43
0.00000001
 12
1.0
 22
0.0
 32
0.0
 13
1.0
 23
0.0
 33
0.0
 40
0.0
 40
0.0
 40
0.0
 40
0.0
 40
0.2499999999999988
 40
0.2499999999999988
 40
0.4999999999999977
 40
0.4999999999999977
 40
0.7499999999999964
 40
0.7499999999999964
 40
0.8749999999999972
 40
0.8749999999999972
 40
0.9374999999999977
 40
0.9374999999999977
 40
0.9687499999999988
 40
0.9687499999999988
 40
1.0
 40
1.0
 40
1.0
 40
1.0
 10
-48.09999939269328
 20
15.07914374229773
 30
0.0
 10
-47.34664955468936
 20
15.17629140382899
 30
0.0
 10
-46.59414978767578
 20
15.27907554802735
 30
0.0
 10
-45.09173480474853
 20
15.5017738802121
 30
0.0
 10
-44.34157238048565
 20
15.62140829434661
 30
0.0
 10
-42.84745378535094
 20
15.89075869558615
 30
0.0
 10
-42.10230599532905
 20
16.03828163293689
 30
0.0
 10
-41.00033349397877
 20
16.31724445741287
 30
0.0
 10
-40.63497224932651
 20
16.41921705116299
 30
0.0
 10
-40.10288849807166
 20
16.61062375231126
 30
0.0
 10
-39.92882474165593
 20
16.68023633488143
 30
0.0
 10
-39.68101815306212
 20
16.80806700621268
 30
0.0
 10
-39.59991141530629
 20
16.85496148126941
 30
0.0
 10
-39.45109771823728
 20
16.96472657370969
 30
0.0
 10
-39.38154856703243
 20
17.02753386895921
 30
0.0
 10
-39.3406769127025
 20
17.10567517833844
 30
0.0
  0
LINE
  5
190
330
1F
100
AcDbEntity
  8
1
 62
     4
420
    65535
100
AcDbLine
 10
-34.9999291085
 20
-17.1883757727
 30
0.0
 11
-34.9999291085
 21
-18.9398435115
 31
0.0
  0
LINE
  5
191
330
1F
100
AcDbEntity
  8
1
 62
     4
420
    65535
100
AcDbLine
 10
-34.9999291085
 20
-18.9398435115
 30
0.0
 11
-37.3036688135
 21
-18.8872851475
 31
0.0
  0
SPLINE
  5
192
330
1F
100
AcDbEntity
  8
1
 62
     4
420
    65535
100
AcDbSpline
210
0.0
220
0.0
230
1.0
 70
     8
 71
     3
 72
    14
 73
    10
 74
     0
 42
0.00000001
 43
0.00000001
 12
1.0
 22
0.0
 32
0.0
 13
1.0
 23
0.0
 33
0.0
 40
0.0
 40
0.0
 40
0.0
 40
0.0
 40
0.25
 40
0.25
 40
0.5
 40
0.5
 40
0.75
 40
0.75
 40
1.0
 40
1.0
 40
1.0
 40
1.0
 10
-37.30366881351988
 20
-18.88728514749625
 30
0.0
 10
-37.50595424601673
 20
-18.77244086137447
 30
0.0
 10
-37.70458633935754
 20
-18.65203407941007
 30
0.0
 10
-38.09163785677284
 20
-18.39567092429616
 30
0.0
 10
-38.28018037377312
 20
-18.25954507797008
 30
0.0
 10
-38.63440882644002
 20
-17.97063937900448
 30
0.0
 10
-38.80109943657012
 20
-17.81746473841981
 30
0.0
 10
-39.10218771438108
 20
-17.48409486357039
 30
0.0
 10
-39.2383502949875
 20
-17.30090733883978
 30
0.0
 10
-39.34067691270236
 20
-17.10527209911954
 30
0.0
  0
LINE
  5
193
330
1F
100
AcDbEntity
  8
1
 62
     4
420
    65535
100
AcDbLine
 10
-34.9999291085
 20
-14.4820295867
 30
0.0
 11
-34.9999291085
 21
-17.1883757727
 31
0.0
  0
SPLINE
  5
194
330
1F
100
AcDbEntity
  8
1
 62
     4
420
    65535
100
AcDbSpline
210
0.0
220
0.0
230
1.0
 70
     8
 71
     3
 72
    20
 73
    16
 74
     0
 42
0.00000001
 43
0.00000001
 12
1.0
 22
0.0
 32
0.0
 13
1.0
 23
0.0
 33
0.0
 40
0.0
 40
0.0
 40
0.0
 40
0.0
 40
0.2499999999999988
 40
0.2499999999999988
 40
0.4999999999999977
 40
0.4999999999999977
 40
0.7499999999999964
 40
0.7499999999999964
 40
0.8749999999999972
 40
0.8749999999999972
 40
0.9374999999999977
 40
0.9374999999999977
 40
0.9687499999999988
 40
0.9687499999999988
 40
1.0
 40
1.0
 40
1.0
 40
1.0
 10
-48.09999939269328
 20
-15.07874066307878
 30
0.0
 10
-47.34664955468936
 20
-15.17588832461004
 30
0.0
 10
-46.59414978767578
 20
-15.2786724688084
 30
0.0
 10
-45.09173480474853
 20
-15.50137080099316
 30
0.0
 10
-44.34157238048565
 20
-15.62100521512767
 30
0.0
 10
-42.84745378535094
 20
-15.8903556163672
 30
0.0
 10
-42.10230599532905
 20
-16.03787855371794
 30
0.0
 10
-41.00033349397877
 20
-16.31684137819393
 30
0.0
 10
-40.63497224932651
 20
-16.41881397194404
 30
0.0
 10
-40.10288849807166
 20
-16.61022067309231
 30
0.0
 10
-39.92882474165593
 20
-16.67983325566248
 30
0.0
 10
-39.68101815306212
 20
-16.80766392699373
 30
0.0
 10
-39.59991141530629
 20
-16.85455840205047
 30
0.0
 10
-39.45109771823728
 20
-16.96432349449073
 30
0.0
 10
-39.38154856703243
 20
-17.02713078974026
 30
0.0
 10
-39.3406769127025
 20
-17.1052720991195
 30
0.0
  0
SPLINE
  5
195
330
1F
100
AcDbEntity
  8
1
 62
     4
420
    65535
100
AcDbSpline
210
0.0
220
0.0
230
1.0
 70
     8
 71
     3
 72
    12
 73
     8
 74
     0
 42
0.00000001
 43
0.00000001
 12
1.0
 22
0.0
 32
0.0
 13
1.0
 23
0.0
 33
0.0
 40
0.0
 40
0.0
 40
0.0
 40
0.0
 40
0.249999999999999
 40
0.249999999999999
 40
0.499999999999998
 40
0.499999999999998
 40
1.0
 40
1.0
 40
1.0
 40
1.0
 10
-39.34067691270261
 20
-17.10527209911955
 30
0.0
 10
-39.23745842155969
 20
-17.30261248531864
 30
0.0
 10
-39.10414883512296
 20
-17.48181032633552
 30
0.0
 10
-38.80071106759524
 20
-17.81800731435241
 30
0.0
 10
-38.63037250975059
 20
-17.97422195415803
 30
0.0
 10
-38.09790335775457
 20
-18.40761649275601
 30
0.0
 10
-37.70908307253987
 20
-18.65711775192042
 30
0.0
 10
-37.30366881351996
 20
-18.88728514749623
 30
0.0
  0
LINE
  5
196
330
1F
100
AcDbEntity
  8
1
 62
     4
420
    65535
100
AcDbLine
 10
-2.4999291085
 20
-37.8820326491
 30
0.0
 11
-2.4999291085
 21
37.8824357283
 31
0.0
  0
LINE
  5
197
330
1F
100
AcDbEntity
  8
1
 62
     4
420
    65535
100
AcDbLine
 10
-48.0999993927
 20
-10.0097984604
 30
0.0
 11
-48.0999993927
 21
-16.9737508267
 31
0.0
  0
SPLINE
  5
198
330
1F
100
AcDbEntity
  8
1
 62
     4
420
    65535
100
AcDbSpline
210
0.0
220
0.0
230
1.0
 70
    24
 71
     3
 72
     8
 73
     4
 74
     0
 42
0.00000001
 43
0.00000001
 12
1.0
 22
0.0
 32
0.0
 13
1.0
 23
0.0
 33
0.0
 40
0.0000003030049228
 40
0.0000003030049228
 40
0.0000003030049228
 40
0.0000003030049228
 40
0.0007569784603155
 40
0.0007569784603155
 40
0.0007569784603155
 40
0.0007569784603155
 10
-49.49992910849276
 20
-10.00979846039053
 30
0.0
 10
-49.66641102769058
 20
-10.17628037958834
 30
0.0
 10
-49.83308183314251
 20
-10.34295118504029
 30
0.0
 10
-49.99992910849276
 20
-10.50979846039054
 30
0.0
  0
SPLINE
  5
199
330
1F
100
AcDbEntity
  8
1
 62
     4
420
    65535
100
AcDbSpline
210
0.0
220
0.0
230
1.0
 70
     8
 71
     3
 72
    20
 73
    16
 74
     0
 42
0.00000001
 43
0.00000001
 12
1.0
 22
0.0
 32
0.0
 13
1.0
 23
0.0
 33
0.0
 40
0.0
 40
0.0
 40
0.0
 40
0.0
 40
0.0312499999999995
 40
0.0312499999999995
 40
0.062499999999999
 40
0.062499999999999
 40
0.1249999999999979
 40
0.1249999999999979
 40
0.2499999999999983
 40
0.2499999999999983
 40
0.4999999999999989
 40
0.4999999999999989
 40
0.7499999999999994
 40
0.7499999999999994
 40
1.0
 40
1.0
 40
1.0
 40
1.0
 10
-39.34067691270236
 20
-17.10527209911955
 30
0.0
 10
-39.38201312644445
 20
-17.02624261231395
 30
0.0
 10
-39.45165325401256
 20
-16.96383810258233
 30
0.0
 10
-39.60059168368507
 20
-16.8541328944916
 30
0.0
 10
-39.68119617470002
 20
-16.80753162366507
 30
0.0
 10
-39.93117089541263
 20
-16.67870459800383
 30
0.0
 10
-40.10800222067964
 20
-16.60822397542457
 30
0.0
 10
-40.64025800086805
 20
-16.41723377959185
 30
0.0
 10
-41.00422040604826
 20
-16.31578314191175
 30
0.0
 10
-42.10522279851399
 20
-16.03728979613802
 30
0.0
 10
-42.85150493545385
 20
-15.88957478293226
 30
0.0
 10
-44.34449630007789
 20
-15.62052886301928
 30
0.0
 10
-45.09364517501425
 20
-15.50107735740534
 30
0.0
 10
-46.5948296529232
 20
-15.27858198753271
 30
0.0
 10
-47.34692078672482
 20
-15.17585334808878
 30
0.0
 10
-48.09999939269328
 20
-15.07874066308051
 30
0.0
  0
LINE
  5
19A
330
1F
100
AcDbEntity
  8
1
 62
     4
420
    65535
100
AcDbLine
 10
-34.9999291085
 20
14.4824326659
 30
0.0
 11
-34.9999291085
 21
-14.4820295867
 31
0.0
  0
SPLINE
  5
19B
330
1F
100
AcDbEntity
  8
1
 62
     4
420
    65535
100
AcDbSpline
210
0.0
220
0.0
230
1.0
 70
    24
 71
     3
 72
     8
 73
     4
 74
     0
 42
0.00000001
 43
0.00000001
 12
1.0
 22
0.0
 32
0.0
 13
1.0
 23
0.0
 33
0.0
 40
0.0
 40
0.0
 40
0.0
 40
0.0
 40
1.0
 40
1.0
 40
1.0
 40
1.0
 10
-49.49992910849276
 20
-10.00979846039053
 30
0.0
 10
-49.02818366036313
 20
-10.00979846039053
 30
0.0
 10
-48.56103985892631
 20
-10.00979846039053
 30
0.0
 10
-48.09999939269328
 20
-10.00979846039053
 30
0.0
  0
LINE
  5
19C
330
1F
100
AcDbEntity
  8
1
 62
     4
420
    65535
100
AcDbLine
 10
-37.3036688135
 20
-18.8872851475
 30
0.0
 11
-34.9999291085
 21
-18.9398435115
 31
0.0
  0
LINE
  5
19D
330
1F
100
AcDbEntity
  8
1
 62
     4
420
    65535
100
AcDbLine
 10
-34.9999291085
 20
9.0102015396
 30
0.0
 11
-34.9999291085
 21
-9.0097984604
 31
0.0
  0
SPLINE
  5
19E
330
1F
100
AcDbEntity
  8
1
 62
     4
420
    65535
100
AcDbSpline
210
0.0
220
0.0
230
1.0
 70
    24
 71
     3
 72
     8
 73
     4
 74
     0
 42
0.00000001
 43
0.00000001
 12
1.0
 22
0.0
 32
0.0
 13
1.0
 23
0.0
 33
0.0
 40
0.0000003023411862
 40
0.0000003023411862
 40
0.0000003023411862
 40
0.0000003023411862
 40
0.0007569777965789
 40
0.0007569777965789
 40
0.0007569777965789
 40
0.0007569777965789
 10
-49.99992910849276
 20
-10.50979846039054
 30
0.0
 10
-49.83308183314251
 20
-10.34295118504028
 30
0.0
 10
-49.66641102769058
 20
-10.17628037958834
 30
0.0
 10
-49.49992910849276
 20
-10.00979846039053
 30
0.0
  0
SPLINE
  5
19F
330
1F
100
AcDbEntity
  8
1
 62
     4
420
    65535
100
AcDbSpline
210
0.0
220
0.0
230
1.0
 70
     8
 71
     3
 72
    14
 73
    10
 74
     0
 42
0.00000001
 43
0.00000001
 12
1.0
 22
0.0
 32
0.0
 13
1.0
 23
0.0
 33
0.0
 40
0.0
 40
0.0
 40
0.0
 40
0.0
 40
0.25
 40
0.25
 40
0.5
 40
0.5
 40
0.75
 40
0.75
 40
1.0
 40
1.0
 40
1.0
 40
1.0
 10
-34.99992910849276
 20
-9.009798460390527
 30
0.0
 10
-34.99992910849277
 20
-9.133394894257032
 30
0.0
 10
-35.02206709147983
 20
-9.252501885353766
 30
0.0
 10
-35.10999194957325
 20
-9.482165827997271
 30
0.0
 10
-35.17555911322011
 20
-9.590183789718623
 30
0.0
 10
-35.34860988897583
 20
-9.779354367321893
 30
0.0
 10
-35.45707696782532
 20
-9.861198331532664
 30
0.0
 10
-35.71155481533389
 20
-9.977481494370755
 30
0.0
 10
-35.85329420935442
 20
-10.00979846039053
 30
0.0
 10
-35.99992910849276
 20
-10.00979846039053
 30
0.0
  0
SPLINE
  5
1A0
330
1F
100
AcDbEntity
  8
1
 62
     4
420
    65535
100
AcDbSpline
210
0.0
220
0.0
230
1.0
 70
     8
 71
     3
 72
    14
 73
    10
 74
     0
 42
0.00000001
 43
0.00000001
 12
1.0
 22
0.0
 32
0.0
 13
1.0
 23
0.0
 33
0.0
 40
0.0
 40
0.0
 40
0.0
 40
0.0
 40
0.25
 40
0.25
 40
0.5
 40
0.5
 40
0.75
 40
0.75
 40
1.0
 40
1.0
 40
1.0
 40
1.0
 10
-35.99992910849276
 20
-10.00979846039053
 30
0.0
 10
-35.85381147432749
 20
-10.00979846039053
 30
0.0
 10
-35.71115962848459
 20
-9.977112553384895
 30
0.0
 10
-35.45971869125412
 20
-9.862592147161592
 30
0.0
 10
-35.35065811196795
 20
-9.781272784603852
 30
0.0
 10
-35.1757572789672
 20
-9.590716918752138
 30
0.0
 10
-35.11027296715734
 20
-9.482801053976715
 30
0.0
 10
-35.02199067484456
 20
-9.252400858047237
 30
0.0
 10
-34.99992910849277
 20
-9.133182958906644
 30
0.0
 10
-34.99992910849276
 20
-9.009798460390527
 30
0.0
  0
LINE
  5
1A1
330
1F
100
AcDbEntity
  8
1
 62
     4
420
    65535
100
AcDbLine
 10
-34.9999291085
 20
-9.0097984604
 30
0.0
 11
-34.9999291085
 21
9.0102015396
 31
0.0
  0
SPLINE
  5
1A2
330
1F
100
AcDbEntity
  8
1
 62
     4
420
    65535
100
AcDbSpline
210
0.0
220
0.0
230
1.0
 70
     8
 71
     3
 72
    14
 73
    10
 74
     0
 42
0.00000001
 43
0.00000001
 12
1.0
 22
0.0
 32
0.0
 13
1.0
 23
0.0
 33
0.0
 40
0.0
 40
0.0
 40
0.0
 40
0.0
 40
0.25
 40
0.25
 40
0.5
 40
0.5
 40
0.75
 40
0.75
 40
1.0
 40
1.0
 40
1.0
 40
1.0
 10
-34.99992910849276
 20
9.010201539609467
 30
0.0
 10
-34.99992910849277
 20
9.133797973475973
 30
0.0
 10
-35.02206709147983
 20
9.252904964572709
 30
0.0
 10
-35.10999194957325
 20
9.482568907216214
 30
0.0
 10
-35.17555911322011
 20
9.590586868937567
 30
0.0
 10
-35.34860988897583
 20
9.779757446540835
 30
0.0
 10
-35.45707696782532
 20
9.861601410751605
 30
0.0
 10
-35.71155481533388
 20
9.977884573589694
 30
0.0
 10
-35.85329420935442
 20
10.01020153960947
 30
0.0
 10
-35.99992910849276
 20
10.01020153960947
 30
0.0
  0
LINE
  5
1A3
330
1F
100
AcDbEntity
  8
1
 62
     4
420
    65535
100
AcDbLine
 10
-25.9618528971
 20
-30.9997984604
 30
0.0
 11
-25.9618528971
 21
31.0002015396
 31
0.0
  0
LINE
  5
1A4
330
1F
100
AcDbEntity
  8
1
 62
     4
420
    65535
100
AcDbLine
 10
-34.0447566658
 20
-16.9937738495
 30
0.0
 11
-34.0447566658
 21
16.9941769287
 31
0.0
  0
LINE
  5
1A5
330
1F
100
AcDbEntity
  8
1
 62
     4
420
    65535
100
AcDbLine
 10
-9.4466216514
 20
-31.4938755295
 30
0.0
 11
-9.4466216514
 21
31.4942786087
 31
0.0
  0
LINE
  5
1A6
330
1F
100
AcDbEntity
  8
1
 62
     4
420
    65535
100
AcDbLine
 10
0.0000708915
 20
-26.8755606513
 30
0.0
 11
0.0000708915
 21
26.8759637305
 31
0.0
  0
SPLINE
  5
1A7
330
1F
100
AcDbEntity
  8
1
 62
     4
420
    65535
100
AcDbSpline
210
0.0
220
0.0
230
1.0
 70
     8
 71
     3
 72
    14
 73
    10
 74
     0
 42
0.00000001
 43
0.00000001
 12
1.0
 22
0.0
 32
0.0
 13
1.0
 23
0.0
 33
0.0
 40
0.0
 40
0.0
 40
0.0
 40
0.0
 40
0.25
 40
0.25
 40
0.5
 40
0.5
 40
0.75
 40
0.75
 40
1.0
 40
1.0
 40
1.0
 40
1.0
 10
-35.99992910849276
 20
10.01020153960947
 30
0.0
 10
-35.85381147432748
 20
10.01020153960947
 30
0.0
 10
-35.71115962848457
 20
9.977515632603833
 30
0.0
 10
-35.45971869125412
 20
9.862995226380534
 30
0.0
 10
-35.35065811196795
 20
9.781675863822798
 30
0.0
 10
-35.17575727896721
 20
9.59111999797108
 30
0.0
 10
-35.11027296715734
 20
9.483204133195656
 30
0.0
 10
-35.02199067484456
 20
9.25280393726617
 30
0.0
 10
-34.99992910849277
 20
9.133586038125586
 30
0.0
 10
-34.99992910849276
 20
9.010201539609467
 30
0.0
  0
LINE
  5
1A8
330
1F
100
AcDbEntity
  8
1
 62
     4
420
    65535
100
AcDbLine
 10
12.5000708915
 20
-11.9761192015
 30
0.0
 11
12.5000708915
 21
11.9765222807
 31
0.0
  0
LINE
  5
1A9
330
1F
100
AcDbEntity
  8
1
 62
     4
420
    65535
100
AcDbLine
 10
14.0000708915
 20
-10.4753205369
 30
0.0
 11
14.0000708915
 21
10.4757236161
 31
0.0
  0
LINE
  5
1AA
330
1F
100
AcDbEntity
  8
1
 62
     4
420
    65535
100
AcDbLine
 10
27.5000708915
 20
-10.4753205369
 30
0.0
 11
27.5000708915
 21
10.4757236161
 31
0.0
  0
LINE
  5
1AB
330
1F
100
AcDbEntity
  8
1
 62
     4
420
    65535
100
AcDbLine
 10
27.5000708915
 20
-12.2755272201
 30
0.0
 11
27.5000708915
 21
12.2759302993
 31
0.0
  0
LINE
  5
1AC
330
1F
100
AcDbEntity
  8
1
 62
     4
420
    65535
100
AcDbLine
 10
28.5000708915
 20
-12.2755272201
 30
0.0
 11
28.5000708915
 21
12.2759302993
 31
0.0
  0
LINE
  5
1AD
330
1F
100
AcDbEntity
  8
1
 62
     4
420
    65535
100
AcDbLine
 10
28.5000708915
 20
-5.9937568596
 30
0.0
 11
28.5000708915
 21
5.9941599389
 31
0.0
  0
LINE
  5
1AE
330
1F
100
AcDbEntity
  8
1
 62
     4
420
    65535
100
AcDbLine
 10
-25.0958274934
 20
-31.4938755295
 30
0.0
 11
-25.0958274934
 21
31.4942786087
 31
0.0
  0
LINE
  5
1AF
330
1F
100
AcDbEntity
  8
1
 62
     4
420
    65535
100
AcDbLine
 10
-34.9999291085
 20
-9.0097984604
 30
0.0
 11
-34.9999291085
 21
-14.4820295867
 31
0.0
  0
LINE
  5
1B0
330
1F
100
AcDbEntity
  8
1
 62
     4
420
    65535
100
AcDbLine
 10
-34.9999291085
 20
14.4824326659
 30
0.0
 11
-34.9999291085
 21
9.0102015396
 31
0.0
  0
LINE
  5
1B1
330
1F
100
AcDbEntity
  8
1
 62
     4
420
    65535
100
AcDbLine
 10
12.5000708915
 20
-26.8755606513
 30
0.0
 11
12.5000708915
 21
26.8759637305
 31
0.0
  0
LINE
  5
1B2
330
1F
100
AcDbEntity
  8
1
 62
     4
420
    65535
100
AcDbLine
 10
-49.4999291085
 20
10.0102015396
 30
0.0
 11
-49.9999291085
 21
10.5102015396
 31
0.0
  0
LINE
  5
1B3
330
1F
100
AcDbEntity
  8
1
 62
     4
420
    65535
100
AcDbLine
 10
157.2680201939
 20
6.0002015396
 30
0.0
 11
157.2680201939
 21
-5.9756442244
 31
0.0
  0
LINE
  5
1B4
330
1F
100
AcDbEntity
  8
1
 62
     4
420
    65535
100
AcDbLine
 10
-49.9999291085
 20
10.5102015396
 30
0.0
 11
-49.4999291085
 21
10.0102015396
 31
0.0
  0
LINE
  5
1B5
330
1F
100
AcDbEntity
  8
1
 62
     4
420
    65535
100
AcDbLine
 10
-49.4999291085
 20
-10.0097984604
 30
0.0
 11
-49.9999291085
 21
-10.5097984604
 31
0.0
  0
LINE
  5
1B6
330
1F
100
AcDbEntity
  8
1
 62
     4
420
    65535
100
AcDbLine
 10
-49.9999291085
 20
-10.5097984604
 30
0.0
 11
-49.4999291085
 21
-10.0097984604
 31
0.0
  0
LINE
  5
1B7
330
1F
100
AcDbEntity
  8
1
 62
     4
420
    65535
100
AcDbLine
 10
-34.9999291085
 20
-14.4820295867
 30
0.0
 11
-34.9999291085
 21
-9.0097984604
 31
0.0
  0
LINE
  5
1B8
330
1F
100
AcDbEntity
  8
1
 62
     4
420
    65535
100
AcDbLine
 10
-34.9999291085
 20
9.0102015396
 30
0.0
 11
-34.9999291085
 21
14.4824326659
 31
0.0
  0
LINE
  5
1B9
330
1F
100
AcDbEntity
  8
1
 62
     4
420
    65535
100
AcDbLine
 10
-35.9999291085
 20
10.0102015396
 30
0.0
 11
-35.9999291085
 21
14.5517811138
 31
0.0
  0
LINE
  5
1BA
330
1F
100
AcDbEntity
  8
1
 62
     4
420
    65535
100
AcDbLine
 10
-35.6228655489
 20
17.1056751783
 30
0.0
 11
-39.3406769127
 21
17.1056751783
 31
0.0
  0
SPLINE
  5
1BB
330
1F
100
AcDbEntity
  8
1
 62
     4
420
    65535
100
AcDbSpline
210
0.0
220
0.0
230
1.0
 70
     8
 71
     3
 72
    14
 73
    10
 74
     0
 42
0.00000001
 43
0.00000001
 12
1.0
 22
0.0
 32
0.0
 13
1.0
 23
0.0
 33
0.0
 40
0.0
 40
0.0
 40
0.0
 40
0.0
 40
0.25
 40
0.25
 40
0.5
 40
0.5
 40
0.75
 40
0.75
 40
1.0
 40
1.0
 40
1.0
 40
1.0
 10
-35.99992910849276
 20
14.55178111382552
 30
0.0
 10
-35.99992910849276
 20
14.77629900409046
 30
0.0
 10
-35.97710858218998
 20
14.99855262422582
 30
0.0
 10
-35.91184003723801
 20
15.43519890225722
 30
0.0
 10
-35.86878254843071
 20
15.65065550787188
 30
0.0
 10
-35.77915473071729
 20
16.07842351883218
 30
0.0
 10
-35.7326104012267
 20
16.28977678368217
 30
0.0
 10
-35.65820483027834
 20
16.70276885994138
 30
0.0
 10
-35.63058505357075
 20
16.90557805682564
 30
0.0
 10
-35.62286554890741
 20
17.10567517833846
 30
0.0
  0
LINE
  5
1BC
330
1F
100
AcDbEntity
  8
1
 62
     4
420
    65535
100
AcDbLine
 10
-35.4719729667
 20
18.8876882267
 30
0.0
 11
-37.3036688135
 21
18.8876882267
 31
0.0
  0
LINE
  5
1BD
330
1F
100
AcDbEntity
  8
1
 62
     4
420
    65535
100
AcDbLine
 10
-35.4719729667
 20
-18.8872851475
 30
0.0
 11
-37.3036688135
 21
-18.8872851475
 31
0.0
  0
SPLINE
  5
1BE
330
1F
100
AcDbEntity
  8
1
 62
     4
420
    65535
100
AcDbSpline
210
0.0
220
0.0
230
1.0
 70
     8
 71
     3
 72
    10
 73
     6
 74
     0
 42
0.00000001
 43
0.00000001
 12
1.0
 22
0.0
 32
0.0
 13
1.0
 23
0.0
 33
0.0
 40
0.0
 40
0.0
 40
0.0
 40
0.0
 40
0.5
 40
0.5
 40
1.0
 40
1.0
 40
1.0
 40
1.0
 10
-35.62286554890741
 20
17.10567517833846
 30
0.0
 10
-35.61332645124972
 20
17.40360652955653
 30
0.0
 10
-35.59796681196809
 20
17.70132943934244
 30
0.0
 10
-35.55067416475362
 20
18.29592217034463
 30
0.0
 10
-35.51930950609901
 20
18.59252390902279
 30
0.0
 10
-35.4719729667076
 20
18.88768822671521
 30
0.0
  0
SPLINE
  5
1BF
330
1F
100
AcDbEntity
  8
1
 62
     4
420
    65535
100
AcDbSpline
210
0.0
220
0.0
230
1.0
 70
     8
 71
     3
 72
     8
 73
     4
 74
     0
 42
0.00000001
 43
0.00000001
 12
1.0
 22
0.0
 32
0.0
 13
1.0
 23
0.0
 33
0.0
 40
0.0
 40
0.0
 40
0.0
 40
0.0
 40
1.0
 40
1.0
 40
1.0
 40
1.0
 10
-35.47197296670733
 20
18.88768822671519
 30
0.0
 10
-35.30751753591549
 20
18.88768822671519
 30
0.0
 10
-35.14570049108571
 20
18.90568021901533
 30
0.0
 10
-34.99992910849276
 20
18.94024659070429
 30
0.0
  0
LINE
  5
1C0
330
1F
100
AcDbEntity
  8
1
 62
     4
420
    65535
100
AcDbLine
 10
-35.6228655489
 20
-17.1052720991
 30
0.0
 11
-39.3406769127
 21
-17.1052720991
 31
0.0
  0
SPLINE
  5
1C1
330
1F
100
AcDbEntity
  8
1
 62
     4
420
    65535
100
AcDbSpline
210
0.0
220
0.0
230
1.0
 70
     8
 71
     3
 72
    10
 73
     6
 74
     0
 42
0.00000001
 43
0.00000001
 12
1.0
 22
0.0
 32
0.0
 13
1.0
 23
0.0
 33
0.0
 40
0.0
 40
0.0
 40
0.0
 40
0.0
 40
0.5000000000000011
 40
0.5000000000000011
 40
1.0
 40
1.0
 40
1.0
 40
1.0
 10
-35.47197296670731
 20
-18.88728514749625
 30
0.0
 10
-35.51930950609874
 20
-18.59212082980385
 30
0.0
 10
-35.55067416475359
 20
-18.2955190911257
 30
0.0
 10
-35.59796681196807
 20
-17.70092636012351
 30
0.0
 10
-35.61332645124972
 20
-17.4032034503376
 30
0.0
 10
-35.62286554890738
 20
-17.10527209911953
 30
0.0
  0
SPLINE
  5
1C2
330
1F
100
AcDbEntity
  8
1
 62
     4
420
    65535
100
AcDbSpline
210
0.0
220
0.0
230
1.0
 70
     8
 71
     3
 72
    14
 73
    10
 74
     0
 42
0.00000001
 43
0.00000001
 12
1.0
 22
0.0
 32
0.0
 13
1.0
 23
0.0
 33
0.0
 40
0.0
 40
0.0
 40
0.0
 40
0.0
 40
0.25
 40
0.25
 40
0.5
 40
0.5
 40
0.75
 40
0.75
 40
1.0
 40
1.0
 40
1.0
 40
1.0
 10
-35.62286554890738
 20
-17.10527209911953
 30
0.0
 10
-35.63059226475042
 20
-16.90498805676642
 30
0.0
 10
-35.65825698310766
 20
-16.70198703422407
 30
0.0
 10
-35.73276681508052
 20
-16.28859504084412
 30
0.0
 10
-35.77937900639333
 20
-16.07698635229546
 30
0.0
 10
-35.86905202649314
 20
-15.64892976997623
 30
0.0
 10
-35.91207633525874
 20
-15.43346514899122
 30
0.0
 10
-35.97720780879775
 20
-14.99723426979257
 30
0.0
 10
-35.99992910849276
 20
-14.77655768045886
 30
0.0
 10
-35.99992910849276
 20
-14.55137803460653
 30
0.0
  0
LINE
  5
1C3
330
1F
100
AcDbEntity
  8
1
 62
     4
420
    65535
100
AcDbLine
 10
-35.9999291085
 20
-14.5513780346
 30
0.0
 11
-35.9999291085
 21
-10.0097984604
 31
0.0
  0
LINE
  5
1C4
330
1F
100
AcDbEntity
  8
1
 62
     4
420
    65535
100
AcDbLine
 10
-35.9999291085
 20
-10.0097984604
 30
0.0
 11
-35.9999291085
 21
-14.5513780346
 31
0.0
  0
SPLINE
  5
1C5
330
1F
100
AcDbEntity
  8
1
 62
     4
420
    65535
100
AcDbSpline
210
0.0
220
0.0
230
1.0
 70
     8
 71
     3
 72
    14
 73
    10
 74
     0
 42
0.00000001
 43
0.00000001
 12
1.0
 22
0.0
 32
0.0
 13
1.0
 23
0.0
 33
0.0
 40
0.0
 40
0.0
 40
0.0
 40
0.0
 40
0.25
 40
0.25
 40
0.5
 40
0.5
 40
0.75
 40
0.75
 40
1.0
 40
1.0
 40
1.0
 40
1.0
 10
-35.99992910849276
 20
-14.55137803460657
 30
0.0
 10
-35.99992910849276
 20
-14.77589592487151
 30
0.0
 10
-35.97710858218998
 20
-14.99814954500687
 30
0.0
 10
-35.91184003723801
 20
-15.43479582303827
 30
0.0
 10
-35.86878254843071
 20
-15.65025242865292
 30
0.0
 10
-35.77915473071729
 20
-16.07802043961323
 30
0.0
 10
-35.7326104012267
 20
-16.28937370446321
 30
0.0
 10
-35.65820483027834
 20
-16.70236578072242
 30
0.0
 10
-35.63058505357075
 20
-16.90517497760668
 30
0.0
 10
-35.62286554890741
 20
-17.10527209911952
 30
0.0
  0
SPLINE
  5
1C6
330
1F
100
AcDbEntity
  8
1
 62
     4
420
    65535
100
AcDbSpline
210
0.0
220
0.0
230
1.0
 70
     8
 71
     3
 72
    10
 73
     6
 74
     0
 42
0.00000001
 43
0.00000001
 12
1.0
 22
0.0
 32
0.0
 13
1.0
 23
0.0
 33
0.0
 40
0.0
 40
0.0
 40
0.0
 40
0.0
 40
0.5
 40
0.5
 40
1.0
 40
1.0
 40
1.0
 40
1.0
 10
-35.62286554890741
 20
-17.10527209911951
 30
0.0
 10
-35.61332645124972
 20
-17.40320345033759
 30
0.0
 10
-35.59796681196809
 20
-17.7009263601235
 30
0.0
 10
-35.55067416475362
 20
-18.29551909112568
 30
0.0
 10
-35.51930950609901
 20
-18.59212082980385
 30
0.0
 10
-35.4719729667076
 20
-18.88728514749626
 30
0.0
  0
SPLINE
  5
1C7
330
1F
100
AcDbEntity
  8
1
 62
     4
420
    65535
100
AcDbSpline
210
0.0
220
0.0
230
1.0
 70
     8
 71
     3
 72
     8
 73
     4
 74
     0
 42
0.00000001
 43
0.00000001
 12
1.0
 22
0.0
 32
0.0
 13
1.0
 23
0.0
 33
0.0
 40
0.0
 40
0.0
 40
0.0
 40
0.0
 40
1.0
 40
1.0
 40
1.0
 40
1.0
 10
-35.47197296670733
 20
-18.88728514749624
 30
0.0
 10
-35.30751753591549
 20
-18.88728514749624
 30
0.0
 10
-35.14570049108571
 20
-18.90527713979638
 30
0.0
 10
-34.99992910849276
 20
-18.93984351148534
 30
0.0
  0
SPLINE
  5
1C8
330
1F
100
AcDbEntity
  8
1
 62
     4
420
    65535
100
AcDbSpline
210
0.0
220
0.0
230
1.0
 70
     8
 71
     3
 72
    10
 73
     6
 74
     0
 42
0.00000001
 43
0.00000001
 12
1.0
 22
0.0
 32
0.0
 13
1.0
 23
0.0
 33
0.0
 40
0.0
 40
0.0
 40
0.0
 40
0.0
 40
0.5000000000000011
 40
0.5000000000000011
 40
1.0
 40
1.0
 40
1.0
 40
1.0
 10
-35.47197296670731
 20
18.8876882267152
 30
0.0
 10
-35.51930950609874
 20
18.5925239090228
 30
0.0
 10
-35.55067416475359
 20
18.29592217034465
 30
0.0
 10
-35.59796681196807
 20
17.70132943934246
 30
0.0
 10
-35.61332645124972
 20
17.40360652955655
 30
0.0
 10
-35.62286554890738
 20
17.10567517833848
 30
0.0
  0
SPLINE
  5
1C9
330
1F
100
AcDbEntity
  8
1
 62
     4
420
    65535
100
AcDbSpline
210
0.0
220
0.0
230
1.0
 70
     8
 71
     3
 72
     8
 73
     4
 74
     0
 42
0.00000001
 43
0.00000001
 12
1.0
 22
0.0
 32
0.0
 13
1.0
 23
0.0
 33
0.0
 40
0.0
 40
0.0
 40
0.0
 40
0.0
 40
1.0
 40
1.0
 40
1.0
 40
1.0
 10
-34.99992910849276
 20
18.94024659070431
 30
0.0
 10
-35.14572289676783
 20
18.90567490601685
 30
0.0
 10
-35.30749453722905
 20
18.8876882267152
 30
0.0
 10
-35.47197296670731
 20
18.8876882267152
 30
0.0
  0
SPLINE
  5
1CA
330
1F
100
AcDbEntity
  8
1
 62
     4
420
    65535
100
AcDbSpline
210
0.0
220
0.0
230
1.0
 70
     8
 71
     3
 72
    14
 73
    10
 74
     0
 42
0.00000001
 43
0.00000001
 12
1.0
 22
0.0
 32
0.0
 13
1.0
 23
0.0
 33
0.0
 40
0.0
 40
0.0
 40
0.0
 40
0.0
 40
0.25
 40
0.25
 40
0.5
 40
0.5
 40
0.75
 40
0.75
 40
1.0
 40
1.0
 40
1.0
 40
1.0
 10
-35.62286554890738
 20
17.10567517833848
 30
0.0
 10
-35.63059226475042
 20
16.90539113598538
 30
0.0
 10
-35.65825698310766
 20
16.70239011344302
 30
0.0
 10
-35.73276681508052
 20
16.28899812006308
 30
0.0
 10
-35.77937900639333
 20
16.07738943151441
 30
0.0
 10
-35.86905202649314
 20
15.64933284919518
 30
0.0
 10
-35.91207633525874
 20
15.43386822821016
 30
0.0
 10
-35.97720780879775
 20
14.99763734901152
 30
0.0
 10
-35.99992910849276
 20
14.77696075967781
 30
0.0
 10
-35.99992910849276
 20
14.55178111382548
 30
0.0
  0
ARC
  5
1CB
330
1F
100
AcDbEntity
  8
1
 62
     4
420
    65535
100
AcDbCircle
 10
-35.9999291085
 20
-9.0097984604
 30
0.0
 40
1.0
100
AcDbArc
 50
270.0
 51
0.0
  0
LINE
  5
1CC
330
1F
100
AcDbEntity
  8
1
 62
     4
420
    65535
100
AcDbLine
 10
-35.9999291085
 20
14.5517811138
 30
0.0
 11
-35.9999291085
 21
10.0102015396
 31
0.0
  0
ARC
  5
1CD
330
1F
100
AcDbEntity
  8
1
 62
     4
420
    65535
100
AcDbCircle
 10
-35.7511314103
 20
-10.8943833494
 30
0.0
 40
3.665448188437663
100
AcDbArc
 50
266.1079720397
 51
281.8260721714
  0
ARC
  5
1CE
330
1F
100
AcDbEntity
  8
1
 62
     4
420
    65535
100
AcDbCircle
 10
-35.5525816829
 20
-18.9547166153
 30
0.0
 40
1.850779522325451
100
AcDbArc
 50
72.6261465448
 51
92.1763464346
  0
ARC
  5
1CF
330
1F
100
AcDbEntity
  8
1
 62
     4
420
    65535
100
AcDbCircle
 10
-35.9999291085
 20
9.0102015396
 30
0.0
 40
1.000000000000016
100
AcDbArc
 50
0.0
 51
90.0
  0
ARC
  5
1D0
330
1F
100
AcDbEntity
  8
1
 62
     4
420
    65535
100
AcDbCircle
 10
-35.7511314103
 20
10.8947864286
 30
0.0
 40
3.665448188437127
100
AcDbArc
 50
78.1739278286
 51
93.8920279603
  0
ARC
  5
1D1
330
1F
100
AcDbEntity
  8
1
 62
     4
420
    65535
100
AcDbCircle
 10
-35.5525816829
 20
18.9551196945
 30
0.0
 40
1.850779522325851
100
AcDbArc
 50
267.8236535654
 51
287.3738534552
  0
ARC
  5
1D2
330
1F
100
AcDbEntity
  8
1
 62
     4
420
    65535
100
AcDbCircle
 10
-35.9999291085
 20
-9.0097984604
 30
0.0
 40
1.000000000000007
100
AcDbArc
 50
270.0
 51
0.0
  0
ARC
  5
1D3
330
1F
100
AcDbEntity
  8
1
 62
     4
420
    65535
100
AcDbCircle
 10
-35.9999291085
 20
9.0102015396
 30
0.0
 40
1.000000000000002
100
AcDbArc
 50
0.0
 51
90.0
  0
ARC
  5
1D4
330
1F
100
AcDbEntity
  8
1
 62
     4
420
    65535
100
AcDbCircle
 10
16.0000708915
 20
0.0002015396
 30
0.0
 40
11.0
100
AcDbArc
 50
90.0
 51
270.0
  0
LINE
  5
1D5
330
1F
100
AcDbEntity
  8
1
 62
     4
420
    65535
100
AcDbLine
 10
29.0000708915
 20
11.0002015396
 30
0.0
 11
16.0000708915
 21
11.0002015396
 31
0.0
  0
LINE
  5
1D6
330
1F
100
AcDbEntity
  8
1
 62
     4
420
    65535
100
AcDbLine
 10
16.0000708915
 20
-10.9997984604
 30
0.0
 11
29.0000708915
 21
-10.9997984604
 31
0.0
  0
ARC
  5
1D7
330
1F
100
AcDbEntity
  8
1
 62
     4
420
    65535
100
AcDbCircle
 10
15.0000708915
 20
41.5002015396
 30
0.0
 40
10.0
100
AcDbArc
 50
195.4872739988
 51
270.0
  0
LINE
  5
1D8
330
1F
100
AcDbEntity
  8
1
 62
     4
420
    65535
100
AcDbLine
 10
15.0000708915
 20
31.5002015396
 30
0.0
 11
29.0000708915
 21
31.5002015396
 31
0.0
  0
ARC
  5
1D9
330
1F
100
AcDbEntity
  8
1
 62
     4
420
    65535
100
AcDbCircle
 10
15.0000708915
 20
0.0002015396
 30
0.0
 40
10.00000000000001
100
AcDbArc
 50
90.0
 51
270.0
  0
LINE
  5
1DA
330
1F
100
AcDbEntity
  8
1
 62
     4
420
    65535
100
AcDbLine
 10
15.0000708915
 20
10.0002015396
 30
0.0
 11
29.0000708915
 21
10.0002015396
 31
0.0
  0
LINE
  5
1DB
330
1F
100
AcDbEntity
  8
1
 62
     4
420
    65535
100
AcDbLine
 10
29.0000708915
 20
-9.9997984604
 30
0.0
 11
15.0000708915
 21
-9.9997984604
 31
0.0
  0
LINE
  5
1DC
330
1F
100
AcDbEntity
  8
1
 62
     4
420
    65535
100
AcDbLine
 10
159.0000709683
 20
9.000201482
 30
0.0
 11
159.0000709683
 21
-8.9757889559
 31
0.0
  0
LINE
  5
1DD
330
1F
100
AcDbEntity
  8
1
 62
     4
420
    65535
100
AcDbLine
 10
163.0962765301
 20
9.000201482
 30
0.0
 11
163.0962765301
 21
-8.9757889559
 31
0.0
  0
LINE
  5
1DE
330
1F
100
AcDbEntity
  8
1
 62
     4
420
    65535
100
AcDbLine
 10
186.8950433631
 20
16.0002015396
 30
0.0
 11
186.8950433631
 21
-15.9755027233
 31
0.0
  0
SPLINE
  5
1DF
330
1F
100
AcDbEntity
  8
1
 62
     4
420
    65535
100
AcDbSpline
210
0.0
220
0.0
230
1.0
 70
     8
 71
     3
 72
     8
 73
     4
 74
     0
 42
0.00000001
 43
0.00000001
 12
1.0
 22
0.0
 32
0.0
 13
1.0
 23
0.0
 33
0.0
 40
0.0
 40
0.0
 40
0.0
 40
0.0
 40
1.0
 40
1.0
 40
1.0
 40
1.0
 10
-34.99992910849276
 20
-18.93984351148535
 30
0.0
 10
-35.14572289676783
 20
-18.9052718267979
 30
0.0
 10
-35.30749453722905
 20
-18.88728514749625
 30
0.0
 10
-35.47197296670731
 20
-18.88728514749625
 30
0.0
  0
LINE
  5
1E0
330
1F
100
AcDbEntity
  8
1
 62
     4
420
    65535
100
AcDbLine
 10
149.6215595447
 20
16.0002015396
 30
0.0
 11
149.6215595447
 21
-15.9755027233
 31
0.0
  0
LINE
  5
1E1
330
1F
100
AcDbEntity
  8
1
 62
     4
420
    65535
100
AcDbLine
 10
94.0000708915
 20
18.5002015396
 30
0.0
 11
94.0000708915
 21
-18.4997984604
 31
0.0
  0
LINE
  5
1E2
330
1F
100
AcDbEntity
  8
1
 62
     4
420
    65535
100
AcDbLine
 10
56.0037516591
 20
18.5002015396
 30
0.0
 11
56.0037516591
 21
-18.4997984604
 31
0.0
  0
LINE
  5
1E3
330
1F
100
AcDbEntity
  8
1
 62
     4
420
    65535
100
AcDbLine
 10
188.0000709683
 20
14.8951739344
 30
0.0
 11
188.0000709683
 21
-14.8704787032
 31
0.0
  0
DIMENSION
  5
1E4
330
1F
100
AcDbEntity
  8
2
 62
     7
420
 16777215
100
AcDbDimension
  2
_D
 10
200.0000708915
 20
62.0002015396
 30
0.0
 11
75.0000708915
 21
62.0002015396
 31
0.0
 70
   160
  1
<>
 71
     2
 42
-1.0
 73
     0
 74
     0
 75
     0
  3
SLDDIMSTYLE0
100
AcDbAlignedDimension
 13
-49.9999291085
 23
0.0002015396
 33
0.0
 14
200.0000708915
 24
0.0002015396
 34
0.0
 50
0.0
100
AcDbRotatedDimension
  0
DIMENSION
  5
1F0
330
1F
100
AcDbEntity
  8
2
 62
     7
420
 16777215
100
AcDbDimension
  2
_D_1
 10
0.0000708915
 20
56.0002015396
 30
0.0
 11
100.0000708915
 21
56.0002015396
 31
0.0
 70
   160
  1
<>
 71
     2
 42
-1.0
 73
     0
 74
     0
 75
     0
  3
SLDDIMSTYLE0
100
AcDbAlignedDimension
 13
200.0000708915
 23
0.0002015396
 33
0.0
 14
0.0000708915
 24
0.0002015396
 34
0.0
 50
0.0
100
AcDbRotatedDimension
  0
DIMENSION
  5
1FA
330
1F
100
AcDbEntity
  8
2
 62
     7
420
 16777215
100
AcDbDimension
  2
_D_2
 10
206.0000708915
 20
-18.4997984604
 30
0.0
 11
206.0000708915
 21
0.0002015396
 31
0.0
 70
   160
  1
%%c<>
 71
     2
 42
-1.0
 73
     0
 74
     0
 75
     0
  3
SLDDIMSTYLE0
100
AcDbAlignedDimension
 13
94.0000708915
 23
18.5002015396
 33
0.0
 14
94.0000708915
 24
-18.4997984604
 34
0.0
 50
90.0
100
AcDbRotatedDimension
  0
DIMENSION
  5
205
330
1F
100
AcDbEntity
  8
2
 62
     7
420
 16777215
100
AcDbDimension
  2
_D_3
 10
212.0000708915
 20
-20.999798326
 30
0.0
 11
212.0000708915
 21
0.0002015396
 31
0.0
 70
   160
  1
%%c<>
 71
     2
 42
-1.0
 73
     0
 74
     0
 75
     0
  3
SLDDIMSTYLE0
100
AcDbAlignedDimension
 13
182.0000708915
 23
21.0002014052
 33
0.0
 14
182.0000708915
 24
-20.999798326
 34
0.0
 50
90.0
100
AcDbRotatedDimension
  0
ENDSEC
  0
SECTION
  2
OBJECTS
  0
DICTIONARY
  5
C
330
0
100
AcDbDictionary
281
     1
  3
ACAD_GROUP
350
D
  3
ACAD_LAYOUT
350
1A
  3
ACAD_MATERIAL
350
3B
  3
ACAD_MLEADERSTYLE
350
211
  3
ACAD_MLINESTYLE
350
17
  3
ACAD_PLOTSETTINGS
350
19
  3
ACAD_PLOTSTYLENAME
350
E
  3
ACAD_TABLESTYLE
350
210
  3
ACAD_VISUALSTYLE
350
2A
  0
DICTIONARY
  5
D
102
{ACAD_REACTORS
330
C
102
}
330
C
100
AcDbDictionary
281
     1
  0
DICTIONARY
  5
1A
102
{ACAD_REACTORS
330
C
102
}
330
C
100
AcDbDictionary
281
     1
  3
Layout1
350
1E
  3
Layout2
350
26
  3
Model
350
22
  0
DICTIONARY
  5
3B
102
{ACAD_REACTORS
330
C
102
}
330
C
100
AcDbDictionary
281
     1
  3
ByBlock
350
3D
  3
ByLayer
350
3C
  3
Global
350
3E
  0
DICTIONARY
  5
211
102
{ACAD_REACTORS
330
C
102
}
330
C
100
AcDbDictionary
281
     1
  0
DICTIONARY
  5
17
102
{ACAD_REACTORS
330
C
102
}
330
C
100
AcDbDictionary
281
     1
  3
Standard
350
18
  0
DICTIONARY
  5
19
102
{ACAD_REACTORS
330
C
102
}
330
C
100
AcDbDictionary
281
     1
  0
ACDBDICTIONARYWDFLT
  5
E
102
{ACAD_REACTORS
330
C
102
}
330
C
100
AcDbDictionary
281
     1
  3
Normal
350
F
100
AcDbDictionaryWithDefault
340
F
  0
DICTIONARY
  5
210
102
{ACAD_REACTORS
330
C
102
}
330
C
100
AcDbDictionary
281
     1
  0
DICTIONARY
  5
2A
102
{ACAD_REACTORS
330
C
102
}
330
C
100
AcDbDictionary
281
     1
  3
2dWireframe
350
2F
  3
3D Hidden
350
31
  3
3dWireframe
350
30
  3
Basic
350
32
  3
Brighten
350
36
  3
ColorChange
350
3A
  3
Conceptual
350
34
  3
Dim
350
35
  3
Facepattern
350
39
  3
Flat
350
2B
  3
FlatWithEdges
350
2C
  3
Gouraud
350
2D
  3
GouraudWithEdges
350
2E
  3
Linepattern
350
38
  3
Realistic
350
33
  3
Thicken
350
37
  0
LAYOUT
  5
1E
102
{ACAD_REACTORS
330
1A
102
}
330
1A
100
AcDbPlotSettings
  1

  2
none_device
  4

  6

 40
0.0
 41
0.0
 42
0.0
 43
0.0
 44
0.0
 45
0.0
 46
0.0
 47
0.0
 48
0.0
 49
0.0
140
0.0
141
0.0
142
1.0
143
1.0
 70
   688
 72
     0
 73
     0
 74
     5
  7

 75
    16
 76
     0
 77
     2
 78
   300
147
1.0
148
0.0
149
0.0
100
AcDbLayout
  1
Layout1
 70
     1
 71
     1
 10
0.0
 20
0.0
 11
420.0
 21
297.0
 12
0.0
 22
0.0
 32
0.0
 14
1.0000000000E+20
 24
1.0000000000E+20
 34
1.0000000000E+20
 15
-1.0000000000E+20
 25
-1.0000000000E+20
 35
-1.0000000000E+20
146
0.0
 13
0.0
 23
0.0
 33
0.0
 16
1.0
 26
0.0
 36
0.0
 17
0.0
 27
1.0
 37
0.0
 76
     0
330
1B
  0
LAYOUT
  5
26
102
{ACAD_REACTORS
330
1A
102
}
330
1A
100
AcDbPlotSettings
  1

  2
none_device
  4

  6

 40
0.0
 41
0.0
 42
0.0
 43
0.0
 44
0.0
 45
0.0
 46
0.0
 47
0.0
 48
0.0
 49
0.0
140
0.0
141
0.0
142
1.0
143
1.0
 70
   688
 72
     0
 73
     0
 74
     5
  7

 75
    16
 76
     0
 77
     2
 78
   300
147
1.0
148
0.0
149
0.0
100
AcDbLayout
  1
Layout2
 70
     1
 71
     2
 10
0.0
 20
0.0
 11
0.0
 21
0.0
 12
0.0
 22
0.0
 32
0.0
 14
0.0
 24
0.0
 34
0.0
 15
0.0
 25
0.0
 35
0.0
146
0.0
 13
0.0
 23
0.0
 33
0.0
 16
1.0
 26
0.0
 36
0.0
 17
0.0
 27
1.0
 37
0.0
 76
     0
330
23
  0
LAYOUT
  5
22
102
{ACAD_REACTORS
330
1A
102
}
330
1A
100
AcDbPlotSettings
  1

  2
none_device
  4

  6

 40
0.0
 41
0.0
 42
0.0
 43
0.0
 44
0.0
 45
0.0
 46
0.0
 47
0.0
 48
0.0
 49
0.0
140
0.0
141
0.0
142
1.0
143
1.0
 70
  1712
 72
     0
 73
     0
 74
     0
  7

 75
     0
 76
     0
 77
     2
 78
   300
147
1.0
148
0.0
149
0.0
100
AcDbLayout
  1
Model
 70
     1
 71
     0
 10
0.0
 20
0.0
 11
297.0
 21
210.0
 12
0.0
 22
0.0
 32
0.0
 14
0.0
 24
0.0
 34
0.0
 15
297.0
 25
210.0
 35
0.0
146
0.0
 13
0.0
 23
0.0
 33
0.0
 16
1.0
 26
0.0
 36
0.0
 17
0.0
 27
1.0
 37
0.0
 76
     0
330
1F
331
29
  0
MATERIAL
  5
3D
102
{ACAD_REACTORS
330
3B
102
}
330
3B
100
AcDbMaterial
  1
ByBlock
 72
     1
 94
      127
  0
MATERIAL
  5
3C
102
{ACAD_REACTORS
330
3B
102
}
330
3B
100
AcDbMaterial
  1
ByLayer
 72
     1
 94
      127
  0
MATERIAL
  5
3E
102
{ACAD_REACTORS
330
3B
102
}
330
3B
100
AcDbMaterial
  1
Global
 72
     1
 94
      127
  0
MLINESTYLE
  5
18
102
{ACAD_REACTORS
330
17
102
}
330
17
100
AcDbMlineStyle
  2
Standard
 70
     0
  3

 62
   256
 51
90.0
 52
90.0
 71
     2
 49
0.5
 62
   256
  6
BYLAYER
 49
-0.5
 62
   256
  6
BYLAYER
  0
ACDBPLACEHOLDER
  5
F
102
{ACAD_REACTORS
330
E
102
}
330
E
  0
VISUALSTYLE
  5
2F
102
{ACAD_REACTORS
330
2A
102
}
330
2A
100
AcDbVisualStyle
  2
2dWireframe
 70
     4
 71
     0
 72
     2
 73
     0
 90
        0
 40
-0.6
 41
-30.0
 62
     5
 63
     7
421
 16777215
 74
     1
 91
        4
 64
     7
 65
   257
 75
     1
175
     1
 42
1.0
 92
        0
 66
   257
 43
1.0
 76
     1
 77
     6
 78
     2
 67
     7
 79
     5
170
     0
171
     0
290
     0
174
     0
 93
        1
 44
0.0
173
     0
291
     0
 45
0.0
  0
VISUALSTYLE
  5
31
102
{ACAD_REACTORS
330
2A
102
}
330
2A
100
AcDbVisualStyle
  2
3D Hidden
 70
     6
 71
     1
 72
     2
 73
     2
 90
        0
 40
-0.6
 41
-30.0
 62
     5
 63
     7
421
 16777215
 74
     2
 91
        2
 64
     7
 65
   257
 75
     2
175
     1
 42
40.0
 92
        0
 66
   257
 43
1.0
 76
     1
 77
     6
 78
     2
 67
     7
 79
     3
170
     0
171
     0
290
     0
174
     0
 93
        1
 44
0.0
173
     0
291
     0
 45
0.0
  0
VISUALSTYLE
  5
30
102
{ACAD_REACTORS
330
2A
102
}
330
2A
100
AcDbVisualStyle
  2
3dWireframe
 70
     5
 71
     0
 72
     2
 73
     0
 90
        0
 40
-0.6
 41
-30.0
 62
     5
 63
     7
421
 16777215
 74
     1
 91
        4
 64
     7
 65
   257
 75
     1
175
     1
 42
1.0
 92
        0
 66
   257
 43
1.0
 76
     1
 77
     6
 78
     2
 67
     7
 79
     5
170
     0
171
     0
290
     0
174
     0
 93
        1
 44
0.0
173
     0
291
     0
 45
0.0
  0
VISUALSTYLE
  5
32
102
{ACAD_REACTORS
330
2A
102
}
330
2A
100
AcDbVisualStyle
  2
Basic
 70
     7
 71
     1
 72
     0
 73
     1
 90
        0
 40
-0.6
 41
-30.0
 62
     5
 63
     7
421
 16777215
 74
     0
 91
        4
 64
     7
 65
   257
 75
     1
175
     1
 42
1.0
 92
        8
 66
     7
 43
1.0
 76
     1
 77
     6
 78
     2
 67
     7
 79
     5
170
     0
171
     0
290
     0
174
     0
 93
        1
 44
0.0
173
     0
291
     1
 45
0.0
  0
VISUALSTYLE
  5
36
102
{ACAD_REACTORS
330
2A
102
}
330
2A
100
AcDbVisualStyle
  2
Brighten
 70
    12
 71
     2
 72
     2
 73
     0
 90
        0
 40
-0.6
 41
-30.0
 62
     5
 63
     7
421
 16777215
 74
     1
 91
        4
 64
     7
 65
   257
 75
     1
175
     1
 42
1.0
 92
        8
 66
     7
 43
1.0
 76
     1
 77
     6
 78
     2
 67
     7
 79
     5
170
     0
171
     0
290
     0
174
     0
 93
        1
 44
50.0
173
     0
291
     1
 45
0.0
  0
VISUALSTYLE
  5
3A
102
{ACAD_REACTORS
330
2A
102
}
330
2A
100
AcDbVisualStyle
  2
ColorChange
 70
    16
 71
     2
 72
     2
 73
     3
 90
        0
 40
-0.6
 41
-30.0
 62
     5
 63
     8
421
  8421504
 74
     1
 91
        4
 64
     7
 65
   257
 75
     1
175
     1
 42
1.0
 92
        8
 66
     8
424
  8421504
 43
1.0
 76
     1
 77
     6
 78
     2
 67
     7
 79
     5
170
     0
171
     0
290
     0
174
     0
 93
        1
 44
0.0
173
     0
291
     1
 45
0.0
  0
VISUALSTYLE
  5
34
102
{ACAD_REACTORS
330
2A
102
}
330
2A
100
AcDbVisualStyle
  2
Conceptual
 70
     9
 71
     3
 72
     2
 73
     0
 90
        0
 40
-0.6
 41
-30.0
 62
     5
 63
     7
421
 16777215
 74
     2
 91
        2
 64
     7
 65
   257
 75
     1
175
     1
 42
40.0
 92
        8
 66
     7
 43
1.0
 76
     1
 77
     6
 78
     2
 67
     7
 79
     3
170
     0
171
     0
290
     0
174
     0
 93
        1
 44
0.0
173
     0
291
     0
 45
0.0
  0
VISUALSTYLE
  5
35
102
{ACAD_REACTORS
330
2A
102
}
330
2A
100
AcDbVisualStyle
  2
Dim
 70
    11
 71
     2
 72
     2
 73
     0
 90
        0
 40
-0.6
 41
-30.0
 62
     5
 63
     7
421
 16777215
 74
     1
 91
        4
 64
     7
 65
   257
 75
     1
175
     1
 42
1.0
 92
        8
 66
     7
 43
1.0
 76
     1
 77
     6
 78
     2
 67
     7
 79
     5
170
     0
171
     0
290
     0
174
     0
 93
        1
 44
-50.0
173
     0
291
     1
 45
0.0
  0
VISUALSTYLE
  5
39
102
{ACAD_REACTORS
330
2A
102
}
330
2A
100
AcDbVisualStyle
  2
Facepattern
 70
    15
 71
     2
 72
     2
 73
     0
 90
        0
 40
-0.6
 41
-30.0
 62
     5
 63
     7
421
 16777215
 74
     1
 91
        4
 64
     7
 65
   257
 75
     1
175
     1
 42
1.0
 92
        8
 66
     7
 43
1.0
 76
     1
 77
     6
 78
     2
 67
     7
 79
     5
170
     0
171
     0
290
     0
174
     0
 93
        1
 44
0.0
173
     0
291
     1
 45
0.0
  0
VISUALSTYLE
  5
2B
102
{ACAD_REACTORS
330
2A
102
}
330
2A
100
AcDbVisualStyle
  2
Flat
 70
     0
 71
     2
 72
     1
 73
     1
 90
        2
 40
-0.6
 41
30.0
 62
     5
 63
     7
421
 16777215
 74
     0
 91
        4
 64
     7
 65
   257
 75
     1
175
     1
 42
1.0
 92
        8
 66
     7
 43
1.0
 76
     1
 77
     6
 78
     2
 67
     7
 79
     5
170
     0
171
     0
290
     0
174
     0
 93
       13
 44
0.0
173
     0
291
     1
 45
0.0
  0
VISUALSTYLE
  5
2C
102
{ACAD_REACTORS
330
2A
102
}
330
2A
100
AcDbVisualStyle
  2
FlatWithEdges
 70
     1
 71
     2
 72
     1
 73
     1
 90
        2
 40
-0.6
 41
30.0
 62
     5
 63
     7
421
 16777215
 74
     1
 91
        4
 64
     7
 65
   257
 75
     1
175
     1
 42
1.0
 92
        0
 66
   257
 43
1.0
 76
     1
 77
     6
 78
     2
 67
     7
 79
     5
170
     0
171
     0
290
     0
174
     0
 93
       13
 44
0.0
173
     0
291
     1
 45
0.0
  0
VISUALSTYLE
  5
2D
102
{ACAD_REACTORS
330
2A
102
}
330
2A
100
AcDbVisualStyle
  2
Gouraud
 70
     2
 71
     2
 72
     2
 73
     1
 90
        2
 40
-0.6
 41
30.0
 62
     5
 63
     7
421
 16777215
 74
     0
 91
        4
 64
     7
 65
   257
 75
     1
175
     1
 42
1.0
 92
        0
 66
     7
 43
1.0
 76
     1
 77
     6
 78
     2
 67
     7
 79
     5
170
     0
171
     0
290
     0
174
     0
 93
       13
 44
0.0
173
     0
291
     1
 45
0.0
  0
VISUALSTYLE
  5
2E
102
{ACAD_REACTORS
330
2A
102
}
330
2A
100
AcDbVisualStyle
  2
GouraudWithEdges
 70
     3
 71
     2
 72
     2
 73
     1
 90
        2
 40
-0.6
 41
30.0
 62
     5
 63
     7
421
 16777215
 74
     1
 91
        4
 64
     7
 65
   257
 75
     1
175
     1
 42
1.0
 92
        0
 66
   257
 43
1.0
 76
     1
 77
     6
 78
     2
 67
     7
 79
     5
170
     0
171
     0
290
     0
174
     0
 93
       13
 44
0.0
173
     0
291
     1
 45
0.0
  0
VISUALSTYLE
  5
38
102
{ACAD_REACTORS
330
2A
102
}
330
2A
100
AcDbVisualStyle
  2
Linepattern
 70
    14
 71
     2
 72
     2
 73
     0
 90
        0
 40
-0.6
 41
-30.0
 62
     5
 63
     7
421
 16777215
 74
     1
 91
        4
 64
     7
 65
   257
 75
     7
175
     7
 42
1.0
 92
        8
 66
     7
 43
1.0
 76
     1
 77
     6
 78
     2
 67
     7
 79
     5
170
     0
171
     0
290
     0
174
     0
 93
        1
 44
0.0
173
     0
291
     1
 45
0.0
  0
VISUALSTYLE
  5
33
102
{ACAD_REACTORS
330
2A
102
}
330
2A
100
AcDbVisualStyle
  2
Realistic
 70
     8
 71
     2
 72
     2
 73
     0
 90
        0
 40
-0.6
 41
-30.0
 62
     5
 63
     7
421
 16777215
 74
     1
 91
        0
 64
     7
 65
   257
 75
     1
175
     1
 42
1.0
 92
        8
 66
     8
424
  7895160
 43
1.0
 76
     1
 77
     6
 78
     2
 67
     7
 79
     5
170
     0
171
     0
290
     0
174
     0
 93
       13
 44
0.0
173
     0
291
     0
 45
0.0
  0
VISUALSTYLE
  5
37
102
{ACAD_REACTORS
330
2A
102
}
330
2A
100
AcDbVisualStyle
  2
Thicken
 70
    13
 71
     2
 72
     2
 73
     0
 90
        0
 40
-0.6
 41
-30.0
 62
     5
 63
     7
421
 16777215
 74
     1
 91
        4
 64
     7
 65
   257
 75
     1
175
     1
 42
1.0
 92
       12
 66
     7
 43
1.0
 76
     1
 77
     6
 78
     2
 67
     7
 79
     5
170
     0
171
     0
290
     0
174
     0
 93
        1
 44
0.0
173
     0
291
     1
 45
0.0
  0
ENDSEC
  0
EOF
