  0
SECTION
  2
HEADER
  9
$ACADVER
  1
AC1021
  9
$ACADMAINTVER
 70
    25
  9
$DWGCODEPAGE
  3
ANSI_1252
  9
$INSBASE
 10
0.0
 20
0.0
 30
0.0
  9
$EXTMIN
 10
0.0
 20
0.0
 30
0.0
  9
$EXTMAX
 10
297.0
 20
210.0
 30
0.0
  9
$LIMMIN
 10
0.0
 20
0.0
  9
$LIMMAX
 10
297.0
 20
210.0
  9
$ORTHOMODE
 70
     0
  9
$REGENMODE
 70
     1
  9
$FILLMODE
 70
     1
  9
$QTEXTMODE
 70
     0
  9
$MIRRTEXT
 70
     1
  9
$LTSCALE
 40
1.0
  9
$ATTMODE
 70
     1
  9
$TEXTSIZE
 40
3.5
  9
$TRACEWID
 40
1.0
  9
$TEXTSTYLE
  7
Standard
  9
$CLAYER
  8
0
  9
$CELTYPE
  6
ByLayer
  9
$CECOLOR
 62
   256
  9
$CELTSCALE
 40
1.0
  9
$DISPSILH
 70
     0
  9
$DIMSCALE
 40
1.0
  9
$DIMASZ
 40
3.302
  9
$DIMEXO
 40
1.0
  9
$DIMDLI
 40
3.75
  9
$DIMRND
 40
0.0
  9
$DIMDLE
 40
0.0
  9
$DIMEXE
 40
1.0
  9
$DIMTP
 40
0.0
  9
$DIMTM
 40
0.0
  9
$DIMTXT
 40
3.5
  9
$DIMCEN
 40
2.5
  9
$DIMTSZ
 40
0.0
  9
$DIMTOL
 70
     0
  9
$DIMLIM
 70
     0
  9
$DIMTIH
 70
     1
  9
$DIMTOH
 70
     1
  9
$DIMSE1
 70
     0
  9
$DIMSE2
 70
     0
  9
$DIMTAD
 70
     1
  9
$DIMZIN
 70
     0
  9
$DIMBLK
  1

  9
$DIMASO
 70
     1
  9
$DIMSHO
 70
     1
  9
$DIMPOST
  1

  9
$DIMAPOST
  1

  9
$DIMALT
 70
     0
  9
$DIMALTD
 70
     3
  9
$DIMALTF
 40
0.0393700787
  9
$DIMLFAC
 40
1.0
  9
$DIMTOFL
 70
     1
  9
$DIMTVP
 40
0.0
  9
$DIMTIX
 70
     0
  9
$DIMSOXD
 70
     0
  9
$DIMSAH
 70
     0
  9
$DIMBLK1
  1

  9
$DIMBLK2
  1

  9
$DIMSTYLE
  2
ISO-25
  9
$DIMCLRD
 70
     0
  9
$DIMCLRE
 70
     0
  9
$DIMCLRT
 70
     0
  9
$DIMTFAC
 40
1.0
  9
$DIMGAP
 40
1.524
  9
$DIMJUST
 70
     0
  9
$DIMSD1
 70
     0
  9
$DIMSD2
 70
     0
  9
$DIMTOLJ
 70
     0
  9
$DIMTZIN
 70
     0
  9
$DIMALTZ
 70
     0
  9
$DIMALTTZ
 70
     0
  9
$DIMUPT
 70
     0
  9
$DIMDEC
 70
     2
  9
$DIMTDEC
 70
     2
  9
$DIMALTU
 70
     2
  9
$DIMALTTD
 70
     3
  9
$DIMTXSTY
  7
Standard
  9
$DIMAUNIT
 70
     0
  9
$DIMADEC
 70
     2
  9
$DIMALTRND
 40
0.0
  9
$DIMAZIN
 70
     0
  9
$DIMDSEP
 70
    44
  9
$DIMATFIT
 70
     3
  9
$DIMFRAC
 70
     0
  9
$DIMLDRBLK
  1

  9
$DIMLUNIT
 70
     2
  9
$DIMLWD
 70
    -2
  9
$DIMLWE
 70
    -2
  9
$DIMTMOVE
 70
     0
  9
$DIMFXL
 40
1.0
  9
$DIMFXLON
 70
     0
  9
$DIMJOGANG
 40
0.7853981634
  9
$DIMTFILL
 70
     0
  9
$DIMTFILLCLR
 70
     0
  9
$DIMARCSYM
 70
     0
  9
$DIMLTYPE
  6

  9
$DIMLTEX1
  6

  9
$DIMLTEX2
  6

  9
$LUNITS
 70
     2
  9
$LUPREC
 70
     2
  9
$SKETCHINC
 40
1.0
  9
$FILLETRAD
 40
10.0
  9
$AUNITS
 70
     0
  9
$AUPREC
 70
     2
  9
$MENU
  1
.
  9
$ELEVATION
 40
0.0
  9
$PELEVATION
 40
0.0
  9
$THICKNESS
 40
0.0
  9
$LIMCHECK
 70
     0
  9
$CHAMFERA
 40
10.0
  9
$CHAMFERB
 40
10.0
  9
$CHAMFERC
 40
20.0
  9
$CHAMFERD
 40
0.0
  9
$SKPOLY
 70
     0
  9
$TDCREATE
 40
2456457.416036632
  9
$TDUCREATE
 40
2456457.332703298
  9
$TDUPDATE
 40
2456457.416037211
  9
$TDUUPDATE
 40
2456457.332703877
  9
$TDINDWG
 40
0.0000000116
  9
$TDUSRTIMER
 40
0.0000000116
  9
$USRTIMER
 70
     1
  9
$ANGBASE
 50
0.0
  9
$ANGDIR
 70
     0
  9
$PDMODE
 70
     0
  9
$PDSIZE
 40
-1.0
  9
$PLINEWID
 40
0.0
  9
$SPLFRAME
 70
     0
  9
$SPLINETYPE
 70
     6
  9
$SPLINESEGS
 70
     8
  9
$HANDSEED
  5
175
  9
$SURFTAB1
 70
     6
  9
$SURFTAB2
 70
     6
  9
$SURFTYPE
 70
     6
  9
$SURFU
 70
     6
  9
$SURFV
 70
     6
  9
$UCSBASE
  2

  9
$UCSNAME
  2

  9
$UCSORG
 10
0.0
 20
0.0
 30
0.0
  9
$UCSXDIR
 10
1.0
 20
0.0
 30
0.0
  9
$UCSYDIR
 10
0.0
 20
1.0
 30
0.0
  9
$UCSORTHOREF
  2

  9
$UCSORTHOVIEW
 70
     0
  9
$UCSORGTOP
 10
0.0
 20
0.0
 30
0.0
  9
$UCSORGBOTTOM
 10
0.0
 20
0.0
 30
0.0
  9
$UCSORGLEFT
 10
0.0
 20
0.0
 30
0.0
  9
$UCSORGRIGHT
 10
0.0
 20
0.0
 30
0.0
  9
$UCSORGFRONT
 10
0.0
 20
0.0
 30
0.0
  9
$UCSORGBACK
 10
0.0
 20
0.0
 30
0.0
  9
$PUCSBASE
  2

  9
$PUCSNAME
  2

  9
$PUCSORG
 10
0.0
 20
0.0
 30
0.0
  9
$PUCSXDIR
 10
1.0
 20
0.0
 30
0.0
  9
$PUCSYDIR
 10
0.0
 20
1.0
 30
0.0
  9
$PUCSORTHOREF
  2

  9
$PUCSORTHOVIEW
 70
     0
  9
$PUCSORGTOP
 10
0.0
 20
0.0
 30
0.0
  9
$PUCSORGBOTTOM
 10
0.0
 20
0.0
 30
0.0
  9
$PUCSORGLEFT
 10
0.0
 20
0.0
 30
0.0
  9
$PUCSORGRIGHT
 10
0.0
 20
0.0
 30
0.0
  9
$PUCSORGFRONT
 10
0.0
 20
0.0
 30
0.0
  9
$PUCSORGBACK
 10
0.0
 20
0.0
 30
0.0
  9
$USERI1
 70
     0
  9
$USERI2
 70
     0
  9
$USERI3
 70
     0
  9
$USERI4
 70
     0
  9
$USERI5
 70
     0
  9
$USERR1
 40
0.0
  9
$USERR2
 40
0.0
  9
$USERR3
 40
0.0
  9
$USERR4
 40
0.0
  9
$USERR5
 40
0.0
  9
$WORLDVIEW
 70
     1
  9
$SHADEDGE
 70
     3
  9
$SHADEDIF
 70
    70
  9
$TILEMODE
 70
     1
  9
$MAXACTVP
 70
    64
  9
$PINSBASE
 10
0.0
 20
0.0
 30
0.0
  9
$PLIMCHECK
 70
     0
  9
$PEXTMIN
 10
1.0000000000E+20
 20
1.0000000000E+20
 30
1.0000000000E+20
  9
$PEXTMAX
 10
-1.0000000000E+20
 20
-1.0000000000E+20
 30
-1.0000000000E+20
  9
$PLIMMIN
 10
0.0
 20
0.0
  9
$PLIMMAX
 10
420.0
 20
297.0
  9
$UNITMODE
 70
     0
  9
$VISRETAIN
 70
     1
  9
$PLINEGEN
 70
     0
  9
$PSLTSCALE
 70
     1
  9
$TREEDEPTH
 70
  3020
  9
$CMLSTYLE
  2
Standard
  9
$CMLJUST
 70
     0
  9
$CMLSCALE
 40
20.0
  9
$PROXYGRAPHICS
 70
     1
  9
$MEASUREMENT
 70
     1
  9
$CELWEIGHT
370
    -1
  9
$ENDCAPS
280
     0
  9
$JOINSTYLE
280
     0
  9
$LWDISPLAY
290
     1
  9
$INSUNITS
 70
     4
  9
$HYPERLINKBASE
  1

  9
$STYLESHEET
  1

  9
$XEDIT
290
     1
  9
$CEPSNTYPE
380
     0
  9
$PSTYLEMODE
290
     1
  9
$FINGERPRINTGUID
  2
{19B71B11-B916-4BD2-9878-F1821BD47EC9}
  9
$VERSIONGUID
  2
{FAEB1C32-E019-11D5-929B-00C0DF256EC4}
  9
$EXTNAMES
290
     1
  9
$PSVPSCALE
 40
0.0
  9
$OLESTARTUP
290
     0
  9
$SORTENTS
280
   127
  9
$INDEXCTL
280
     0
  9
$HIDETEXT
280
     1
  9
$XCLIPFRAME
290
     0
  9
$HALOGAP
280
     0
  9
$OBSCOLOR
 70
   257
  9
$OBSLTYPE
280
     0
  9
$INTERSECTIONDISPLAY
280
     0
  9
$INTERSECTIONCOLOR
 70
   257
  9
$DIMASSOC
280
     2
  9
$PROJECTNAME
  1

  9
$CAMERADISPLAY
290
     0
  9
$LENSLENGTH
 40
50.0
  9
$CAMERAHEIGHT
 40
0.0
  9
$STEPSPERSEC
 40
2.0
  9
$STEPSIZE
 40
6.0
  9
$3DDWFPREC
 40
2.0
  9
$PSOLWIDTH
 40
5.0
  9
$PSOLHEIGHT
 40
80.0
  9
$LOFTANG1
 40
1.5707963268
  9
$LOFTANG2
 40
1.5707963268
  9
$LOFTMAG1
 40
0.0
  9
$LOFTMAG2
 40
0.0
  9
$LOFTPARAM
 70
     7
  9
$LOFTNORMALS
280
     1
  9
$LATITUDE
 40
37.795
  9
$LONGITUDE
 40
-122.394
  9
$NORTHDIRECTION
 40
0.0
  9
$TIMEZONE
 70
 -8000
  9
$LIGHTGLYPHDISPLAY
280
     1
  9
$TILEMODELIGHTSYNCH
280
     1
  9
$SOLIDHIST
280
     1
  9
$SHOWHIST
280
     1
  9
$DWFFRAME
280
     2
  9
$DGNFRAME
280
     2
  9
$REALWORLDSCALE
290
     1
  9
$INTERFERECOLOR
 62
   256
  9
$CSHADOW
280
     0
  9
$SHADOWPLANELOCATION
 40
0.0
  0
ENDSEC
  0
SECTION
  2
CLASSES
  0
CLASS
  1
ACDBDICTIONARYWDFLT
  2
AcDbDictionaryWithDefault
  3
ObjectDBX Classes
 90
        0
 91
        4
280
     0
281
     0
  0
CLASS
  1
VISUALSTYLE
  2
AcDbVisualStyle
  3
ObjectDBX Classes
 90
     4095
 91
        4
280
     0
281
     0
  0
CLASS
  1
MATERIAL
  2
AcDbMaterial
  3
ObjectDBX Classes
 90
     1153
 91
        4
280
     0
281
     0
  0
ENDSEC
  0
SECTION
  2
TABLES
  0
TABLE
  2
VPORT
  5
8
330
0
100
AcDbSymbolTable
 70
     1
  0
VPORT
  5
29
330
8
100
AcDbSymbolTableRecord
100
AcDbViewportTableRecord
  2
*Active
 70
     0
 10
0.0
 20
0.0
 11
1.0
 21
1.0
 12
148.5
 22
105.0
 13
0.0
 23
0.0
 14
10.0
 24
10.0
 15
10.0
 25
10.0
 16
0.0
 26
0.0
 36
1.0
 17
0.0
 27
0.0
 37
0.0
 40
210.0
 41
1.4142857143
 42
50.0
 43
0.0
 44
0.0
 50
0.0
 51
0.0
 71
     0
 72
  2000
 73
     1
 74
     3
 75
     0
 76
     0
 77
     0
 78
     0
281
     0
 65
     1
110
0.0
120
0.0
130
0.0
111
1.0
121
0.0
131
0.0
112
0.0
122
1.0
132
0.0
 79
     0
146
0.0
 60
     3
 61
     5
292
     1
282
     1
141
0.0
142
0.0
 63
   250
  0
ENDTAB
  0
TABLE
  2
LTYPE
  5
5
330
0
100
AcDbSymbolTable
 70
     8
  0
LTYPE
  5
14
330
5
100
AcDbSymbolTableRecord
100
AcDbLinetypeTableRecord
  2
ByBlock
 70
     0
  3

 72
    65
 73
     0
 40
0.0
  0
LTYPE
  5
15
330
5
100
AcDbSymbolTableRecord
100
AcDbLinetypeTableRecord
  2
ByLayer
 70
     0
  3

 72
    65
 73
     0
 40
0.0
  0
LTYPE
  5
16
330
5
100
AcDbSymbolTableRecord
100
AcDbLinetypeTableRecord
  2
Continuous
 70
     0
  3
Solid line
 72
    65
 73
     0
 40
0.0
  0
LTYPE
  5
3F
330
5
100
AcDbSymbolTableRecord
100
AcDbLinetypeTableRecord
  2
SLD-Durchgehend
 70
     0
  3
SolidWorks Line Style
 72
    65
 73
     0
 40
0.0
  0
LTYPE
  5
40
330
5
100
AcDbSymbolTableRecord
100
AcDbLinetypeTableRecord
  2
SLD-Gestrichelt
 70
     0
  3
SolidWorks Line Style
 72
    65
 73
     2
 40
1.905
 49
1.27
 74
     0
 49
-0.635
 74
     0
  0
LTYPE
  5
41
330
5
100
AcDbSymbolTableRecord
100
AcDbLinetypeTableRecord
  2
SLD-Phantom
 70
     0
  3
SolidWorks Line Style
 72
    65
 73
     6
 40
12.7
 49
6.35
 74
     0
 49
-1.27
 74
     0
 49
1.27
 74
     0
 49
-1.27
 74
     0
 49
1.27
 74
     0
 49
-1.27
 74
     0
  0
LTYPE
  5
42
330
5
100
AcDbSymbolTableRecord
100
AcDbLinetypeTableRecord
  2
SLD-Kette
 70
     0
  3
SolidWorks Line Style
 72
    65
 73
     4
 40
10.16
 49
6.35
 74
     0
 49
-1.27
 74
     0
 49
1.27
 74
     0
 49
-1.27
 74
     0
  0
LTYPE
  5
43
330
5
100
AcDbSymbolTableRecord
100
AcDbLinetypeTableRecord
  2
SLD-Punktstrich
 70
     0
  3
SolidWorks Line Style
 72
    65
 73
     4
 40
19.05
 49
15.24
 74
     0
 49
-1.27
 74
     0
 49
1.27
 74
     0
 49
-1.27
 74
     0
  0
LTYPE
  5
44
330
5
100
AcDbSymbolTableRecord
100
AcDbLinetypeTableRecord
  2
SLD-Naht
 70
     0
  3
SolidWorks Line Style
 72
    65
 73
     2
 40
0.635
 49
0.0
 74
     0
 49
-0.635
 74
     0
  0
LTYPE
  5
45
330
5
100
AcDbSymbolTableRecord
100
AcDbLinetypeTableRecord
  2
SLD-Dicke-Dünne-Kette
 70
     0
  3
SolidWorks Line Style
 72
    65
 73
     4
 40
10.16
 49
6.35
 74
     0
 49
-1.27
 74
     0
 49
1.27
 74
     0
 49
-1.27
 74
     0
  0
ENDTAB
  0
TABLE
  2
LAYER
  5
2
330
0
100
AcDbSymbolTable
 70
     3
  0
LAYER
  5
10
330
2
100
AcDbSymbolTableRecord
100
AcDbLayerTableRecord
  2
0
 70
     0
 62
     7
  6
Continuous
370
    -3
390
F
347
3E
  0
LAYER
  5
46
330
2
100
AcDbSymbolTableRecord
100
AcDbLayerTableRecord
  2
1
 70
     0
 62
     4
  6
Continuous
370
    -1
390
F
347
3E
  0
LAYER
  5
47
330
2
100
AcDbSymbolTableRecord
100
AcDbLayerTableRecord
  2
2
 70
     0
 62
     7
  6
SLD-Durchgehend
370
    -3
390
F
347
3E
  0
ENDTAB
  0
TABLE
  2
STYLE
  5
3
330
0
100
AcDbSymbolTable
 70
     2
  0
STYLE
  5
11
330
3
100
AcDbSymbolTableRecord
100
AcDbTextStyleTableRecord
  2
Standard
 70
     0
 40
0.0
 41
1.0
 50
0.0
 71
     0
 42
3.5
  3
txt
  4

  0
STYLE
  5
147
330
3
100
AcDbSymbolTableRecord
100
AcDbTextStyleTableRecord
  2
SLDTEXTSTYLE0
 70
     0
 40
0.0
 41
0.75
 50
0.0
 71
     0
 42
0.2
  3
TXT
  4

  0
ENDTAB
  0
TABLE
  2
VIEW
  5
6
330
0
100
AcDbSymbolTable
 70
     0
  0
ENDTAB
  0
TABLE
  2
UCS
  5
7
330
0
100
AcDbSymbolTable
 70
     0
  0
ENDTAB
  0
TABLE
  2
APPID
  5
9
330
0
100
AcDbSymbolTable
 70
     1
  0
APPID
  5
12
330
9
100
AcDbSymbolTableRecord
100
AcDbRegAppTableRecord
  2
ACAD
 70
     0
  0
ENDTAB
  0
TABLE
  2
DIMSTYLE
  5
A
330
0
100
AcDbSymbolTable
 70
     2
100
AcDbDimStyleTable
  0
DIMSTYLE
105
27
330
A
100
AcDbSymbolTableRecord
100
AcDbDimStyleTableRecord
  2
ISO-25
 70
     0
 41
2.5
 42
0.625
 43
3.75
 44
1.25
 73
     0
 74
     0
 77
     1
 78
     8
140
2.5
141
2.5
143
0.0393700787
147
0.625
171
     3
172
     1
178
     0
271
     2
272
     2
274
     3
278
    44
283
     0
284
     8
340
11
  0
DIMSTYLE
105
148
102
{ACAD_REACTORS
330
146
330
152
330
15C
330
168
102
}
330
A
100
AcDbSymbolTableRecord
100
AcDbDimStyleTableRecord
  2
SLDDIMSTYLE0
 70
     0
 41
3.302
 44
0.0
 45
0.000000001
 73
     0
 74
     0
 77
     1
 78
    12
 79
     3
140
3.5
147
0.875
173
     1
178
     0
271
     2
272
     2
276
     2
284
    12
340
147
  0
ENDTAB
  0
TABLE
  2
BLOCK_RECORD
  5
1
330
0
100
AcDbSymbolTable
 70
     5
  0
BLOCK_RECORD
  5
1F
330
1
100
AcDbSymbolTableRecord
100
AcDbBlockTableRecord
  2
*Model_Space
340
22
 70
     0
280
     1
281
     0
  0
BLOCK_RECORD
  5
1B
330
1
100
AcDbSymbolTableRecord
100
AcDbBlockTableRecord
  2
*Paper_Space
340
1E
 70
     0
280
     1
281
     0
  0
BLOCK_RECORD
  5
23
330
1
100
AcDbSymbolTableRecord
100
AcDbBlockTableRecord
  2
*Paper_Space0
340
26
 70
     0
280
     1
281
     0
  0
BLOCK_RECORD
  5
149
330
1
100
AcDbSymbolTableRecord
100
AcDbBlockTableRecord
  2
_D
340
0
 70
     0
280
     1
281
     0
  0
BLOCK_RECORD
  5
153
330
1
100
AcDbSymbolTableRecord
100
AcDbBlockTableRecord
  2
_D_1
340
0
 70
     0
280
     1
281
     0
  0
BLOCK_RECORD
  5
15D
330
1
100
AcDbSymbolTableRecord
100
AcDbBlockTableRecord
  2
_D_2
340
0
 70
     0
280
     1
281
     0
  0
BLOCK_RECORD
  5
169
330
1
100
AcDbSymbolTableRecord
100
AcDbBlockTableRecord
  2
_D_3
340
0
 70
     0
280
     1
281
     0
  0
ENDTAB
  0
ENDSEC
  0
SECTION
  2
BLOCKS
  0
BLOCK
  5
20
330
1F
100
AcDbEntity
  8
0
100
AcDbBlockBegin
  2
*Model_Space
 70
     0
 10
0.0
 20
0.0
 30
0.0
  3
*Model_Space
  1

  0
ENDBLK
  5
21
330
1F
100
AcDbEntity
  8
0
100
AcDbBlockEnd
  0
BLOCK
  5
1C
330
1B
100
AcDbEntity
 67
     1
  8
0
100
AcDbBlockBegin
  2
*Paper_Space
 70
     0
 10
0.0
 20
0.0
 30
0.0
  3
*Paper_Space
  1

  0
ENDBLK
  5
1D
330
1B
100
AcDbEntity
 67
     1
  8
0
100
AcDbBlockEnd
  0
BLOCK
  5
24
330
23
100
AcDbEntity
  8
0
100
AcDbBlockBegin
  2
*Paper_Space0
 70
     0
 10
0.0
 20
0.0
 30
0.0
  3
*Paper_Space0
  1

  0
ENDBLK
  5
25
330
23
100
AcDbEntity
  8
0
100
AcDbBlockEnd
  0
BLOCK
  5
14A
330
149
100
AcDbEntity
  8
0
100
AcDbBlockBegin
  2
_D
 70
     0
 10
0.0
 20
0.0
 30
0.0
  3
_D
  1

  0
SOLID
  5
14C
330
149
100
AcDbEntity
  8
2
 62
     7
420
 16777215
100
AcDbTrace
 10
-19.9999291085
 20
32.0002015396
 30
0.0
 11
-16.6979291085
 21
31.4922015396
 31
0.0
 12
-16.6979291085
 22
32.5082015396
 32
0.0
 13
-16.6979291085
 23
32.5082015396
 33
0.0
  0
SOLID
  5
14D
330
149
100
AcDbEntity
  8
2
 62
     7
420
 16777215
100
AcDbTrace
 10
100.0000708915
 20
32.0002015396
 30
0.0
 11
96.6980708915
 21
32.5082015396
 31
0.0
 12
96.6980708915
 22
31.4922015396
 32
0.0
 13
96.6980708915
 23
31.4922015396
 33
0.0
  0
LINE
  5
14E
330
149
100
AcDbEntity
  8
2
 62
     7
420
 16777215
100
AcDbLine
 10
-19.9999291085
 20
1.0002015396
 30
0.0
 11
-19.9999291085
 21
33.0002015396
 31
0.0
  0
LINE
  5
14F
330
149
100
AcDbEntity
  8
2
 62
     7
420
 16777215
100
AcDbLine
 10
100.0000708915
 20
1.0002015396
 30
0.0
 11
100.0000708915
 21
33.0002015396
 31
0.0
  0
LINE
  5
150
330
149
100
AcDbEntity
  8
2
 62
     7
420
 16777215
100
AcDbLine
 10
-19.9999291085
 20
32.0002015396
 30
0.0
 11
100.0000708915
 21
32.0002015396
 31
0.0
  0
MTEXT
  5
151
330
149
100
AcDbEntity
  8
2
 62
     7
420
 16777215
100
AcDbMText
 10
34.6990293629
 20
36.5119384542
 30
0.0
 40
3.5
 41
0.0
 46
0.0
 71
     1
 72
     1
  1
120
  7
SLDTEXTSTYLE0
 73
     1
 44
1.0
  0
ENDBLK
  5
14B
330
149
100
AcDbEntity
  8
0
100
AcDbBlockEnd
  0
BLOCK
  5
154
330
153
100
AcDbEntity
  8
0
100
AcDbBlockBegin
  2
_D_1
 70
     0
 10
0.0
 20
0.0
 30
0.0
  3
_D_1
  1

  0
SOLID
  5
156
330
153
100
AcDbEntity
  8
2
 62
     7
420
 16777215
100
AcDbTrace
 10
100.0000708915
 20
26.0002015396
 30
0.0
 11
96.6980708915
 21
26.5082015396
 31
0.0
 12
96.6980708915
 22
25.4922015396
 32
0.0
 13
96.6980708915
 23
25.4922015396
 33
0.0
  0
SOLID
  5
157
330
153
100
AcDbEntity
  8
2
 62
     7
420
 16777215
100
AcDbTrace
 10
0.0000708915
 20
26.0002015396
 30
0.0
 11
3.3020708915
 21
25.4922015396
 31
0.0
 12
3.3020708915
 22
26.5082015396
 32
0.0
 13
3.3020708915
 23
26.5082015396
 33
0.0
  0
LINE
  5
158
330
153
100
AcDbEntity
  8
2
 62
     7
420
 16777215
100
AcDbLine
 10
100.0000708915
 20
1.0002015396
 30
0.0
 11
100.0000708915
 21
27.0002015396
 31
0.0
  0
LINE
  5
159
330
153
100
AcDbEntity
  8
2
 62
     7
420
 16777215
100
AcDbLine
 10
0.0000708915
 20
1.0002015396
 30
0.0
 11
0.0000708915
 21
27.0002015396
 31
0.0
  0
LINE
  5
15A
330
153
100
AcDbEntity
  8
2
 62
     7
420
 16777215
100
AcDbLine
 10
100.0000708915
 20
26.0002015396
 30
0.0
 11
0.0000708915
 21
26.0002015396
 31
0.0
  0
MTEXT
  5
15B
330
153
100
AcDbEntity
  8
2
 62
     7
420
 16777215
100
AcDbMText
 10
44.6990293629
 20
30.5119384542
 30
0.0
 40
3.5
 41
0.0
 46
0.0
 71
     1
 72
     1
  1
100
  7
SLDTEXTSTYLE0
 73
     1
 44
1.0
  0
ENDBLK
  5
155
330
153
100
AcDbEntity
  8
0
100
AcDbBlockEnd
  0
BLOCK
  5
15E
330
15D
100
AcDbEntity
  8
0
100
AcDbBlockBegin
  2
_D_2
 70
     0
 10
0.0
 20
0.0
 30
0.0
  3
_D_2
  1

  0
SOLID
  5
160
330
15D
100
AcDbEntity
  8
2
 62
     7
420
 16777215
100
AcDbTrace
 10
106.0000708915
 20
-4.9997984604
 30
0.0
 11
106.5080708915
 21
-1.6977984604
 31
0.0
 12
105.4920708915
 22
-1.6977984604
 32
0.0
 13
105.4920708915
 23
-1.6977984604
 33
0.0
  0
SOLID
  5
161
330
15D
100
AcDbEntity
  8
2
 62
     7
420
 16777215
100
AcDbTrace
 10
106.0000708915
 20
5.0002015396
 30
0.0
 11
105.4920708915
 21
1.6982015396
 31
0.0
 12
106.5080708915
 22
1.6982015396
 32
0.0
 13
106.5080708915
 23
1.6982015396
 33
0.0
  0
LINE
  5
162
330
15D
100
AcDbEntity
  8
2
 62
     7
420
 16777215
100
AcDbLine
 10
100.4530492641
 20
-4.9997984604
 30
0.0
 11
107.0000708915
 21
-4.9997984604
 31
0.0
  0
LINE
  5
163
330
15D
100
AcDbEntity
  8
2
 62
     7
420
 16777215
100
AcDbLine
 10
100.4530492641
 20
5.0002015396
 30
0.0
 11
107.0000708915
 21
5.0002015396
 31
0.0
  0
LINE
  5
164
330
15D
100
AcDbEntity
  8
2
 62
     7
420
 16777215
100
AcDbLine
 10
106.0000708915
 20
-4.9997984604
 30
0.0
 11
106.0000708915
 21
-23.1653892794
 31
0.0
  0
LINE
  5
165
330
15D
100
AcDbEntity
  8
2
 62
     7
420
 16777215
100
AcDbLine
 10
106.0000708915
 20
-4.9997984604
 30
0.0
 11
106.0000708915
 21
5.0002015396
 31
0.0
  0
MTEXT
  5
166
330
15D
100
AcDbEntity
  8
2
 62
     7
420
 16777215
100
AcDbMText
 10
101.4883338023
 20
-23.1653892794
 30
0.0
 40
3.5
 41
0.0
 46
0.0
 71
     1
 72
     1
  1
%%c
  7
SLDTEXTSTYLE0
 11
6.123233995736766E-17
 21
1.0
 31
0.0
 73
     1
 44
1.0
  0
MTEXT
  5
167
330
15D
100
AcDbEntity
  8
2
 62
     7
420
 16777215
100
AcDbMText
 10
101.4348616256
 20
-17.886951881
 30
0.0
 40
3.5
 41
0.0
 46
0.0
 71
     1
 72
     1
  1
10
  7
SLDTEXTSTYLE0
 11
6.123233995736766E-17
 21
1.0
 31
0.0
 73
     1
 44
1.0
  0
ENDBLK
  5
15F
330
15D
100
AcDbEntity
  8
0
100
AcDbBlockEnd
  0
BLOCK
  5
16A
330
169
100
AcDbEntity
  8
0
100
AcDbBlockBegin
  2
_D_3
 70
     0
 10
0.0
 20
0.0
 30
0.0
  3
_D_3
  1

  0
SOLID
  5
16C
330
169
100
AcDbEntity
  8
2
 62
     7
420
 16777215
100
AcDbTrace
 10
118.0000708915
 20
12.0002016529
 30
0.0
 11
117.4920708915
 21
8.6982016529
 31
0.0
 12
118.5080708915
 22
8.6982016529
 32
0.0
 13
118.5080708915
 23
8.6982016529
 33
0.0
  0
SOLID
  5
16D
330
169
100
AcDbEntity
  8
2
 62
     7
420
 16777215
100
AcDbTrace
 10
118.0000708915
 20
-11.9997985737
 30
0.0
 11
118.5080708915
 21
-8.6977985737
 31
0.0
 12
117.4920708915
 22
-8.6977985737
 32
0.0
 13
117.4920708915
 23
-8.6977985737
 33
0.0
  0
LINE
  5
16E
330
169
100
AcDbEntity
  8
2
 62
     7
420
 16777215
100
AcDbLine
 10
100.0393012418
 20
12.0002016529
 30
0.0
 11
119.0000708915
 21
12.0002016529
 31
0.0
  0
LINE
  5
16F
330
169
100
AcDbEntity
  8
2
 62
     7
420
 16777215
100
AcDbLine
 10
100.0393012418
 20
-11.9997985737
 30
0.0
 11
119.0000708915
 21
-11.9997985737
 31
0.0
  0
LINE
  5
170
330
169
100
AcDbEntity
  8
2
 62
     7
420
 16777215
100
AcDbLine
 10
118.0000708915
 20
12.0002016529
 30
0.0
 11
118.0000708915
 21
-11.9997985737
 31
0.0
  0
MTEXT
  5
171
330
169
100
AcDbEntity
  8
2
 62
     7
420
 16777215
100
AcDbMText
 10
113.4883338023
 20
-6.6470034406
 30
0.0
 40
3.5
 41
0.0
 46
0.0
 71
     1
 72
     1
  1
%%c
  7
SLDTEXTSTYLE0
 11
-7.044195017643634E-15
 21
1.0
 31
0.0
 73
     1
 44
1.0
  0
MTEXT
  5
172
330
169
100
AcDbEntity
  8
2
 62
     7
420
 16777215
100
AcDbMText
 10
113.4348616256
 20
-1.3685660423
 30
0.0
 40
3.5
 41
0.0
 46
0.0
 71
     1
 72
     1
  1
24
  7
SLDTEXTSTYLE0
 11
-7.044195017643634E-15
 21
1.0
 31
0.0
 73
     1
 44
1.0
  0
ENDBLK
  5
16B
330
169
100
AcDbEntity
  8
0
100
AcDbBlockEnd
  0
ENDSEC
  0
SECTION
  2
ENTITIES
  0
LINE
  5
48
330
1F
100
AcDbEntity
  8
0
  6
SLD-Punktstrich
 62
     7
100
AcDbLine
 10
-19.9999291085
 20
0.0002015396
 30
0.0
 11
100.0000708915
 21
0.0002015396
 31
0.0
  0
POINT
  5
49
330
1F
100
AcDbEntity
  8
1
 62
     4
420
    65535
100
AcDbPoint
 10
-19.9999291085
 20
0.0002015396
 30
0.0
  0
POINT
  5
4A
330
1F
100
AcDbEntity
  8
1
 62
     4
420
    65535
100
AcDbPoint
 10
100.0000708915
 20
0.0002015396
 30
0.0
  0
POINT
  5
4B
330
1F
100
AcDbEntity
  8
1
 62
     4
420
    65535
100
AcDbPoint
 10
0.0000708915
 20
0.0002015396
 30
0.0
  0
POINT
  5
4C
330
1F
100
AcDbEntity
  8
1
 62
     4
420
    65535
100
AcDbPoint
 10
100.0000708915
 20
0.0002015396
 30
0.0
  0
LINE
  5
4D
330
1F
100
AcDbEntity
  8
1
 62
     4
420
    65535
100
AcDbLine
 10
81.4000689184
 20
10.6627015486
 30
0.0
 11
77.6000730073
 21
10.6627015486
 31
0.0
  0
LINE
  5
4E
330
1F
100
AcDbEntity
  8
1
 62
     4
420
    65535
100
AcDbLine
 10
77.6000730073
 20
-10.6622984694
 30
0.0
 11
81.4000689184
 21
-10.6622984694
 31
0.0
  0
LINE
  5
4F
330
1F
100
AcDbEntity
  8
1
 62
     4
420
    65535
100
AcDbLine
 10
81.8980359651
 20
9.8002018738
 30
0.0
 11
81.4000689184
 21
10.6627015486
 31
0.0
  0
LINE
  5
50
330
1F
100
AcDbEntity
  8
1
 62
     4
420
    65535
100
AcDbLine
 10
81.4000689184
 20
-10.6622984694
 30
0.0
 11
81.8980359651
 21
-9.7997987946
 31
0.0
  0
LINE
  5
51
330
1F
100
AcDbEntity
  8
1
 62
     4
420
    65535
100
AcDbLine
 10
89.6000736572
 20
9.8002018738
 30
0.0
 11
81.8980359651
 21
9.8002018738
 31
0.0
  0
LINE
  5
52
330
1F
100
AcDbEntity
  8
1
 62
     4
420
    65535
100
AcDbLine
 10
81.8980359651
 20
-9.7997987946
 30
0.0
 11
89.6000736572
 21
-9.7997987946
 31
0.0
  0
LINE
  5
53
330
1F
100
AcDbEntity
  8
1
 62
     4
420
    65535
100
AcDbLine
 10
89.9375700571
 20
9.4627017486
 30
0.0
 11
89.6000736572
 21
9.8002018738
 31
0.0
  0
LINE
  5
54
330
1F
100
AcDbEntity
  8
1
 62
     4
420
    65535
100
AcDbLine
 10
89.6000736572
 20
-9.7997987946
 30
0.0
 11
89.9375700571
 21
-9.4622986694
 31
0.0
  0
LINE
  5
55
330
1F
100
AcDbEntity
  8
1
 62
     4
420
    65535
100
AcDbLine
 10
93.4000709799
 20
9.4627017486
 30
0.0
 11
89.9375700571
 21
9.4627017486
 31
0.0
  0
LINE
  5
56
330
1F
100
AcDbEntity
  8
1
 62
     4
420
    65535
100
AcDbLine
 10
89.9375700571
 20
-9.4622986694
 30
0.0
 11
93.4000709799
 21
-9.4622986694
 31
0.0
  0
ARC
  5
57
330
1F
100
AcDbEntity
  8
1
 62
     4
420
    65535
100
AcDbCircle
 10
77.6000730073
 20
11.4627015486
 30
0.0
 40
0.8000000000000256
100
AcDbArc
 50
180.0
 51
270.0
  0
ARC
  5
58
330
1F
100
AcDbEntity
  8
1
 62
     4
420
    65535
100
AcDbCircle
 10
77.6000730073
 20
-11.4622984694
 30
0.0
 40
0.8000000000000256
100
AcDbArc
 50
90.0
 51
180.0
  0
LINE
  5
59
330
1F
100
AcDbEntity
  8
1
 62
     4
420
    65535
100
AcDbLine
 10
94.5343879105
 20
8.2002017486
 30
0.0
 11
94.3000709799
 21
8.2002017486
 31
0.0
  0
LINE
  5
5A
330
1F
100
AcDbEntity
  8
1
 62
     4
420
    65535
100
AcDbLine
 10
94.3000709799
 20
-8.1997986694
 30
0.0
 11
94.5343879105
 21
-8.1997986694
 31
0.0
  0
LINE
  5
5B
330
1F
100
AcDbEntity
  8
1
 62
     4
420
    65535
100
AcDbLine
 10
94.8172306229
 20
-8.3169559569
 30
0.0
 11
95.0280896846
 21
-8.5278150186
 31
0.0
  0
LINE
  5
5C
330
1F
100
AcDbEntity
  8
1
 62
     4
420
    65535
100
AcDbLine
 10
95.0280896846
 20
8.5282180979
 30
0.0
 11
94.8172306229
 21
8.3173590361
 31
0.0
  0
ARC
  5
5D
330
1F
100
AcDbEntity
  8
1
 62
     4
420
    65535
100
AcDbCircle
 10
93.4000709799
 20
9.0627017486
 30
0.0
 40
0.400000000000011
100
AcDbArc
 50
0.0
 51
90.0
  0
ARC
  5
5E
330
1F
100
AcDbEntity
  8
1
 62
     4
420
    65535
100
AcDbCircle
 10
93.4000709799
 20
-9.0622986694
 30
0.0
 40
0.400000000000011
100
AcDbArc
 50
270.0
 51
0.0
  0
ARC
  5
5F
330
1F
100
AcDbEntity
  8
1
 62
     4
420
    65535
100
AcDbCircle
 10
94.5343879105
 20
8.6002017486
 30
0.0
 40
0.399999999999995
100
AcDbArc
 50
270.0
 51
315.0
  0
ARC
  5
60
330
1F
100
AcDbEntity
  8
1
 62
     4
420
    65535
100
AcDbCircle
 10
94.5343879105
 20
-8.5997986694
 30
0.0
 40
0.399999999999995
100
AcDbArc
 50
45.0
 51
90.0
  0
ARC
  5
61
330
1F
100
AcDbEntity
  8
1
 62
     4
420
    65535
100
AcDbCircle
 10
94.3000709799
 20
8.7002017486
 30
0.0
 40
0.4999999999999716
100
AcDbArc
 50
180.0
 51
270.0
  0
ARC
  5
62
330
1F
100
AcDbEntity
  8
1
 62
     4
420
    65535
100
AcDbCircle
 10
94.3000709799
 20
-8.6997986694
 30
0.0
 40
0.4999999999999716
100
AcDbArc
 50
90.0
 51
180.0
  0
LINE
  5
63
330
1F
100
AcDbEntity
  8
1
 62
     4
420
    65535
100
AcDbLine
 10
99.3408436955
 20
6.3805864354
 30
0.0
 11
95.5109323152
 21
8.5917855942
 31
0.0
  0
LINE
  5
64
330
1F
100
AcDbEntity
  8
1
 62
     4
420
    65535
100
AcDbLine
 10
95.5109323152
 20
-8.591382515
 30
0.0
 11
99.3408436955
 21
-6.3801833562
 31
0.0
  0
LINE
  5
65
330
1F
100
AcDbEntity
  8
1
 62
     4
420
    65535
100
AcDbLine
 10
99.800067506
 20
6.3002017486
 30
0.0
 11
99.6408435726
 21
6.3002017486
 31
0.0
  0
LINE
  5
66
330
1F
100
AcDbEntity
  8
1
 62
     4
420
    65535
100
AcDbLine
 10
99.6408435726
 20
-6.2997986694
 30
0.0
 11
99.800067506
 21
-6.2997986694
 31
0.0
  0
ARC
  5
67
330
1F
100
AcDbEntity
  8
1
 62
     4
420
    65535
100
AcDbCircle
 10
99.6408435726
 20
6.9002017486
 30
0.0
 40
0.6000000000000298
100
AcDbArc
 50
240.0000135492
 51
270.0
  0
ARC
  5
68
330
1F
100
AcDbEntity
  8
1
 62
     4
420
    65535
100
AcDbCircle
 10
99.6408435726
 20
-6.8997986694
 30
0.0
 40
0.600000000000029
100
AcDbArc
 50
90.0
 51
119.9999864508
  0
LINE
  5
69
330
1F
100
AcDbEntity
  8
1
 62
     4
420
    65535
100
AcDbLine
 10
99.800067506
 20
-6.2997986694
 30
0.0
 11
100.0000708915
 21
-6.4997987953
 31
0.0
  0
LINE
  5
6A
330
1F
100
AcDbEntity
  8
1
 62
     4
420
    65535
100
AcDbLine
 10
100.0000708915
 20
6.5002018745
 30
0.0
 11
99.800067506
 21
6.3002017486
 31
0.0
  0
ARC
  5
6B
330
1F
100
AcDbEntity
  8
1
 62
     4
420
    65535
100
AcDbCircle
 10
95.3109323971
 20
8.2453753854
 30
0.0
 40
0.4000000000000369
100
AcDbArc
 50
60.0000135492
 51
135.0
  0
ARC
  5
6C
330
1F
100
AcDbEntity
  8
1
 62
     4
420
    65535
100
AcDbCircle
 10
95.3109323971
 20
-8.2449723062
 30
0.0
 40
0.4000000000000382
100
AcDbArc
 50
225.0
 51
299.9999864508
  0
LINE
  5
6D
330
1F
100
AcDbEntity
  8
1
 62
     4
420
    65535
100
AcDbLine
 10
100.0000708915
 20
11.538321511
 30
0.0
 11
99.3393011528
 21
11.9198169466
 31
0.0
  0
LINE
  5
6E
330
1F
100
AcDbEntity
  8
1
 62
     4
420
    65535
100
AcDbLine
 10
99.3393011528
 20
-11.9194138674
 30
0.0
 11
100.0000708915
 21
-11.5379184318
 31
0.0
  0
LINE
  5
6F
330
1F
100
AcDbEntity
  8
1
 62
     4
420
    65535
100
AcDbLine
 10
99.0393012418
 20
12.0002016529
 30
0.0
 11
90.0000731283
 21
12.0002016529
 31
0.0
  0
LINE
  5
70
330
1F
100
AcDbEntity
  8
1
 62
     4
420
    65535
100
AcDbLine
 10
90.0000731283
 20
-11.9997985737
 30
0.0
 11
99.0393012418
 21
-11.9997985737
 31
0.0
  0
LINE
  5
71
330
1F
100
AcDbEntity
  8
1
 62
     4
420
    65535
100
AcDbLine
 10
89.6000741417
 20
12.1073807448
 30
0.0
 11
88.9273755944
 21
12.4957621201
 31
0.0
  0
LINE
  5
72
330
1F
100
AcDbEntity
  8
1
 62
     4
420
    65535
100
AcDbLine
 10
88.9273755944
 20
-12.4953590409
 30
0.0
 11
89.6000741417
 21
-12.1069776655
 31
0.0
  0
LINE
  5
73
330
1F
100
AcDbEntity
  8
1
 62
     4
420
    65535
100
AcDbLine
 10
88.9273755944
 20
12.4957621201
 30
0.0
 11
87.5014089612
 21
12.607988192
 31
0.0
  0
LINE
  5
74
330
1F
100
AcDbEntity
  8
1
 62
     4
420
    65535
100
AcDbLine
 10
87.5014089612
 20
-12.6075851128
 30
0.0
 11
88.9273755944
 21
-12.4953590409
 31
0.0
  0
ARC
  5
75
330
1F
100
AcDbEntity
  8
1
 62
     4
420
    65535
100
AcDbCircle
 10
90.0000731283
 20
12.8002016529
 30
0.0
 40
0.8000000000000842
100
AcDbArc
 50
240.0000838136
 51
270.0
  0
ARC
  5
76
330
1F
100
AcDbEntity
  8
1
 62
     4
420
    65535
100
AcDbCircle
 10
90.0000731283
 20
-12.7997985737
 30
0.0
 40
0.800000000000086
100
AcDbArc
 50
90.0
 51
119.9999161864
  0
ARC
  5
77
330
1F
100
AcDbEntity
  8
1
 62
     4
420
    65535
100
AcDbCircle
 10
99.0393012418
 20
11.4002016529
 30
0.0
 40
0.6000000000002537
100
AcDbArc
 50
60.0000098159
 51
90.0
  0
ARC
  5
78
330
1F
100
AcDbEntity
  8
1
 62
     4
420
    65535
100
AcDbCircle
 10
99.0393012418
 20
-11.3997985737
 30
0.0
 40
0.6000000000002537
100
AcDbArc
 50
270.0
 51
299.9999901841
  0
LINE
  5
79
330
1F
100
AcDbEntity
  8
1
 62
     4
420
    65535
100
AcDbLine
 10
86.7087351113
 20
12.6703730126
 30
0.0
 11
85.0091152591
 21
12.8041360722
 31
0.0
  0
LINE
  5
7A
330
1F
100
AcDbEntity
  8
1
 62
     4
420
    65535
100
AcDbLine
 10
85.0091152591
 20
-12.803732993
 30
0.0
 11
86.7087351113
 21
-12.6699699333
 31
0.0
  0
ARC
  5
7B
330
1F
100
AcDbEntity
  8
1
 62
     4
420
    65535
100
AcDbCircle
 10
87.1403301523
 20
13.0871771879
 30
0.0
 40
0.5999999999991267
100
AcDbArc
 50
224.0012150894
 51
306.9987797974
  0
ARC
  5
7C
330
1F
100
AcDbEntity
  8
1
 62
     4
420
    65535
100
AcDbCircle
 10
87.1403301523
 20
-13.0867741087
 30
0.0
 40
0.5999999999991281
100
AcDbArc
 50
53.0012202026
 51
135.9987849106
  0
LINE
  5
7D
330
1F
100
AcDbEntity
  8
1
 62
     4
420
    65535
100
AcDbLine
 10
84.2164417857
 20
12.8665208631
 30
0.0
 11
82.5168215571
 21
13.0002839524
 31
0.0
  0
LINE
  5
7E
330
1F
100
AcDbEntity
  8
1
 62
     4
420
    65535
100
AcDbLine
 10
82.5168215571
 20
-12.9998808731
 30
0.0
 11
84.2164417857
 21
-12.8661177839
 31
0.0
  0
ARC
  5
7F
330
1F
100
AcDbEntity
  8
1
 62
     4
420
    65535
100
AcDbCircle
 10
84.6480366516
 20
13.2833252198
 30
0.0
 40
0.6000000000013259
100
AcDbArc
 50
224.0012391697
 51
306.998755717
  0
ARC
  5
80
330
1F
100
AcDbEntity
  8
1
 62
     4
420
    65535
100
AcDbCircle
 10
84.6480366516
 20
-13.2829221406
 30
0.0
 40
0.6000000000013259
100
AcDbArc
 50
53.001244283
 51
135.9987608303
  0
LINE
  5
81
330
1F
100
AcDbEntity
  8
1
 62
     4
420
    65535
100
AcDbLine
 10
81.724146856
 20
13.0626688399
 30
0.0
 11
80.02454281
 21
13.1964306555
 31
0.0
  0
LINE
  5
82
330
1F
100
AcDbEntity
  8
1
 62
     4
420
    65535
100
AcDbLine
 10
80.02454281
 20
-13.1960275763
 30
0.0
 11
81.724146856
 21
-13.0622657607
 31
0.0
  0
ARC
  5
83
330
1F
100
AcDbEntity
  8
1
 62
     4
420
    65535
100
AcDbCircle
 10
82.155742293
 20
13.4794726052
 30
0.0
 40
0.5999999999997887
100
AcDbArc
 50
224.001160663
 51
306.9988342237
  0
ARC
  5
84
330
1F
100
AcDbEntity
  8
1
 62
     4
420
    65535
100
AcDbCircle
 10
82.155742293
 20
-13.479069526
 30
0.0
 40
0.5999999999997887
100
AcDbArc
 50
53.0011657763
 51
135.998839337
  0
LINE
  5
85
330
1F
100
AcDbEntity
  8
1
 62
     4
420
    65535
100
AcDbLine
 10
79.2318307941
 20
13.2588184798
 30
0.0
 11
76.9994579947
 21
13.4345101296
 31
0.0
  0
LINE
  5
86
330
1F
100
AcDbEntity
  8
1
 62
     4
420
    65535
100
AcDbLine
 10
76.9994579947
 20
-13.4341070504
 30
0.0
 11
79.2318307941
 21
-13.2584154006
 31
0.0
  0
ARC
  5
87
330
1F
100
AcDbEntity
  8
1
 62
     4
420
    65535
100
AcDbCircle
 10
79.6634435894
 20
13.6756042701
 30
0.0
 40
0.6000000000055535
100
AcDbArc
 50
223.9987744559
 51
307.0012204308
  0
ARC
  5
88
330
1F
100
AcDbEntity
  8
1
 62
     4
420
    65535
100
AcDbCircle
 10
79.6634435894
 20
-13.6752011908
 30
0.0
 40
0.6000000000055535
100
AcDbArc
 50
52.9987795692
 51
136.0012255441
  0
LINE
  5
89
330
1F
100
AcDbEntity
  8
1
 62
     4
420
    65535
100
AcDbLine
 10
76.8000730073
 20
-13.2638175116
 30
0.0
 11
76.9994579947
 21
-13.4341070504
 31
0.0
  0
LINE
  5
8A
330
1F
100
AcDbEntity
  8
1
 62
     4
420
    65535
100
AcDbLine
 10
76.9994579947
 20
13.4345101296
 30
0.0
 11
76.8000730073
 21
13.2642205908
 31
0.0
  0
LINE
  5
8B
330
1F
100
AcDbEntity
  8
1
 62
     4
420
    65535
100
AcDbLine
 10
-0.3940899497
 20
14.7752015396
 30
0.0
 11
-1.3013223677
 21
14.7752015396
 31
0.0
  0
LINE
  5
8C
330
1F
100
AcDbEntity
  8
1
 62
     4
420
    65535
100
AcDbLine
 10
-1.3013223677
 20
-14.7747984604
 30
0.0
 11
-0.3940899497
 21
-14.7747984604
 31
0.0
  0
ARC
  5
8D
330
1F
100
AcDbEntity
  8
1
 62
     4
420
    65535
100
AcDbCircle
 10
-1.3013223677
 20
15.3752015396
 30
0.0
 40
0.6000000000000019
100
AcDbArc
 50
255.0
 51
270.0
  0
ARC
  5
8E
330
1F
100
AcDbEntity
  8
1
 62
     4
420
    65535
100
AcDbCircle
 10
-1.3013223677
 20
-15.3747984604
 30
0.0
 40
0.6000000000000019
100
AcDbArc
 50
90.0
 51
105.0
  0
LINE
  5
8F
330
1F
100
AcDbEntity
  8
1
 62
     4
420
    65535
100
AcDbLine
 10
0.2000708915
 20
15.4587054002
 30
0.0
 11
0.0000708915
 21
16.8817793447
 31
0.0
  0
LINE
  5
90
330
1F
100
AcDbEntity
  8
1
 62
     4
420
    65535
100
AcDbLine
 10
0.0000708915
 20
-16.8813762654
 30
0.0
 11
0.2000708915
 21
-15.458302321
 31
0.0
  0
LINE
  5
91
330
1F
100
AcDbEntity
  8
1
 62
     4
420
    65535
100
AcDbLine
 10
13.9793449493
 20
20.0002015396
 30
0.0
 11
0.0000708915
 21
20.0002015396
 31
0.0
  0
LINE
  5
92
330
1F
100
AcDbEntity
  8
1
 62
     4
420
    65535
100
AcDbLine
 10
0.0000708915
 20
-19.9997984604
 30
0.0
 11
13.9793449493
 21
-19.9997984604
 31
0.0
  0
LINE
  5
93
330
1F
100
AcDbEntity
  8
1
 62
     4
420
    65535
100
AcDbLine
 10
15.0000708915
 20
18.2322523472
 30
0.0
 11
13.9793449493
 21
20.0002015396
 31
0.0
  0
LINE
  5
94
330
1F
100
AcDbEntity
  8
1
 62
     4
420
    65535
100
AcDbLine
 10
13.9793449493
 20
-19.9997984604
 30
0.0
 11
15.0000708915
 21
-18.231849268
 31
0.0
  0
LINE
  5
95
330
1F
100
AcDbEntity
  8
1
 62
     4
420
    65535
100
AcDbLine
 10
0.2059100503
 20
-15.3747984604
 30
0.0
 11
0.2059100503
 21
15.3752015396
 31
0.0
  0
LINE
  5
96
330
1F
100
AcDbEntity
  8
1
 62
     4
420
    65535
100
AcDbLine
 10
0.2059100503
 20
-15.3747984604
 30
0.0
 11
0.2059100503
 21
15.3752015396
 31
0.0
  0
ARC
  5
97
330
1F
100
AcDbEntity
  8
1
 62
     4
420
    65535
100
AcDbCircle
 10
-0.3940899497
 20
15.3752015396
 30
0.0
 40
0.5999999999999996
100
AcDbArc
 50
270.0
 51
0.0
  0
ARC
  5
98
330
1F
100
AcDbEntity
  8
1
 62
     4
420
    65535
100
AcDbCircle
 10
-0.3940899497
 20
15.3752015396
 30
0.0
 40
0.5999999999999963
100
AcDbArc
 50
0.0
 51
8.0
  0
ARC
  5
99
330
1F
100
AcDbEntity
  8
1
 62
     4
420
    65535
100
AcDbCircle
 10
-0.3940899497
 20
-15.3747984604
 30
0.0
 40
0.5999999999999979
100
AcDbArc
 50
0.0
 51
90.0
  0
ARC
  5
9A
330
1F
100
AcDbEntity
  8
1
 62
     4
420
    65535
100
AcDbCircle
 10
-0.3940899497
 20
-15.3747984604
 30
0.0
 40
0.5999999999999963
100
AcDbArc
 50
352.0
 51
0.0
  0
LINE
  5
9B
330
1F
100
AcDbEntity
  8
1
 62
     4
420
    65535
100
AcDbLine
 10
16.4000708915
 20
17.4002015396
 30
0.0
 11
15.6000708915
 21
17.4002015396
 31
0.0
  0
LINE
  5
9C
330
1F
100
AcDbEntity
  8
1
 62
     4
420
    65535
100
AcDbLine
 10
15.6000708915
 20
-17.3997984604
 30
0.0
 11
16.4000708915
 21
-17.3997984604
 31
0.0
  0
LINE
  5
9D
330
1F
100
AcDbEntity
  8
1
 62
     4
420
    65535
100
AcDbLine
 10
17.0000708915
 20
-18.231849268
 30
0.0
 11
18.0207968337
 21
-19.9997984604
 31
0.0
  0
LINE
  5
9E
330
1F
100
AcDbEntity
  8
1
 62
     4
420
    65535
100
AcDbLine
 10
18.0207968337
 20
20.0002015396
 30
0.0
 11
17.0000708915
 21
18.2322523472
 31
0.0
  0
LINE
  5
9F
330
1F
100
AcDbEntity
  8
1
 62
     4
420
    65535
100
AcDbLine
 10
20.0000708915
 20
20.0002015396
 30
0.0
 11
18.0207968337
 21
20.0002015396
 31
0.0
  0
LINE
  5
A0
330
1F
100
AcDbEntity
  8
1
 62
     4
420
    65535
100
AcDbLine
 10
18.0207968337
 20
-19.9997984604
 30
0.0
 11
20.0000708915
 21
-19.9997984604
 31
0.0
  0
ARC
  5
A1
330
1F
100
AcDbEntity
  8
1
 62
     4
420
    65535
100
AcDbCircle
 10
15.6000708915
 20
18.0002015396
 30
0.0
 40
0.6000000000000014
100
AcDbArc
 50
180.0
 51
270.0
  0
ARC
  5
A2
330
1F
100
AcDbEntity
  8
1
 62
     4
420
    65535
100
AcDbCircle
 10
15.6000708915
 20
-17.9997984604
 30
0.0
 40
0.5999999999999996
100
AcDbArc
 50
90.0
 51
180.0
  0
ARC
  5
A3
330
1F
100
AcDbEntity
  8
1
 62
     4
420
    65535
100
AcDbCircle
 10
16.4000708915
 20
18.0002015396
 30
0.0
 40
0.6000000000000014
100
AcDbArc
 50
270.0
 51
0.0
  0
ARC
  5
A4
330
1F
100
AcDbEntity
  8
1
 62
     4
420
    65535
100
AcDbCircle
 10
16.4000708915
 20
-17.9997984604
 30
0.0
 40
0.6000000000000014
100
AcDbArc
 50
0.0
 51
90.0
  0
LINE
  5
A5
330
1F
100
AcDbEntity
  8
1
 62
     4
420
    65535
100
AcDbLine
 10
-19.4298916787
 20
-14.2283003319
 30
0.0
 11
-2.4999291085
 21
-15.0747984604
 31
0.0
  0
LINE
  5
A6
330
1F
100
AcDbEntity
  8
1
 62
     4
420
    65535
100
AcDbLine
 10
-2.4999291085
 20
15.0752015396
 30
0.0
 11
-19.4298916787
 21
14.2287034111
 31
0.0
  0
LINE
  5
A7
330
1F
100
AcDbEntity
  8
1
 62
     4
420
    65535
100
AcDbLine
 10
-1.4566137947
 20
14.7956460438
 30
0.0
 11
-2.4999291085
 21
15.0752015396
 31
0.0
  0
LINE
  5
A8
330
1F
100
AcDbEntity
  8
1
 62
     4
420
    65535
100
AcDbLine
 10
-2.4999291085
 20
-15.0747984604
 30
0.0
 11
-1.4566137947
 21
-14.7952429646
 31
0.0
  0
LINE
  5
A9
330
1F
100
AcDbEntity
  8
1
 62
     4
420
    65535
100
AcDbLine
 10
-19.4298916787
 20
10.5002015396
 30
0.0
 11
-19.9999291085
 21
11.0702389694
 31
0.0
  0
LINE
  5
AA
330
1F
100
AcDbEntity
  8
1
 62
     4
420
    65535
100
AcDbLine
 10
-19.9999291085
 20
-11.0698358902
 30
0.0
 11
-19.4298916787
 21
-10.4997984604
 31
0.0
  0
LINE
  5
AB
330
1F
100
AcDbEntity
  8
1
 62
     4
420
    65535
100
AcDbLine
 10
-19.4298916787
 20
-10.4997984604
 30
0.0
 11
-11.9972793777
 21
-10.4997984604
 31
0.0
  0
LINE
  5
AC
330
1F
100
AcDbEntity
  8
1
 62
     4
420
    65535
100
AcDbLine
 10
-11.9972793777
 20
10.5002015396
 30
0.0
 11
-19.4298916787
 21
10.5002015396
 31
0.0
  0
LINE
  5
AD
330
1F
100
AcDbEntity
  8
1
 62
     4
420
    65535
100
AcDbLine
 10
-11.9972793777
 20
-10.4997984604
 30
0.0
 11
-10.8137113258
 21
-12.5497984604
 31
0.0
  0
LINE
  5
AE
330
1F
100
AcDbEntity
  8
1
 62
     4
420
    65535
100
AcDbLine
 10
-10.8137113258
 20
12.5502015396
 30
0.0
 11
-11.9972793777
 21
10.5002015396
 31
0.0
  0
ARC
  5
AF
330
1F
100
AcDbEntity
  8
1
 62
     4
420
    65535
100
AcDbCircle
 10
-19.3999291085
 20
13.6294520078
 30
0.0
 40
0.600000000000005
100
AcDbArc
 50
92.8624052261
 51
180.0
  0
ARC
  5
B0
330
1F
100
AcDbEntity
  8
1
 62
     4
420
    65535
100
AcDbCircle
 10
-19.3999291085
 20
-13.6290489286
 30
0.0
 40
0.600000000000005
100
AcDbArc
 50
180.0
 51
267.1375947739
  0
LINE
  5
B1
330
1F
100
AcDbEntity
  8
1
 62
     4
420
    65535
100
AcDbLine
 10
-10.4673011643
 20
-12.7497984604
 30
0.0
 11
-4.1757523806
 21
-12.7497984604
 31
0.0
  0
LINE
  5
B2
330
1F
100
AcDbEntity
  8
1
 62
     4
420
    65535
100
AcDbLine
 10
-4.1757523806
 20
12.7502015396
 30
0.0
 11
-10.4673011643
 21
12.7502015396
 31
0.0
  0
LINE
  5
B3
330
1F
100
AcDbEntity
  8
1
 62
     4
420
    65535
100
AcDbLine
 10
0.0000708915
 20
-10.4997984604
 30
0.0
 11
8.0000708915
 21
-10.4997984604
 31
0.0
  0
LINE
  5
B4
330
1F
100
AcDbEntity
  8
1
 62
     4
420
    65535
100
AcDbLine
 10
8.0000708915
 20
10.5002015396
 30
0.0
 11
0.0000708915
 21
10.5002015396
 31
0.0
  0
LINE
  5
B5
330
1F
100
AcDbEntity
  8
1
 62
     4
420
    65535
100
AcDbLine
 10
8.0000708915
 20
-2.4997984604
 30
0.0
 11
20.0000708915
 21
-2.4997984604
 31
0.0
  0
LINE
  5
B6
330
1F
100
AcDbEntity
  8
1
 62
     4
420
    65535
100
AcDbLine
 10
20.0000708915
 20
2.5002015396
 30
0.0
 11
8.0000708915
 21
2.5002015396
 31
0.0
  0
ARC
  5
B7
330
1F
100
AcDbEntity
  8
1
 62
     4
420
    65535
100
AcDbCircle
 10
-10.4673011643
 20
-12.3497984604
 30
0.0
 40
0.3999999999999986
100
AcDbArc
 50
210.0
 51
270.0
  0
ARC
  5
B8
330
1F
100
AcDbEntity
  8
1
 62
     4
420
    65535
100
AcDbCircle
 10
-10.4673011643
 20
12.3502015396
 30
0.0
 40
0.3999999999999986
100
AcDbArc
 50
90.0
 51
150.0
  0
LINE
  5
B9
330
1F
100
AcDbEntity
  8
1
 62
     4
420
    65535
100
AcDbLine
 10
67.4932473518
 20
5.1002017236
 30
0.0
 11
20.0000708915
 21
5.1002017236
 31
0.0
  0
LINE
  5
BA
330
1F
100
AcDbEntity
  8
1
 62
     4
420
    65535
100
AcDbLine
 10
20.0000708915
 20
-5.0997986444
 30
0.0
 11
67.4932473518
 21
-5.0997986444
 31
0.0
  0
ARC
  5
BB
330
1F
100
AcDbEntity
  8
1
 62
     4
420
    65535
100
AcDbCircle
 10
-4.1757523806
 20
-7.7497984604
 30
0.0
 40
5.000000000000002
100
AcDbArc
 50
270.0
 51
326.6329870308
  0
ARC
  5
BC
330
1F
100
AcDbEntity
  8
1
 62
     4
420
    65535
100
AcDbCircle
 10
-4.1757523806
 20
7.7502015396
 30
0.0
 40
5.000000000000002
100
AcDbArc
 50
33.3670129692
 51
90.0
  0
LINE
  5
BD
330
1F
100
AcDbEntity
  8
1
 62
     4
420
    65535
100
AcDbLine
 10
67.4932473518
 20
-5.0997986444
 30
0.0
 11
67.7530565478
 21
-5.5497983456
 31
0.0
  0
LINE
  5
BE
330
1F
100
AcDbEntity
  8
1
 62
     4
420
    65535
100
AcDbLine
 10
67.7530565478
 20
5.5502014248
 30
0.0
 11
67.4932473518
 21
5.1002017236
 31
0.0
  0
LINE
  5
BF
330
1F
100
AcDbEntity
  8
1
 62
     4
420
    65535
100
AcDbLine
 10
71.7627131558
 20
5.5502014248
 30
0.0
 11
67.7530565478
 21
5.5502014248
 31
0.0
  0
LINE
  5
C0
330
1F
100
AcDbEntity
  8
1
 62
     4
420
    65535
100
AcDbLine
 10
67.7530565478
 20
-5.5497983456
 30
0.0
 11
71.7627131558
 21
-5.5497983456
 31
0.0
  0
LINE
  5
C1
330
1F
100
AcDbEntity
  8
1
 62
     4
420
    65535
100
AcDbLine
 10
71.7627131558
 20
-5.5497983456
 30
0.0
 11
92.3226416008
 21
-8.4393075367
 31
0.0
  0
LINE
  5
C2
330
1F
100
AcDbEntity
  8
1
 62
     4
420
    65535
100
AcDbLine
 10
92.3226416008
 20
8.4397106159
 30
0.0
 11
71.7627131558
 21
5.5502014248
 31
0.0
  0
LINE
  5
C3
330
1F
100
AcDbEntity
  8
1
 62
     4
420
    65535
100
AcDbLine
 10
92.7530550577
 20
9.2502016588
 30
0.0
 11
92.5530516721
 21
9.450201319
 31
0.0
  0
LINE
  5
C4
330
1F
100
AcDbEntity
  8
1
 62
     4
420
    65535
100
AcDbLine
 10
92.5530516721
 20
-9.4497982398
 30
0.0
 11
92.7530550577
 21
-9.2497985796
 31
0.0
  0
LINE
  5
C5
330
1F
100
AcDbEntity
  8
1
 62
     4
420
    65535
100
AcDbLine
 10
92.5530516721
 20
9.450201319
 30
0.0
 11
87.7530523755
 21
9.450201319
 31
0.0
  0
LINE
  5
C6
330
1F
100
AcDbEntity
  8
1
 62
     4
420
    65535
100
AcDbLine
 10
87.7530523755
 20
-9.4497982398
 30
0.0
 11
92.5530516721
 21
-9.4497982398
 31
0.0
  0
LINE
  5
C7
330
1F
100
AcDbEntity
  8
1
 62
     4
420
    65535
100
AcDbLine
 10
87.7530523755
 20
9.450201319
 30
0.0
 11
87.1468358852
 21
10.500201398
 31
0.0
  0
LINE
  5
C8
330
1F
100
AcDbEntity
  8
1
 62
     4
420
    65535
100
AcDbLine
 10
87.1468358852
 20
-10.4997983188
 30
0.0
 11
87.7530523755
 21
-9.4497982398
 31
0.0
  0
LINE
  5
C9
330
1F
100
AcDbEntity
  8
1
 62
     4
420
    65535
100
AcDbLine
 10
87.1468358852
 20
10.500201398
 30
0.0
 11
79.3530517437
 21
10.500201398
 31
0.0
  0
LINE
  5
CA
330
1F
100
AcDbEntity
  8
1
 62
     4
420
    65535
100
AcDbLine
 10
79.3530517437
 20
-10.4997983188
 30
0.0
 11
87.1468358852
 21
-10.4997983188
 31
0.0
  0
LINE
  5
CB
330
1F
100
AcDbEntity
  8
1
 62
     4
420
    65535
100
AcDbLine
 10
79.3530517437
 20
10.6502011432
 30
0.0
 11
75.7530504085
 21
10.6502011432
 31
0.0
  0
LINE
  5
CC
330
1F
100
AcDbEntity
  8
1
 62
     4
420
    65535
100
AcDbLine
 10
75.7530504085
 20
-10.649798064
 30
0.0
 11
79.3530517437
 21
-10.649798064
 31
0.0
  0
ARC
  5
CD
330
1F
100
AcDbEntity
  8
1
 62
     4
420
    65535
100
AcDbCircle
 10
92.2530550577
 20
8.9348446514
 30
0.0
 40
0.4999999999998579
100
AcDbArc
 50
277.9999991421
 51
0.0
  0
ARC
  5
CE
330
1F
100
AcDbEntity
  8
1
 62
     4
420
    65535
100
AcDbCircle
 10
92.2530550577
 20
-8.9344415721
 30
0.0
 40
0.4999999999998579
100
AcDbArc
 50
0.0
 51
82.0000008579
  0
LINE
  5
CF
330
1F
100
AcDbEntity
  8
1
 62
     4
420
    65535
100
AcDbLine
 10
75.7530504085
 20
13.3002012982
 30
0.0
 11
75.5359702922
 21
13.5172860711
 31
0.0
  0
LINE
  5
D0
330
1F
100
AcDbEntity
  8
1
 62
     4
420
    65535
100
AcDbLine
 10
75.5359702922
 20
-13.5168829919
 30
0.0
 11
75.7530504085
 21
-13.299798219
 31
0.0
  0
LINE
  5
D1
330
1F
100
AcDbEntity
  8
1
 62
     4
420
    65535
100
AcDbLine
 10
75.5359702922
 20
13.5172860711
 30
0.0
 11
23.825593342
 21
15.7750098869
 31
0.0
  0
LINE
  5
D2
330
1F
100
AcDbEntity
  8
1
 62
     4
420
    65535
100
AcDbLine
 10
23.825593342
 20
-15.7746068077
 30
0.0
 11
75.5359702922
 21
-13.5168829919
 31
0.0
  0
ARC
  5
D3
330
1F
100
AcDbEntity
  8
1
 62
     4
420
    65535
100
AcDbCircle
 10
24.0000708915
 20
19.7712027732
 30
0.0
 40
4.000000000000004
100
AcDbArc
 50
180.0
 51
267.5
  0
ARC
  5
D4
330
1F
100
AcDbEntity
  8
1
 62
     4
420
    65535
100
AcDbCircle
 10
24.0000708915
 20
-19.770799694
 30
0.0
 40
4.000000000000004
100
AcDbArc
 50
92.5
 51
180.0
  0
LINE
  5
D5
330
1F
100
AcDbEntity
  8
1
 62
     4
420
    65535
100
AcDbLine
 10
99.4530492641
 20
5.0002015396
 30
0.0
 11
72.2530507662
 21
5.0002015396
 31
0.0
  0
LINE
  5
D6
330
1F
100
AcDbEntity
  8
1
 62
     4
420
    65535
100
AcDbLine
 10
72.2530507662
 20
-4.9997984604
 30
0.0
 11
99.4530492641
 21
-4.9997984604
 31
0.0
  0
LINE
  5
D7
330
1F
100
AcDbEntity
  8
1
 62
     4
420
    65535
100
AcDbLine
 10
71.9530531384
 20
-5.4601441123
 30
0.0
 11
72.153056524
 21
-5.5903658257
 31
0.0
  0
LINE
  5
D8
330
1F
100
AcDbEntity
  8
1
 62
     4
420
    65535
100
AcDbLine
 10
72.153056524
 20
5.5907689049
 30
0.0
 11
71.9530531384
 21
5.4605471915
 31
0.0
  0
LINE
  5
D9
330
1F
100
AcDbEntity
  8
1
 62
     4
420
    65535
100
AcDbLine
 10
72.2530507662
 20
5.0002015396
 30
0.0
 11
71.9530531384
 21
5.1748808674
 31
0.0
  0
LINE
  5
DA
330
1F
100
AcDbEntity
  8
1
 62
     4
420
    65535
100
AcDbLine
 10
71.9530531384
 20
-5.1744777881
 30
0.0
 11
72.2530507662
 21
-4.9997984604
 31
0.0
  0
LINE
  5
DB
330
1F
100
AcDbEntity
  8
1
 62
     4
420
    65535
100
AcDbLine
 10
92.7530550577
 20
8.1904394566
 30
0.0
 11
92.4530499794
 21
8.4485750659
 31
0.0
  0
LINE
  5
DC
330
1F
100
AcDbEntity
  8
1
 62
     4
420
    65535
100
AcDbLine
 10
92.4530499794
 20
-8.4481719867
 30
0.0
 11
92.7530550577
 21
-8.1900363774
 31
0.0
  0
LINE
  5
DD
330
1F
100
AcDbEntity
  8
1
 62
     4
420
    65535
100
AcDbLine
 10
95.453056059
 20
6.8885976462
 30
0.0
 11
92.7530550577
 21
6.8885976462
 31
0.0
  0
LINE
  5
DE
330
1F
100
AcDbEntity
  8
1
 62
     4
420
    65535
100
AcDbLine
 10
92.7530550577
 20
-6.888194567
 30
0.0
 11
95.453056059
 21
-6.888194567
 31
0.0
  0
LINE
  5
DF
330
1F
100
AcDbEntity
  8
1
 62
     4
420
    65535
100
AcDbLine
 10
95.6955426551
 20
8.4757678225
 30
0.0
 11
95.6030511476
 21
8.4757678225
 31
0.0
  0
LINE
  5
E0
330
1F
100
AcDbEntity
  8
1
 62
     4
420
    65535
100
AcDbLine
 10
95.6030511476
 20
-8.4753647432
 30
0.0
 11
95.6955426551
 21
-8.4753647432
 31
0.0
  0
LINE
  5
E1
330
1F
100
AcDbEntity
  8
1
 62
     4
420
    65535
100
AcDbLine
 10
95.453056059
 20
-8.325194566
 30
0.0
 11
95.6030511476
 21
-8.4753647432
 31
0.0
  0
LINE
  5
E2
330
1F
100
AcDbEntity
  8
1
 62
     4
420
    65535
100
AcDbLine
 10
95.6030511476
 20
8.4757678225
 30
0.0
 11
95.453056059
 21
8.3255976452
 31
0.0
  0
LINE
  5
E3
330
1F
100
AcDbEntity
  8
1
 62
     4
420
    65535
100
AcDbLine
 10
99.3030541755
 20
6.3898948966
 30
0.0
 11
95.6955426551
 21
8.4757678225
 31
0.0
  0
LINE
  5
E4
330
1F
100
AcDbEntity
  8
1
 62
     4
420
    65535
100
AcDbLine
 10
95.6955426551
 20
-8.4753647432
 30
0.0
 11
99.3030541755
 21
-6.3894918174
 31
0.0
  0
LWPOLYLINE
  5
E5
330
1F
100
AcDbEntity
  8
1
 62
     4
420
    65535
100
AcDbPolyline
 90
        8
 70
   128
 43
0.0
 10
92.4530499794
 20
8.4485750659
 10
89.5261787708
 20
8.0367400041
 10
86.6451608643
 20
7.6313241722
 10
83.7921706755
 20
7.2297867705
 10
80.9498503417
 20
6.8296537015
 10
77.9818573252
 20
6.4117221736
 10
75.0427610961
 20
5.997785817
 10
72.153056524
 20
5.5907689049
  0
LWPOLYLINE
  5
E6
330
1F
100
AcDbEntity
  8
1
 62
     4
420
    65535
100
AcDbPolyline
 90
        8
 70
   128
 43
0.0
 10
72.153056524
 20
-5.5903658257
 10
74.9101844317
 20
-5.9787097494
 10
77.7131647148
 20
-6.3734794858
 10
80.5441721492
 20
-6.7721316753
 10
83.3858492328
 20
-7.1721896604
 10
86.372520349
 20
-7.5925523021
 10
89.3880888366
 20
-8.0169059677
 10
92.4530499794
 20
-8.4481719867
  0
SPLINE
  5
E7
330
1F
100
AcDbEntity
  8
1
 62
     4
420
    65535
100
AcDbSpline
210
0.0
220
0.0
230
1.0
 70
     8
 71
     3
 72
    11
 73
     7
 74
     0
 42
0.00000001
 43
0.00000001
 12
1.0
 22
0.0
 32
0.0
 13
1.0
 23
0.0
 33
0.0
 40
0.0
 40
0.0
 40
0.0
 40
0.0
 40
0.3370810668038932
 40
0.6624905263717155
 40
0.8672055114683941
 40
1.0
 40
1.0
 40
1.0
 40
1.0
 10
99.45304926406112
 20
6.129557175084232
 30
0.0
 10
99.44943682619511
 20
6.16495191933851
 30
0.0
 10
99.44233703300284
 20
6.234515846420334
 30
0.0
 10
99.39524075080409
 20
6.315371140695428
 30
0.0
 10
99.34460289793472
 20
6.363440397024025
 30
0.0
 10
99.31478582520602
 20
6.382425234403963
 30
0.0
 10
99.30305417548385
 20
6.389894896640767
 30
0.0
  0
SPLINE
  5
E8
330
1F
100
AcDbEntity
  8
1
 62
     4
420
    65535
100
AcDbSpline
210
0.0
220
0.0
230
1.0
 70
     8
 71
     3
 72
    11
 73
     7
 74
     0
 42
0.00000001
 43
0.00000001
 12
1.0
 22
0.0
 32
0.0
 13
1.0
 23
0.0
 33
0.0
 40
0.0
 40
0.0
 40
0.0
 40
0.0
 40
0.1844321545368961
 40
0.4691610726900917
 40
0.7360725617674551
 40
1.0
 40
1.0
 40
1.0
 40
1.0
 10
99.30305417548385
 20
-6.38949181742182
 30
0.0
 10
99.31928911023925
 20
-6.378960536577449
 30
0.0
 10
99.3605877624402
 20
-6.352170918302086
 30
0.0
 10
99.4110701250847
 20
-6.291980721260229
 30
0.0
 10
99.44572109577096
 20
-6.212434645864018
 30
0.0
 10
99.45061571280931
 20
-6.156810050078646
 30
0.0
 10
99.45304926406112
 20
-6.129154095865285
 30
0.0
  0
LINE
  5
E9
330
1F
100
AcDbEntity
  8
1
 62
     4
420
    65535
100
AcDbLine
 10
77.6000730073
 20
-10.661337542
 30
0.0
 11
77.6000730073
 21
10.6617406213
 31
0.0
  0
LINE
  5
EA
330
1F
100
AcDbEntity
  8
1
 62
     4
420
    65535
100
AcDbLine
 10
76.8000730073
 20
-11.4584982783
 30
0.0
 11
76.8000730073
 21
11.4589013575
 31
0.0
  0
LINE
  5
EB
330
1F
100
AcDbEntity
  8
1
 62
     4
420
    65535
100
AcDbLine
 10
89.6000736572
 20
-9.7997987946
 30
0.0
 11
89.6000736572
 21
9.8002018738
 31
0.0
  0
LINE
  5
EC
330
1F
100
AcDbEntity
  8
1
 62
     4
420
    65535
100
AcDbLine
 10
93.4000709799
 20
-9.458439794
 30
0.0
 11
93.4000709799
 21
9.4588428732
 31
0.0
  0
LINE
  5
ED
330
1F
100
AcDbEntity
  8
1
 62
     4
420
    65535
100
AcDbLine
 10
81.4000689184
 20
-10.661337542
 30
0.0
 11
81.4000689184
 21
10.6617406213
 31
0.0
  0
LINE
  5
EE
330
1F
100
AcDbEntity
  8
1
 62
     4
420
    65535
100
AcDbLine
 10
81.8980359651
 20
-9.7997987946
 30
0.0
 11
81.8980359651
 21
9.8002018738
 31
0.0
  0
LINE
  5
EF
330
1F
100
AcDbEntity
  8
1
 62
     4
420
    65535
100
AcDbLine
 10
93.8000709799
 20
-8.6959779469
 30
0.0
 11
93.8000709799
 21
8.6963810262
 31
0.0
  0
LINE
  5
F0
330
1F
100
AcDbEntity
  8
1
 62
     4
420
    65535
100
AcDbLine
 10
94.3000709799
 20
-8.1988451254
 30
0.0
 11
94.3000709799
 21
8.1992482046
 31
0.0
  0
LINE
  5
F1
330
1F
100
AcDbEntity
  8
1
 62
     4
420
    65535
100
AcDbLine
 10
94.5343879105
 20
-8.1988451254
 30
0.0
 11
94.5343879105
 21
8.1992482046
 31
0.0
  0
LINE
  5
F2
330
1F
100
AcDbEntity
  8
1
 62
     4
420
    65535
100
AcDbLine
 10
94.8172306229
 20
-8.3159887892
 30
0.0
 11
94.8172306229
 21
8.3163918684
 31
0.0
  0
LINE
  5
F3
330
1F
100
AcDbEntity
  8
1
 62
     4
420
    65535
100
AcDbLine
 10
95.0280896846
 20
-8.526860749
 30
0.0
 11
95.0280896846
 21
8.5272638282
 31
0.0
  0
LINE
  5
F4
330
1F
100
AcDbEntity
  8
1
 62
     4
420
    65535
100
AcDbLine
 10
95.5109323152
 20
-8.5904211323
 30
0.0
 11
95.5109323152
 21
8.5908242115
 31
0.0
  0
LINE
  5
F5
330
1F
100
AcDbEntity
  8
1
 62
     4
420
    65535
100
AcDbLine
 10
99.6408435726
 20
-6.2959608795
 30
0.0
 11
99.6408435726
 21
6.2963639587
 31
0.0
  0
LINE
  5
F6
330
1F
100
AcDbEntity
  8
1
 62
     4
420
    65535
100
AcDbLine
 10
89.9375700571
 20
-9.458439794
 30
0.0
 11
89.9375700571
 21
9.4588428732
 31
0.0
  0
LINE
  5
F7
330
1F
100
AcDbEntity
  8
1
 62
     4
420
    65535
100
AcDbLine
 10
100.0000708915
 20
-6.4988304515
 30
0.0
 11
100.0000708915
 21
6.4992335307
 31
0.0
  0
LINE
  5
F8
330
1F
100
AcDbEntity
  8
1
 62
     4
420
    65535
100
AcDbLine
 10
93.8000709799
 20
-9.0622986694
 30
0.0
 11
93.8000709799
 21
9.0627017486
 31
0.0
  0
LINE
  5
F9
330
1F
100
AcDbEntity
  8
1
 62
     4
420
    65535
100
AcDbLine
 10
99.3393011528
 20
-11.9194138674
 30
0.0
 11
99.3393011528
 21
11.9198169466
 31
0.0
  0
LINE
  5
FA
330
1F
100
AcDbEntity
  8
1
 62
     4
420
    65535
100
AcDbLine
 10
99.3408436955
 20
-6.3792328322
 30
0.0
 11
99.3408436955
 21
6.3796359114
 31
0.0
  0
LINE
  5
FB
330
1F
100
AcDbEntity
  8
1
 62
     4
420
    65535
100
AcDbLine
 10
99.0393012418
 20
-11.9997985737
 30
0.0
 11
99.0393012418
 21
12.0002016529
 31
0.0
  0
LINE
  5
FC
330
1F
100
AcDbEntity
  8
1
 62
     4
420
    65535
100
AcDbLine
 10
90.0000731283
 20
-11.9997985737
 30
0.0
 11
90.0000731283
 21
12.0002016529
 31
0.0
  0
LINE
  5
FD
330
1F
100
AcDbEntity
  8
1
 62
     4
420
    65535
100
AcDbLine
 10
89.6000741417
 20
-12.1060217336
 30
0.0
 11
89.6000741417
 21
12.1064248128
 31
0.0
  0
LINE
  5
FE
330
1F
100
AcDbEntity
  8
1
 62
     4
420
    65535
100
AcDbLine
 10
88.9273755944
 20
-12.4944032728
 30
0.0
 11
88.9273755944
 21
12.494806352
 31
0.0
  0
LINE
  5
FF
330
1F
100
AcDbEntity
  8
1
 62
     4
420
    65535
100
AcDbLine
 10
87.5014089612
 20
-12.6066207607
 30
0.0
 11
87.5014089612
 21
12.6070238399
 31
0.0
  0
LINE
  5
100
330
1F
100
AcDbEntity
  8
1
 62
     4
420
    65535
100
AcDbLine
 10
86.7087351113
 20
-12.6699699333
 30
0.0
 11
86.7087351113
 21
12.6703730126
 31
0.0
  0
LINE
  5
101
330
1F
100
AcDbEntity
  8
1
 62
     4
420
    65535
100
AcDbLine
 10
85.0091152591
 20
-12.803732993
 30
0.0
 11
85.0091152591
 21
12.8041360722
 31
0.0
  0
LINE
  5
102
330
1F
100
AcDbEntity
  8
1
 62
     4
420
    65535
100
AcDbLine
 10
84.2164417857
 20
-12.8651639356
 30
0.0
 11
84.2164417857
 21
12.8655670148
 31
0.0
  0
LINE
  5
103
330
1F
100
AcDbEntity
  8
1
 62
     4
420
    65535
100
AcDbLine
 10
82.5168215571
 20
-12.9989171083
 30
0.0
 11
82.5168215571
 21
12.9993201875
 31
0.0
  0
LINE
  5
104
330
1F
100
AcDbEntity
  8
1
 62
     4
420
    65535
100
AcDbLine
 10
81.724146856
 20
-13.0584517041
 30
0.0
 11
81.724146856
 21
13.0588547833
 31
0.0
  0
LINE
  5
105
330
1F
100
AcDbEntity
  8
1
 62
     4
420
    65535
100
AcDbLine
 10
80.02454281
 20
-13.1921744632
 30
0.0
 11
80.02454281
 21
13.1925775424
 31
0.0
  0
LINE
  5
106
330
1F
100
AcDbEntity
  8
1
 62
     4
420
    65535
100
AcDbLine
 10
79.2318307941
 20
-13.2574622529
 30
0.0
 11
79.2318307941
 21
13.2578653321
 31
0.0
  0
LINE
  5
107
330
1F
100
AcDbEntity
  8
1
 62
     4
420
    65535
100
AcDbLine
 10
76.9994579947
 20
-13.4341070504
 30
0.0
 11
76.9994579947
 21
13.4345101296
 31
0.0
  0
LINE
  5
108
330
1F
100
AcDbEntity
  8
1
 62
     4
420
    65535
100
AcDbLine
 10
76.8000730073
 20
-13.2628639756
 30
0.0
 11
76.8000730073
 21
13.2632670548
 31
0.0
  0
LINE
  5
109
330
1F
100
AcDbEntity
  8
1
 62
     4
420
    65535
100
AcDbLine
 10
99.800067506
 20
-6.2959608795
 30
0.0
 11
99.800067506
 21
6.2963639587
 31
0.0
  0
LINE
  5
10A
330
1F
100
AcDbEntity
  8
1
 62
     4
420
    65535
100
AcDbLine
 10
100.0000708915
 20
-11.5340931702
 30
0.0
 11
100.0000708915
 21
11.5344962494
 31
0.0
  0
LINE
  5
10B
330
1F
100
AcDbEntity
  8
1
 62
     4
420
    65535
100
AcDbLine
 10
20.0000708915
 20
-2.4969668083
 30
0.0
 11
20.0000708915
 21
2.4973698876
 31
0.0
  0
LINE
  5
10C
330
1F
100
AcDbEntity
  8
1
 62
     4
420
    65535
100
AcDbLine
 10
20.0000708915
 20
-5.0997986444
 30
0.0
 11
20.0000708915
 21
5.1002017236
 31
0.0
  0
LINE
  5
10D
330
1F
100
AcDbEntity
  8
1
 62
     4
420
    65535
100
AcDbLine
 10
-1.3013223677
 20
-14.7639562854
 30
0.0
 11
-1.3013223677
 21
14.7643593646
 31
0.0
  0
LINE
  5
10E
330
1F
100
AcDbEntity
  8
1
 62
     4
420
    65535
100
AcDbLine
 10
0.2000708915
 20
-15.458302321
 30
0.0
 11
0.2000708915
 21
15.4587054002
 31
0.0
  0
LINE
  5
10F
330
1F
100
AcDbEntity
  8
1
 62
     4
420
    65535
100
AcDbLine
 10
0.0000708915
 20
-16.8786247466
 30
0.0
 11
0.0000708915
 21
16.8790278258
 31
0.0
  0
LINE
  5
110
330
1F
100
AcDbEntity
  8
1
 62
     4
420
    65535
100
AcDbLine
 10
0.0000708915
 20
-19.9970645602
 30
0.0
 11
0.0000708915
 21
19.9974676395
 31
0.0
  0
LINE
  5
111
330
1F
100
AcDbEntity
  8
1
 62
     4
420
    65535
100
AcDbLine
 10
13.9793449493
 20
-19.9970645602
 30
0.0
 11
13.9793449493
 21
19.9974676395
 31
0.0
  0
LINE
  5
112
330
1F
100
AcDbEntity
  8
1
 62
     4
420
    65535
100
AcDbLine
 10
15.0000708915
 20
-18.2291331307
 30
0.0
 11
15.0000708915
 21
18.2295362099
 31
0.0
  0
LINE
  5
113
330
1F
100
AcDbEntity
  8
1
 62
     4
420
    65535
100
AcDbLine
 10
15.0000708915
 20
-17.9888333467
 30
0.0
 11
15.0000708915
 21
17.989236426
 31
0.0
  0
LINE
  5
114
330
1F
100
AcDbEntity
  8
1
 62
     4
420
    65535
100
AcDbLine
 10
15.6000708915
 20
-17.3970884702
 30
0.0
 11
15.6000708915
 21
17.3974915494
 31
0.0
  0
LINE
  5
115
330
1F
100
AcDbEntity
  8
1
 62
     4
420
    65535
100
AcDbLine
 10
16.4000708915
 20
-17.3970884702
 30
0.0
 11
16.4000708915
 21
17.3974915494
 31
0.0
  0
LINE
  5
116
330
1F
100
AcDbEntity
  8
1
 62
     4
420
    65535
100
AcDbLine
 10
17.0000708915
 20
-17.9888333467
 30
0.0
 11
17.0000708915
 21
17.989236426
 31
0.0
  0
LINE
  5
117
330
1F
100
AcDbEntity
  8
1
 62
     4
420
    65535
100
AcDbLine
 10
17.0000708915
 20
-18.2291331307
 30
0.0
 11
17.0000708915
 21
18.2295362099
 31
0.0
  0
LINE
  5
118
330
1F
100
AcDbEntity
  8
1
 62
     4
420
    65535
100
AcDbLine
 10
18.0207968337
 20
-19.9970645602
 30
0.0
 11
18.0207968337
 21
19.9974676395
 31
0.0
  0
LINE
  5
119
330
1F
100
AcDbEntity
  8
1
 62
     4
420
    65535
100
AcDbLine
 10
20.0000708915
 20
-19.9970645602
 30
0.0
 11
20.0000708915
 21
19.9974676395
 31
0.0
  0
LINE
  5
11A
330
1F
100
AcDbEntity
  8
1
 62
     4
420
    65535
100
AcDbLine
 10
-1.4566137947
 20
-14.7843857871
 30
0.0
 11
-1.4566137947
 21
14.7847888663
 31
0.0
  0
LINE
  5
11B
330
1F
100
AcDbEntity
  8
1
 62
     4
420
    65535
100
AcDbLine
 10
-19.9999291085
 20
-11.067126794
 30
0.0
 11
-19.9999291085
 21
11.0675298732
 31
0.0
  0
LINE
  5
11C
330
1F
100
AcDbEntity
  8
1
 62
     4
420
    65535
100
AcDbLine
 10
-19.9999291085
 20
-13.6263548315
 30
0.0
 11
-19.9999291085
 21
13.6267579107
 31
0.0
  0
LINE
  5
11D
330
1F
100
AcDbEntity
  8
1
 62
     4
420
    65535
100
AcDbLine
 10
-19.4298916787
 20
-14.2283003319
 30
0.0
 11
-19.4298916787
 21
14.2287034111
 31
0.0
  0
LINE
  5
11E
330
1F
100
AcDbEntity
  8
1
 62
     4
420
    65535
100
AcDbLine
 10
-2.4999291085
 20
-15.0720988696
 30
0.0
 11
-2.4999291085
 21
15.0725019489
 31
0.0
  0
LINE
  5
11F
330
1F
100
AcDbEntity
  8
1
 62
     4
420
    65535
100
AcDbLine
 10
-19.4298916787
 20
-10.4970777512
 30
0.0
 11
-19.4298916787
 21
10.4974808304
 31
0.0
  0
LINE
  5
120
330
1F
100
AcDbEntity
  8
1
 62
     4
420
    65535
100
AcDbLine
 10
-11.9972793777
 20
-10.4970777512
 30
0.0
 11
-11.9972793777
 21
10.4974808304
 31
0.0
  0
LINE
  5
121
330
1F
100
AcDbEntity
  8
1
 62
     4
420
    65535
100
AcDbLine
 10
-10.8137113258
 20
-12.547046038
 30
0.0
 11
-10.8137113258
 21
12.5474491172
 31
0.0
  0
LINE
  5
122
330
1F
100
AcDbEntity
  8
1
 62
     4
420
    65535
100
AcDbLine
 10
-10.4673011643
 20
-12.7497984604
 30
0.0
 11
-10.4673011643
 21
12.7502015396
 31
0.0
  0
LINE
  5
123
330
1F
100
AcDbEntity
  8
1
 62
     4
420
    65535
100
AcDbLine
 10
-4.1757523806
 20
-12.7497984604
 30
0.0
 11
-4.1757523806
 21
12.7502015396
 31
0.0
  0
LINE
  5
124
330
1F
100
AcDbEntity
  8
1
 62
     4
420
    65535
100
AcDbLine
 10
0.0000708915
 20
-10.4970777512
 30
0.0
 11
0.0000708915
 21
10.4974808304
 31
0.0
  0
LINE
  5
125
330
1F
100
AcDbEntity
  8
1
 62
     4
420
    65535
100
AcDbLine
 10
8.0000708915
 20
-10.4970777512
 30
0.0
 11
8.0000708915
 21
10.4974808304
 31
0.0
  0
LINE
  5
126
330
1F
100
AcDbEntity
  8
1
 62
     4
420
    65535
100
AcDbLine
 10
8.0000708915
 20
-2.4969668083
 30
0.0
 11
8.0000708915
 21
2.4973698876
 31
0.0
  0
LINE
  5
127
330
1F
100
AcDbEntity
  8
1
 62
     4
420
    65535
100
AcDbLine
 10
67.4932473518
 20
-5.0997986444
 30
0.0
 11
67.4932473518
 21
5.1002017236
 31
0.0
  0
LINE
  5
128
330
1F
100
AcDbEntity
  8
1
 62
     4
420
    65535
100
AcDbLine
 10
-0.3940899497
 20
-14.7639562854
 30
0.0
 11
-0.3940899497
 21
14.7643593646
 31
0.0
  0
LINE
  5
129
330
1F
100
AcDbEntity
  8
1
 62
     4
420
    65535
100
AcDbLine
 10
92.3226416008
 20
-8.4284754873
 30
0.0
 11
92.3226416008
 21
8.4288785666
 31
0.0
  0
LINE
  5
12A
330
1F
100
AcDbEntity
  8
1
 62
     4
420
    65535
100
AcDbLine
 10
20.0000708915
 20
-19.7680970969
 30
0.0
 11
20.0000708915
 21
19.7685001761
 31
0.0
  0
LINE
  5
12B
330
1F
100
AcDbEntity
  8
1
 62
     4
420
    65535
100
AcDbLine
 10
92.7530550577
 20
-8.9316645242
 30
0.0
 11
92.7530550577
 21
8.9320676035
 31
0.0
  0
LINE
  5
12C
330
1F
100
AcDbEntity
  8
1
 62
     4
420
    65535
100
AcDbLine
 10
92.7530550577
 20
-9.2470977098
 30
0.0
 11
92.7530550577
 21
9.247500789
 31
0.0
  0
LINE
  5
12D
330
1F
100
AcDbEntity
  8
1
 62
     4
420
    65535
100
AcDbLine
 10
92.5530516721
 20
-9.4470389729
 30
0.0
 11
92.5530516721
 21
9.4474420521
 31
0.0
  0
LINE
  5
12E
330
1F
100
AcDbEntity
  8
1
 62
     4
420
    65535
100
AcDbLine
 10
87.7530523755
 20
-9.4470389729
 30
0.0
 11
87.7530523755
 21
9.4474420521
 31
0.0
  0
LINE
  5
12F
330
1F
100
AcDbEntity
  8
1
 62
     4
420
    65535
100
AcDbLine
 10
87.1468358852
 20
-10.4970776097
 30
0.0
 11
87.1468358852
 21
10.4974806889
 31
0.0
  0
LINE
  5
130
330
1F
100
AcDbEntity
  8
1
 62
     4
420
    65535
100
AcDbLine
 10
79.3530517437
 20
-10.4970776097
 30
0.0
 11
79.3530517437
 21
10.4974806889
 31
0.0
  0
LINE
  5
131
330
1F
100
AcDbEntity
  8
1
 62
     4
420
    65535
100
AcDbLine
 10
79.3530517437
 20
-10.6470384877
 30
0.0
 11
79.3530517437
 21
10.6474415669
 31
0.0
  0
LINE
  5
132
330
1F
100
AcDbEntity
  8
1
 62
     4
420
    65535
100
AcDbLine
 10
75.7530504085
 20
-10.6470384877
 30
0.0
 11
75.7530504085
 21
10.6474415669
 31
0.0
  0
LINE
  5
133
330
1F
100
AcDbEntity
  8
1
 62
     4
420
    65535
100
AcDbLine
 10
75.7530504085
 20
-13.2890118949
 30
0.0
 11
75.7530504085
 21
13.2894149741
 31
0.0
  0
LINE
  5
134
330
1F
100
AcDbEntity
  8
1
 62
     4
420
    65535
100
AcDbLine
 10
75.5359702922
 20
-13.5059206116
 30
0.0
 11
75.5359702922
 21
13.5063236908
 31
0.0
  0
LINE
  5
135
330
1F
100
AcDbEntity
  8
1
 62
     4
420
    65535
100
AcDbLine
 10
23.825593342
 20
-15.7719132664
 30
0.0
 11
23.825593342
 21
15.7723163456
 31
0.0
  0
LINE
  5
136
330
1F
100
AcDbEntity
  8
1
 62
     4
420
    65535
100
AcDbLine
 10
67.7530565478
 20
-5.5388466886
 30
0.0
 11
67.7530565478
 21
5.5392497678
 31
0.0
  0
LINE
  5
137
330
1F
100
AcDbEntity
  8
1
 62
     4
420
    65535
100
AcDbLine
 10
71.7627131558
 20
-5.5388466886
 30
0.0
 11
71.7627131558
 21
5.5392497678
 31
0.0
  0
LINE
  5
138
330
1F
100
AcDbEntity
  8
1
 62
     4
420
    65535
100
AcDbLine
 10
99.4530492641
 20
-6.1260049322
 30
0.0
 11
99.4530492641
 21
6.1264080115
 31
0.0
  0
LINE
  5
139
330
1F
100
AcDbEntity
  8
1
 62
     4
420
    65535
100
AcDbLine
 10
99.4530492641
 20
-4.9990197276
 30
0.0
 11
99.4530492641
 21
4.9994228068
 31
0.0
  0
LINE
  5
13A
330
1F
100
AcDbEntity
  8
1
 62
     4
420
    65535
100
AcDbLine
 10
71.9530531384
 20
-5.1713255133
 30
0.0
 11
71.9530531384
 21
5.1717285925
 31
0.0
  0
LINE
  5
13B
330
1F
100
AcDbEntity
  8
1
 62
     4
420
    65535
100
AcDbLine
 10
71.9530531384
 20
-5.4593652626
 30
0.0
 11
71.9530531384
 21
5.4597683418
 31
0.0
  0
LINE
  5
13C
330
1F
100
AcDbEntity
  8
1
 62
     4
420
    65535
100
AcDbLine
 10
72.2530507662
 20
-4.9990197276
 30
0.0
 11
72.2530507662
 21
4.9994228068
 31
0.0
  0
LINE
  5
13D
330
1F
100
AcDbEntity
  8
1
 62
     4
420
    65535
100
AcDbLine
 10
92.7530550577
 20
-8.1892450751
 30
0.0
 11
92.7530550577
 21
8.1896481544
 31
0.0
  0
LINE
  5
13E
330
1F
100
AcDbEntity
  8
1
 62
     4
420
    65535
100
AcDbLine
 10
92.7530550577
 20
-6.888194567
 30
0.0
 11
92.7530550577
 21
6.8885976462
 31
0.0
  0
LINE
  5
13F
330
1F
100
AcDbEntity
  8
1
 62
     4
420
    65535
100
AcDbLine
 10
95.453056059
 20
-6.888194567
 30
0.0
 11
95.453056059
 21
6.8885976462
 31
0.0
  0
LINE
  5
140
330
1F
100
AcDbEntity
  8
1
 62
     4
420
    65535
100
AcDbLine
 10
95.453056059
 20
-8.3220334716
 30
0.0
 11
95.453056059
 21
8.3224365508
 31
0.0
  0
LINE
  5
141
330
1F
100
AcDbEntity
  8
1
 62
     4
420
    65535
100
AcDbLine
 10
95.6030511476
 20
-8.4745741082
 30
0.0
 11
95.6030511476
 21
8.4749771874
 31
0.0
  0
LINE
  5
142
330
1F
100
AcDbEntity
  8
1
 62
     4
420
    65535
100
AcDbLine
 10
95.6955426551
 20
-8.4745741082
 30
0.0
 11
95.6955426551
 21
8.4749771874
 31
0.0
  0
LINE
  5
143
330
1F
100
AcDbEntity
  8
1
 62
     4
420
    65535
100
AcDbLine
 10
99.3030541755
 20
-6.3894918174
 30
0.0
 11
99.3030541755
 21
6.3898948966
 31
0.0
  0
LINE
  5
144
330
1F
100
AcDbEntity
  8
1
 62
     4
420
    65535
100
AcDbLine
 10
72.153056524
 20
-5.5872438501
 30
0.0
 11
72.153056524
 21
5.5876469293
 31
0.0
  0
LINE
  5
145
330
1F
100
AcDbEntity
  8
1
 62
     4
420
    65535
100
AcDbLine
 10
92.4530499794
 20
-8.4473838883
 30
0.0
 11
92.4530499794
 21
8.4477869675
 31
0.0
  0
DIMENSION
  5
146
330
1F
100
AcDbEntity
  8
2
 62
     7
420
 16777215
100
AcDbDimension
  2
_D
 10
100.0000708915
 20
32.0002015396
 30
0.0
 11
40.0000708915
 21
32.0002015396
 31
0.0
 70
   160
  1
<>
 71
     2
 42
-1.0
 73
     0
 74
     0
 75
     0
  3
SLDDIMSTYLE0
100
AcDbAlignedDimension
 13
-19.9999291085
 23
0.0002015396
 33
0.0
 14
100.0000708915
 24
0.0002015396
 34
0.0
 50
0.0
100
AcDbRotatedDimension
  0
DIMENSION
  5
152
330
1F
100
AcDbEntity
  8
2
 62
     7
420
 16777215
100
AcDbDimension
  2
_D_1
 10
0.0000708915
 20
26.0002015396
 30
0.0
 11
50.0000708915
 21
26.0002015396
 31
0.0
 70
   160
  1
<>
 71
     2
 42
-1.0
 73
     0
 74
     0
 75
     0
  3
SLDDIMSTYLE0
100
AcDbAlignedDimension
 13
100.0000708915
 23
0.0002015396
 33
0.0
 14
0.0000708915
 24
0.0002015396
 34
0.0
 50
0.0
100
AcDbRotatedDimension
  0
DIMENSION
  5
15C
330
1F
100
AcDbEntity
  8
2
 62
     7
420
 16777215
100
AcDbDimension
  2
_D_2
 10
106.0000708915
 20
5.0002015396
 30
0.0
 11
106.0000708915
 21
-16.5181842991
 31
0.0
 70
   160
  1
%%c<>
 71
     2
 42
-1.0
 73
     0
 74
     0
 75
     0
  3
SLDDIMSTYLE0
100
AcDbAlignedDimension
 13
99.4530492641
 23
-4.9997984604
 33
0.0
 14
99.4530492641
 24
5.0002015396
 34
0.0
 50
90.0
100
AcDbRotatedDimension
  0
DIMENSION
  5
168
330
1F
100
AcDbEntity
  8
2
 62
     7
420
 16777215
100
AcDbDimension
  2
_D_3
 10
118.0000708915
 20
-11.9997985737
 30
0.0
 11
118.0000708915
 21
0.0002015396
 31
0.0
 70
   160
  1
%%c<>
 71
     2
 42
-1.0
 73
     0
 74
     0
 75
     0
  3
SLDDIMSTYLE0
100
AcDbAlignedDimension
 13
99.0393012418
 23
12.0002016529
 33
0.0
 14
99.0393012418
 24
-11.9997985737
 34
0.0
 50
90.0
100
AcDbRotatedDimension
  0
ENDSEC
  0
SECTION
  2
OBJECTS
  0
DICTIONARY
  5
C
330
0
100
AcDbDictionary
281
     1
  3
ACAD_GROUP
350
D
  3
ACAD_LAYOUT
350
1A
  3
ACAD_MATERIAL
350
3B
  3
ACAD_MLEADERSTYLE
350
174
  3
ACAD_MLINESTYLE
350
17
  3
ACAD_PLOTSETTINGS
350
19
  3
ACAD_PLOTSTYLENAME
350
E
  3
ACAD_TABLESTYLE
350
173
  3
ACAD_VISUALSTYLE
350
2A
  0
DICTIONARY
  5
D
102
{ACAD_REACTORS
330
C
102
}
330
C
100
AcDbDictionary
281
     1
  0
DICTIONARY
  5
1A
102
{ACAD_REACTORS
330
C
102
}
330
C
100
AcDbDictionary
281
     1
  3
Layout1
350
1E
  3
Layout2
350
26
  3
Model
350
22
  0
DICTIONARY
  5
3B
102
{ACAD_REACTORS
330
C
102
}
330
C
100
AcDbDictionary
281
     1
  3
ByBlock
350
3D
  3
ByLayer
350
3C
  3
Global
350
3E
  0
DICTIONARY
  5
174
102
{ACAD_REACTORS
330
C
102
}
330
C
100
AcDbDictionary
281
     1
  0
DICTIONARY
  5
17
102
{ACAD_REACTORS
330
C
102
}
330
C
100
AcDbDictionary
281
     1
  3
Standard
350
18
  0
DICTIONARY
  5
19
102
{ACAD_REACTORS
330
C
102
}
330
C
100
AcDbDictionary
281
     1
  0
ACDBDICTIONARYWDFLT
  5
E
102
{ACAD_REACTORS
330
C
102
}
330
C
100
AcDbDictionary
281
     1
  3
Normal
350
F
100
AcDbDictionaryWithDefault
340
F
  0
DICTIONARY
  5
173
102
{ACAD_REACTORS
330
C
102
}
330
C
100
AcDbDictionary
281
     1
  0
DICTIONARY
  5
2A
102
{ACAD_REACTORS
330
C
102
}
330
C
100
AcDbDictionary
281
     1
  3
2dWireframe
350
2F
  3
3D Hidden
350
31
  3
3dWireframe
350
30
  3
Basic
350
32
  3
Brighten
350
36
  3
ColorChange
350
3A
  3
Conceptual
350
34
  3
Dim
350
35
  3
Facepattern
350
39
  3
Flat
350
2B
  3
FlatWithEdges
350
2C
  3
Gouraud
350
2D
  3
GouraudWithEdges
350
2E
  3
Linepattern
350
38
  3
Realistic
350
33
  3
Thicken
350
37
  0
LAYOUT
  5
1E
102
{ACAD_REACTORS
330
1A
102
}
330
1A
100
AcDbPlotSettings
  1

  2
none_device
  4

  6

 40
0.0
 41
0.0
 42
0.0
 43
0.0
 44
0.0
 45
0.0
 46
0.0
 47
0.0
 48
0.0
 49
0.0
140
0.0
141
0.0
142
1.0
143
1.0
 70
   688
 72
     0
 73
     0
 74
     5
  7

 75
    16
 76
     0
 77
     2
 78
   300
147
1.0
148
0.0
149
0.0
100
AcDbLayout
  1
Layout1
 70
     1
 71
     1
 10
0.0
 20
0.0
 11
420.0
 21
297.0
 12
0.0
 22
0.0
 32
0.0
 14
1.0000000000E+20
 24
1.0000000000E+20
 34
1.0000000000E+20
 15
-1.0000000000E+20
 25
-1.0000000000E+20
 35
-1.0000000000E+20
146
0.0
 13
0.0
 23
0.0
 33
0.0
 16
1.0
 26
0.0
 36
0.0
 17
0.0
 27
1.0
 37
0.0
 76
     0
330
1B
  0
LAYOUT
  5
26
102
{ACAD_REACTORS
330
1A
102
}
330
1A
100
AcDbPlotSettings
  1

  2
none_device
  4

  6

 40
0.0
 41
0.0
 42
0.0
 43
0.0
 44
0.0
 45
0.0
 46
0.0
 47
0.0
 48
0.0
 49
0.0
140
0.0
141
0.0
142
1.0
143
1.0
 70
   688
 72
     0
 73
     0
 74
     5
  7

 75
    16
 76
     0
 77
     2
 78
   300
147
1.0
148
0.0
149
0.0
100
AcDbLayout
  1
Layout2
 70
     1
 71
     2
 10
0.0
 20
0.0
 11
0.0
 21
0.0
 12
0.0
 22
0.0
 32
0.0
 14
0.0
 24
0.0
 34
0.0
 15
0.0
 25
0.0
 35
0.0
146
0.0
 13
0.0
 23
0.0
 33
0.0
 16
1.0
 26
0.0
 36
0.0
 17
0.0
 27
1.0
 37
0.0
 76
     0
330
23
  0
LAYOUT
  5
22
102
{ACAD_REACTORS
330
1A
102
}
330
1A
100
AcDbPlotSettings
  1

  2
none_device
  4

  6

 40
0.0
 41
0.0
 42
0.0
 43
0.0
 44
0.0
 45
0.0
 46
0.0
 47
0.0
 48
0.0
 49
0.0
140
0.0
141
0.0
142
1.0
143
1.0
 70
  1712
 72
     0
 73
     0
 74
     0
  7

 75
     0
 76
     0
 77
     2
 78
   300
147
1.0
148
0.0
149
0.0
100
AcDbLayout
  1
Model
 70
     1
 71
     0
 10
0.0
 20
0.0
 11
297.0
 21
210.0
 12
0.0
 22
0.0
 32
0.0
 14
0.0
 24
0.0
 34
0.0
 15
297.0
 25
210.0
 35
0.0
146
0.0
 13
0.0
 23
0.0
 33
0.0
 16
1.0
 26
0.0
 36
0.0
 17
0.0
 27
1.0
 37
0.0
 76
     0
330
1F
331
29
  0
MATERIAL
  5
3D
102
{ACAD_REACTORS
330
3B
102
}
330
3B
100
AcDbMaterial
  1
ByBlock
 72
     1
 94
      127
  0
MATERIAL
  5
3C
102
{ACAD_REACTORS
330
3B
102
}
330
3B
100
AcDbMaterial
  1
ByLayer
 72
     1
 94
      127
  0
MATERIAL
  5
3E
102
{ACAD_REACTORS
330
3B
102
}
330
3B
100
AcDbMaterial
  1
Global
 72
     1
 94
      127
  0
MLINESTYLE
  5
18
102
{ACAD_REACTORS
330
17
102
}
330
17
100
AcDbMlineStyle
  2
Standard
 70
     0
  3

 62
   256
 51
90.0
 52
90.0
 71
     2
 49
0.5
 62
   256
  6
BYLAYER
 49
-0.5
 62
   256
  6
BYLAYER
  0
ACDBPLACEHOLDER
  5
F
102
{ACAD_REACTORS
330
E
102
}
330
E
  0
VISUALSTYLE
  5
2F
102
{ACAD_REACTORS
330
2A
102
}
330
2A
100
AcDbVisualStyle
  2
2dWireframe
 70
     4
 71
     0
 72
     2
 73
     0
 90
        0
 40
-0.6
 41
-30.0
 62
     5
 63
     7
421
 16777215
 74
     1
 91
        4
 64
     7
 65
   257
 75
     1
175
     1
 42
1.0
 92
        0
 66
   257
 43
1.0
 76
     1
 77
     6
 78
     2
 67
     7
 79
     5
170
     0
171
     0
290
     0
174
     0
 93
        1
 44
0.0
173
     0
291
     0
 45
0.0
  0
VISUALSTYLE
  5
31
102
{ACAD_REACTORS
330
2A
102
}
330
2A
100
AcDbVisualStyle
  2
3D Hidden
 70
     6
 71
     1
 72
     2
 73
     2
 90
        0
 40
-0.6
 41
-30.0
 62
     5
 63
     7
421
 16777215
 74
     2
 91
        2
 64
     7
 65
   257
 75
     2
175
     1
 42
40.0
 92
        0
 66
   257
 43
1.0
 76
     1
 77
     6
 78
     2
 67
     7
 79
     3
170
     0
171
     0
290
     0
174
     0
 93
        1
 44
0.0
173
     0
291
     0
 45
0.0
  0
VISUALSTYLE
  5
30
102
{ACAD_REACTORS
330
2A
102
}
330
2A
100
AcDbVisualStyle
  2
3dWireframe
 70
     5
 71
     0
 72
     2
 73
     0
 90
        0
 40
-0.6
 41
-30.0
 62
     5
 63
     7
421
 16777215
 74
     1
 91
        4
 64
     7
 65
   257
 75
     1
175
     1
 42
1.0
 92
        0
 66
   257
 43
1.0
 76
     1
 77
     6
 78
     2
 67
     7
 79
     5
170
     0
171
     0
290
     0
174
     0
 93
        1
 44
0.0
173
     0
291
     0
 45
0.0
  0
VISUALSTYLE
  5
32
102
{ACAD_REACTORS
330
2A
102
}
330
2A
100
AcDbVisualStyle
  2
Basic
 70
     7
 71
     1
 72
     0
 73
     1
 90
        0
 40
-0.6
 41
-30.0
 62
     5
 63
     7
421
 16777215
 74
     0
 91
        4
 64
     7
 65
   257
 75
     1
175
     1
 42
1.0
 92
        8
 66
     7
 43
1.0
 76
     1
 77
     6
 78
     2
 67
     7
 79
     5
170
     0
171
     0
290
     0
174
     0
 93
        1
 44
0.0
173
     0
291
     1
 45
0.0
  0
VISUALSTYLE
  5
36
102
{ACAD_REACTORS
330
2A
102
}
330
2A
100
AcDbVisualStyle
  2
Brighten
 70
    12
 71
     2
 72
     2
 73
     0
 90
        0
 40
-0.6
 41
-30.0
 62
     5
 63
     7
421
 16777215
 74
     1
 91
        4
 64
     7
 65
   257
 75
     1
175
     1
 42
1.0
 92
        8
 66
     7
 43
1.0
 76
     1
 77
     6
 78
     2
 67
     7
 79
     5
170
     0
171
     0
290
     0
174
     0
 93
        1
 44
50.0
173
     0
291
     1
 45
0.0
  0
VISUALSTYLE
  5
3A
102
{ACAD_REACTORS
330
2A
102
}
330
2A
100
AcDbVisualStyle
  2
ColorChange
 70
    16
 71
     2
 72
     2
 73
     3
 90
        0
 40
-0.6
 41
-30.0
 62
     5
 63
     8
421
  8421504
 74
     1
 91
        4
 64
     7
 65
   257
 75
     1
175
     1
 42
1.0
 92
        8
 66
     8
424
  8421504
 43
1.0
 76
     1
 77
     6
 78
     2
 67
     7
 79
     5
170
     0
171
     0
290
     0
174
     0
 93
        1
 44
0.0
173
     0
291
     1
 45
0.0
  0
VISUALSTYLE
  5
34
102
{ACAD_REACTORS
330
2A
102
}
330
2A
100
AcDbVisualStyle
  2
Conceptual
 70
     9
 71
     3
 72
     2
 73
     0
 90
        0
 40
-0.6
 41
-30.0
 62
     5
 63
     7
421
 16777215
 74
     2
 91
        2
 64
     7
 65
   257
 75
     1
175
     1
 42
40.0
 92
        8
 66
     7
 43
1.0
 76
     1
 77
     6
 78
     2
 67
     7
 79
     3
170
     0
171
     0
290
     0
174
     0
 93
        1
 44
0.0
173
     0
291
     0
 45
0.0
  0
VISUALSTYLE
  5
35
102
{ACAD_REACTORS
330
2A
102
}
330
2A
100
AcDbVisualStyle
  2
Dim
 70
    11
 71
     2
 72
     2
 73
     0
 90
        0
 40
-0.6
 41
-30.0
 62
     5
 63
     7
421
 16777215
 74
     1
 91
        4
 64
     7
 65
   257
 75
     1
175
     1
 42
1.0
 92
        8
 66
     7
 43
1.0
 76
     1
 77
     6
 78
     2
 67
     7
 79
     5
170
     0
171
     0
290
     0
174
     0
 93
        1
 44
-50.0
173
     0
291
     1
 45
0.0
  0
VISUALSTYLE
  5
39
102
{ACAD_REACTORS
330
2A
102
}
330
2A
100
AcDbVisualStyle
  2
Facepattern
 70
    15
 71
     2
 72
     2
 73
     0
 90
        0
 40
-0.6
 41
-30.0
 62
     5
 63
     7
421
 16777215
 74
     1
 91
        4
 64
     7
 65
   257
 75
     1
175
     1
 42
1.0
 92
        8
 66
     7
 43
1.0
 76
     1
 77
     6
 78
     2
 67
     7
 79
     5
170
     0
171
     0
290
     0
174
     0
 93
        1
 44
0.0
173
     0
291
     1
 45
0.0
  0
VISUALSTYLE
  5
2B
102
{ACAD_REACTORS
330
2A
102
}
330
2A
100
AcDbVisualStyle
  2
Flat
 70
     0
 71
     2
 72
     1
 73
     1
 90
        2
 40
-0.6
 41
30.0
 62
     5
 63
     7
421
 16777215
 74
     0
 91
        4
 64
     7
 65
   257
 75
     1
175
     1
 42
1.0
 92
        8
 66
     7
 43
1.0
 76
     1
 77
     6
 78
     2
 67
     7
 79
     5
170
     0
171
     0
290
     0
174
     0
 93
       13
 44
0.0
173
     0
291
     1
 45
0.0
  0
VISUALSTYLE
  5
2C
102
{ACAD_REACTORS
330
2A
102
}
330
2A
100
AcDbVisualStyle
  2
FlatWithEdges
 70
     1
 71
     2
 72
     1
 73
     1
 90
        2
 40
-0.6
 41
30.0
 62
     5
 63
     7
421
 16777215
 74
     1
 91
        4
 64
     7
 65
   257
 75
     1
175
     1
 42
1.0
 92
        0
 66
   257
 43
1.0
 76
     1
 77
     6
 78
     2
 67
     7
 79
     5
170
     0
171
     0
290
     0
174
     0
 93
       13
 44
0.0
173
     0
291
     1
 45
0.0
  0
VISUALSTYLE
  5
2D
102
{ACAD_REACTORS
330
2A
102
}
330
2A
100
AcDbVisualStyle
  2
Gouraud
 70
     2
 71
     2
 72
     2
 73
     1
 90
        2
 40
-0.6
 41
30.0
 62
     5
 63
     7
421
 16777215
 74
     0
 91
        4
 64
     7
 65
   257
 75
     1
175
     1
 42
1.0
 92
        0
 66
     7
 43
1.0
 76
     1
 77
     6
 78
     2
 67
     7
 79
     5
170
     0
171
     0
290
     0
174
     0
 93
       13
 44
0.0
173
     0
291
     1
 45
0.0
  0
VISUALSTYLE
  5
2E
102
{ACAD_REACTORS
330
2A
102
}
330
2A
100
AcDbVisualStyle
  2
GouraudWithEdges
 70
     3
 71
     2
 72
     2
 73
     1
 90
        2
 40
-0.6
 41
30.0
 62
     5
 63
     7
421
 16777215
 74
     1
 91
        4
 64
     7
 65
   257
 75
     1
175
     1
 42
1.0
 92
        0
 66
   257
 43
1.0
 76
     1
 77
     6
 78
     2
 67
     7
 79
     5
170
     0
171
     0
290
     0
174
     0
 93
       13
 44
0.0
173
     0
291
     1
 45
0.0
  0
VISUALSTYLE
  5
38
102
{ACAD_REACTORS
330
2A
102
}
330
2A
100
AcDbVisualStyle
  2
Linepattern
 70
    14
 71
     2
 72
     2
 73
     0
 90
        0
 40
-0.6
 41
-30.0
 62
     5
 63
     7
421
 16777215
 74
     1
 91
        4
 64
     7
 65
   257
 75
     7
175
     7
 42
1.0
 92
        8
 66
     7
 43
1.0
 76
     1
 77
     6
 78
     2
 67
     7
 79
     5
170
     0
171
     0
290
     0
174
     0
 93
        1
 44
0.0
173
     0
291
     1
 45
0.0
  0
VISUALSTYLE
  5
33
102
{ACAD_REACTORS
330
2A
102
}
330
2A
100
AcDbVisualStyle
  2
Realistic
 70
     8
 71
     2
 72
     2
 73
     0
 90
        0
 40
-0.6
 41
-30.0
 62
     5
 63
     7
421
 16777215
 74
     1
 91
        0
 64
     7
 65
   257
 75
     1
175
     1
 42
1.0
 92
        8
 66
     8
424
  7895160
 43
1.0
 76
     1
 77
     6
 78
     2
 67
     7
 79
     5
170
     0
171
     0
290
     0
174
     0
 93
       13
 44
0.0
173
     0
291
     0
 45
0.0
  0
VISUALSTYLE
  5
37
102
{ACAD_REACTORS
330
2A
102
}
330
2A
100
AcDbVisualStyle
  2
Thicken
 70
    13
 71
     2
 72
     2
 73
     0
 90
        0
 40
-0.6
 41
-30.0
 62
     5
 63
     7
421
 16777215
 74
     1
 91
        4
 64
     7
 65
   257
 75
     1
175
     1
 42
1.0
 92
       12
 66
     7
 43
1.0
 76
     1
 77
     6
 78
     2
 67
     7
 79
     5
170
     0
171
     0
290
     0
174
     0
 93
        1
 44
0.0
173
     0
291
     1
 45
0.0
  0
ENDSEC
  0
EOF
